osu file format v14

[General]
AudioFilename: audio.mp3
AudioLeadIn: 0
PreviewTime: 32526
Countdown: 0
SampleSet: Normal
StackLeniency: 0.7
Mode: 1
LetterboxInBreaks: 0
WidescreenStoryboard: 0

[Editor]
DistanceSpacing: 1.1
BeatDivisor: 4
GridSize: 4
TimelineZoom: 1

[Metadata]
Title:Deep in Abyss
TitleUnicode:Deep in Abyss
Artist:R3 Music Box
ArtistUnicode:R3 Music Box
Creator:Faputa
Version:Futsuu
Source:メイドインアビス
Tags:Anime Made in Abyss Riko Reg Regu Miyu Tomita Mariya Ise OP opening
BeatmapID:1396429
BeatmapSetID:659371

[Difficulty]
HPDrainRate:8
CircleSize:5
OverallDifficulty:3
ApproachRate:5
SliderMultiplier:1.4
SliderTickRate:1

[Events]
//Background and Video events
0,0,"BG.jpg",0,0
//Break Periods
//Storyboard Layer 0 (Background)
//Storyboard Layer 1 (Fail)
//Storyboard Layer 2 (Pass)
//Storyboard Layer 3 (Foreground)
//Storyboard Sound Samples

[TimingPoints]
26,625,4,1,0,50,1,0
26,-100,4,1,0,50,0,0
48778,652.173913043478,4,1,0,50,1,8
48778,-95.2380952380952,4,1,0,50,0,0
50084,722.89156626506,4,1,0,50,1,0
50084,-86.2068965517241,4,1,0,50,0,0
51586,810.810810810811,4,1,0,30,1,8
51586,-76.9230769230769,4,1,0,30,0,0
52396,810.810810810811,4,1,0,30,1,8
52470,1016.94915254237,4,1,0,30,1,0
52470,-61.3496932515337,4,1,0,30,0,0
52978,800,4,1,0,40,1,8
52978,-81.3008130081301,4,1,0,40,0,0

[HitObjects]
264,196,2526,5,0,0:0:0:0:
264,196,2994,1,2,0:0:0:0:
264,196,3463,1,0,0:0:0:0:
264,196,5026,1,0,0:0:0:0:
264,196,5494,1,2,0:0:0:0:
264,196,5963,1,2,0:0:0:0:
264,196,6901,1,0,0:0:0:0:
264,196,7526,1,2,0:0:0:0:
264,196,7838,1,0,0:0:0:0:
252,36,8463,1,2,0:0:0:0:
264,196,8776,1,0,0:0:0:0:
264,196,9401,1,0,0:0:0:0:
264,196,10026,1,2,0:0:0:0:
264,196,10963,1,2,0:0:0:0:
264,196,12526,1,2,0:0:0:0:
264,196,12994,1,0,0:0:0:0:
264,196,13463,1,2,0:0:0:0:
264,196,15026,1,2,0:0:0:0:
264,196,15494,1,2,0:0:0:0:
264,196,15963,1,0,0:0:0:0:
264,196,16901,1,0,0:0:0:0:
264,196,17526,1,2,0:0:0:0:
264,196,17838,1,0,0:0:0:0:
228,44,18463,1,2,0:0:0:0:
264,196,18776,1,0,0:0:0:0:
264,196,19401,1,0,0:0:0:0:
264,196,20026,1,2,0:0:0:0:
264,196,20651,1,2,0:0:0:0:
264,196,21276,1,0,0:0:0:0:
264,196,22838,1,0,0:0:0:0:
264,196,23151,1,0,0:0:0:0:
104,116,23776,1,0,0:0:0:0:
264,196,24401,1,0,0:0:0:0:
264,196,25338,1,2,0:0:0:0:
264,196,25651,1,2,0:0:0:0:
264,196,26276,1,2,0:0:0:0:
264,196,26901,1,2,0:0:0:0:
124,228,27526,1,0,0:0:0:0:
420,172,28463,1,0,0:0:0:0:
280,172,29401,1,2,0:0:0:0:
132,276,30026,1,2,0:0:0:0:
372,100,31276,1,2,0:0:0:0:
252,188,31901,1,0,0:0:0:0:
128,276,32526,1,2,0:0:0:0:
408,152,33463,1,2,0:0:0:0:
180,256,34088,1,0,0:0:0:0:
256,196,34401,1,0,0:0:0:0:
120,228,34713,1,2,0:0:0:0:
256,196,35338,1,0,0:0:0:0:
404,152,35963,1,2,0:0:0:0:
264,192,36588,1,0,0:0:0:0:
264,192,36901,1,0,0:0:0:0:
264,192,37526,1,0,0:0:0:0:
444,340,38463,1,0,0:0:0:0:
260,164,39088,1,0,0:0:0:0:
260,164,39401,1,0,0:0:0:0:
260,164,39713,1,2,0:0:0:0:
276,148,40338,1,0,0:0:0:0:
140,200,40963,1,2,0:0:0:0:
276,148,41588,1,2,0:0:0:0:
276,148,41901,1,2,0:0:0:0:
136,216,42526,1,0,0:0:0:0:
408,88,43463,1,2,0:0:0:0:
248,160,44088,1,0,0:0:0:0:
152,228,44401,1,0,0:0:0:0:
152,228,44713,1,2,0:0:0:0:
308,148,45338,1,0,0:0:0:0:
400,64,45963,1,2,0:0:0:0:
272,148,46588,1,0,0:0:0:0:
196,164,46901,1,0,0:0:0:0:
132,152,47526,1,0,0:0:0:0:
272,148,48151,1,2,0:0:0:0:
396,304,48778,1,0,0:0:0:0:
272,204,49430,1,2,0:0:0:0:
192,60,50082,1,0,0:0:0:0:
424,340,51586,1,2,0:0:0:0:
244,212,53378,1,2,0:0:0:0:
