osu file format v14

[General]
AudioFilename: audio.mp3
AudioLeadIn: 0
PreviewTime: 44890
Countdown: 1
SampleSet: Soft
StackLeniency: 0.7
Mode: 0
LetterboxInBreaks: 0
WidescreenStoryboard: 1

[Editor]
Bookmarks: 78,6078,12078,18078,24078,30078,33078,39078,45078,51078,57078,63078
DistanceSpacing: 0.8
BeatDivisor: 2
GridSize: 4
TimelineZoom: 1

[Metadata]
Title:Datte Atashi no Hero
TitleUnicode:だってアタシのヒーロー。
Artist:R3 Music Box
ArtistUnicode:R3 Music Box
Creator:Tofu1222
Version:yf's Easy
Source:僕のヒーローアカデミア
Tags:season two boku no hero academia anime ending ED LiSA Karen Suzuki_1112 1112deng yf_bmp
BeatmapID:1533513
BeatmapSetID:658919

[Difficulty]
HPDrainRate:2
CircleSize:3
OverallDifficulty:2
ApproachRate:3
SliderMultiplier:0.7
SliderTickRate:1

[Events]
//Background and Video events
0,0,"bg.jpg",0,0
//Break Periods
//Storyboard Layer 0 (Background)
//Storyboard Layer 1 (Fail)
//Storyboard Layer 2 (Pass)
//Storyboard Layer 3 (Foreground)
//Storyboard Sound Samples

[TimingPoints]
78,375,4,2,1,30,1,0
30078,-100,4,2,1,20,0,0
31578,-100,4,2,1,10,0,0
33078,-100,4,2,1,30,0,0
63078,413.793103448276,4,2,1,30,1,0
64733,468.75,4,2,1,20,1,0
65201,483.870967741935,4,2,1,10,1,0
65684,545.454545454546,4,2,1,10,1,0
66229,428.571428571429,4,2,1,10,1,0

[Colours]
Combo1 : 188,188,222
Combo2 : 255,176,176
Combo3 : 203,150,150
Combo4 : 255,255,157

[HitObjects]
44,224,78,5,2,0:0:0:0:
36,336,828,1,2,0:0:0:0:
137,288,1578,2,0,P|195:268|271:289,1,140,2|2,0:0|0:0,0:0:0:0:
367,339,3078,6,0,L|436:330,1,70,2|2,0:0|0:0,0:0:0:0:
470,285,3828,2,0,L|461:215,1,70,2|2,0:0|0:0,0:0:0:0:
418,179,4578,2,0,L|260:199,1,140,2|0,0:0|0:0,0:0:0:0:
195,271,6078,6,0,P|168:208|184:139,1,140,2|0,0:0|0:0,0:0:0:0:
225,102,7203,1,2,0:0:0:0:
69,165,8328,2,0,P|67:206|82:250,1,70,0|2,0:0|0:0,0:0:0:0:
111,276,9078,6,0,P|71:273|9:295,2,105,2|2|0,0:0|0:0|0:0,0:0:0:0:
161,303,10578,2,0,B|181:228|141:241|161:165,1,140,2|0,0:0|0:0,0:0:0:0:
198,59,12078,5,2,0:0:0:0:
271,144,12828,1,2,0:0:0:0:
308,39,13578,2,0,B|370:8|370:8|434:39,1,140,2|2,0:0|0:0,0:0:0:0:
468,144,15078,6,0,B|457:213,1,70,2|2,0:0|0:0,0:0:0:0:
412,247,15828,2,0,B|342:236,1,70,2|2,0:0|0:0,0:0:0:0:
321,185,16578,2,0,B|246:165|259:205|183:185,1,140,2|2,0:0|0:0,0:0:0:0:
72,164,18078,6,0,P|75:124|53:62,2,105,2|2|2,0:0|0:0|0:0,0:0:0:0:
236,144,20328,2,0,L|232:213,1,70,2|2,0:0|0:0,0:0:0:0:
229,271,21078,6,0,L|222:403,2,105,2|2|2,0:0|0:0|0:0,0:0:0:0:
61,287,23328,2,0,P|78:257|105:235,1,70,0|0,0:0|0:0,0:0:0:0:
157,213,24078,5,2,0:0:0:0:
191,106,24828,1,2,0:0:0:0:
268,187,25578,2,0,P|319:192|381:173,2,105,2|0|2,0:0|0:0|0:0,0:0:0:0:
224,151,27078,6,0,L|210:11,1,140,2|0,0:0|0:0,0:0:0:0:
133,96,28578,2,0,P|100:107|65:102,1,70,2|0,0:0|0:0,0:0:0:0:
29,145,29328,2,0,L|35:214,1,70,2|2,0:0|0:0,0:0:0:0:
40,270,30078,6,0,P|99:258|150:199,3,140,2|0|2|0,0:0|0:0|0:0|0:0,0:0:0:0:
47,159,33078,5,2,0:0:0:0:
39,47,33828,1,2,0:0:0:0:
140,95,34578,2,0,P|198:115|274:94,1,140,2|2,0:0|0:0,0:0:0:0:
367,45,36078,6,0,L|436:54,1,70,2|2,0:0|0:0,0:0:0:0:
470,99,36828,2,0,L|461:169,1,70,2|2,0:0|0:0,0:0:0:0:
418,205,37578,2,0,L|260:185,1,140,2|0,0:0|0:0,0:0:0:0:
195,113,39078,6,0,P|168:175|184:244,1,140,2|0,0:0|0:0,0:0:0:0:
225,282,40203,1,2,0:0:0:0:
69,219,41328,2,0,P|67:178|82:134,1,70,0|2,0:0|0:0,0:0:0:0:
111,108,42078,6,0,P|71:111|9:89,2,105,2|2|0,0:0|0:0|0:0,0:0:0:0:
161,81,43578,2,0,B|181:156|141:143|161:219,1,140,2|0,0:0|0:0,0:0:0:0:
198,325,45078,5,2,0:0:0:0:
271,240,45828,1,2,0:0:0:0:
308,345,46578,2,0,B|370:376|370:376|434:345,1,140,2|2,0:0|0:0,0:0:0:0:
468,240,48078,6,0,B|457:170,1,70,2|2,0:0|0:0,0:0:0:0:
412,136,48828,2,0,B|342:146,1,70,2|2,0:0|0:0,0:0:0:0:
321,199,49578,2,0,B|246:219|259:179|183:199,1,140,2|2,0:0|0:0,0:0:0:0:
72,220,51078,6,0,P|75:260|53:322,2,105,2|2|2,0:0|0:0|0:0,0:0:0:0:
236,240,53328,2,0,L|232:170,1,70,2|2,0:0|0:0,0:0:0:0:
229,113,54078,6,0,L|222:-19,2,105,2|2|2,0:0|0:0|0:0,0:0:0:0:
61,97,56328,2,0,P|78:126|105:148,1,70,0|0,0:0|0:0,0:0:0:0:
157,171,57078,5,2,0:0:0:0:
191,278,57828,1,2,0:0:0:0:
268,197,58578,2,0,P|319:192|381:211,2,105,2|0|2,0:0|0:0|0:0,0:0:0:0:
224,233,60078,6,0,L|210:373,1,140,2|0,0:0|0:0,0:0:0:0:
304,312,61578,2,0,P|337:301|372:306,1,70,2|0,0:0|0:0,0:0:0:0:
408,263,62328,2,0,L|402:194,1,70,2|2,0:0|0:0,0:0:0:0:
397,141,63078,5,0,0:0:0:0:
307,208,63905,5,0,0:0:0:0:
216,142,64733,5,0,0:0:0:0:
251,35,65684,5,2,0:0:0:0:
362,36,66657,5,2,0:0:0:0:
