osu file format v14

[General]
AudioFilename: audio.mp3
AudioLeadIn: 0
PreviewTime: 44890
Countdown: 1
SampleSet: Soft
StackLeniency: 0.3
Mode: 0
LetterboxInBreaks: 0
WidescreenStoryboard: 1

[Editor]
Bookmarks: 40953
DistanceSpacing: 1.8
BeatDivisor: 4
GridSize: 4
TimelineZoom: 1

[Metadata]
Title:Datte Atashi no Hero
TitleUnicode:だってアタシのヒーロー。
Artist:R3 Music Box
ArtistUnicode:R3 Music Box
Creator:Tofu1222
Version:Karen's Plus Hard
Source:僕のヒーローアカデミア
Tags:season two boku no hero academia anime ending ED LiSA Karen Suzuki_1112 1112deng yf_bmp
BeatmapID:1405574
BeatmapSetID:658919

[Difficulty]
HPDrainRate:5
CircleSize:4
OverallDifficulty:7
ApproachRate:7
SliderMultiplier:1
SliderTickRate:1

[Events]
//Background and Video events
0,0,"bg.jpg",0,0
//Break Periods
//Storyboard Layer 0 (Background)
//Storyboard Layer 1 (Fail)
//Storyboard Layer 2 (Pass)
//Storyboard Layer 3 (Foreground)
//Storyboard Sound Samples

[TimingPoints]
78,375,4,2,1,30,1,0
30078,-100,4,2,1,20,0,0
31578,-100,4,2,1,10,0,0
33078,-100,4,2,1,30,0,0
63078,413.793103448276,4,2,1,30,1,0
64733,468.75,4,2,1,20,1,0
65201,483.870967741935,4,2,1,10,1,0
65684,545.454545454546,4,2,1,10,1,0
66229,428.571428571429,4,2,1,10,1,0
66229,-200,4,2,1,10,0,0

[Colours]
Combo1 : 188,188,222
Combo2 : 255,176,176
Combo3 : 203,150,150
Combo4 : 255,255,157

[HitObjects]
195,163,78,6,0,P|250:160|303:200,1,100,2|0,0:0|0:0,0:0:0:0:
287,181,640,1,0,0:0:0:0:
114,122,828,2,0,P|150:80|216:71,1,100,2|0,0:0|0:0,0:0:0:0:
192,69,1390,1,0,0:0:0:0:
26,153,1578,6,0,P|23:98|63:45,1,100,2|0,0:0|0:0,0:0:0:0:
44,60,2140,1,0,0:0:0:0:
98,211,2328,1,2,0:0:0:0:
94,300,2515,1,0,0:0:0:0:
184,305,2703,1,2,0:0:0:0:
188,216,2890,1,0,0:0:0:0:
151,133,3078,5,2,0:0:0:0:
12,248,3453,1,2,0:0:0:0:
136,384,3828,1,2,0:0:0:0:
271,260,4203,1,2,0:0:0:0:
278,152,4578,6,0,L|276:37,2,100,2|0|0,0:0|0:0|0:0,0:0:0:0:
317,353,5703,1,0,0:0:0:0:
317,353,6078,5,2,0:0:0:0:
406,359,6265,1,0,0:0:0:0:
495,365,6453,1,0,0:0:0:0:
363,272,6640,2,0,L|473:280,1,100,2|0,0:0|0:0,0:0:0:0:
506,199,7203,6,0,P|506:148|478:98,2,100,2|0|0,0:0|0:0|0:0,0:0:0:0:
319,189,8328,1,0,0:0:0:0:
226,96,8703,1,2,0:0:0:0:
226,96,9078,5,2,0:0:0:0:
150,48,9265,1,0,0:0:0:0:
59,44,9453,1,0,0:0:0:0:
163,167,9640,2,0,P|125:131|75:133,1,100,2|0,0:0|0:0,0:0:0:0:
96,219,10203,1,0,0:0:0:0:
96,219,10390,1,2,0:0:0:0:
247,207,10578,6,0,L|364:193,3,100,2|0|0|0,0:0|0:0|0:0|0:0,0:0:0:0:
490,60,12078,6,0,L|481:178,1,100,2|0,0:0|0:0,0:0:0:0:
482,159,12640,1,0,0:0:0:0:
408,30,12828,2,0,L|399:148,1,100,2|0,0:0|0:0,0:0:0:0:
400,129,13390,1,0,0:0:0:0:
325,2,13578,6,0,L|316:120,1,100,2|0,0:0|0:0,0:0:0:0:
317,101,14140,1,0,0:0:0:0:
240,247,14328,1,2,0:0:0:0:
295,316,14515,1,0,0:0:0:0:
365,260,14703,1,2,0:0:0:0:
310,191,14890,1,0,0:0:0:0:
228,152,15078,5,2,0:0:0:0:
198,330,15453,1,2,0:0:0:0:
381,352,15828,1,2,0:0:0:0:
402,170,16203,1,2,0:0:0:0:
301,258,16578,6,0,L|179:238,1,100,2|0,0:0|0:0,0:0:0:0:
72,166,17328,1,2,0:0:0:0:
72,166,17703,1,0,0:0:0:0:
72,166,18078,5,2,0:0:0:0:
107,83,18265,1,0,0:0:0:0:
192,54,18453,1,0,0:0:0:0:
23,65,18640,2,0,P|49:15|104:0,1,100,2|0,0:0|0:0,0:0:0:0:
172,151,19203,6,0,L|178:265,2,100,2|0|0,0:0|0:0|0:0,0:0:0:0:
323,53,20328,1,2,0:0:0:0:
259,203,20703,1,2,0:0:0:0:
259,203,21078,5,2,0:0:0:0:
301,282,21265,1,0,0:0:0:0:
348,205,21453,1,0,0:0:0:0:
355,362,21640,2,0,L|251:365,1,100,2|0,0:0|0:0,0:0:0:0:
184,295,22203,6,0,P|195:243|181:193,3,100,2|0|0|0,0:0|0:0|0:0|0:0,0:0:0:0:
65,101,23703,1,0,0:0:0:0:
65,101,24078,6,0,L|208:93,1,100,2|0,0:0|0:0,0:0:0:0:
373,8,24828,2,0,L|273:13,1,100,2|0,0:0|0:0,0:0:0:0:
237,142,25390,1,0,0:0:0:0:
313,93,25578,6,0,L|412:87,1,100,2|0,0:0|0:0,0:0:0:0:
487,36,26140,1,0,0:0:0:0:
487,36,26328,2,0,P|499:92|486:145,1,100,0|2,0:0|0:0,0:0:0:0:
342,189,27078,6,0,P|289:174|235:205,3,100,2|0|0|0,0:0|0:0|0:0|0:0,0:0:0:0:
190,257,28390,1,2,0:0:0:0:
190,257,28578,6,0,L|208:357,1,100,2|0,0:0|0:0,0:0:0:0:
293,380,29140,1,0,0:0:0:0:
372,337,29328,1,2,0:0:0:0:
372,337,29703,1,2,0:0:0:0:
372,337,30078,6,0,L|485:339,2,100,2|0|0,0:0|0:0|0:0,0:0:0:0:
372,337,31203,1,0,0:0:0:0:
271,243,31578,5,2,0:0:0:0:
259,163,31953,1,0,0:0:0:0:
282,107,32328,1,0,0:0:0:0:
318,90,32703,1,0,0:0:0:0:
448,186,33078,6,0,L|325:180,1,100,2|0,0:0|0:0,0:0:0:0:
348,181,33640,1,0,0:0:0:0:
240,267,33828,2,0,L|339:271,1,100,2|0,0:0|0:0,0:0:0:0:
339,271,34390,1,0,0:0:0:0:
429,365,34578,6,0,L|306:359,1,100,2|0,0:0|0:0,0:0:0:0:
329,360,35140,1,0,0:0:0:0:
191,323,35328,1,2,0:0:0:0:
208,235,35515,1,0,0:0:0:0:
161,157,35703,1,2,0:0:0:0:
71,168,35890,1,0,0:0:0:0:
28,247,36078,5,2,0:0:0:0:
191,323,36453,1,2,0:0:0:0:
254,154,36828,1,2,0:0:0:0:
91,78,37203,1,2,0:0:0:0:
144,201,37578,6,0,L|106:306,2,100,2|0|0,0:0|0:0|0:0,0:0:0:0:
241,56,38703,1,0,0:0:0:0:
241,56,39078,5,2,0:0:0:0:
323,20,39265,1,0,0:0:0:0:
405,55,39453,1,0,0:0:0:0:
285,138,39640,2,0,L|390:141,1,100,2|0,0:0|0:0,0:0:0:0:
480,106,40203,6,0,P|494:52|479:1,2,100,2|0|0,0:0|0:0|0:0,0:0:0:0:
383,232,41328,1,0,0:0:0:0:
424,354,41703,1,2,0:0:0:0:
424,354,42078,5,2,0:0:0:0:
334,343,42265,1,0,0:0:0:0:
244,331,42453,1,0,0:0:0:0:
155,222,42640,2,0,P|148:169|168:122,1,100,2|0,0:0|0:0,0:0:0:0:
236,181,43203,1,0,0:0:0:0:
236,181,43390,1,2,0:0:0:0:
158,314,43578,6,0,L|34:300,3,100,2|0|0|0,0:0|0:0|0:0|0:0,0:0:0:0:
4,185,45078,6,0,P|1:133|15:82,1,100,2|0,0:0|0:0,0:0:0:0:
12,86,45640,1,0,0:0:0:0:
128,235,45828,2,0,P|99:191|86:140,1,100,2|0,0:0|0:0,0:0:0:0:
86,145,46390,1,0,0:0:0:0:
263,215,46578,6,0,P|216:191|179:153,1,100,2|0,0:0|0:0,0:0:0:0:
182,158,47140,1,0,0:0:0:0:
214,43,47328,1,2,0:0:0:0:
303,39,47515,1,0,0:0:0:0:
373,98,47703,1,2,0:0:0:0:
348,185,47890,1,0,0:0:0:0:
263,215,48078,5,2,0:0:0:0:
214,43,48453,1,2,0:0:0:0:
390,7,48828,1,2,0:0:0:0:
440,180,49203,1,2,0:0:0:0:
361,279,49578,6,0,L|244:304,1,100,2|0,0:0|0:0,0:0:0:0:
145,200,50328,1,2,0:0:0:0:
145,200,50703,1,0,0:0:0:0:
145,200,51078,5,2,0:0:0:0:
88,130,51265,1,0,0:0:0:0:
109,42,51453,1,0,0:0:0:0:
247,85,51640,2,0,L|236:215,1,100,2|0,0:0|0:0,0:0:0:0:
182,283,52203,6,0,P|124:292|77:262,2,100,2|0|0,0:0|0:0|0:0,0:0:0:0:
325,146,53328,1,2,0:0:0:0:
398,271,53703,1,2,0:0:0:0:
398,271,54078,5,2,0:0:0:0:
433,353,54265,1,0,0:0:0:0:
491,283,54453,1,0,0:0:0:0:
339,351,54640,2,0,L|236:346,1,100,2|0,0:0|0:0,0:0:0:0:
181,216,55203,6,0,P|133:193|85:197,3,100,2|0|0|0,0:0|0:0|0:0|0:0,0:0:0:0:
109,384,56703,1,0,0:0:0:0:
109,384,57078,6,0,P|123:320|116:279,1,100,2|0,0:0|0:0,0:0:0:0:
30,129,57828,2,0,P|17:81|20:31,1,100,2|0,0:0|0:0,0:0:0:0:
106,7,58390,1,0,0:0:0:0:
201,53,58578,6,0,L|303:48,1,100,2|0,0:0|0:0,0:0:0:0:
376,97,59140,1,0,0:0:0:0:
376,97,59328,2,0,L|478:92,1,100,0|2,0:0|0:0,0:0:0:0:
390,224,60078,6,0,L|290:228,3,100,2|0|0|0,0:0|0:0|0:0|0:0,0:0:0:0:
223,168,61390,1,2,0:0:0:0:
223,168,61578,6,0,P|172:147|119:160,1,100,2|0,0:0|0:0,0:0:0:0:
79,229,62140,1,0,0:0:0:0:
113,312,62328,1,2,0:0:0:0:
113,312,62703,1,2,0:0:0:0:
256,192,63078,12,2,65684,0:0:0:0:
260,195,66229,6,0,L|258:151,2,25,0|0|2,0:0|0:0|0:0,0:0:0:0:
