osu file format v14

[General]
AudioFilename: audio.mp3
AudioLeadIn: 0
PreviewTime: 44890
Countdown: 1
SampleSet: Soft
StackLeniency: 0.7
Mode: 0
LetterboxInBreaks: 0
WidescreenStoryboard: 1

[Editor]
DistanceSpacing: 1
BeatDivisor: 4
GridSize: 4
TimelineZoom: 1

[Metadata]
Title:Datte Atashi no Hero
TitleUnicode:だってアタシのヒーロー。
Artist:R3 Music Box
ArtistUnicode:R3 Music Box
Creator:Tofu1222
Version:Normal
Source:僕のヒーローアカデミア
Tags:season two boku no hero academia anime ending ED LiSA Karen Suzuki_1112 1112deng yf_bmp
BeatmapID:1533512
BeatmapSetID:658919

[Difficulty]
HPDrainRate:3
CircleSize:3.5
OverallDifficulty:3
ApproachRate:4.5
SliderMultiplier:1
SliderTickRate:1

[Events]
//Background and Video events
0,0,"bg.jpg",0,0
//Break Periods
//Storyboard Layer 0 (Background)
//Storyboard Layer 1 (Fail)
//Storyboard Layer 2 (Pass)
//Storyboard Layer 3 (Foreground)
//Storyboard Sound Samples

[TimingPoints]
78,375,4,2,1,30,1,0
78,-100,4,2,1,30,0,0
30078,-100,4,2,1,20,0,0
31578,-100,4,2,1,10,0,0
33078,-100,4,2,1,30,0,0
63078,413.793103448276,4,2,1,30,1,0
64733,468.75,4,2,1,20,1,0
65201,483.870967741935,4,2,1,10,1,0
65684,545.454545454546,4,2,1,10,1,0
66229,428.571428571429,4,2,1,10,1,0

[Colours]
Combo1 : 188,188,222
Combo2 : 255,176,176
Combo3 : 203,150,150
Combo4 : 255,255,157

[HitObjects]
36,32,78,6,0,P|44:104|92:170,1,150,2|0,0:0|0:0,0:0:0:0:
128,196,828,1,2,0:0:0:0:
244,100,1390,2,0,L|290:63,1,50,0|2,0:0|0:0,0:0:0:0:
300,168,1953,2,0,B|208:240,2,100,0|2|2,0:0|0:0|0:0,0:0:0:0:
376,104,3078,5,2,0:0:0:0:
360,4,3453,1,2,0:0:0:0:
456,28,3828,2,0,P|476:60|484:120,1,100,2|2,0:0|0:0,0:0:0:0:
452,216,4578,1,2,0:0:0:0:
260,316,5328,6,0,P|200:300|181:262,1,100
84,260,6078,2,0,P|104:200|149:183,1,100,2|0,0:0|0:0,0:0:0:0:
180,164,6640,1,2,0:0:0:0:
280,164,7015,2,0,L|337:195,1,50,0|2,0:0|0:0,0:0:0:0:
40,280,8328,6,0,P|90:292|143:267,1,100,0|2,0:0|0:0,0:0:0:0:
208,208,9078,2,0,P|253:190|301:203,1,100,2|0,0:0|0:0,0:0:0:0:
340,236,9640,1,2,0:0:0:0:
312,332,10015,2,0,P|267:350|219:337,1,100,2|0,0:0|0:0,0:0:0:0:
72,40,12078,6,0,P|22:108|32:176,1,150,2|0,0:0|0:0,0:0:0:0:
60,208,12828,1,2,0:0:0:0:
200,156,13390,2,0,L|260:156,1,50,0|2,0:0|0:0,0:0:0:0:
328,211,13953,2,0,P|363:250|365:306,2,100,0|2|2,0:0|0:0|0:0,0:0:0:0:
250,156,15078,5,2,0:0:0:0:
336,104,15453,1,2,0:0:0:0:
432,132,15828,2,0,P|470:169|480:217,1,100,2|2,0:0|0:0,0:0:0:0:
380,220,16578,1,2,0:0:0:0:
224,348,17328,6,0,P|190:311|187:249,1,100,2|0,0:0|0:0,0:0:0:0:
240,180,18078,2,0,P|233:131|199:95,1,100,2|0,0:0|0:0,0:0:0:0:
160,64,18640,1,2,0:0:0:0:
112,152,19015,2,0,L|84:200,1,50,0|2,0:0|0:0,0:0:0:0:
352,336,20328,6,0,P|320:297|268:278,1,100,2|2,0:0|0:0,0:0:0:0:
184,240,21078,2,0,P|215:201|260:182,1,100,2|0,0:0|0:0,0:0:0:0:
308,168,21640,1,2,0:0:0:0:
268,76,22015,2,0,L|244:18,1,50,0|2,0:0|0:0,0:0:0:0:
20,356,23703,5,0,0:0:0:0:
48,259,24078,2,0,P|88:231|138:225,1,100,2|0,0:0|0:0,0:0:0:0:
236,248,24829,2,0,P|285:244|325:215,1,100,2|0,0:0|0:0,0:0:0:0:
348,172,25390,1,0,0:0:0:0:
336,124,25578,2,0,B|222:25,2,150,2|0|2,0:0|0:0|0:0,0:0:0:0:
46,228,28390,6,0,L|87:265,1,50,2|2,0:0|0:0,0:0:0:0:
160,325,28953,2,0,P|213:346|260:334,1,100,0|2,0:0|0:0,0:0:0:0:
348,308,29703,1,2,0:0:0:0:
428,248,30078,2,0,P|422:200|393:159,1,100,2|0,0:0|0:0,0:0:0:0:
380,60,30828,2,0,P|334:78|303:116,1,100,0|0,0:0|0:0,0:0:0:0:
272,212,31578,2,0,P|241:251|196:271,1,100,2|0,0:0|0:0,0:0:0:0:
180,172,32327,2,0,P|149:133|141:84,1,100,0|0,0:0|0:0,0:0:0:0:
232,40,33078,6,0,L|336:172,1,150,2|0,0:0|0:0,0:0:0:0:
356,196,33828,1,2,0:0:0:0:
440,320,34390,2,0,L|376:308,1,50,0|2,0:0|0:0,0:0:0:0:
292,292,34953,2,0,L|192:272,2,100,0|2|2,0:0|0:0|0:0,0:0:0:0:
392,308,36078,5,2,0:0:0:0:
352,216,36453,1,2,0:0:0:0:
276,152,36828,2,0,P|229:126|180:122,1,100,2|2,0:0|0:0,0:0:0:0:
84,128,37578,1,2,0:0:0:0:
104,328,38328,6,0,L|192:268,1,100
252,196,39078,2,0,L|244:80,1,100,2|0,0:0|0:0,0:0:0:0:
240,48,39640,1,2,0:0:0:0:
332,8,40015,2,0,L|381:27,1,50,0|2,0:0|0:0,0:0:0:0:
472,312,41328,6,0,L|360:288,1,100,0|2,0:0|0:0,0:0:0:0:
308,216,42078,2,0,L|200:188,1,100,2|0,0:0|0:0,0:0:0:0:
164,176,42640,1,2,0:0:0:0:
100,252,43015,2,0,L|216:284,1,100,0|2,0:0|0:0,0:0:0:0:
244,292,43578,5,2,0:0:0:0:
332,244,43953,1,0,0:0:0:0:
384,160,44328,2,0,L|432:64,1,100
336,36,45078,6,0,P|249:30|189:78,1,150,2|0,0:0|0:0,0:0:0:0:
164,100,45828,1,2,0:0:0:0:
260,216,46390,2,0,L|300:264,1,50,0|2,0:0|0:0,0:0:0:0:
384,212,46953,2,0,L|308:120,2,100,0|2|2,0:0|0:0|0:0,0:0:0:0:
444,292,48078,5,2,0:0:0:0:
344,300,48453,1,2,0:0:0:0:
248,272,48828,2,0,P|232:224|196:191,1,100,2|2,0:0|0:0,0:0:0:0:
108,144,49578,1,2,0:0:0:0:
84,344,50328,6,0,P|105:299|148:276,1,100,2|0,0:0|0:0,0:0:0:0:
244,248,51078,2,0,P|284:219|297:172,1,100,2|0,0:0|0:0,0:0:0:0:
288,124,51640,1,2,0:0:0:0:
192,96,52015,2,0,L|144:80,1,50,0|2,0:0|0:0,0:0:0:0:
272,352,53328,6,0,P|304:308|360:280,1,100,2|2,0:0|0:0,0:0:0:0:
440,268,54078,2,0,P|417:223|379:192,1,100,2|0,0:0|0:0,0:0:0:0:
332,176,54640,1,2,0:0:0:0:
380,88,55015,2,0,L|408:32,1,50,0|2,0:0|0:0,0:0:0:0:
16,148,56703,5,0,0:0:0:0:
68,232,57078,2,0,P|104:192|114:143,1,100,2|0,0:0|0:0,0:0:0:0:
104,48,57828,2,0,P|156:56|200:96,1,100,2|0,0:0|0:0,0:0:0:0:
216,128,58390,1,0,0:0:0:0:
260,152,58578,2,0,P|336:116|418:126,2,150,2|0|2,0:0|0:0|0:0,0:0:0:0:
24,344,61390,6,0,L|60:300,1,50,2|2,0:0|0:0,0:0:0:0:
120,228,61953,2,0,P|176:216|220:236,1,100,0|2,0:0|0:0,0:0:0:0:
300,280,62703,1,2,0:0:0:0:
368,216,63078,6,0,P|392:252|388:312,1,100
324,372,63905,2,0,P|280:374|230:341,1,100
212,256,64733,2,0,P|231:217|285:190,1,100
364,152,65684,1,2,0:0:0:0:
476,108,66229,6,0,L|508:68,2,50,0|0|2,0:0|0:0|0:0,0:0:0:0:
