osu file format v14

[General]
AudioFilename: audio.mp3
AudioLeadIn: 0
PreviewTime: 21470
Countdown: 0
SampleSet: Normal
StackLeniency: 1
Mode: 1
LetterboxInBreaks: 0
WidescreenStoryboard: 0

[Editor]
DistanceSpacing: 2.1
BeatDivisor: 4
GridSize: 8
TimelineZoom: 1

[Metadata]
Title:Curtain Call!!!!!
TitleUnicode:Curtain Call!!!!!
Artist:R3 Music Box
ArtistUnicode:R3 Music Box
Creator:PoPoii
Version:Oni
Source:ひなこのーと
Tags:ED hinako note gekidan hitotose yuzu__rinrin
BeatmapID:1383754
BeatmapSetID:651121

[Difficulty]
HPDrainRate:7
CircleSize:2
OverallDifficulty:5
ApproachRate:6
SliderMultiplier:1.4
SliderTickRate:1

[Events]
//Background and Video events
0,0,"1280x720.jpg",0,0
//Break Periods
//Storyboard Layer 0 (Background)
//Storyboard Layer 1 (Fail)
//Storyboard Layer 2 (Pass)
//Storyboard Layer 3 (Foreground)
//Storyboard Sound Samples

[TimingPoints]
-1516,638.297872340426,4,1,0,50,1,0
21462,-100,4,1,0,50,0,1
31675,-100,4,1,0,50,0,0
40611,645.161290322581,4,1,0,50,1,8
40611,-99.009900990099,4,1,0,50,0,8
41901,681.818181818182,4,1,0,50,1,0
41901,-93.4579439252336,4,1,0,50,0,0
43264,779.220779220779,4,1,0,50,1,8
43264,-81.9672131147541,4,1,0,50,0,8

[HitObjects]
256,192,79,5,0,0:0:0:0:
256,192,398,1,0,0:0:0:0:
256,192,718,1,0,0:0:0:0:
256,192,1037,1,8,0:0:0:0:
256,192,1515,1,0,0:0:0:0:
256,192,1994,1,0,0:0:0:0:
256,192,2313,1,8,0:0:0:0:
256,192,2792,1,8,0:0:0:0:
256,192,3590,1,8,0:0:0:0:
256,192,3909,1,0,0:0:0:0:
256,192,4228,1,0,0:0:0:0:
256,192,4547,1,8,0:0:0:0:
256,192,4707,1,8,0:0:0:0:
256,192,4866,1,0,0:0:0:0:
256,192,5186,1,8,0:0:0:0:
256,192,5345,1,8,0:0:0:0:
256,192,6143,1,0,0:0:0:0:
256,192,6462,1,8,0:0:0:0:
256,192,6781,1,8,0:0:0:0:
256,192,7101,1,0,0:0:0:0:
256,192,7420,1,8,0:0:0:0:
256,192,7739,1,0,0:0:0:0:
256,192,7898,1,0,0:0:0:0:
256,192,8377,1,0,0:0:0:0:
256,192,8696,1,8,0:0:0:0:
256,192,9335,1,8,0:0:0:0:
256,192,9973,1,0,0:0:0:0:
256,192,10611,1,8,0:0:0:0:
256,192,11249,1,8,0:0:0:0:
256,192,11728,1,0,0:0:0:0:
256,192,12207,1,0,0:0:0:0:
256,192,12526,1,8,0:0:0:0:
256,192,13005,1,8,0:0:0:0:
256,192,13803,1,8,0:0:0:0:
256,192,14122,1,0,0:0:0:0:
256,192,14441,1,0,0:0:0:0:
256,192,14760,1,8,0:0:0:0:
256,192,15079,1,0,0:0:0:0:
256,192,15398,1,8,0:0:0:0:
256,192,15558,1,8,0:0:0:0:
256,192,16356,1,0,0:0:0:0:
256,192,16994,1,0,0:0:0:0:
256,192,17313,1,0,0:0:0:0:
256,192,17632,1,8,0:0:0:0:
256,192,17952,1,0,0:0:0:0:
256,192,18111,1,0,0:0:0:0:
256,192,18590,1,8,0:0:0:0:
256,192,18909,1,0,0:0:0:0:
256,192,19547,1,0,0:0:0:0:
256,192,20186,1,8,0:0:0:0:
256,192,20824,1,0,0:0:0:0:
256,192,21462,1,4,0:0:0:0:
256,192,21781,1,8,0:0:0:0:
256,192,22101,1,0,0:0:0:0:
256,192,22420,1,8,0:0:0:0:
256,192,22739,1,0,0:0:0:0:
256,192,23218,1,0,0:0:0:0:
256,192,24015,1,0,0:0:0:0:
256,192,24335,1,8,0:0:0:0:
256,192,24654,1,0,0:0:0:0:
256,192,24973,1,8,0:0:0:0:
256,192,25292,1,8,0:0:0:0:
256,192,25771,1,8,0:0:0:0:
256,192,26569,1,0,0:0:0:0:
256,192,26888,1,8,0:0:0:0:
256,192,27207,1,0,0:0:0:0:
256,192,27526,1,8,0:0:0:0:
256,192,27845,1,0,0:0:0:0:
256,192,28324,1,0,0:0:0:0:
256,192,29122,1,0,0:0:0:0:
256,192,29441,1,0,0:0:0:0:
256,192,29760,1,8,0:0:0:0:
256,192,29920,1,0,0:0:0:0:
256,192,30079,1,8,0:0:0:0:
256,192,30398,1,0,0:0:0:0:
256,192,31037,1,12,0:0:0:0:
256,192,31675,1,0,0:0:0:0:
256,192,31994,1,0,0:0:0:0:
256,192,32154,1,0,0:0:0:0:
256,192,32473,1,0,0:0:0:0:
256,192,32952,1,8,0:0:0:0:
256,192,33271,1,8,0:0:0:0:
256,192,33430,1,8,0:0:0:0:
256,192,33749,1,8,0:0:0:0:
256,192,34228,1,0,0:0:0:0:
256,192,34547,1,0,0:0:0:0:
256,192,34707,1,0,0:0:0:0:
256,192,35026,1,8,0:0:0:0:
256,192,35505,1,0,0:0:0:0:
256,192,36143,1,8,0:0:0:0:
256,192,36462,1,8,0:0:0:0:
256,192,36781,1,0,0:0:0:0:
256,192,37101,1,0,0:0:0:0:
256,192,37260,1,0,0:0:0:0:
256,192,37579,1,0,0:0:0:0:
256,192,38058,1,8,0:0:0:0:
256,192,38377,1,8,0:0:0:0:
256,192,38537,1,8,0:0:0:0:
256,192,38856,1,8,0:0:0:0:
256,192,39335,1,0,0:0:0:0:
256,192,39654,1,0,0:0:0:0:
256,192,39813,1,0,0:0:0:0:
256,192,40132,1,0,0:0:0:0:
256,192,40292,1,8,0:0:0:0:
256,192,40611,1,0,0:0:0:0:
257,193,41901,1,0,0:0:0:0:
257,193,42241,1,0,0:0:0:0:
257,193,42412,1,0,0:0:0:0:
257,193,42753,1,0,0:0:0:0:
257,193,42923,1,8,0:0:0:0:
257,193,43264,1,0,0:0:0:0:
257,193,44043,1,12,0:0:0:0:
