osu file format v14

[General]
AudioFilename: audio.mp3
AudioLeadIn: 0
PreviewTime: 18484
Countdown: 0
SampleSet: Soft
StackLeniency: 0.7
Mode: 2
LetterboxInBreaks: 0
WidescreenStoryboard: 0

[Editor]
DistanceSpacing: 3.4
BeatDivisor: 2
GridSize: 32
TimelineZoom: 1.200006

[Metadata]
Title:COOLEST
TitleUnicode:COOLEST
Artist:R3 Music Box
ArtistUnicode:R3 Music Box
Creator:Nokashi
Version:Salad
Source:坂本ですが?
Tags:customiz カスタマイZ ascendance jbhyperion Haven't You Heard? I'm Sakamoto Opening ENDO. (GEEKS) Koji Miyashita desuka? anime instrumental havent im
BeatmapID:1975972
BeatmapSetID:946318

[Difficulty]
HPDrainRate:4
CircleSize:3.5
OverallDifficulty:6.5
ApproachRate:6.5
SliderMultiplier:1.9
SliderTickRate:1

[Events]
//Background and Video events
0,0,"cropped-1920-1080-759656.jpg",0,0
//Break Periods
//Storyboard Layer 0 (Background)
//Storyboard Layer 1 (Fail)
//Storyboard Layer 2 (Pass)
//Storyboard Layer 3 (Foreground)
//Storyboard Layer 4 (Overlay)
//Storyboard Sound Samples

[TimingPoints]
600,576.923076923077,4,2,1,25,1,0
7523,-100,4,2,1,30,0,0
9830,-100,4,2,1,25,0,0
16753,-100,4,2,1,30,0,0
18196,-100,4,2,1,25,0,0
25984,-100,4,2,1,30,0,0
28291,-100,4,2,1,25,0,0
35215,-100,4,2,1,30,0,0
37522,-100,4,2,1,25,0,0
38965,-100,4,2,1,30,0,0
39830,-100,4,2,1,25,0,0
52234,-100,4,2,1,20,0,0
53100,600,4,2,1,20,1,0
53700,625,4,2,1,20,1,0
54012,606.060606060606,4,2,1,20,1,0
54315,666.666666666667,4,2,1,20,1,0
54642,576.923076923077,4,2,1,25,1,0
54786,-100,4,2,1,21,0,0
54930,-100,4,2,1,19,0,0
55218,-100,4,2,1,17,0,0
55507,-100,4,2,1,15,0,0
55795,-100,4,2,1,13,0,0
56084,-100,4,2,1,11,0,0
56372,-100,4,2,1,9,0,0
56661,-100,4,2,1,7,0,0
56949,-100,4,2,1,5,0,0

[Colours]
Combo1 : 178,178,178
Combo2 : 255,51,51
Combo3 : 63,63,63

[HitObjects]
249,330,600,6,0,P|192:250|258:181,1,190,8|0,0:0|0:0,0:0:0:0:
372,197,1465,2,0,P|414:106|352:46,1,190,2|0,0:0|0:0,0:0:0:0:
228,236,2330,2,0,L|314:281,1,95,0|0,0:0|0:0,0:0:0:0:
76,255,2907,6,0,L|15:183,1,95,2|0,0:0|0:0,0:0:0:0:
252,208,3773,2,0,L|460:208,1,190,2|0,0:0|0:0,0:0:0:0:
338,205,4638,1,2,0:0:0:0:
442,208,4926,1,0,0:0:0:0:
204,247,5215,6,0,P|133:196|180:105,1,190,8|0,0:0|0:0,0:0:0:0:
279,96,6080,1,0,0:0:0:0:
127,247,6369,1,0,0:0:0:0:
298,246,6946,1,2,0:0:0:0:
155,30,7234,1,2,0:0:0:0:
393,36,7523,5,8,0:0:0:0:
488,37,7811,1,0,0:0:0:0:
488,37,8100,1,2,0:0:0:0:
393,36,8388,1,2,0:0:0:0:
134,12,8676,2,0,P|43:57|29:183,1,190,8|0,0:0|0:0,0:0:0:0:
474,251,9830,6,0,L|496:50,1,190,8|0,0:0|0:0,0:0:0:0:
351,29,10696,2,0,L|143:29,1,190,2|0,0:0|0:0,0:0:0:0:
275,27,11561,1,0,0:0:0:0:
161,108,11850,1,0,0:0:0:0:
404,195,12138,6,0,L|509:194,1,95,2|0,0:0|0:0,0:0:0:0:
251,201,13003,2,0,P|201:131|267:59,1,190,2|0,0:0|0:0,0:0:0:0:
382,60,13869,1,2,0:0:0:0:
496,62,14157,1,0,0:0:0:0:
255,56,14446,6,0,P|158:76|103:170,1,190,2|0,0:0|0:0,0:0:0:0:
210,200,15311,1,0,0:0:0:0:
362,204,15600,1,2,0:0:0:0:
77,219,16176,1,2,0:0:0:0:
165,332,16465,1,2,0:0:0:0:
402,333,16753,6,0,L|510:332,2,95,8|2|8,0:0|0:0|0:0,0:0:0:0:
165,239,17619,2,0,P|275:198|387:195,1,190,2|0,0:0|0:0,0:0:0:0:
481,207,18484,1,0,0:0:0:0:
24,302,19061,6,0,L|15:105,1,190,8|0,0:0|0:0,0:0:0:0:
158,33,19926,2,0,L|377:52,1,190,2|0,0:0|0:0,0:0:0:0:
471,89,20792,1,0,0:0:0:0:
348,159,21080,1,0,0:0:0:0:
107,209,21369,6,0,L|10:209,2,95,8|2|8,0:0|0:0|0:0,0:0:0:0:
259,220,22234,2,0,P|302:129|239:60,1,190,2|0,0:0|0:0,0:0:0:0:
139,65,23100,1,2,0:0:0:0:
25,66,23388,1,0,0:0:0:0:
261,65,23676,6,0,L|469:65,1,190,2|0,0:0|0:0,0:0:0:0:
327,61,24542,1,0,0:0:0:0:
449,146,24830,2,0,L|236:146,1,190,2|0,0:0|0:0,0:0:0:0:
154,146,25696,1,2,0:0:0:0:
391,219,25984,5,8,0:0:0:0:
505,224,26273,1,2,0:0:0:0:
505,224,26561,1,2,0:0:0:0:
391,219,26850,1,2,0:0:0:0:
129,244,27138,2,0,P|48:189|24:100,1,190,8|0,0:0|0:0,0:0:0:0:
494,50,28292,6,0,L|478:258,1,190,8|0,0:0|0:0,0:0:0:0:
357,314,29157,2,0,L|162:314,1,190,2|0,0:0|0:0,0:0:0:0:
277,315,30023,1,0,0:0:0:0:
386,316,30311,1,0,0:0:0:0:
148,217,30600,6,0,L|40:216,2,95,8|2|8,0:0|0:0|0:0,0:0:0:0:
300,225,31465,2,0,P|351:135|299:78,1,190,2|0,0:0|0:0,0:0:0:0:
189,66,32330,1,2,0:0:0:0:
75,64,32619,1,0,0:0:0:0:
312,37,32907,6,0,P|402:75|421:204,2,190,2|0|2,0:0|0:0|0:0,0:0:0:0:
402,40,34350,1,0,0:0:0:0:
497,42,34638,1,0,0:0:0:0:
27,319,35215,5,8,0:0:0:0:
150,325,35503,2,0,L|342:324,1,190,2|0,0:0|0:0,0:0:0:0:
96,294,36369,2,0,L|72:200,1,95,8|0,0:0|0:0,0:0:0:0:
214,162,36946,2,0,L|338:162,1,95,2|0,0:0|0:0,0:0:0:0:
138,101,37523,6,0,P|209:34|306:31,2,190,2|0|2,0:0|0:0|0:0,0:0:0:0:
386,207,38965,1,8,0:0:0:0:
501,210,39253,1,2,0:0:0:0:
386,207,39542,1,2,0:0:0:0:
148,282,39830,6,0,P|111:202|173:135,1,190,8|2,0:0|0:0,0:0:0:0:
297,143,40696,1,0,0:0:0:0:
47,100,40984,2,0,L|28:207,1,95,8|0,0:0|0:0,0:0:0:0:
173,20,41561,2,0,L|78:20,1,95,2|0,0:0|0:0,0:0:0:0:
316,223,42138,6,0,P|321:120|236:68,1,190,2|0,0:0|0:0,0:0:0:0:
138,70,43003,1,2,0:0:0:0:
273,83,43292,2,0,L|373:83,1,95,0|2,0:0|0:0,0:0:0:0:
492,92,43869,1,2,0:0:0:0:
46,281,44446,6,0,L|11:190,1,95,2|0,0:0|0:0,0:0:0:0:
249,157,45023,2,0,L|451:157,2,190,8|2|0,0:0|0:0|0:0,0:0:0:0:
457,61,46753,6,0,L|348:61,1,95,2|0,0:0|0:0,0:0:0:0:
124,244,47330,2,0,L|23:245,1,95,2|0,0:0|0:0,0:0:0:0:
286,248,47907,2,0,L|397:248,1,95,8|0,0:0|0:0,0:0:0:0:
496,248,48484,1,2,0:0:0:0:
38,345,49061,6,0,L|25:143,1,190,8|0,0:0|0:0,0:0:0:0:
226,20,50215,2,0,P|274:111|235:195,1,190,8|0,0:0|0:0,0:0:0:0:
119,224,51080,1,0,0:0:0:0:
364,289,51369,6,0,P|463:231|495:154,1,190,2|8,0:0|0:0,0:0:0:0:
402,81,52234,1,0,0:0:0:0:
162,50,52523,2,0,P|73:109|60:208,1,190,2|8,0:0|0:0,0:0:0:0:
148,254,53400,1,0,0:0:0:0:
384,329,53700,5,8,0:0:0:0:
275,307,54012,1,0,0:0:0:0:
176,281,54315,1,0,0:0:0:0:
326,215,54642,1,0,0:0:0:0:
256,192,54930,12,0,56949,0:0:0:0:
