osu file format v14

[General]
AudioFilename: audio.mp3
AudioLeadIn: 0
PreviewTime: 7349
Countdown: 0
SampleSet: Soft
StackLeniency: 0.7
Mode: 0
LetterboxInBreaks: 0
WidescreenStoryboard: 1

[Editor]
Bookmarks: 14646,46268
DistanceSpacing: 1.4
BeatDivisor: 4
GridSize: 32
TimelineZoom: 1

[Metadata]
Title:Byakumu no Mayu ~Ricordando il passato~
TitleUnicode:白夢の繭 ~Ricordando il passato~
Artist:R3 Music Box
ArtistUnicode:R3 Music Box
Creator:EijiKuinbii
Version:Normal
Source:うみねこのなく頃に散
Tags:visual novel ushiromiya 07th expansion when they cry umineko no naku koro ni chiru Quadrocake Vad2009 Mirash
BeatmapID:1255626
BeatmapSetID:593228

[Difficulty]
HPDrainRate:4
CircleSize:3.5
OverallDifficulty:4
ApproachRate:5
SliderMultiplier:1.2
SliderTickRate:1

[Events]
//Background and Video events
0,0,"wtc.jpg",0,0
//Break Periods
//Storyboard Layer 0 (Background)
Sprite,Background,Centre,"wtc.jpg",0,0
Sprite,Background,Centre,"sb\bgfull.jpg",320,240 S,0,0,,1.15 F,0,0,2000,0,1 M,0,0,68337,320,612.4258,320,-131.8733 F,0,66337,68337,1,0
Sprite,Background,Centre,"sb\btrfl1.png",533,136 S,0,52,,0.504 R,0,52,,-6.206878 M,1,52,660,478.1567,131.8509,453.228,129.9649 P,0,52,660,H P,0,133,214,V P,0,295,376,V F,0,356,660,1,0
Sprite,Background,Centre,"sb\btrfl1.png",255,325 S,0,863,,0.504 R,0,863,,-6.161337 M,1,863,1471,200.4025,318.3584,175.5854,315.3395 P,0,863,1471,H P,0,944,1025,V P,0,1106,1187,V F,0,1167,1471,1,0
Sprite,Background,Centre,"sb\btrfl1.png",266,208 S,0,1673,,0.504 R,0,1673,,-6.185988 M,1,1673,2281,211.2554,202.7062,186.3714,200.2999 P,0,1673,2281,H P,0,1754,1835,V P,0,1916,1997,V F,0,1977,2281,1,0
Sprite,Background,Centre,"sb\btrfl1.png",400,309 S,0,2079,,0.504 R,0,2079,,-6.290919 M,1,2079,2687,345.002,309.4692,320.0029,309.6824 P,0,2079,2687,H P,0,2160,2241,V P,0,2322,2403,V F,0,2383,2687,1,0
Sprite,Background,Centre,"sb\btrfl1.png",246,375 S,0,2890,,0.504 R,0,2890,,-6.466983 M,1,2890,3498,191.9344,385.0951,167.3591,389.6838 P,0,2890,3498,H P,0,2971,3052,V P,0,3133,3214,V F,0,3194,3498,1,0
Sprite,Background,Centre,"sb\btrfl1.png",266,208 S,0,3295,,0.504 R,0,3295,,-6.290557 M,1,3295,3903,211.0018,208.4493,186.0027,208.6535 P,0,3295,3903,H P,0,3376,3457,V P,0,3538,3619,V F,0,3599,3903,1,0
Sprite,Background,Centre,"sb\btrfl1.png",421,142 S,0,3700,,0.504 R,0,3700,,-6.116986 M,1,3700,4308,366.7506,132.9443,342.0918,128.828 P,0,3700,4308,H P,0,3781,3862,V P,0,3943,4024,V F,0,4004,4308,1,0
Sprite,Background,Centre,"sb\btrfl1.png",257,125 S,0,4106,,0.504 R,0,4106,,-6.348911 M,1,4106,4714,202.1216,128.656,177.1769,130.3178 P,0,4106,4714,H P,0,4187,4268,V P,0,4349,4430,V F,0,4410,4714,1,0
Sprite,Background,Centre,"sb\btrfl1.png",266,208 S,0,5119,,0.504 R,0,5119,,-6.081225 M,1,5119,5727,212.1091,197.0105,187.6132,192.0152 P,0,5119,5727,H P,0,5200,5281,V P,0,5362,5443,V F,0,5423,5727,1,0
Sprite,Background,Centre,"sb\btrfl1.png",266,208 S,0,5322,,0.504 R,0,5322,,-6.433148 M,1,5322,5930,211.6238,216.2604,186.9074,220.0151 P,0,5322,5930,H P,0,5403,5484,V P,0,5565,5646,V F,0,5626,5930,1,0
Sprite,Background,Centre,"sb\btrfl1.png",190,314 S,0,5727,,0.504 R,0,5727,,-6.424047 M,1,5727,6335,135.5509,321.7651,110.8013,325.2948 P,0,5727,6335,H P,0,5808,5889,V P,0,5970,6051,V F,0,6031,6335,1,0
Sprite,Background,Centre,"sb\btrfl1.png",362,380 S,0,6538,,0.504 R,0,6538,,-6.336343 M,1,6538,7146,307.08,382.966,282.1164,384.3142 P,0,6538,7146,H P,0,6619,6700,V P,0,6781,6862,V F,0,6842,7146,1,0
Sprite,Background,Centre,"sb\btrfl1.png",525,416 S,0,6944,,0.504 R,0,6944,,-6.253671 M,1,6944,7552,470.0227,414.4207,445.033,413.7028 P,0,6944,7552,H P,0,7025,7106,V P,0,7187,7268,V F,0,7248,7552,1,0
Sprite,Background,Centre,"sb\btrfl1.png",484,251 S,0,7349,,0.504 R,0,7349,,-6.335244 M,1,7349,7957,429.0768,253.9057,404.1117,255.2264 P,0,7349,7957,H P,0,7430,7511,V P,0,7592,7673,V F,0,7653,7957,1,0
Sprite,Background,Centre,"sb\btrfl1.png",309,102 S,0,8160,,0.504 R,0,8160,,-6.078924 M,1,8160,8768,255.1345,90.8865,230.6502,85.83491 P,0,8160,8768,H P,0,8241,8322,V P,0,8403,8484,V F,0,8464,8768,1,0
Sprite,Background,Centre,"sb\btrfl1.png",136,264 S,0,8971,,0.504 R,0,8971,,-6.554817 M,1,8971,9579,83.02837,278.7989,58.95036,285.5256 P,0,8971,9579,H P,0,9052,9133,V P,0,9214,9295,V F,0,9275,9579,1,0
Sprite,Background,Centre,"sb\btrfl1.png",230,276 S,0,9781,,0.504 R,0,9781,,-6.138815 M,1,9781,10389,175.5659,268.1305,150.8231,264.5535 P,0,9781,10389,H P,0,9862,9943,V P,0,10024,10105,V F,0,10085,10389,1,0
Sprite,Background,Centre,"sb\btrfl1.png",71,331 S,0,10187,,0.504 R,0,10187,,-6.072327 M,1,10187,10795,17.20902,319.5313,-7.24143,314.3183 P,0,10187,10795,H P,0,10268,10349,V P,0,10430,10511,V F,0,10491,10795,1,0
Sprite,Background,Centre,"sb\btrfl1.png",199,440 S,0,10592,,0.504 R,0,10592,,-6.23141 M,1,10592,11200,144.0715,437.1973,119.1039,435.9234 P,0,10592,11200,H P,0,10673,10754,V P,0,10835,10916,V F,0,10896,11200,1,0
Sprite,Background,Centre,"sb\btrfl1.png",439,313 S,0,11403,,0.504 R,0,11403,,-6.412704 M,1,11403,12011,384.4663,320.1471,359.6783,323.3957 P,0,11403,12011,H P,0,11484,11565,V P,0,11646,11727,V F,0,11707,12011,1,0
Sprite,Background,Centre,"sb\btrfl1.png",318,195 S,0,12619,,0.504 R,0,12619,,-6.161546 M,1,12619,13227,263.4011,188.3698,238.5834,185.3561 P,0,12619,13227,H P,0,12700,12781,V P,0,12862,12943,V F,0,12923,13227,1,0
Sprite,Background,Centre,"sb\btrfl1.png",462,108 S,0,13025,,0.504 R,0,13025,,-6.145974 M,1,13025,13633,407.511,100.5204,382.7432,97.12063 P,0,13025,13633,H P,0,13106,13187,V P,0,13268,13349,V F,0,13329,13633,1,0
Sprite,Background,Centre,"sb\btrfl1.png",353,329 S,0,13835,,0.504 R,0,13835,,-6.074049 M,1,13835,14443,299.1893,317.624,274.7299,312.4531 P,0,13835,14443,H P,0,13916,13997,V P,0,14078,14159,V F,0,14139,14443,1,0
Sprite,Background,Centre,"sb\btrfl1.png",81,254 S,0,14646,,0.504 R,0,14646,,-6.553688 M,1,14646,15254,28.01169,268.739,3.9261,275.4386 P,0,14646,15254,H P,0,14727,14808,V P,0,14889,14970,V F,0,14950,15254,1,0
Sprite,Background,Centre,"sb\btrfl1.png",220,158 S,0,15052,,0.504 R,0,15052,,-6.220029 M,1,15052,15660,165.1069,154.5724,140.1555,153.0144 P,0,15052,15660,H P,0,15133,15214,V P,0,15295,15376,V F,0,15356,15660,1,0
Sprite,Background,Centre,"sb\btrfl1.png",373,232 S,0,15862,,0.504 R,0,15862,,-6.306858 M,1,15862,16470,318.0165,233.3457,293.024,233.9573 P,0,15862,16470,H P,0,15943,16024,V P,0,16105,16186,V F,0,16166,16470,1,0
Sprite,Background,Centre,"sb\btrfl1.png",534,277 S,0,16268,,0.504 R,0,16268,,-6.102991 M,1,16268,16876,479.8827,267.1859,455.2839,262.725 P,0,16268,16876,H P,0,16349,16430,V P,0,16511,16592,V F,0,16572,16876,1,0
Sprite,Background,Centre,"sb\btrfl1.png",289,205 S,0,17079,,0.504 R,0,17079,,-6.22619 M,1,17079,17687,234.0868,201.9107,209.1263,200.5064 P,0,17079,17687,H P,0,17160,17241,V P,0,17322,17403,V F,0,17383,17687,1,0
Sprite,Background,Centre,"sb\btrfl1.png",140,282 S,0,17484,,0.504 R,0,17484,,-6.296592 M,1,17484,18092,85.00555,282.7812,60.00807,283.1362 P,0,17484,18092,H P,0,17565,17646,V P,0,17727,17808,V F,0,17788,18092,1,0
Sprite,Background,Centre,"sb\btrfl1.png",282,373 S,0,17890,,0.504 R,0,17890,,-6.529445 M,1,17890,18498,228.67,386.4503,204.4291,392.564 P,0,17890,18498,H P,0,17971,18052,V P,0,18133,18214,V F,0,18194,18498,1,0
Sprite,Background,Centre,"sb\btrfl1.png",431,296 S,0,18295,,0.504 R,0,18295,,-6.476438 M,1,18295,18903,377.0323,306.6058,352.5015,311.4267 P,0,18295,18903,H P,0,18376,18457,V P,0,18538,18619,V F,0,18599,18903,1,0
Sprite,Background,Centre,"sb\btrfl1.png",289,206 S,0,19106,,0.504 R,0,19106,,-6.343337 M,1,19106,19714,234.1021,209.35,209.1485,210.8728 P,0,19106,19714,H P,0,19187,19268,V P,0,19349,19430,V F,0,19410,19714,1,0
Sprite,Background,Centre,"sb\btrfl1.png",194,91 S,0,19511,,0.504 R,0,19511,,-6.421414 M,1,19511,20119,139.5307,98.62177,114.7719,102.0862 P,0,19511,20119,H P,0,19592,19673,V P,0,19754,19835,V F,0,19815,20119,1,0
Sprite,Background,Centre,"sb\btrfl1.png",84,333 S,0,20322,,0.504 R,0,20322,,-6.075728 M,1,20322,20930,30.17031,321.7144,5.702277,316.5846 P,0,20322,20930,H P,0,20403,20484,V P,0,20565,20646,V F,0,20626,20930,1,0
Sprite,Background,Centre,"sb\btrfl1.png",240,290 S,0,21133,,0.504 R,0,21133,,-6.248651 M,1,21133,21741,185.0313,288.1448,160.0455,287.3015 P,0,21133,21741,H P,0,21214,21295,V P,0,21376,21457,V F,0,21437,21741,1,0
Sprite,Background,Centre,"sb\btrfl1.png",404,352 S,0,21944,,0.504 R,0,21944,,-6.188518 M,1,21944,22552,349.2422,346.8447,324.3522,344.5014 P,0,21944,22552,H P,0,22025,22106,V P,0,22187,22268,V F,0,22248,22552,1,0
Sprite,Background,Centre,"sb\btrfl1.png",308,99 S,0,22754,,0.504 R,0,22754,,-6.554803 M,1,22754,23362,255.0282,113.7981,230.9501,120.5246 P,0,22754,23362,H P,0,22835,22916,V P,0,22997,23078,V F,0,23058,23362,1,0
Sprite,Background,Centre,"sb\btrfl1.png",475,77 S,0,23160,,0.504 R,0,23160,,-6.379498 M,1,23160,23768,420.2591,82.33259,395.3769,84.7565 P,0,23160,23768,H P,0,23241,23322,V P,0,23403,23484,V F,0,23464,23768,1,0
Sprite,Background,Centre,"sb\btrfl1.png",342,179 S,0,23565,,0.504 R,0,23565,,-6.398429 M,1,23565,24173,287.3699,185.3679,262.538,188.2624 P,0,23565,24173,H P,0,23646,23727,V P,0,23808,23889,V F,0,23869,24173,1,0
Sprite,Background,Centre,"sb\btrfl1.png",70,108 S,0,24376,,0.504 R,0,24376,,-6.091272 M,1,24376,24984,16.0014,97.55246,-8.54342,92.80358 P,0,24376,24984,H P,0,24457,24538,V P,0,24619,24700,V F,0,24680,24984,1,0
Sprite,Background,Centre,"sb\btrfl1.png",144,379 S,0,25187,,0.504 R,0,25187,,-6.317435 M,1,25187,25795,89.03378,380.9272,64.04913,381.8031 P,0,25187,25795,H P,0,25268,25349,V P,0,25430,25511,V F,0,25491,25795,1,0
Sprite,Background,Centre,"sb\btrfl1.png",458,261 S,0,25998,,0.504 R,0,25998,,-6.212014 M,1,25998,26606,403.1361,257.1326,378.198,255.3746 P,0,25998,26606,H P,0,26079,26160,V P,0,26241,26322,V F,0,26302,26606,1,0
Sprite,Background,Centre,"sb\btrfl1.png",319,304 S,0,26808,,0.504 R,0,26808,,-6.510521 M,1,26808,27416,265.425,316.4387,241.0728,322.0927 P,0,26808,27416,H P,0,26889,26970,V P,0,27051,27132,V F,0,27112,27416,1,0
Sprite,Background,Centre,"sb\btrfl1.png",476,103 S,0,27619,,0.504 R,0,27619,,-6.433274 M,1,27619,28227,421.6249,111.2672,396.9089,115.0251 P,0,27619,28227,H P,0,27700,27781,V P,0,27862,27943,V F,0,27923,28227,1,0
Sprite,Background,Centre,"sb\btrfl1.png",307,105 S,0,28025,,0.504 R,0,28025,,-6.116451 M,1,28025,28633,252.7555,95.91524,228.0989,91.7858 P,0,28025,28633,H P,0,28106,28187,V P,0,28268,28349,V F,0,28329,28633,1,0
Sprite,Background,Centre,"sb\btrfl1.png",139,94 S,0,28430,,0.504 R,0,28430,,-6.172617 M,1,28430,29038,84.33104,87.97467,59.48151,85.23589 P,0,28430,29038,H P,0,28511,28592,V P,0,28673,28754,V F,0,28734,29038,1,0
Sprite,Background,Centre,"sb\btrfl1.png",222,365 S,0,29241,,0.504 R,0,29241,,-6.40142 M,1,29241,29849,167.3892,371.5313,142.5661,374.5 P,0,29241,29849,H P,0,29322,29403,V P,0,29484,29565,V F,0,29545,29849,1,0
Sprite,Background,Centre,"sb\btrfl1.png",393,196 S,0,30052,,0.504 R,0,30052,,-6.341395 M,1,30052,30660,338.0957,199.2435,313.1392,200.7178 P,0,30052,30660,H P,0,30133,30214,V P,0,30295,30376,V F,0,30356,30660,1,0
Sprite,Background,Centre,"sb\btrfl1.png",522,302 S,0,30457,,0.504 R,0,30457,,-6.496587 M,1,30457,31065,468.2569,313.691,443.8282,319.0052 P,0,30457,31065,H P,0,30538,30619,V P,0,30700,30781,V F,0,30761,31065,1,0
Sprite,Background,Centre,"sb\btrfl1.png",365,360 S,0,30862,,0.504 R,0,30862,,-6.459342 M,1,30862,31470,310.8589,369.6817,286.2492,374.0825 P,0,30862,31470,H P,0,30943,31024,V P,0,31105,31186,V F,0,31166,31470,1,0
Sprite,Background,Centre,"sb\btrfl1.png",152,98 S,0,32484,,0.504 R,0,32484,,-6.364964 M,1,32484,33092,97.1874,102.5364,72.27258,104.5984 P,0,32484,33092,H P,0,32565,32646,V P,0,32727,32808,V F,0,32788,33092,1,0
Sprite,Background,Centre,"sb\btrfl1.png",115,432 S,0,33295,,0.504 R,0,33295,,-6.210637 M,1,33295,33903,60.14152,428.057,35.20585,426.2647 P,0,33295,33903,H P,0,33376,33457,V P,0,33538,33619,V F,0,33599,33903,1,0
Sprite,Background,Centre,"sb\btrfl1.png",250,232 S,0,34106,,0.504 R,0,34106,,-6.260085 M,1,34106,34714,195.0137,230.7734,170.0199,230.2158 P,0,34106,34714,H P,0,34187,34268,V P,0,34349,34430,V F,0,34410,34714,1,0
Sprite,Background,Centre,"sb\btrfl1.png",396,150 S,0,34511,,0.504 R,0,34511,,-6.326016 M,1,34511,35119,341.0523,152.3987,316.0761,153.4891 P,0,34511,35119,H P,0,34592,34673,V P,0,34754,34835,V F,0,34815,35119,1,0
Sprite,Background,Centre,"sb\btrfl1.png",501,282 S,0,35322,,0.504 R,0,35322,,-6.472543 M,1,35322,35930,446.9914,292.3956,422.442,297.1208 P,0,35322,35930,H P,0,35403,35484,V P,0,35565,35646,V F,0,35626,35930,1,0
Sprite,Background,Centre,"sb\btrfl1.png",390,405 S,0,35727,,0.504 R,0,35727,,-6.130904 M,1,35727,36335,335.6299,396.7002,310.9161,392.9275 P,0,35727,36335,H P,0,35808,35889,V P,0,35970,36051,V F,0,36031,36335,1,0
Sprite,Background,Centre,"sb\btrfl1.png",197,252 S,0,36538,,0.504 R,0,36538,,-6.157289 M,1,36538,37146,142.4298,245.1374,117.6252,242.018 P,0,36538,37146,H P,0,36619,36700,V P,0,36781,36862,V F,0,36842,37146,1,0
Sprite,Background,Centre,"sb\btrfl1.png",277,224 S,0,37552,,0.504 R,0,37552,,-6.202301 M,1,37552,38160,222.1763,219.5999,197.2564,217.5998 P,0,37552,38160,H P,0,37633,37714,V P,0,37795,37876,V F,0,37856,38160,1,0
Sprite,Background,Centre,"sb\btrfl1.png",277,224 S,0,37754,,0.504 R,0,37754,,-6.140891 M,1,37754,38362,222.5497,216.2435,197.7995,212.7178 P,0,37754,38362,H P,0,37835,37916,V P,0,37997,38078,V F,0,38058,38362,1,0
Sprite,Background,Centre,"sb\btrfl1.png",307,361 S,0,38160,,0.504 R,0,38160,,-6.230125 M,1,38160,38768,252.0751,358.1268,227.1092,356.8208 P,0,38160,38768,H P,0,38241,38322,V P,0,38403,38484,V F,0,38464,38768,1,0
Sprite,Background,Centre,"sb\btrfl1.png",535,290 S,0,38971,,0.504 R,0,38971,,-6.257567 M,1,38971,39579,480.0169,288.6349,455.0247,288.0144 P,0,38971,39579,H P,0,39052,39133,V P,0,39214,39295,V F,0,39275,39579,1,0
Sprite,Background,Centre,"sb\btrfl1.png",368,268 S,0,39376,,0.504 R,0,39376,,-6.460797 M,1,39376,39984,313.873,277.7604,289.2698,282.197 P,0,39376,39984,H P,0,39457,39538,V P,0,39619,39700,V F,0,39680,39984,1,0
Sprite,Background,Centre,"sb\btrfl1.png",452,121 S,0,39781,,0.504 R,0,39781,,-6.122319 M,1,39781,40389,397.7031,112.2337,373.0227,108.249 P,0,39781,40389,H P,0,39862,39943,V P,0,40024,40105,V F,0,40085,40389,1,0
Sprite,Background,Centre,"sb\btrfl1.png",196,214 S,0,40592,,0.504 R,0,40592,,-6.12178 M,1,40592,41200,141.7078,205.2044,117.0296,201.2065 P,0,40592,41200,H P,0,40673,40754,V P,0,40835,40916,V F,0,40896,41200,1,0
Sprite,Background,Centre,"sb\btrfl1.png",444,312 S,0,41403,,0.504 R,0,41403,,-6.52671 M,1,41403,42011,390.6334,325.3044,366.3759,331.3518 P,0,41403,42011,H P,0,41484,41565,V P,0,41646,41727,V F,0,41707,42011,1,0
Sprite,Background,Centre,"sb\btrfl1.png",465,405 S,0,42214,,0.504 R,0,42214,,-6.150711 M,1,42214,42822,410.4761,397.7786,385.6926,394.4961 P,0,42214,42822,H P,0,42295,42376,V P,0,42457,42538,V F,0,42518,42822,1,0
Sprite,Background,Centre,"sb\btrfl1.png",500,241 S,0,42619,,0.504 R,0,42619,,-6.484929 M,1,42619,43227,446.1243,252.0637,421.6353,257.0926 P,0,42619,43227,H P,0,42700,42781,V P,0,42862,42943,V F,0,42923,43227,1,0
Sprite,Background,Centre,"sb\btrfl1.png",386,116 S,0,43025,,0.504 R,0,43025,,-6.247942 M,1,43025,43633,331.0326,114.1058,306.0475,113.2448 P,0,43025,43633,H P,0,43106,43187,V P,0,43268,43349,V F,0,43329,43633,1,0
Sprite,Background,Centre,"sb\btrfl1.png",229,227 S,0,43835,,0.504 R,0,43835,,-6.156593 M,1,43835,44443,174.4346,220.0994,149.6322,216.9628 P,0,43835,44443,H P,0,43916,43997,V P,0,44078,44159,V F,0,44139,44443,1,0
Sprite,Background,Centre,"sb\btrfl1.png",380,301 S,0,45052,,0.504 R,0,45052,,-6.460406 M,1,45052,45660,325.8692,310.7393,301.2643,315.1663 P,0,45052,45660,H P,0,45133,45214,V P,0,45295,45376,V F,0,45356,45660,1,0
Sprite,Background,Centre,"sb\btrfl1.png",527,220 S,0,45457,,0.504 R,0,45457,,-6.070014 M,1,45457,46065,473.2357,208.407,448.7974,203.1374 P,0,45457,46065,H P,0,45538,45619,V P,0,45700,45781,V F,0,45761,46065,1,0
Sprite,Background,Centre,"sb\btrfl1.png",350,75 S,0,46268,,0.504 R,0,46268,,-6.329317 M,1,46268,46876,295.0605,77.5801,270.0881,78.75288 P,0,46268,46876,H P,0,46349,46430,V P,0,46511,46592,V F,0,46572,46876,1,0
Sprite,Background,Centre,"sb\btrfl1.png",177,236 S,0,47079,,0.504 R,0,47079,,-6.243897 M,1,47079,47687,122.0407,233.8835,97.05926,232.9214 P,0,47079,47687,H P,0,47160,47241,V P,0,47322,47403,V F,0,47383,47687,1,0
Sprite,Background,Centre,"sb\btrfl1.png",296,357 S,0,47484,,0.504 R,0,47484,,-6.210137 M,1,47484,48092,241.1435,353.0296,216.2087,351.2249 P,0,47484,48092,H P,0,47565,47646,V P,0,47727,47808,V F,0,47788,48092,1,0
Sprite,Background,Centre,"sb\btrfl1.png",339,194 S,0,48295,,0.504 R,0,48295,,-6.165269 M,1,48295,48903,284.3768,187.5731,259.5481,184.6518 P,0,48295,48903,H P,0,48376,48457,V P,0,48538,48619,V F,0,48599,48903,1,0
Sprite,Background,Centre,"sb\btrfl1.png",462,80 S,0,48700,,0.504 R,0,48700,,-6.519532 M,1,48700,49308,408.5393,92.92097,384.239,98.79415 P,0,48700,49308,H P,0,48781,48862,V P,0,48943,49024,V F,0,49004,49308,1,0
Sprite,Background,Centre,"sb\btrfl1.png",556,307 S,0,49511,,0.504 R,0,49511,,-6.205453 M,1,49511,50119,501.1627,302.7727,476.2367,300.8512 P,0,49511,50119,H P,0,49592,49673,V P,0,49754,49835,V F,0,49815,50119,1,0
Sprite,Background,Centre,"sb\btrfl1.png",276,259 S,0,50322,,0.504 R,0,50322,,-6.210774 M,1,50322,50930,221.141,255.0646,196.2051,253.2758 P,0,50322,50930,H P,0,50403,50484,V P,0,50565,50646,V F,0,50626,50930,1,0
Sprite,Background,Centre,"sb\btrfl1.png",420,172 S,0,50727,,0.504 R,0,50727,,-6.507236 M,1,50727,51335,366.3845,184.2627,342.0138,189.8366 P,0,50727,51335,H P,0,50808,50889,V P,0,50970,51051,V F,0,51031,51335,1,0
Sprite,Background,Centre,"sb\btrfl1.png",251,176 S,0,51538,,0.504 R,0,51538,,-6.117412 M,1,51538,52146,196.7468,166.9674,172.0862,162.8616 P,0,51538,52146,H P,0,51619,51700,V P,0,51781,51862,V F,0,51842,52146,1,0
Sprite,Background,Centre,"sb\btrfl1.png",100,410 S,0,52349,,0.504 R,0,52349,,-6.475438 M,1,52349,52957,46.02169,420.5519,21.4861,425.3482 P,0,52349,52957,H P,0,52430,52511,V P,0,52592,52673,V F,0,52653,52957,1,0
Sprite,Background,Centre,"sb\btrfl1.png",72,244 S,0,52754,,0.504 R,0,52754,,-6.331595 M,1,52754,53362,17.06657,246.7052,-7.90317,247.9349 P,0,52754,53362,H P,0,52835,52916,V P,0,52997,53078,V F,0,53058,53362,1,0
Sprite,Background,Centre,"sb\btrfl1.png",251,144 S,0,53565,,0.504 R,0,53565,,-6.299603 M,1,53565,54173,196.0081,144.9467,171.0119,145.377 P,0,53565,54173,H P,0,53646,53727,V P,0,53808,53889,V F,0,53869,54173,1,0
Sprite,Background,Centre,"sb\btrfl1.png",430,263 S,0,54376,,0.504 R,0,54376,,-6.407249 M,1,54376,54984,375.4282,269.8495,350.6228,272.9629 P,0,54376,54984,H P,0,54457,54538,V P,0,54619,54700,V F,0,54680,54984,1,0
Sprite,Background,Centre,"sb\btrfl1.png",511,296 S,0,55187,,0.504 R,0,55187,,-6.234482 M,1,55187,55795,456.0631,293.3661,431.0918,292.1689 P,0,55187,55795,H P,0,55268,55349,V P,0,55430,55511,V F,0,55491,55795,1,0
Sprite,Background,Centre,"sb\btrfl1.png",346,261 S,0,55592,,0.504 R,0,55592,,-6.335801 M,1,55592,56200,291.0784,263.9363,266.1141,265.2709 P,0,55592,56200,H P,0,55673,55754,V P,0,55835,55916,V F,0,55896,56200,1,0
Sprite,Background,Centre,"sb\btrfl1.png",438,407 S,0,55998,,0.504 R,0,55998,,-6.153252 M,1,55998,56606,383.458,399.9172,358.6661,396.6977 P,0,55998,56606,H P,0,56079,56160,V P,0,56241,56322,V F,0,56302,56606,1,0
Sprite,Background,Centre,"sb\btrfl1.png",385,335 S,0,56808,,0.504 R,0,56808,,-6.165398 M,1,56808,57416,330.3759,328.5802,305.5468,325.6621 P,0,56808,57416,H P,0,56889,56970,V P,0,57051,57132,V F,0,57112,57416,1,0
Sprite,Background,Centre,"sb\btrfl1.png",99,140 S,0,58430,,0.504 R,0,58430,,-6.173185 M,1,58430,59038,44.32763,134.0057,19.47655,131.281 P,0,58430,59038,H P,0,58511,58592,V P,0,58673,58754,V F,0,58734,59038,1,0
Sprite,Background,Centre,"sb\btrfl1.png",189,404 S,0,59241,,0.504 R,0,59241,,-6.187747 M,1,59241,59849,134.2461,398.8025,109.358,396.4399 P,0,59241,59849,H P,0,59322,59403,V P,0,59484,59565,V F,0,59545,59849,1,0
Sprite,Background,Centre,"sb\btrfl1.png",343,205 S,0,60052,,0.504 R,0,60052,,-6.10123 M,1,60052,60660,288.9001,195.0907,264.3092,190.5864 P,0,60052,60660,H P,0,60133,60214,V P,0,60295,60376,V F,0,60356,60660,1,0
Sprite,Background,Centre,"sb\btrfl1.png",337,374 S,0,60457,,0.504 R,0,60457,,-6.422502 M,1,60457,61065,282.539,381.681,257.784,385.1724 P,0,60457,61065,H P,0,60538,60619,V P,0,60700,60781,V F,0,60761,61065,1,0
Sprite,Background,Centre,"sb\btrfl1.png",259,224 S,0,60862,,0.504 R,0,60862,,-6.308608 M,1,60862,61470,204.0189,225.4418,179.0275,226.0972 P,0,60862,61470,H P,0,60943,61024,V P,0,61105,61186,V F,0,61166,61470,1,0
Sprite,Background,Centre,"sb\btrfl1.png",427,186 S,0,61701,,0.504 R,0,61701,,-6.238304 M,1,61701,62309,372.0534,183.5761,347.0777,182.4743 P,0,61701,62309,H P,0,61782,61863,V P,0,61944,62025,V F,0,62005,62309,1,0
Sprite,Background,Centre,"sb\btrfl1.png",228,350 S,0,62589,,0.504 R,0,62589,,-6.403706 M,1,62589,63197,173.4042,356.6561,148.588,359.6815 P,0,62589,63197,H P,0,62670,62751,V P,0,62832,62913,V F,0,62893,63197,1,0
Sprite,Background,Centre,"sb\btrfl1.png",474,422 S,0,63550,,0.504 R,0,63550,,-6.426639 M,1,63550,64158,419.5712,429.9063,394.8309,433.5 P,0,63550,64158,H P,0,63631,63712,V P,0,63793,63874,V F,0,63854,64158,1,0
Sprite,Background,Centre,"sb\btrfl1.png",413,173 S,0,64640,,0.504 R,0,64640,,-6.159695 M,1,64640,65248,358.4135,166.2688,333.6014,163.2091 P,0,64640,65248,H P,0,64721,64802,V P,0,64883,64964,V F,0,64944,65248,1,0
Sprite,Background,Centre,"sb\btrfl2.png",533,136 S,0,52,,0.504 R,0,52,,-4.130398 S,0,52,132,0.68 M,1,52,660,487.0547,105.7671,466.1704,92.02491 P,0,52,660,V V,0,133,134,0.68,0.68,0.4,0.68 V,0,214,215,0.6808,0.68,0.68,0.68 V,0,297,298,0.68,0.68,0.4,0.68 F,0,356,660,1,0 V,0,376,377,0.6808,0.68,0.68,0.68
Sprite,Background,Centre,"sb\btrfl2.png",255,325 S,0,863,,0.504 R,0,863,,-3.988919 S,0,863,943,0.68 M,1,863,1471,213.7768,288.5906,195.039,272.0408 P,0,863,1471,V V,0,944,945,0.68,0.68,0.4,0.68 V,0,1025,1026,0.6808,0.68,0.68,0.68 V,0,1108,1109,0.68,0.68,0.4,0.68 F,0,1167,1471,1,0 V,0,1187,1188,0.6808,0.68,0.68,0.68
Sprite,Background,Centre,"sb\btrfl2.png",266,208 S,0,1673,,0.504 R,0,1673,,-4.180975 S,0,1673,1753,0.68 M,1,1673,2281,218.585,180.1286,197.0327,167.4598 P,0,1673,2281,V V,0,1754,1755,0.68,0.68,0.4,0.68 V,0,1835,1836,0.6808,0.68,0.68,0.68 V,0,1918,1919,0.68,0.68,0.4,0.68 F,0,1977,2281,1,0 V,0,1997,1998,0.6808,0.68,0.68,0.68
Sprite,Background,Centre,"sb\btrfl2.png",400,309 S,0,2079,,0.504 R,0,2079,,-4.11941 S,0,2079,2159,0.68 M,1,2079,2687,354.3896,278.2641,333.6577,264.2932 P,0,2079,2687,V V,0,2160,2161,0.68,0.68,0.4,0.68 V,0,2241,2242,0.6808,0.68,0.68,0.68 V,0,2324,2325,0.68,0.68,0.4,0.68 F,0,2383,2687,1,0 V,0,2403,2404,0.6808,0.68,0.68,0.68
Sprite,Background,Centre,"sb\btrfl2.png",246,375 S,0,2890,,0.504 R,0,2890,,-4.157474 S,0,2890,2970,0.68 M,1,2890,3498,199.253,346.0221,178.0044,332.8503 P,0,2890,3498,V V,0,2971,2972,0.68,0.68,0.4,0.68 V,0,3052,3053,0.6808,0.68,0.68,0.68 V,0,3135,3136,0.68,0.68,0.4,0.68 F,0,3194,3498,1,0 V,0,3214,3215,0.6808,0.68,0.68,0.68
Sprite,Background,Centre,"sb\btrfl2.png",266,208 S,0,3295,,0.504 R,0,3295,,-4.101136 S,0,3295,3375,0.68 M,1,3295,3903,220.9589,176.4358,200.4856,162.0885 P,0,3295,3903,V V,0,3376,3377,0.68,0.68,0.4,0.68 V,0,3457,3458,0.6808,0.68,0.68,0.68 V,0,3540,3541,0.68,0.68,0.4,0.68 F,0,3599,3903,1,0 V,0,3619,3620,0.6808,0.68,0.68,0.68
Sprite,Background,Centre,"sb\btrfl2.png",421,142 S,0,3700,,0.504 R,0,3700,,-3.997184 S,0,3700,3780,0.68 M,1,3700,4308,379.4773,105.9325,360.6033,89.5382 P,0,3700,4308,V V,0,3781,3782,0.68,0.68,0.4,0.68 V,0,3862,3863,0.6808,0.68,0.68,0.68 V,0,3945,3946,0.68,0.68,0.4,0.68 F,0,4004,4308,1,0 V,0,4024,4025,0.6808,0.68,0.68,0.68
Sprite,Background,Centre,"sb\btrfl2.png",257,125 S,0,4106,,0.504 R,0,4106,,-3.926142 S,0,4106,4186,0.68 M,1,4106,4714,218.1422,86.07613,200.4795,68.38347 P,0,4106,4714,V V,0,4187,4188,0.68,0.68,0.4,0.68 V,0,4268,4269,0.6808,0.68,0.68,0.68 V,0,4351,4352,0.68,0.68,0.4,0.68 F,0,4410,4714,1,0 V,0,4430,4431,0.6808,0.68,0.68,0.68
Sprite,Background,Centre,"sb\btrfl2.png",266,208 S,0,5119,,0.504 R,0,5119,,-4.059925 S,0,5119,5199,0.68 M,1,5119,5727,222.2975,174.607,202.4328,159.4283 P,0,5119,5727,V V,0,5200,5201,0.68,0.68,0.4,0.68 V,0,5281,5282,0.6808,0.68,0.68,0.68 V,0,5364,5365,0.68,0.68,0.4,0.68 F,0,5423,5727,1,0 V,0,5443,5444,0.6808,0.68,0.68,0.68
Sprite,Background,Centre,"sb\btrfl2.png",266,208 S,0,5322,,0.504 R,0,5322,,-3.943105 S,0,5322,5402,0.68 M,1,5322,5930,226.4875,169.7409,208.5273,152.3503 P,0,5322,5930,V V,0,5403,5404,0.68,0.68,0.4,0.68 V,0,5484,5485,0.6808,0.68,0.68,0.68 V,0,5567,5568,0.68,0.68,0.4,0.68 F,0,5626,5930,1,0 V,0,5646,5647,0.6808,0.68,0.68,0.68
Sprite,Background,Centre,"sb\btrfl2.png",190,314 S,0,5727,,0.504 R,0,5727,,-4.056145 S,0,5727,5807,0.68 M,1,5727,6335,146.4241,280.442,126.6169,265.1884 P,0,5727,6335,V V,0,5808,5809,0.68,0.68,0.4,0.68 V,0,5889,5890,0.6808,0.68,0.68,0.68 V,0,5972,5973,0.68,0.68,0.4,0.68 F,0,6031,6335,1,0 V,0,6051,6052,0.6808,0.68,0.68,0.68
Sprite,Background,Centre,"sb\btrfl2.png",362,380 S,0,6538,,0.504 R,0,6538,,-3.775801 S,0,6538,6618,0.68 M,1,6538,7146,329.4103,335.6952,314.5968,315.5567 P,0,6538,7146,V V,0,6619,6620,0.68,0.68,0.4,0.68 V,0,6700,6701,0.6808,0.68,0.68,0.68 V,0,6783,6784,0.68,0.68,0.4,0.68 F,0,6842,7146,1,0 V,0,6862,6863,0.6808,0.68,0.68,0.68
Sprite,Background,Centre,"sb\btrfl2.png",525,416 S,0,6944,,0.504 R,0,6944,,-4.078683 S,0,6944,7024,0.68 M,1,6944,7552,480.6789,383.4326,460.5329,368.6292 P,0,6944,7552,V V,0,7025,7026,0.68,0.68,0.4,0.68 V,0,7106,7107,0.6808,0.68,0.68,0.68 V,0,7189,7190,0.68,0.68,0.4,0.68 F,0,7248,7552,1,0 V,0,7268,7269,0.6808,0.68,0.68,0.68
Sprite,Background,Centre,"sb\btrfl2.png",484,251 S,0,7349,,0.504 R,0,7349,,-3.995522 S,0,7349,7429,0.68 M,1,7349,7957,442.5373,214.8636,423.6906,198.4379 P,0,7349,7957,V V,0,7430,7431,0.68,0.68,0.4,0.68 V,0,7511,7512,0.6808,0.68,0.68,0.68 V,0,7594,7595,0.68,0.68,0.4,0.68 F,0,7653,7957,1,0 V,0,7673,7674,0.6808,0.68,0.68,0.68
Sprite,Background,Centre,"sb\btrfl2.png",309,102 S,0,8160,,0.504 R,0,8160,,-3.790991 S,0,8160,8240,0.68 M,1,8160,8768,275.7411,58.19538,260.6234,38.28419 P,0,8160,8768,V V,0,8241,8242,0.68,0.68,0.4,0.68 V,0,8322,8323,0.6808,0.68,0.68,0.68 V,0,8405,8406,0.68,0.68,0.4,0.68 F,0,8464,8768,1,0 V,0,8484,8485,0.6808,0.68,0.68,0.68
Sprite,Background,Centre,"sb\btrfl2.png",136,264 S,0,8971,,0.504 R,0,8971,,-4.088746 S,0,8971,9051,0.68 M,1,8971,9579,91.35339,231.8802,71.05948,217.2803 P,0,8971,9579,V V,0,9052,9053,0.68,0.68,0.4,0.68 V,0,9133,9134,0.6808,0.68,0.68,0.68 V,0,9216,9217,0.68,0.68,0.4,0.68 F,0,9275,9579,1,0 V,0,9295,9296,0.6808,0.68,0.68,0.68
Sprite,Background,Centre,"sb\btrfl2.png",230,276 S,0,9781,,0.504 R,0,9781,,-3.892262 S,0,9781,9861,0.68 M,1,9781,10389,192.4829,235.7822,175.4297,217.5014 P,0,9781,10389,V V,0,9862,9863,0.68,0.68,0.4,0.68 V,0,9943,9944,0.6808,0.68,0.68,0.68 V,0,10026,10027,0.68,0.68,0.4,0.68 F,0,10085,10389,1,0 V,0,10105,10106,0.6808,0.68,0.68,0.68
Sprite,Background,Centre,"sb\btrfl2.png",71,331 S,0,10187,,0.504 R,0,10187,,-4.057672 S,0,10187,10267,0.68 M,1,10187,10795,27.3729,297.5086,7.542399,282.2852 P,0,10187,10795,V V,0,10268,10269,0.68,0.68,0.4,0.68 V,0,10349,10350,0.6808,0.68,0.68,0.68 V,0,10432,10433,0.68,0.68,0.4,0.68 F,0,10491,10795,1,0 V,0,10511,10512,0.6808,0.68,0.68,0.68
Sprite,Background,Centre,"sb\btrfl2.png",199,440 S,0,10592,,0.504 R,0,10592,,-4.119802 S,0,10592,10672,0.68 M,1,10592,11200,153.3776,409.282,132.6401,395.3193 P,0,10592,11200,V V,0,10673,10674,0.68,0.68,0.4,0.68 V,0,10754,10755,0.6808,0.68,0.68,0.68 V,0,10837,10838,0.68,0.68,0.4,0.68 F,0,10896,11200,1,0 V,0,10916,10917,0.6808,0.68,0.68,0.68
Sprite,Background,Centre,"sb\btrfl2.png",439,313 S,0,11403,,0.504 R,0,11403,,-4.01891 S,0,11403,11483,0.68 M,1,11403,12011,396.7035,277.8431,377.4778,261.8627 P,0,11403,12011,V V,0,11484,11485,0.68,0.68,0.4,0.68 V,0,11565,11566,0.6808,0.68,0.68,0.68 V,0,11648,11649,0.68,0.68,0.4,0.68 F,0,11707,12011,1,0 V,0,11727,11728,0.6808,0.68,0.68,0.68
Sprite,Background,Centre,"sb\btrfl2.png",318,195 S,0,12619,,0.504 R,0,12619,,-4.007066 S,0,12619,12699,0.68 M,1,12619,13227,276.1229,159.3446,257.0879,143.1376 P,0,12619,13227,V V,0,12700,12701,0.68,0.68,0.4,0.68 V,0,12781,12782,0.6808,0.68,0.68,0.68 V,0,12864,12865,0.68,0.68,0.4,0.68 F,0,12923,13227,1,0 V,0,12943,12944,0.6808,0.68,0.68,0.68
Sprite,Background,Centre,"sb\btrfl2.png",462,108 S,0,13025,,0.504 R,0,13025,,-3.860036 S,0,13025,13105,0.68 M,1,13025,13633,425.7982,66.59428,409.3429,47.7735 P,0,13025,13633,V V,0,13106,13107,0.68,0.68,0.4,0.68 V,0,13187,13188,0.6808,0.68,0.68,0.68 V,0,13270,13271,0.68,0.68,0.4,0.68 F,0,13329,13633,1,0 V,0,13349,13350,0.6808,0.68,0.68,0.68
Sprite,Background,Centre,"sb\btrfl2.png",353,329 S,0,13835,,0.504 R,0,13835,,-3.702966 S,0,13835,13915,0.68 M,1,13835,14443,323.7208,282.4411,310.412,261.278 P,0,13835,14443,V V,0,13916,13917,0.68,0.68,0.4,0.68 V,0,13997,13998,0.6808,0.68,0.68,0.68 V,0,14080,14081,0.68,0.68,0.4,0.68 F,0,14139,14443,1,0 V,0,14159,14160,0.6808,0.68,0.68,0.68
Sprite,Background,Centre,"sb\btrfl2.png",81,254 S,0,14646,,0.504 R,0,14646,,-3.76435 S,0,14646,14726,0.68 M,1,14646,15254,48.91975,209.325,34.33782,189.0182 P,0,14646,15254,V V,0,14727,14728,0.68,0.68,0.4,0.68 V,0,14808,14809,0.6808,0.68,0.68,0.68 V,0,14891,14892,0.68,0.68,0.4,0.68 F,0,14950,15254,1,0 V,0,14970,14971,0.6808,0.68,0.68,0.68
Sprite,Background,Centre,"sb\btrfl2.png",220,158 S,0,15052,,0.504 R,0,15052,,-3.843988 S,0,15052,15132,0.68 M,1,15052,15660,184.4674,116.0187,168.3162,96.93626 P,0,15052,15660,V V,0,15133,15134,0.68,0.68,0.4,0.68 V,0,15214,15215,0.6808,0.68,0.68,0.68 V,0,15297,15298,0.68,0.68,0.4,0.68 F,0,15356,15660,1,0 V,0,15376,15377,0.6808,0.68,0.68,0.68
Sprite,Background,Centre,"sb\btrfl2.png",373,232 S,0,15862,,0.504 R,0,15862,,-3.892691 S,0,15862,15942,0.68 M,1,15862,16470,335.4657,191.7983,318.4046,173.5248 P,0,15862,16470,V V,0,15943,15944,0.68,0.68,0.4,0.68 V,0,16024,16025,0.6808,0.68,0.68,0.68 V,0,16107,16108,0.68,0.68,0.4,0.68 F,0,16166,16470,1,0 V,0,16186,16187,0.6808,0.68,0.68,0.68
Sprite,Background,Centre,"sb\btrfl2.png",534,277 S,0,16268,,0.504 R,0,16268,,-3.746304 S,0,16268,16348,0.68 M,1,16268,16876,502.7311,231.7534,488.518,211.1867 P,0,16268,16876,V V,0,16349,16350,0.68,0.68,0.4,0.68 V,0,16430,16431,0.6808,0.68,0.68,0.68 V,0,16513,16514,0.68,0.68,0.4,0.68 F,0,16572,16876,1,0 V,0,16592,16593,0.6808,0.68,0.68,0.68
Sprite,Background,Centre,"sb\btrfl2.png",289,205 S,0,17079,,0.504 R,0,17079,,-3.902634 S,0,17079,17159,0.68 M,1,17079,17687,251.0678,165.1735,233.8259,147.0705 P,0,17079,17687,V V,0,17160,17161,0.68,0.68,0.4,0.68 V,0,17241,17242,0.6808,0.68,0.68,0.68 V,0,17324,17325,0.68,0.68,0.4,0.68 F,0,17383,17687,1,0 V,0,17403,17404,0.6808,0.68,0.68,0.68
Sprite,Background,Centre,"sb\btrfl2.png",140,282 S,0,17484,,0.504 R,0,17484,,-3.802047 S,0,17484,17564,0.68 M,1,17484,18092,106.2589,238.5658,90.92196,218.8229 P,0,17484,18092,V V,0,17565,17566,0.68,0.68,0.4,0.68 V,0,17646,17647,0.6808,0.68,0.68,0.68 V,0,17729,17730,0.68,0.68,0.4,0.68 F,0,17788,18092,1,0 V,0,17808,17809,0.6808,0.68,0.68,0.68
Sprite,Background,Centre,"sb\btrfl2.png",282,373 S,0,17890,,0.504 R,0,17890,,-4.156634 S,0,17890,17970,0.68 M,1,17890,18498,235.2774,343.9828,214.0398,330.7932 P,0,17890,18498,V V,0,17971,17972,0.68,0.68,0.4,0.68 V,0,18052,18053,0.6808,0.68,0.68,0.68 V,0,18135,18136,0.68,0.68,0.4,0.68 F,0,18194,18498,1,0 V,0,18214,18215,0.6808,0.68,0.68,0.68
Sprite,Background,Centre,"sb\btrfl2.png",431,296 S,0,18295,,0.504 R,0,18295,,-3.901096 S,0,18295,18375,0.68 M,1,18295,18903,393.1292,256.1152,375.9151,237.9857 P,0,18295,18903,V V,0,18376,18377,0.68,0.68,0.4,0.68 V,0,18457,18458,0.6808,0.68,0.68,0.68 V,0,18540,18541,0.68,0.68,0.4,0.68 F,0,18599,18903,1,0 V,0,18619,18620,0.6808,0.68,0.68,0.68
Sprite,Background,Centre,"sb\btrfl2.png",289,206 S,0,19106,,0.504 R,0,19106,,-3.716884 S,0,19106,19186,0.68 M,1,19106,19714,259.0756,159.8531,245.4736,138.8773 P,0,19106,19714,V V,0,19187,19188,0.68,0.68,0.4,0.68 V,0,19268,19269,0.6808,0.68,0.68,0.68 V,0,19351,19352,0.68,0.68,0.4,0.68 F,0,19410,19714,1,0 V,0,19430,19431,0.6808,0.68,0.68,0.68
Sprite,Background,Centre,"sb\btrfl2.png",194,91 S,0,19511,,0.504 R,0,19511,,-4.054958 S,0,19511,19591,0.68 M,1,19511,20119,150.4639,57.3903,130.6748,42.11316 P,0,19511,20119,V V,0,19592,19593,0.68,0.68,0.4,0.68 V,0,19673,19674,0.6808,0.68,0.68,0.68 V,0,19756,19757,0.68,0.68,0.4,0.68 F,0,19815,20119,1,0 V,0,19835,19836,0.6808,0.68,0.68,0.68
Sprite,Background,Centre,"sb\btrfl2.png",84,333 S,0,20322,,0.504 R,0,20322,,-3.769484 S,0,20322,20402,0.68 M,1,20322,20930,51.69083,288.4903,37.00485,268.2585 P,0,20322,20930,V V,0,20403,20404,0.68,0.68,0.4,0.68 V,0,20484,20485,0.6808,0.68,0.68,0.68 V,0,20567,20568,0.68,0.68,0.4,0.68 F,0,20626,20930,1,0 V,0,20646,20647,0.6808,0.68,0.68,0.68
Sprite,Background,Centre,"sb\btrfl2.png",240,290 S,0,21133,,0.504 R,0,21133,,-4.068884 S,0,21133,21213,0.68 M,1,21133,21741,196.0001,256.9998,176.0002,241.9998 P,0,21133,21741,V V,0,21214,21215,0.68,0.68,0.4,0.68 V,0,21295,21296,0.6808,0.68,0.68,0.68 V,0,21378,21379,0.68,0.68,0.4,0.68 F,0,21437,21741,1,0 V,0,21457,21458,0.6808,0.68,0.68,0.68
Sprite,Background,Centre,"sb\btrfl2.png",404,352 S,0,21944,,0.504 R,0,21944,,-3.711496 S,0,21944,22024,0.68 M,1,21944,22552,374.3247,305.6926,360.836,284.6437 P,0,21944,22552,V V,0,22025,22026,0.68,0.68,0.4,0.68 V,0,22106,22107,0.6808,0.68,0.68,0.68 V,0,22189,22190,0.68,0.68,0.4,0.68 F,0,22248,22552,1,0 V,0,22268,22269,0.6808,0.68,0.68,0.68
Sprite,Background,Centre,"sb\btrfl2.png",308,99 S,0,22754,,0.504 R,0,22754,,-3.700245 S,0,22754,22834,0.68 M,1,22754,23362,278.8476,52.36164,265.5965,31.16239 P,0,22754,23362,V V,0,22835,22836,0.68,0.68,0.4,0.68 V,0,22916,22917,0.6808,0.68,0.68,0.68 V,0,22999,23000,0.68,0.68,0.4,0.68 F,0,23058,23362,1,0 V,0,23078,23079,0.6808,0.68,0.68,0.68
Sprite,Background,Centre,"sb\btrfl2.png",475,77 S,0,23160,,0.504 R,0,23160,,-3.934999 S,0,23160,23240,0.68 M,1,23160,23768,435.799,38.42181,417.9803,20.88626 P,0,23160,23768,V V,0,23241,23242,0.68,0.68,0.4,0.68 V,0,23322,23323,0.6808,0.68,0.68,0.68 V,0,23405,23406,0.68,0.68,0.4,0.68 F,0,23464,23768,1,0 V,0,23484,23485,0.6808,0.68,0.68,0.68
Sprite,Background,Centre,"sb\btrfl2.png",342,179 S,0,23565,,0.504 R,0,23565,,-3.885327 S,0,23565,23645,0.68 M,1,23565,24173,304.7628,138.523,287.8368,120.1244 P,0,23565,24173,V V,0,23646,23647,0.68,0.68,0.4,0.68 V,0,23727,23728,0.6808,0.68,0.68,0.68 V,0,23810,23811,0.68,0.68,0.4,0.68 F,0,23869,24173,1,0 V,0,23889,23890,0.6808,0.68,0.68,0.68
Sprite,Background,Centre,"sb\btrfl2.png",70,108 S,0,24376,,0.504 R,0,24376,,-3.882137 S,0,24376,24456,0.68 M,1,24376,24984,32.89207,67.40442,16.02483,48.95188 P,0,24376,24984,V V,0,24457,24458,0.68,0.68,0.4,0.68 V,0,24538,24539,0.6808,0.68,0.68,0.68 V,0,24621,24622,0.68,0.68,0.4,0.68 F,0,24680,24984,1,0 V,0,24700,24701,0.6808,0.68,0.68,0.68
Sprite,Background,Centre,"sb\btrfl2.png",144,379 S,0,25187,,0.504 R,0,25187,,-3.755652 S,0,25187,25267,0.68 M,1,25187,25795,112.3095,334.0476,97.90478,313.6147 P,0,25187,25795,V V,0,25268,25269,0.68,0.68,0.4,0.68 V,0,25349,25350,0.6808,0.68,0.68,0.68 V,0,25432,25433,0.68,0.68,0.4,0.68 F,0,25491,25795,1,0 V,0,25511,25512,0.6808,0.68,0.68,0.68
Sprite,Background,Centre,"sb\btrfl2.png",458,261 S,0,25998,,0.504 R,0,25998,,-3.891458 S,0,25998,26078,0.68 M,1,25998,26606,420.5153,220.7521,403.4768,202.4575 P,0,25998,26606,V V,0,26079,26080,0.68,0.68,0.4,0.68 V,0,26160,26161,0.6808,0.68,0.68,0.68 V,0,26243,26244,0.68,0.68,0.4,0.68 F,0,26302,26606,1,0 V,0,26322,26323,0.6808,0.68,0.68,0.68
Sprite,Background,Centre,"sb\btrfl2.png",319,304 S,0,26808,,0.504 R,0,26808,,-3.975919 S,0,26808,26888,0.68 M,1,26808,27416,278.2536,267.0578,259.7325,250.2658 P,0,26808,27416,V V,0,26889,26890,0.68,0.68,0.4,0.68 V,0,26970,26971,0.6808,0.68,0.68,0.68 V,0,27053,27054,0.68,0.68,0.4,0.68 F,0,27112,27416,1,0 V,0,27132,27133,0.6808,0.68,0.68,0.68
Sprite,Background,Centre,"sb\btrfl2.png",476,103 S,0,27619,,0.504 R,0,27619,,-4.176218 S,0,27619,27699,0.68 M,1,27619,28227,428.7181,74.90334,407.2263,62.13214 P,0,27619,28227,V V,0,27700,27701,0.68,0.68,0.4,0.68 V,0,27781,27782,0.6808,0.68,0.68,0.68 V,0,27864,27865,0.68,0.68,0.4,0.68 F,0,27923,28227,1,0 V,0,27943,27944,0.6808,0.68,0.68,0.68
Sprite,Background,Centre,"sb\btrfl2.png",307,105 S,0,28025,,0.504 R,0,28025,,-3.735257 S,0,28025,28105,0.68 M,1,28025,28633,276.2329,59.41069,262.2478,38.68828 P,0,28025,28633,V V,0,28106,28107,0.68,0.68,0.4,0.68 V,0,28187,28188,0.6808,0.68,0.68,0.68 V,0,28270,28271,0.68,0.68,0.4,0.68 F,0,28329,28633,1,0 V,0,28349,28350,0.6808,0.68,0.68,0.68
Sprite,Background,Centre,"sb\btrfl2.png",139,94 S,0,28430,,0.504 R,0,28430,,-3.739303 S,0,28430,28510,0.68 M,1,28430,29038,108.0487,48.53554,93.97993,27.86988 P,0,28430,29038,V V,0,28511,28512,0.68,0.68,0.4,0.68 V,0,28592,28593,0.6808,0.68,0.68,0.68 V,0,28675,28676,0.68,0.68,0.4,0.68 F,0,28734,29038,1,0 V,0,28754,28755,0.6808,0.68,0.68,0.68
Sprite,Background,Centre,"sb\btrfl2.png",222,365 S,0,29241,,0.504 R,0,29241,,-3.889244 S,0,29241,29321,0.68 M,1,29241,29849,184.6045,324.6692,167.6065,306.337 P,0,29241,29849,V V,0,29322,29323,0.68,0.68,0.4,0.68 V,0,29403,29404,0.6808,0.68,0.68,0.68 V,0,29486,29487,0.68,0.68,0.4,0.68 F,0,29545,29849,1,0 V,0,29565,29566,0.6808,0.68,0.68,0.68
Sprite,Background,Centre,"sb\btrfl2.png",393,196 S,0,30052,,0.504 R,0,30052,,-3.975602 S,0,30052,30132,0.68 M,1,30052,30660,352.2653,159.0449,333.7495,142.2471 P,0,30052,30660,V V,0,30133,30134,0.68,0.68,0.4,0.68 V,0,30214,30215,0.6808,0.68,0.68,0.68 V,0,30297,30298,0.68,0.68,0.4,0.68 F,0,30356,30660,1,0 V,0,30376,30377,0.6808,0.68,0.68,0.68
Sprite,Background,Centre,"sb\btrfl2.png",522,302 S,0,30457,,0.504 R,0,30457,,-4.066494 S,0,30457,30537,0.68 M,1,30457,31065,478.0791,268.8947,458.1151,253.8469 P,0,30457,31065,V V,0,30538,30539,0.68,0.68,0.4,0.68 V,0,30619,30620,0.6808,0.68,0.68,0.68 V,0,30702,30703,0.68,0.68,0.4,0.68 F,0,30761,31065,1,0 V,0,30781,30782,0.6808,0.68,0.68,0.68
Sprite,Background,Centre,"sb\btrfl2.png",365,360 S,0,30862,,0.504 R,0,30862,,-3.707165 S,0,30862,30942,0.68 M,1,30862,31470,335.5255,313.5645,322.1281,292.4575 P,0,30862,31470,V V,0,30943,30944,0.68,0.68,0.4,0.68 V,0,31024,31025,0.6808,0.68,0.68,0.68 V,0,31107,31108,0.68,0.68,0.4,0.68 F,0,31166,31470,1,0 V,0,31186,31187,0.6808,0.68,0.68,0.68
Sprite,Background,Centre,"sb\btrfl2.png",152,98 S,0,32484,,0.504 R,0,32484,,-3.753575 S,0,32484,32564,0.68 M,1,32484,33092,120.403,52.9819,106.0407,32.51913 P,0,32484,33092,V V,0,32565,32566,0.68,0.68,0.4,0.68 V,0,32646,32647,0.6808,0.68,0.68,0.68 V,0,32729,32730,0.68,0.68,0.4,0.68 F,0,32788,33092,1,0 V,0,32808,32809,0.6808,0.68,0.68,0.68
Sprite,Background,Centre,"sb\btrfl2.png",115,432 S,0,33295,,0.504 R,0,33295,,-3.911465 S,0,33295,33375,0.68 M,1,33295,33903,76.71761,392.51,59.31652,374.56 P,0,33295,33903,V V,0,33376,33377,0.68,0.68,0.4,0.68 V,0,33457,33458,0.6808,0.68,0.68,0.68 V,0,33540,33541,0.68,0.68,0.4,0.68 F,0,33599,33903,1,0 V,0,33619,33620,0.6808,0.68,0.68,0.68
Sprite,Background,Centre,"sb\btrfl2.png",250,232 S,0,34106,,0.504 R,0,34106,,-4.190188 S,0,34106,34186,0.68 M,1,34106,34714,202.3302,204.5666,180.6621,192.0969 P,0,34106,34714,V V,0,34187,34188,0.68,0.68,0.4,0.68 V,0,34268,34269,0.6808,0.68,0.68,0.68 V,0,34351,34352,0.68,0.68,0.4,0.68 F,0,34410,34714,1,0 V,0,34430,34431,0.6808,0.68,0.68,0.68
Sprite,Background,Centre,"sb\btrfl2.png",396,150 S,0,34511,,0.504 R,0,34511,,-4.055165 S,0,34511,34591,0.68 M,1,34511,35119,352.457,116.3993,332.6647,101.1263 P,0,34511,35119,V V,0,34592,34593,0.68,0.68,0.4,0.68 V,0,34673,34674,0.6808,0.68,0.68,0.68 V,0,34756,34757,0.68,0.68,0.4,0.68 F,0,34815,35119,1,0 V,0,34835,34836,0.6808,0.68,0.68,0.68
Sprite,Background,Centre,"sb\btrfl2.png",501,282 S,0,35322,,0.504 R,0,35322,,-3.898146 S,0,35322,35402,0.68 M,1,35322,35930,463.2469,242.0036,446.0865,223.8235 P,0,35322,35930,V V,0,35403,35404,0.68,0.68,0.4,0.68 V,0,35484,35485,0.6808,0.68,0.68,0.68 V,0,35567,35568,0.68,0.68,0.4,0.68 F,0,35626,35930,1,0 V,0,35646,35647,0.6808,0.68,0.68,0.68
Sprite,Background,Centre,"sb\btrfl2.png",390,405 S,0,35727,,0.504 R,0,35727,,-3.970362 S,0,35727,35807,0.68 M,1,35727,36335,349.4595,367.8319,331.032,350.9373 P,0,35727,36335,V V,0,35808,35809,0.68,0.68,0.4,0.68 V,0,35889,35890,0.6808,0.68,0.68,0.68 V,0,35972,35973,0.68,0.68,0.4,0.68 F,0,36031,36335,1,0 V,0,36051,36052,0.6808,0.68,0.68,0.68
Sprite,Background,Centre,"sb\btrfl2.png",197,252 S,0,36538,,0.504 R,0,36538,,-3.985952 S,0,36538,36618,0.68 M,1,36538,37146,155.885,215.4684,137.1963,198.8632 P,0,36538,37146,V V,0,36619,36620,0.68,0.68,0.4,0.68 V,0,36700,36701,0.6808,0.68,0.68,0.68 V,0,36783,36784,0.68,0.68,0.4,0.68 F,0,36842,37146,1,0 V,0,36862,36863,0.6808,0.68,0.68,0.68
Sprite,Background,Centre,"sb\btrfl2.png",277,224 S,0,37552,,0.504 R,0,37552,,-4.116625 S,0,37552,37632,0.68 M,1,37552,38160,231.4754,193.1372,210.7824,179.1087 P,0,37552,38160,V V,0,37633,37634,0.68,0.68,0.4,0.68 V,0,37714,37715,0.6808,0.68,0.68,0.68 V,0,37797,37798,0.68,0.68,0.4,0.68 F,0,37856,38160,1,0 V,0,37876,37877,0.6808,0.68,0.68,0.68
Sprite,Background,Centre,"sb\btrfl2.png",277,224 S,0,37754,,0.504 R,0,37754,,-3.975421 S,0,37754,37834,0.68 M,1,37754,38362,236.272,187.0375,217.7592,170.2364 P,0,37754,38362,V V,0,37835,37836,0.68,0.68,0.4,0.68 V,0,37916,37917,0.6808,0.68,0.68,0.68 V,0,37999,38000,0.68,0.68,0.4,0.68 F,0,38058,38362,1,0 V,0,38078,38079,0.6808,0.68,0.68,0.68
Sprite,Background,Centre,"sb\btrfl2.png",307,361 S,0,38160,,0.504 R,0,38160,,-3.964783 S,0,38160,38240,0.68 M,1,38160,38768,266.6675,323.6063,248.3345,306.6092 P,0,38160,38768,V V,0,38241,38242,0.68,0.68,0.4,0.68 V,0,38322,38323,0.6808,0.68,0.68,0.68 V,0,38405,38406,0.68,0.68,0.4,0.68 F,0,38464,38768,1,0 V,0,38484,38485,0.6808,0.68,0.68,0.68
Sprite,Background,Centre,"sb\btrfl2.png",535,290 S,0,38971,,0.504 R,0,38971,,-4.054832 S,0,38971,39051,0.68 M,1,38971,39579,491.4682,256.3848,471.681,241.1052 P,0,38971,39579,V V,0,39052,39053,0.68,0.68,0.4,0.68 V,0,39133,39134,0.6808,0.68,0.68,0.68 V,0,39216,39217,0.68,0.68,0.4,0.68 F,0,39275,39579,1,0 V,0,39295,39296,0.6808,0.68,0.68,0.68
Sprite,Background,Centre,"sb\btrfl2.png",368,268 S,0,39376,,0.504 R,0,39376,,-3.79455 S,0,39376,39456,0.68 M,1,39376,39984,334.5854,224.314,319.397,204.4567 P,0,39376,39984,V V,0,39457,39458,0.68,0.68,0.4,0.68 V,0,39538,39539,0.6808,0.68,0.68,0.68 V,0,39621,39622,0.68,0.68,0.4,0.68 F,0,39680,39984,1,0 V,0,39700,39701,0.6808,0.68,0.68,0.68
Sprite,Background,Centre,"sb\btrfl2.png",452,121 S,0,39781,,0.504 R,0,39781,,-3.824095 S,0,39781,39861,0.68 M,1,39781,40389,417.3094,78.32019,401.541,58.92028 P,0,39781,40389,V V,0,39862,39863,0.68,0.68,0.4,0.68 V,0,39943,39944,0.6808,0.68,0.68,0.68 V,0,40026,40027,0.68,0.68,0.4,0.68 F,0,40085,40389,1,0 V,0,40105,40106,0.6808,0.68,0.68,0.68
Sprite,Background,Centre,"sb\btrfl2.png",196,214 S,0,40592,,0.504 R,0,40592,,-4.103291 S,0,40592,40672,0.68 M,1,40592,41200,150.8909,182.533,130.3868,168.2298 P,0,40592,41200,V V,0,40673,40674,0.68,0.68,0.4,0.68 V,0,40754,40755,0.6808,0.68,0.68,0.68 V,0,40837,40838,0.68,0.68,0.4,0.68 F,0,40896,41200,1,0 V,0,40916,40917,0.6808,0.68,0.68,0.68
Sprite,Background,Centre,"sb\btrfl2.png",444,312 S,0,41403,,0.504 R,0,41403,,-3.74201 S,0,41403,41483,0.68 M,1,41403,42011,412.9257,266.6195,398.8011,245.992 P,0,41403,42011,V V,0,41484,41485,0.68,0.68,0.4,0.68 V,0,41565,41566,0.6808,0.68,0.68,0.68 V,0,41648,41649,0.68,0.68,0.4,0.68 F,0,41707,42011,1,0 V,0,41727,41728,0.6808,0.68,0.68,0.68
Sprite,Background,Centre,"sb\btrfl2.png",465,405 S,0,42214,,0.504 R,0,42214,,-4.039261 S,0,42214,42294,0.68 M,1,42214,42822,421.9969,370.7111,402.45,355.1252 P,0,42214,42822,V V,0,42295,42296,0.68,0.68,0.4,0.68 V,0,42376,42377,0.6808,0.68,0.68,0.68 V,0,42459,42460,0.68,0.68,0.4,0.68 F,0,42518,42822,1,0 V,0,42538,42539,0.6808,0.68,0.68,0.68
Sprite,Background,Centre,"sb\btrfl2.png",500,241 S,0,42619,,0.504 R,0,42619,,-3.920843 S,0,42619,42699,0.68 M,1,42619,43227,461.349,201.8708,443.7803,184.0847 P,0,42619,43227,V V,0,42700,42701,0.68,0.68,0.4,0.68 V,0,42781,42782,0.6808,0.68,0.68,0.68 V,0,42864,42865,0.68,0.68,0.4,0.68 F,0,42923,43227,1,0 V,0,42943,42944,0.6808,0.68,0.68,0.68
Sprite,Background,Centre,"sb\btrfl2.png",386,116 S,0,43025,,0.504 R,0,43025,,-4.009199 S,0,43025,43105,0.68 M,1,43025,43633,344.0469,80.43401,324.9774,64.26765 P,0,43025,43633,V V,0,43106,43107,0.68,0.68,0.4,0.68 V,0,43187,43188,0.6808,0.68,0.68,0.68 V,0,43270,43271,0.68,0.68,0.4,0.68 F,0,43329,43633,1,0 V,0,43349,43350,0.6808,0.68,0.68,0.68
Sprite,Background,Centre,"sb\btrfl2.png",229,227 S,0,43835,,0.504 R,0,43835,,-4.126637 S,0,43835,43915,0.68 M,1,43835,44443,183.1687,196.5946,162.3363,182.7739 P,0,43835,44443,V V,0,43916,43917,0.68,0.68,0.4,0.68 V,0,43997,43998,0.6808,0.68,0.68,0.68 V,0,44080,44081,0.68,0.68,0.4,0.68 F,0,44139,44443,1,0 V,0,44159,44160,0.6808,0.68,0.68,0.68
Sprite,Background,Centre,"sb\btrfl2.png",380,301 S,0,45052,,0.504 R,0,45052,,-3.779495 S,0,45052,45132,0.68 M,1,45052,45660,347.2469,256.8159,332.359,236.7323 P,0,45052,45660,V V,0,45133,45134,0.68,0.68,0.4,0.68 V,0,45214,45215,0.6808,0.68,0.68,0.68 V,0,45297,45298,0.68,0.68,0.4,0.68 F,0,45356,45660,1,0 V,0,45376,45377,0.6808,0.68,0.68,0.68
Sprite,Background,Centre,"sb\btrfl2.png",527,220 S,0,45457,,0.504 R,0,45457,,-4.088501 S,0,45457,45537,0.68 M,1,45457,46065,482.3613,187.8693,462.0709,173.2644 P,0,45457,46065,V V,0,45538,45539,0.68,0.68,0.4,0.68 V,0,45619,45620,0.6808,0.68,0.68,0.68 V,0,45702,45703,0.68,0.68,0.4,0.68 F,0,45761,46065,1,0 V,0,45781,45782,0.6808,0.68,0.68,0.68
Sprite,Background,Centre,"sb\btrfl2.png",350,75 S,0,46268,,0.504 R,0,46268,,-4.157264 S,0,46268,46348,0.68 M,1,46268,46876,303.2591,46.01226,282.0132,32.83601 P,0,46268,46876,V V,0,46349,46350,0.68,0.68,0.4,0.68 V,0,46430,46431,0.6808,0.68,0.68,0.68 V,0,46513,46514,0.68,0.68,0.4,0.68 F,0,46572,46876,1,0 V,0,46592,46593,0.6808,0.68,0.68,0.68
Sprite,Background,Centre,"sb\btrfl2.png",177,236 S,0,47079,,0.504 R,0,47079,,-3.872345 S,0,47079,47159,0.68 M,1,47079,47687,140.2914,195.043,123.6056,176.4262 P,0,47079,47687,V V,0,47160,47161,0.68,0.68,0.4,0.68 V,0,47241,47242,0.6808,0.68,0.68,0.68 V,0,47324,47325,0.68,0.68,0.4,0.68 F,0,47383,47687,1,0 V,0,47403,47404,0.6808,0.68,0.68,0.68
Sprite,Background,Centre,"sb\btrfl2.png",296,357 S,0,47484,,0.504 R,0,47484,,-3.937665 S,0,47484,47564,0.68 M,1,47484,48092,256.6962,318.5265,238.8309,301.0385 P,0,47484,48092,V V,0,47565,47566,0.68,0.68,0.4,0.68 V,0,47646,47647,0.6808,0.68,0.68,0.68 V,0,47729,47730,0.68,0.68,0.4,0.68 F,0,47788,48092,1,0 V,0,47808,47809,0.6808,0.68,0.68,0.68
Sprite,Background,Centre,"sb\btrfl2.png",339,194 S,0,48295,,0.504 R,0,48295,,-3.963258 S,0,48295,48375,0.68 M,1,48295,48903,298.7245,156.5449,280.4175,139.5198 P,0,48295,48903,V V,0,48376,48377,0.68,0.68,0.4,0.68 V,0,48457,48458,0.6808,0.68,0.68,0.68 V,0,48540,48541,0.68,0.68,0.4,0.68 F,0,48599,48903,1,0 V,0,48619,48620,0.6808,0.68,0.68,0.68
Sprite,Background,Centre,"sb\btrfl2.png",462,80 S,0,48700,,0.504 R,0,48700,,-3.815608 S,0,48700,48780,0.68 M,1,48700,49308,427.6729,37.02729,412.0698,17.49424 P,0,48700,49308,V V,0,48781,48782,0.68,0.68,0.4,0.68 V,0,48862,48863,0.6808,0.68,0.68,0.68 V,0,48945,48946,0.68,0.68,0.4,0.68 F,0,49004,49308,1,0 V,0,49024,49025,0.6808,0.68,0.68,0.68
Sprite,Background,Centre,"sb\btrfl2.png",556,307 S,0,49511,,0.504 R,0,49511,,-4.084117 S,0,49511,49591,0.68 M,1,49511,50119,511.5026,274.6739,491.2765,259.9802 P,0,49511,50119,V V,0,49592,49593,0.68,0.68,0.4,0.68 V,0,49673,49674,0.6808,0.68,0.68,0.68 V,0,49756,49757,0.68,0.68,0.4,0.68 F,0,49815,50119,1,0 V,0,49835,49836,0.6808,0.68,0.68,0.68
Sprite,Background,Centre,"sb\btrfl2.png",276,259 S,0,50322,,0.504 R,0,50322,,-3.726748 S,0,50322,50402,0.68 M,1,50322,50930,245.6219,213.1506,231.8137,192.3099 P,0,50322,50930,V V,0,50403,50404,0.68,0.68,0.4,0.68 V,0,50484,50485,0.6808,0.68,0.68,0.68 V,0,50567,50568,0.68,0.68,0.4,0.68 F,0,50626,50930,1,0 V,0,50646,50647,0.6808,0.68,0.68,0.68
Sprite,Background,Centre,"sb\btrfl2.png",420,172 S,0,50727,,0.504 R,0,50727,,-3.729093 S,0,50727,50807,0.68 M,1,50727,51335,389.5145,126.2219,375.6574,105.4137 P,0,50727,51335,V V,0,50808,50809,0.68,0.68,0.4,0.68 V,0,50889,50890,0.6808,0.68,0.68,0.68 V,0,50972,50973,0.68,0.68,0.4,0.68 F,0,51031,51335,1,0 V,0,51051,51052,0.6808,0.68,0.68,0.68
Sprite,Background,Centre,"sb\btrfl2.png",251,176 S,0,51538,,0.504 R,0,51538,,-3.804686 S,0,51538,51618,0.68 M,1,51538,52146,217.1443,132.6549,201.7554,112.9526 P,0,51538,52146,V V,0,51619,51620,0.68,0.68,0.4,0.68 V,0,51700,51701,0.6808,0.68,0.68,0.68 V,0,51783,51784,0.68,0.68,0.4,0.68 F,0,51842,52146,1,0 V,0,51862,51863,0.6808,0.68,0.68,0.68
Sprite,Background,Centre,"sb\btrfl2.png",100,410 S,0,52349,,0.504 R,0,52349,,-3.703447 S,0,52349,52429,0.68 M,1,52349,52957,70.6984,363.4552,57.37949,342.2985 P,0,52349,52957,V V,0,52430,52431,0.68,0.68,0.4,0.68 V,0,52511,52512,0.6808,0.68,0.68,0.68 V,0,52594,52595,0.68,0.68,0.4,0.68 F,0,52653,52957,1,0 V,0,52673,52674,0.6808,0.68,0.68,0.68
Sprite,Background,Centre,"sb\btrfl2.png",72,244 S,0,52754,,0.504 R,0,52754,,-3.970702 S,0,52754,52834,0.68 M,1,52754,53362,31.44684,206.8457,13.01359,189.9574 P,0,52754,53362,V V,0,52835,52836,0.68,0.68,0.4,0.68 V,0,52916,52917,0.6808,0.68,0.68,0.68 V,0,52999,53000,0.68,0.68,0.4,0.68 F,0,53058,53362,1,0 V,0,53078,53079,0.6808,0.68,0.68,0.68
Sprite,Background,Centre,"sb\btrfl2.png",251,144 S,0,53565,,0.504 R,0,53565,,-4.03614 S,0,53565,53645,0.68 M,1,53565,54173,208.1041,109.5771,188.6059,93.93027 P,0,53565,54173,V V,0,53646,53647,0.68,0.68,0.4,0.68 V,0,53727,53728,0.6808,0.68,0.68,0.68 V,0,53810,53811,0.68,0.68,0.4,0.68 F,0,53869,54173,1,0 V,0,53889,53890,0.6808,0.68,0.68,0.68
Sprite,Background,Centre,"sb\btrfl2.png",430,263 S,0,54376,,0.504 R,0,54376,,-3.794881 S,0,54376,54456,0.68 M,1,54376,54984,396.571,219.3251,381.3759,199.4729 P,0,54376,54984,V V,0,54457,54458,0.68,0.68,0.4,0.68 V,0,54538,54539,0.6808,0.68,0.68,0.68 V,0,54621,54622,0.68,0.68,0.4,0.68 F,0,54680,54984,1,0 V,0,54700,54701,0.6808,0.68,0.68,0.68
Sprite,Background,Centre,"sb\btrfl2.png",511,296 S,0,55187,,0.504 R,0,55187,,-4.103059 S,0,55187,55267,0.68 M,1,55187,55795,465.8983,264.5225,445.3975,250.2146 P,0,55187,55795,V V,0,55268,55269,0.68,0.68,0.4,0.68 V,0,55349,55350,0.6808,0.68,0.68,0.68 V,0,55432,55433,0.68,0.68,0.4,0.68 F,0,55491,55795,1,0 V,0,55511,55512,0.6808,0.68,0.68,0.68
Sprite,Background,Centre,"sb\btrfl2.png",346,261 S,0,55592,,0.504 R,0,55592,,-4.189631 S,0,55592,55672,0.68 M,1,55592,56200,298.3455,233.54,276.6844,221.0582 P,0,55592,56200,V V,0,55673,55674,0.68,0.68,0.4,0.68 V,0,55754,55755,0.6808,0.68,0.68,0.68 V,0,55837,55838,0.68,0.68,0.4,0.68 F,0,55896,56200,1,0 V,0,55916,55917,0.6808,0.68,0.68,0.68
Sprite,Background,Centre,"sb\btrfl2.png",438,407 S,0,55998,,0.504 R,0,55998,,-3.726696 S,0,55998,56078,0.68 M,1,55998,56606,407.6243,361.149,393.8171,340.3076 P,0,55998,56606,V V,0,56079,56080,0.68,0.68,0.4,0.68 V,0,56160,56161,0.6808,0.68,0.68,0.68 V,0,56243,56244,0.68,0.68,0.4,0.68 F,0,56302,56606,1,0 V,0,56322,56323,0.6808,0.68,0.68,0.68
Sprite,Background,Centre,"sb\btrfl2.png",385,335 S,0,56808,,0.504 R,0,56808,,-4.199793 S,0,56808,56888,0.68 M,1,56808,57416,337.0689,308.0257,315.282,295.7647 P,0,56808,57416,V V,0,56889,56890,0.68,0.68,0.4,0.68 V,0,56970,56971,0.6808,0.68,0.68,0.68 V,0,57053,57054,0.68,0.68,0.4,0.68 F,0,57112,57416,1,0 V,0,57132,57133,0.6808,0.68,0.68,0.68
Sprite,Background,Centre,"sb\btrfl2.png",99,140 S,0,58430,,0.504 R,0,58430,,-4.071338 S,0,58430,58510,0.68 M,1,58430,59038,54.91928,107.1079,34.88258,92.15695 P,0,58430,59038,V V,0,58511,58512,0.68,0.68,0.4,0.68 V,0,58592,58593,0.6808,0.68,0.68,0.68 V,0,58675,58676,0.68,0.68,0.4,0.68 F,0,58734,59038,1,0 V,0,58754,58755,0.6808,0.68,0.68,0.68
Sprite,Background,Centre,"sb\btrfl2.png",189,404 S,0,59241,,0.504 R,0,59241,,-3.798523 S,0,59241,59321,0.68 M,1,59241,59849,155.4121,360.4471,140.1449,340.6504 P,0,59241,59849,V V,0,59322,59323,0.68,0.68,0.4,0.68 V,0,59403,59404,0.6808,0.68,0.68,0.68 V,0,59486,59487,0.68,0.68,0.4,0.68 F,0,59545,59849,1,0 V,0,59565,59566,0.6808,0.68,0.68,0.68
Sprite,Background,Centre,"sb\btrfl2.png",343,205 S,0,60052,,0.504 R,0,60052,,-3.925544 S,0,60052,60132,0.68 M,1,60052,60660,304.1655,166.0529,286.5134,148.3496 P,0,60052,60660,V V,0,60133,60134,0.68,0.68,0.4,0.68 V,0,60214,60215,0.6808,0.68,0.68,0.68 V,0,60297,60298,0.68,0.68,0.4,0.68 F,0,60356,60660,1,0 V,0,60376,60377,0.6808,0.68,0.68,0.68
Sprite,Background,Centre,"sb\btrfl2.png",337,374 S,0,60457,,0.504 R,0,60457,,-3.78362 S,0,60457,60537,0.68 M,1,60457,61065,304.0649,329.9514,289.0944,309.9293 P,0,60457,61065,V V,0,60538,60539,0.68,0.68,0.4,0.68 V,0,60619,60620,0.6808,0.68,0.68,0.68 V,0,60702,60703,0.68,0.68,0.4,0.68 F,0,60761,61065,1,0 V,0,60781,60782,0.6808,0.68,0.68,0.68
Sprite,Background,Centre,"sb\btrfl2.png",259,224 S,0,60862,,0.504 R,0,60862,,-4.159577 S,0,60862,60942,0.68 M,1,60862,61470,212.1922,195.1205,190.9159,181.9934 P,0,60862,61470,V V,0,60943,60944,0.68,0.68,0.4,0.68 V,0,61024,61025,0.6808,0.68,0.68,0.68 V,0,61107,61108,0.68,0.68,0.4,0.68 F,0,61166,61470,1,0 V,0,61186,61187,0.6808,0.68,0.68,0.68
Sprite,Background,Centre,"sb\btrfl2.png",427,186 S,0,61701,,0.504 R,0,61701,,-4.120544 S,0,61701,61781,0.68 M,1,61701,62309,381.3548,155.3159,360.607,141.3685 P,0,61701,62309,V V,0,61782,61783,0.68,0.68,0.4,0.68 V,0,61863,61864,0.6808,0.68,0.68,0.68 V,0,61946,61947,0.68,0.68,0.4,0.68 F,0,62005,62309,1,0 V,0,62025,62026,0.6808,0.68,0.68,0.68
Sprite,Background,Centre,"sb\btrfl2.png",228,350 S,0,62589,,0.504 R,0,62589,,-4.027305 S,0,62589,62669,0.68 M,1,62589,63197,185.4099,315.1994,166.0507,299.381 P,0,62589,63197,V V,0,62670,62671,0.68,0.68,0.4,0.68 V,0,62751,62752,0.6808,0.68,0.68,0.68 V,0,62834,62835,0.68,0.68,0.4,0.68 F,0,62893,63197,1,0 V,0,62913,62914,0.6808,0.68,0.68,0.68
Sprite,Background,Centre,"sb\btrfl2.png",474,422 S,0,63550,,0.504 R,0,63550,,-4.161103 S,0,63550,63630,0.68 M,1,63550,64158,427.1482,393.1919,405.8519,380.0974 P,0,63550,64158,V V,0,63631,63632,0.68,0.68,0.4,0.68 V,0,63712,63713,0.6808,0.68,0.68,0.68 V,0,63795,63796,0.68,0.68,0.4,0.68 F,0,63854,64158,1,0 V,0,63874,63875,0.6808,0.68,0.68,0.68
Sprite,Background,Centre,"sb\btrfl2.png",413,173 S,0,64640,,0.504 R,0,64640,,-3.767362 S,0,64640,64720,0.68 M,1,64640,65248,380.7853,128.4218,366.1423,108.159 P,0,64640,65248,V V,0,64721,64722,0.68,0.68,0.4,0.68 V,0,64802,64803,0.6808,0.68,0.68,0.68 V,0,64885,64886,0.68,0.68,0.4,0.68 F,0,64944,65248,1,0 V,0,64964,64965,0.6808,0.68,0.68,0.68
Sprite,Background,Centre,"sb\btrfl2.png",533,136 S,0,52,,0.504 R,0,52,,-2.50837 S,0,52,132,0.595 M,1,52,660,565.546,91.66313,580.3397,71.51001 P,0,52,660,H P,0,52,660,V V,0,133,134,0.595,0.595,0.35,0.595 V,0,214,215,0.5957,0.595,0.595,0.595 V,0,297,298,0.595,0.595,0.35,0.595 F,0,356,660,1,0 V,0,376,377,0.5957,0.595,0.595,0.595
Sprite,Background,Centre,"sb\btrfl2.png",255,325 S,0,863,,0.504 R,0,863,,-2.572128 S,0,863,943,0.595 M,1,863,1471,284.655,278.6796,298.1345,257.6248 P,0,863,1471,H P,0,863,1471,V V,0,944,945,0.595,0.595,0.35,0.595 V,0,1025,1026,0.5957,0.595,0.595,0.595 V,0,1108,1109,0.595,0.595,0.35,0.595 F,0,1167,1471,1,0 V,0,1187,1188,0.5957,0.595,0.595,0.595
Sprite,Background,Centre,"sb\btrfl2.png",266,208 S,0,1673,,0.504 R,0,1673,,-2.537616 S,0,1673,1753,0.595 M,1,1673,2281,297.2356,162.7304,311.4336,142.1533 P,0,1673,2281,H P,0,1673,2281,V V,0,1754,1755,0.595,0.595,0.35,0.595 V,0,1835,1836,0.5957,0.595,0.595,0.595 V,0,1918,1919,0.595,0.595,0.35,0.595 F,0,1977,2281,1,0 V,0,1997,1998,0.5957,0.595,0.595,0.595
Sprite,Background,Centre,"sb\btrfl2.png",400,309 S,0,2079,,0.504 R,0,2079,,-2.390713 S,0,2079,2159,0.595 M,1,2079,2687,437.5255,268.7901,454.5826,250.5129 P,0,2079,2687,H P,0,2079,2687,V V,0,2160,2161,0.595,0.595,0.35,0.595 V,0,2241,2242,0.5957,0.595,0.595,0.595 V,0,2324,2325,0.595,0.595,0.35,0.595 F,0,2383,2687,1,0 V,0,2403,2404,0.5957,0.595,0.595,0.595
Sprite,Background,Centre,"sb\btrfl2.png",246,375 S,0,2890,,0.504 R,0,2890,,-2.144223 S,0,2890,2970,0.595 M,1,2890,3498,292.2026,345.1617,313.2037,331.5989 P,0,2890,3498,H P,0,2890,3498,V V,0,2971,2972,0.595,0.595,0.35,0.595 V,0,3052,3053,0.5957,0.595,0.595,0.595 V,0,3135,3136,0.595,0.595,0.35,0.595 F,0,3194,3498,1,0 V,0,3214,3215,0.5957,0.595,0.595,0.595
Sprite,Background,Centre,"sb\btrfl2.png",266,208 S,0,3295,,0.504 R,0,3295,,-2.391219 S,0,3295,3375,0.595 M,1,3295,3903,303.5052,167.7711,320.5529,149.4852 P,0,3295,3903,H P,0,3295,3903,V V,0,3376,3377,0.595,0.595,0.35,0.595 V,0,3457,3458,0.5957,0.595,0.595,0.595 V,0,3540,3541,0.595,0.595,0.35,0.595 F,0,3599,3903,1,0 V,0,3619,3620,0.5957,0.595,0.595,0.595
Sprite,Background,Centre,"sb\btrfl2.png",421,142 S,0,3700,,0.504 R,0,3700,,-2.634219 S,0,3700,3780,0.595 M,1,3700,4308,447.7236,93.9287,459.8707,72.07811 P,0,3700,4308,H P,0,3700,4308,V V,0,3781,3782,0.595,0.595,0.35,0.595 V,0,3862,3863,0.5957,0.595,0.595,0.595 V,0,3945,3946,0.595,0.595,0.35,0.595 F,0,4004,4308,1,0 V,0,4024,4025,0.5957,0.595,0.595,0.595
Sprite,Background,Centre,"sb\btrfl2.png",257,125 S,0,4106,,0.504 R,0,4106,,-2.309525 S,0,4106,4186,0.595 M,1,4106,4714,297.6629,87.96585,316.1461,71.13215 P,0,4106,4714,H P,0,4106,4714,V V,0,4187,4188,0.595,0.595,0.35,0.595 V,0,4268,4269,0.5957,0.595,0.595,0.595 V,0,4351,4352,0.595,0.595,0.35,0.595 F,0,4410,4714,1,0 V,0,4430,4431,0.5957,0.595,0.595,0.595
Sprite,Background,Centre,"sb\btrfl2.png",266,208 S,0,5119,,0.504 R,0,5119,,-2.684285 S,0,5119,5199,0.595 M,1,5119,5727,290.2844,158.6516,301.3227,136.2204 P,0,5119,5727,H P,0,5119,5727,V V,0,5200,5201,0.595,0.595,0.35,0.595 V,0,5281,5282,0.5957,0.595,0.595,0.595 V,0,5364,5365,0.595,0.595,0.35,0.595 F,0,5423,5727,1,0 V,0,5443,5444,0.5957,0.595,0.595,0.595
Sprite,Background,Centre,"sb\btrfl2.png",266,208 S,0,5322,,0.504 R,0,5322,,-2.191593 S,0,5322,5402,0.595 M,1,5322,5930,310.7378,176.0074,331.0732,161.4653 P,0,5322,5930,H P,0,5322,5930,V V,0,5403,5404,0.595,0.595,0.35,0.595 V,0,5484,5485,0.5957,0.595,0.595,0.595 V,0,5567,5568,0.595,0.595,0.35,0.595 F,0,5626,5930,1,0 V,0,5646,5647,0.5957,0.595,0.595,0.595
Sprite,Background,Centre,"sb\btrfl2.png",190,314 S,0,5727,,0.504 R,0,5727,,-2.204334 S,0,5727,5807,0.595 M,1,5727,6335,234.3266,281.44,254.475,266.64 P,0,5727,6335,H P,0,5727,6335,V V,0,5808,5809,0.595,0.595,0.35,0.595 V,0,5889,5890,0.5957,0.595,0.595,0.595 V,0,5972,5973,0.595,0.595,0.35,0.595 F,0,6031,6335,1,0 V,0,6051,6052,0.5957,0.595,0.595,0.595
Sprite,Background,Centre,"sb\btrfl2.png",362,380 S,0,6538,,0.504 R,0,6538,,-2.32712 S,0,6538,6618,0.595 M,1,6538,7146,402.005,342.2561,420.1891,325.0998 P,0,6538,7146,H P,0,6538,7146,V V,0,6619,6620,0.595,0.595,0.35,0.595 V,0,6700,6701,0.5957,0.595,0.595,0.595 V,0,6783,6784,0.595,0.595,0.35,0.595 F,0,6842,7146,1,0 V,0,6862,6863,0.5957,0.595,0.595,0.595
Sprite,Background,Centre,"sb\btrfl2.png",525,416 S,0,6944,,0.504 R,0,6944,,-2.442861 S,0,6944,7024,0.595 M,1,6944,7552,560.3786,373.8888,576.4597,354.7473 P,0,6944,7552,H P,0,6944,7552,V V,0,7025,7026,0.595,0.595,0.35,0.595 V,0,7106,7107,0.5957,0.595,0.595,0.595 V,0,7189,7190,0.595,0.595,0.35,0.595 F,0,7248,7552,1,0 V,0,7268,7269,0.5957,0.595,0.595,0.595
Sprite,Background,Centre,"sb\btrfl2.png",484,251 S,0,7349,,0.504 R,0,7349,,-2.328658 S,0,7349,7429,0.595 M,1,7349,7957,523.9469,213.1946,542.1046,196.0104 P,0,7349,7957,H P,0,7349,7957,V V,0,7430,7431,0.595,0.595,0.35,0.595 V,0,7511,7512,0.5957,0.595,0.595,0.595 V,0,7594,7595,0.595,0.595,0.35,0.595 F,0,7653,7957,1,0 V,0,7673,7674,0.5957,0.595,0.595,0.595
Sprite,Background,Centre,"sb\btrfl2.png",309,102 S,0,8160,,0.504 R,0,8160,,-2.687506 S,0,8160,8240,0.595 M,1,8160,8768,333.1253,52.57359,344.0913,30.10704 P,0,8160,8768,H P,0,8160,8768,V V,0,8241,8242,0.595,0.595,0.35,0.595 V,0,8322,8323,0.5957,0.595,0.595,0.595 V,0,8405,8406,0.595,0.595,0.35,0.595 F,0,8464,8768,1,0 V,0,8484,8485,0.5957,0.595,0.595,0.595
Sprite,Background,Centre,"sb\btrfl2.png",136,264 S,0,8971,,0.504 R,0,8971,,-2.021257 S,0,8971,9051,0.595 M,1,8971,9579,185.5136,240.0541,208.0197,229.1696 P,0,8971,9579,H P,0,8971,9579,V V,0,9052,9053,0.595,0.595,0.35,0.595 V,0,9133,9134,0.5957,0.595,0.595,0.595 V,0,9216,9217,0.595,0.595,0.35,0.595 F,0,9275,9579,1,0 V,0,9295,9296,0.5957,0.595,0.595,0.595
Sprite,Background,Centre,"sb\btrfl2.png",230,276 S,0,9781,,0.504 R,0,9781,,-2.603659 S,0,9781,9861,0.595 M,1,9781,10389,258.1799,228.7677,270.989,207.2985 P,0,9781,10389,H P,0,9781,10389,V V,0,9862,9863,0.595,0.595,0.35,0.595 V,0,9943,9944,0.5957,0.595,0.595,0.595 V,0,10026,10027,0.595,0.595,0.35,0.595 F,0,10085,10389,1,0 V,0,10105,10106,0.5957,0.595,0.595,0.595
Sprite,Background,Centre,"sb\btrfl2.png",71,331 S,0,10187,,0.504 R,0,10187,,-2.696743 S,0,10187,10267,0.595 M,1,10187,10795,94.66772,281.3528,105.4258,258.786 P,0,10187,10795,H P,0,10187,10795,V V,0,10268,10269,0.595,0.595,0.35,0.595 V,0,10349,10350,0.5957,0.595,0.595,0.595 V,0,10432,10433,0.595,0.595,0.35,0.595 F,0,10491,10795,1,0 V,0,10511,10512,0.5957,0.595,0.595,0.595
Sprite,Background,Centre,"sb\btrfl2.png",199,440 S,0,10592,,0.504 R,0,10592,,-2.474027 S,0,10592,10672,0.595 M,1,10592,11200,233.0492,396.8068,248.5261,377.1735 P,0,10592,11200,H P,0,10592,11200,V V,0,10673,10674,0.595,0.595,0.35,0.595 V,0,10754,10755,0.5957,0.595,0.595,0.595 V,0,10837,10838,0.595,0.595,0.35,0.595 F,0,10896,11200,1,0 V,0,10916,10917,0.5957,0.595,0.595,0.595
Sprite,Background,Centre,"sb\btrfl2.png",439,313 S,0,11403,,0.504 R,0,11403,,-2.220214 S,0,11403,11483,0.595 M,1,11403,12011,482.804,279.7402,502.7149,264.6222 P,0,11403,12011,H P,0,11403,12011,V V,0,11484,11485,0.595,0.595,0.35,0.595 V,0,11565,11566,0.5957,0.595,0.595,0.595 V,0,11648,11649,0.595,0.595,0.35,0.595 F,0,11707,12011,1,0 V,0,11727,11728,0.5957,0.595,0.595,0.595
Sprite,Background,Centre,"sb\btrfl2.png",318,195 S,0,12619,,0.504 R,0,12619,,-2.571836 S,0,12619,12699,0.595 M,1,12619,13227,347.6685,148.6882,361.1542,127.6374 P,0,12619,13227,H P,0,12619,13227,V V,0,12700,12701,0.595,0.595,0.35,0.595 V,0,12781,12782,0.5957,0.595,0.595,0.595 V,0,12864,12865,0.595,0.595,0.35,0.595 F,0,12923,13227,1,0 V,0,12943,12944,0.5957,0.595,0.595,0.595
Sprite,Background,Centre,"sb\btrfl2.png",462,108 S,0,13025,,0.504 R,0,13025,,-2.593636 S,0,13025,13105,0.595 M,1,13025,13633,490.6519,61.0525,503.6755,39.71273 P,0,13025,13633,H P,0,13025,13633,V V,0,13106,13107,0.595,0.595,0.35,0.595 V,0,13187,13188,0.5957,0.595,0.595,0.595 V,0,13270,13271,0.595,0.595,0.35,0.595 F,0,13329,13633,1,0 V,0,13349,13350,0.5957,0.595,0.595,0.595
Sprite,Background,Centre,"sb\btrfl2.png",353,329 S,0,13835,,0.504 R,0,13835,,-2.694331 S,0,13835,13915,0.595 M,1,13835,14443,376.7874,279.4101,387.5998,256.8692 P,0,13835,14443,H P,0,13835,14443,V V,0,13916,13917,0.595,0.595,0.35,0.595 V,0,13997,13998,0.5957,0.595,0.595,0.595 V,0,14080,14081,0.595,0.595,0.35,0.595 F,0,14139,14443,1,0 V,0,14159,14160,0.5957,0.595,0.595,0.595
Sprite,Background,Centre,"sb\btrfl2.png",81,254 S,0,14646,,0.504 R,0,14646,,-2.022838 S,0,14646,14726,0.595 M,1,14646,15254,130.4756,229.9758,152.9646,219.0558 P,0,14646,15254,H P,0,14646,15254,V V,0,14727,14728,0.595,0.595,0.35,0.595 V,0,14808,14809,0.5957,0.595,0.595,0.595 V,0,14891,14892,0.595,0.595,0.35,0.595 F,0,14950,15254,1,0 V,0,14970,14971,0.5957,0.595,0.595,0.595
Sprite,Background,Centre,"sb\btrfl2.png",220,158 S,0,15052,,0.504 R,0,15052,,-2.489959 S,0,15052,15132,0.595 M,1,15052,15660,253.3567,114.2698,268.5189,94.39246 P,0,15052,15660,H P,0,15052,15660,V V,0,15133,15134,0.595,0.595,0.35,0.595 V,0,15214,15215,0.5957,0.595,0.595,0.595 V,0,15297,15298,0.595,0.595,0.35,0.595 F,0,15356,15660,1,0 V,0,15376,15377,0.5957,0.595,0.595,0.595
Sprite,Background,Centre,"sb\btrfl2.png",373,232 S,0,15862,,0.504 R,0,15862,,-2.368399 S,0,15862,15942,0.595 M,1,15862,16470,411.4134,192.6374,428.874,174.7453 P,0,15862,16470,H P,0,15862,16470,V V,0,15943,15944,0.595,0.595,0.35,0.595 V,0,16024,16025,0.5957,0.595,0.595,0.595 V,0,16107,16108,0.595,0.595,0.35,0.595 F,0,16166,16470,1,0 V,0,16186,16187,0.5957,0.595,0.595,0.595
Sprite,Background,Centre,"sb\btrfl2.png",534,277 S,0,16268,,0.504 R,0,16268,,-2.653813 S,0,16268,16348,0.595 M,1,16268,16876,559.7766,228.4143,571.4932,206.3299 P,0,16268,16876,H P,0,16268,16876,V V,0,16349,16350,0.595,0.595,0.35,0.595 V,0,16430,16431,0.5957,0.595,0.595,0.595 V,0,16513,16514,0.595,0.595,0.35,0.595 F,0,16572,16876,1,0 V,0,16592,16593,0.5957,0.595,0.595,0.595
Sprite,Background,Centre,"sb\btrfl2.png",289,205 S,0,17079,,0.504 R,0,17079,,-2.481334 S,0,17079,17159,0.595 M,1,17079,17687,322.7327,161.5591,338.0657,141.8133 P,0,17079,17687,H P,0,17079,17687,V V,0,17160,17161,0.595,0.595,0.35,0.595 V,0,17241,17242,0.5957,0.595,0.595,0.595 V,0,17324,17325,0.595,0.595,0.35,0.595 F,0,17383,17687,1,0 V,0,17403,17404,0.5957,0.595,0.595,0.595
Sprite,Background,Centre,"sb\btrfl2.png",140,282 S,0,17484,,0.504 R,0,17484,,-2.382771 S,0,17484,17564,0.595 M,1,17484,18092,177.8437,242.0894,195.0454,223.9482 P,0,17484,18092,H P,0,17484,18092,V V,0,17565,17566,0.595,0.595,0.35,0.595 V,0,17646,17647,0.5957,0.595,0.595,0.595 V,0,17729,17730,0.595,0.595,0.35,0.595 F,0,17788,18092,1,0 V,0,17808,17809,0.5957,0.595,0.595,0.595
Sprite,Background,Centre,"sb\btrfl2.png",282,373 S,0,17890,,0.504 R,0,17890,,-2.056777 S,0,17890,17970,0.595 M,1,17890,18498,330.632,347.3109,352.7374,335.6339 P,0,17890,18498,H P,0,17890,18498,V V,0,17971,17972,0.595,0.595,0.35,0.595 V,0,18052,18053,0.5957,0.595,0.595,0.595 V,0,18135,18136,0.595,0.595,0.35,0.595 F,0,18194,18498,1,0 V,0,18214,18215,0.5957,0.595,0.595,0.595
Sprite,Background,Centre,"sb\btrfl2.png",431,296 S,0,18295,,0.504 R,0,18295,,-2.130987 S,0,18295,18375,0.595 M,1,18295,18903,477.5934,266.7759,498.7723,253.4922 P,0,18295,18903,H P,0,18295,18903,V V,0,18376,18377,0.595,0.595,0.35,0.595 V,0,18457,18458,0.5957,0.595,0.595,0.595 V,0,18540,18541,0.595,0.595,0.35,0.595 F,0,18599,18903,1,0 V,0,18619,18620,0.5957,0.595,0.595,0.595
Sprite,Background,Centre,"sb\btrfl2.png",289,206 S,0,19106,,0.504 R,0,19106,,-2.317329 S,0,19106,19186,0.595 M,1,19106,19714,329.3727,168.6496,347.7238,151.6722 P,0,19106,19714,H P,0,19106,19714,V V,0,19187,19188,0.595,0.595,0.35,0.595 V,0,19268,19269,0.5957,0.595,0.595,0.595 V,0,19351,19352,0.595,0.595,0.35,0.595 F,0,19410,19714,1,0 V,0,19430,19431,0.5957,0.595,0.595,0.595
Sprite,Background,Centre,"sb\btrfl2.png",194,91 S,0,19511,,0.504 R,0,19511,,-2.20802 S,0,19511,19591,0.595 M,1,19511,20119,238.2063,58.27684,258.3,43.40268 P,0,19511,20119,H P,0,19511,20119,V V,0,19592,19593,0.595,0.595,0.35,0.595 V,0,19673,19674,0.5957,0.595,0.595,0.595 V,0,19756,19757,0.595,0.595,0.35,0.595 F,0,19815,20119,1,0 V,0,19835,19836,0.5957,0.595,0.595,0.595
Sprite,Background,Centre,"sb\btrfl2.png",84,333 S,0,20322,,0.504 R,0,20322,,-2.691981 S,0,20322,20402,0.595 M,1,20322,20930,107.9039,283.4661,118.7693,260.9507 P,0,20322,20930,H P,0,20322,20930,V V,0,20403,20404,0.595,0.595,0.35,0.595 V,0,20484,20485,0.5957,0.595,0.595,0.595 V,0,20567,20568,0.595,0.595,0.35,0.595 F,0,20626,20930,1,0 V,0,20646,20647,0.5957,0.595,0.595,0.595
Sprite,Background,Centre,"sb\btrfl2.png",240,290 S,0,21133,,0.504 R,0,21133,,-2.449888 S,0,21133,21213,0.595 M,1,21133,21741,275.0818,247.6412,291.0281,228.3872 P,0,21133,21741,H P,0,21133,21741,V V,0,21214,21215,0.595,0.595,0.35,0.595 V,0,21295,21296,0.5957,0.595,0.595,0.595 V,0,21378,21379,0.595,0.595,0.35,0.595 F,0,21437,21741,1,0 V,0,21457,21458,0.5957,0.595,0.595,0.595
Sprite,Background,Centre,"sb\btrfl2.png",404,352 S,0,21944,,0.504 R,0,21944,,-2.534075 S,0,21944,22024,0.595 M,1,21944,22552,435.3957,306.8413,449.6665,286.3146 P,0,21944,22552,H P,0,21944,22552,V V,0,22025,22026,0.595,0.595,0.35,0.595 V,0,22106,22107,0.5957,0.595,0.595,0.595 V,0,22189,22190,0.595,0.595,0.35,0.595 F,0,22248,22552,1,0 V,0,22268,22269,0.5957,0.595,0.595,0.595
Sprite,Background,Centre,"sb\btrfl2.png",308,99 S,0,22754,,0.504 R,0,22754,,-2.021276 S,0,22754,22834,0.595 M,1,22754,23362,357.5131,75.05314,380.0191,64.16821 P,0,22754,23362,H P,0,22754,23362,V V,0,22835,22836,0.595,0.595,0.35,0.595 V,0,22916,22917,0.5957,0.595,0.595,0.595 V,0,22999,23000,0.595,0.595,0.35,0.595 F,0,23058,23362,1,0 V,0,23078,23079,0.5957,0.595,0.595,0.595
Sprite,Background,Centre,"sb\btrfl2.png",475,77 S,0,23160,,0.504 R,0,23160,,-2.266703 S,0,23160,23240,0.595 M,1,23160,23768,517.211,41.74051,536.3978,25.71347 P,0,23160,23768,H P,0,23160,23768,V V,0,23241,23242,0.595,0.595,0.35,0.595 V,0,23322,23323,0.5957,0.595,0.595,0.595 V,0,23405,23406,0.595,0.595,0.35,0.595 F,0,23464,23768,1,0 V,0,23484,23485,0.5957,0.595,0.595,0.595
Sprite,Background,Centre,"sb\btrfl2.png",342,179 S,0,23565,,0.504 R,0,23565,,-2.240199 S,0,23565,23645,0.595 M,1,23565,24173,385.1306,144.8715,404.7354,129.3586 P,0,23565,24173,H P,0,23565,24173,V V,0,23646,23647,0.595,0.595,0.35,0.595 V,0,23727,23728,0.5957,0.595,0.595,0.595 V,0,23810,23811,0.595,0.595,0.35,0.595 F,0,23869,24173,1,0 V,0,23889,23890,0.5957,0.595,0.595,0.595
Sprite,Background,Centre,"sb\btrfl2.png",70,108 S,0,24376,,0.504 R,0,24376,,-2.670219 S,0,24376,24456,0.595 M,1,24376,24984,94.9761,58.99802,106.3289,36.72439 P,0,24376,24984,H P,0,24376,24984,V V,0,24457,24458,0.595,0.595,0.35,0.595 V,0,24538,24539,0.5957,0.595,0.595,0.595 V,0,24621,24622,0.595,0.595,0.35,0.595 F,0,24680,24984,1,0 V,0,24700,24701,0.5957,0.595,0.595,0.595
Sprite,Background,Centre,"sb\btrfl2.png",144,379 S,0,25187,,0.504 R,0,25187,,-2.35359 S,0,25187,25267,0.595 M,1,25187,25795,182.992,340.2105,200.7157,322.5789 P,0,25187,25795,H P,0,25187,25795,V V,0,25268,25269,0.595,0.595,0.35,0.595 V,0,25349,25350,0.5957,0.595,0.595,0.595 V,0,25432,25433,0.595,0.595,0.35,0.595 F,0,25491,25795,1,0 V,0,25511,25512,0.5957,0.595,0.595,0.595
Sprite,Background,Centre,"sb\btrfl2.png",458,261 S,0,25998,,0.504 R,0,25998,,-2.501181 S,0,25998,26078,0.595 M,1,25998,26606,490.8639,216.8983,505.8021,196.852 P,0,25998,26606,H P,0,25998,26606,V V,0,26079,26080,0.595,0.595,0.35,0.595 V,0,26160,26161,0.5957,0.595,0.595,0.595 V,0,26243,26244,0.595,0.595,0.35,0.595 F,0,26302,26606,1,0 V,0,26322,26323,0.5957,0.595,0.595,0.595
Sprite,Background,Centre,"sb\btrfl2.png",319,304 S,0,26808,,0.504 R,0,26808,,-2.08327 S,0,26808,26888,0.595 M,1,26808,27416,366.9344,277.0316,388.7227,264.7732 P,0,26808,27416,H P,0,26808,27416,V V,0,26889,26890,0.595,0.595,0.35,0.595 V,0,26970,26971,0.5957,0.595,0.595,0.595 V,0,27053,27054,0.595,0.595,0.35,0.595 F,0,27112,27416,1,0 V,0,27132,27133,0.5957,0.595,0.595,0.595
Sprite,Background,Centre,"sb\btrfl2.png",476,103 S,0,27619,,0.504 R,0,27619,,-2.191416 S,0,27619,27699,0.595 M,1,27619,28227,520.7435,71.01534,541.0815,56.47684 P,0,27619,28227,H P,0,27619,28227,V V,0,27700,27701,0.595,0.595,0.35,0.595 V,0,27781,27782,0.5957,0.595,0.595,0.595 V,0,27864,27865,0.595,0.595,0.35,0.595 F,0,27923,28227,1,0 V,0,27943,27944,0.5957,0.595,0.595,0.595
Sprite,Background,Centre,"sb\btrfl2.png",307,105 S,0,28025,,0.504 R,0,28025,,-2.634969 S,0,28025,28105,0.595 M,1,28025,28633,333.6876,56.90868,345.8183,35.04899 P,0,28025,28633,H P,0,28025,28633,V V,0,28106,28107,0.595,0.595,0.35,0.595 V,0,28187,28188,0.5957,0.595,0.595,0.595 V,0,28270,28271,0.595,0.595,0.35,0.595 F,0,28329,28633,1,0 V,0,28349,28350,0.5957,0.595,0.595,0.595
Sprite,Background,Centre,"sb\btrfl2.png",139,94 S,0,28430,,0.504 R,0,28430,,-2.556336 S,0,28430,28510,0.595 M,1,28430,29038,169.3827,48.15363,183.1931,27.31438 P,0,28430,29038,H P,0,28430,29038,V V,0,28511,28512,0.595,0.595,0.35,0.595 V,0,28592,28593,0.5957,0.595,0.595,0.595 V,0,28675,28676,0.595,0.595,0.35,0.595 F,0,28734,29038,1,0 V,0,28754,28755,0.5957,0.595,0.595,0.595
Sprite,Background,Centre,"sb\btrfl2.png",222,365 S,0,29241,,0.504 R,0,29241,,-2.236012 S,0,29241,29321,0.595 M,1,29241,29849,265.2731,331.0524,284.9427,315.6217 P,0,29241,29849,H P,0,29241,29849,V V,0,29322,29323,0.595,0.595,0.35,0.595 V,0,29403,29404,0.5957,0.595,0.595,0.595 V,0,29486,29487,0.595,0.595,0.35,0.595 F,0,29545,29849,1,0 V,0,29565,29566,0.5957,0.595,0.595,0.595
Sprite,Background,Centre,"sb\btrfl2.png",393,196 S,0,30052,,0.504 R,0,30052,,-2.320046 S,0,30052,30132,0.595 M,1,30052,30660,433.271,158.5401,451.576,141.5128 P,0,30052,30660,H P,0,30052,30660,V V,0,30133,30134,0.595,0.595,0.35,0.595 V,0,30214,30215,0.5957,0.595,0.595,0.595 V,0,30297,30298,0.595,0.595,0.35,0.595 F,0,30356,30660,1,0 V,0,30376,30377,0.5957,0.595,0.595,0.595
Sprite,Background,Centre,"sb\btrfl2.png",522,302 S,0,30457,,0.504 R,0,30457,,-2.102777 S,0,30457,30537,0.595 M,1,30457,31065,569.3992,274.1017,590.9443,261.4207 P,0,30457,31065,H P,0,30457,31065,V V,0,30538,30539,0.595,0.595,0.35,0.595 V,0,30619,30620,0.5957,0.595,0.595,0.595 V,0,30702,30703,0.595,0.595,0.35,0.595 F,0,30761,31065,1,0 V,0,30781,30782,0.5957,0.595,0.595,0.595
Sprite,Background,Centre,"sb\btrfl2.png",365,360 S,0,30862,,0.504 R,0,30862,,-2.15492 S,0,30862,30942,0.595 M,1,30862,31470,410.8807,329.6692,431.7356,315.8825 P,0,30862,31470,H P,0,30862,31470,V V,0,30943,30944,0.595,0.595,0.35,0.595 V,0,31024,31025,0.5957,0.595,0.595,0.595 V,0,31107,31108,0.595,0.595,0.35,0.595 F,0,31166,31470,1,0 V,0,31186,31187,0.5957,0.595,0.595,0.595
Sprite,Background,Centre,"sb\btrfl2.png",152,98 S,0,32484,,0.504 R,0,32484,,-2.287051 S,0,32484,32564,0.595 M,1,32484,33092,193.4848,61.88895,212.3416,45.47484 P,0,32484,33092,H P,0,32484,33092,V V,0,32565,32566,0.595,0.595,0.35,0.595 V,0,32646,32647,0.5957,0.595,0.595,0.595 V,0,32729,32730,0.595,0.595,0.35,0.595 F,0,32788,33092,1,0 V,0,32808,32809,0.5957,0.595,0.595,0.595
Sprite,Background,Centre,"sb\btrfl2.png",115,432 S,0,33295,,0.504 R,0,33295,,-2.503109 S,0,33295,33375,0.595 M,1,33295,33903,147.7788,387.835,162.6783,367.76 P,0,33295,33903,H P,0,33295,33903,V V,0,33376,33377,0.595,0.595,0.35,0.595 V,0,33457,33458,0.5957,0.595,0.595,0.595 V,0,33540,33541,0.595,0.595,0.35,0.595 F,0,33599,33903,1,0 V,0,33619,33620,0.5957,0.595,0.595,0.595
Sprite,Background,Centre,"sb\btrfl2.png",250,232 S,0,34106,,0.504 R,0,34106,,-2.433881 S,0,34106,34186,0.595 M,1,34106,34714,285.7553,190.2082,302.0077,171.2119 P,0,34106,34714,H P,0,34106,34714,V V,0,34187,34188,0.595,0.595,0.35,0.595 V,0,34268,34269,0.5957,0.595,0.595,0.595 V,0,34351,34352,0.595,0.595,0.35,0.595 F,0,34410,34714,1,0 V,0,34430,34431,0.5957,0.595,0.595,0.595
Sprite,Background,Centre,"sb\btrfl2.png",396,150 S,0,34511,,0.504 R,0,34511,,-2.341578 S,0,34511,34591,0.595 M,1,34511,35119,435.4552,111.6817,453.3893,94.26433 P,0,34511,35119,H P,0,34511,35119,V V,0,34592,34593,0.595,0.595,0.35,0.595 V,0,34673,34674,0.5957,0.595,0.595,0.595 V,0,34756,34757,0.595,0.595,0.35,0.595 F,0,34815,35119,1,0 V,0,34835,34836,0.5957,0.595,0.595,0.595
Sprite,Background,Centre,"sb\btrfl2.png",501,282 S,0,35322,,0.504 R,0,35322,,-2.136439 S,0,35322,35402,0.595 M,1,35322,35930,547.4334,252.5223,568.5396,239.1233 P,0,35322,35930,H P,0,35322,35930,V V,0,35403,35404,0.595,0.595,0.35,0.595 V,0,35484,35485,0.5957,0.595,0.595,0.595 V,0,35567,35568,0.595,0.595,0.35,0.595 F,0,35626,35930,1,0 V,0,35646,35647,0.5957,0.595,0.595,0.595
Sprite,Background,Centre,"sb\btrfl2.png",390,405 S,0,35727,,0.504 R,0,35727,,-2.614734 S,0,35727,35807,0.595 M,1,35727,36335,417.6551,357.4585,430.2256,335.8487 P,0,35727,36335,H P,0,35727,36335,V V,0,35808,35809,0.595,0.595,0.35,0.595 V,0,35889,35890,0.5957,0.595,0.595,0.595 V,0,35972,35973,0.595,0.595,0.35,0.595 F,0,36031,36335,1,0 V,0,36051,36052,0.5957,0.595,0.595,0.595
Sprite,Background,Centre,"sb\btrfl2.png",197,252 S,0,36538,,0.504 R,0,36538,,-2.577796 S,0,36538,36618,0.595 M,1,36538,37146,226.3919,205.5122,239.7519,184.3814 P,0,36538,37146,H P,0,36538,37146,V V,0,36619,36620,0.595,0.595,0.35,0.595 V,0,36700,36701,0.5957,0.595,0.595,0.595 V,0,36783,36784,0.595,0.595,0.35,0.595 F,0,36842,37146,1,0 V,0,36862,36863,0.5957,0.595,0.595,0.595
Sprite,Background,Centre,"sb\btrfl2.png",277,224 S,0,37552,,0.504 R,0,37552,,-2.514778 S,0,37552,37632,0.595 M,1,37552,38160,309.2612,179.4555,323.9254,159.208 P,0,37552,38160,H P,0,37552,38160,V V,0,37633,37634,0.595,0.595,0.35,0.595 V,0,37714,37715,0.5957,0.595,0.595,0.595 V,0,37797,37798,0.595,0.595,0.35,0.595 F,0,37856,38160,1,0 V,0,37876,37877,0.5957,0.595,0.595,0.595
Sprite,Background,Centre,"sb\btrfl2.png",277,224 S,0,37754,,0.504 R,0,37754,,-2.600754 S,0,37754,37834,0.595 M,1,37754,38362,305.317,176.8498,318.1884,155.4178 P,0,37754,38362,H P,0,37754,38362,V V,0,37835,37836,0.595,0.595,0.35,0.595 V,0,37916,37917,0.5957,0.595,0.595,0.595 V,0,37999,38000,0.595,0.595,0.35,0.595 F,0,38058,38362,1,0 V,0,38078,38079,0.5957,0.595,0.595,0.595
Sprite,Background,Centre,"sb\btrfl2.png",307,361 S,0,38160,,0.504 R,0,38160,,-2.475824 S,0,38160,38240,0.595 M,1,38160,38768,340.9715,317.7457,356.4131,298.0846 P,0,38160,38768,H P,0,38160,38768,V V,0,38241,38242,0.595,0.595,0.35,0.595 V,0,38322,38323,0.5957,0.595,0.595,0.595 V,0,38405,38406,0.595,0.595,0.35,0.595 F,0,38464,38768,1,0 V,0,38484,38485,0.5957,0.595,0.595,0.595
Sprite,Background,Centre,"sb\btrfl2.png",535,290 S,0,38971,,0.504 R,0,38971,,-2.437406 S,0,38971,39051,0.595 M,1,38971,39579,570.6078,248.0824,586.7931,229.0289 P,0,38971,39579,H P,0,38971,39579,V V,0,39052,39053,0.595,0.595,0.35,0.595 V,0,39133,39134,0.5957,0.595,0.595,0.595 V,0,39216,39217,0.595,0.595,0.35,0.595 F,0,39275,39579,1,0 V,0,39295,39296,0.5957,0.595,0.595,0.595
Sprite,Background,Centre,"sb\btrfl2.png",368,268 S,0,39376,,0.504 R,0,39376,,-2.152885 S,0,39376,39456,0.595 M,1,39376,39984,413.9424,237.7627,434.8253,224.0184 P,0,39376,39984,H P,0,39376,39984,V V,0,39457,39458,0.595,0.595,0.35,0.595 V,0,39538,39539,0.5957,0.595,0.595,0.595 V,0,39621,39622,0.595,0.595,0.35,0.595 F,0,39680,39984,1,0 V,0,39700,39701,0.5957,0.595,0.595,0.595
Sprite,Background,Centre,"sb\btrfl2.png",452,121 S,0,39781,,0.504 R,0,39781,,-2.626754 S,0,39781,39861,0.595 M,1,39781,40389,479.0817,73.12954,491.3916,51.37024 P,0,39781,40389,H P,0,39781,40389,V V,0,39862,39863,0.595,0.595,0.35,0.595 V,0,39943,39944,0.5957,0.595,0.595,0.595 V,0,40026,40027,0.595,0.595,0.35,0.595 F,0,40085,40389,1,0 V,0,40105,40106,0.5957,0.595,0.595,0.595
Sprite,Background,Centre,"sb\btrfl2.png",196,214 S,0,40592,,0.504 R,0,40592,,-2.627508 S,0,40592,40672,0.595 M,1,40592,41200,223.0456,166.1091,235.3391,144.3405 P,0,40592,41200,H P,0,40592,41200,V V,0,40673,40674,0.595,0.595,0.35,0.595 V,0,40754,40755,0.5957,0.595,0.595,0.595 V,0,40837,40838,0.595,0.595,0.35,0.595 F,0,40896,41200,1,0 V,0,40916,40917,0.5957,0.595,0.595,0.595
Sprite,Background,Centre,"sb\btrfl2.png",444,312 S,0,41403,,0.504 R,0,41403,,-2.060606 S,0,41403,41483,0.595 M,1,41403,42011,492.5332,286.1248,514.5938,274.3634 P,0,41403,42011,H P,0,41403,42011,V V,0,41484,41485,0.595,0.595,0.35,0.595 V,0,41565,41566,0.5957,0.595,0.595,0.595 V,0,41648,41649,0.595,0.595,0.35,0.595 F,0,41707,42011,1,0 V,0,41727,41728,0.5957,0.595,0.595,0.595
Sprite,Background,Centre,"sb\btrfl2.png",465,405 S,0,42214,,0.504 R,0,42214,,-2.587005 S,0,42214,42294,0.595 M,1,42214,42822,493.9626,358.2435,507.1274,336.9906 P,0,42214,42822,H P,0,42214,42822,V V,0,42295,42296,0.595,0.595,0.35,0.595 V,0,42376,42377,0.5957,0.595,0.595,0.595 V,0,42459,42460,0.595,0.595,0.35,0.595 F,0,42518,42822,1,0 V,0,42538,42539,0.5957,0.595,0.595,0.595
Sprite,Background,Centre,"sb\btrfl2.png",500,241 S,0,42619,,0.504 R,0,42619,,-2.1191 S,0,42619,42699,0.595 M,1,42619,43227,546.9376,212.3318,568.2728,199.3008 P,0,42619,43227,H P,0,42619,43227,V V,0,42700,42701,0.595,0.595,0.35,0.595 V,0,42781,42782,0.5957,0.595,0.595,0.595 V,0,42864,42865,0.595,0.595,0.35,0.595 F,0,42923,43227,1,0 V,0,42943,42944,0.5957,0.595,0.595,0.595
Sprite,Background,Centre,"sb\btrfl2.png",386,116 S,0,43025,,0.504 R,0,43025,,-2.450881 S,0,43025,43105,0.595 M,1,43025,43633,421.0397,73.60641,436.9669,54.33659 P,0,43025,43633,H P,0,43025,43633,V V,0,43106,43107,0.595,0.595,0.35,0.595 V,0,43187,43188,0.5957,0.595,0.595,0.595 V,0,43270,43271,0.595,0.595,0.35,0.595 F,0,43329,43633,1,0 V,0,43349,43350,0.5957,0.595,0.595,0.595
Sprite,Background,Centre,"sb\btrfl2.png",229,227 S,0,43835,,0.504 R,0,43835,,-2.57877 S,0,43835,43915,0.595 M,1,43835,44443,258.3466,180.4836,271.686,159.3398 P,0,43835,44443,H P,0,43835,44443,V V,0,43916,43917,0.595,0.595,0.35,0.595 V,0,43997,43998,0.5957,0.595,0.595,0.595 V,0,44080,44081,0.595,0.595,0.35,0.595 F,0,44139,44443,1,0 V,0,44159,44160,0.5957,0.595,0.595,0.595
Sprite,Background,Centre,"sb\btrfl2.png",380,301 S,0,45052,,0.504 R,0,45052,,-2.153431 S,0,45052,45132,0.595 M,1,45052,45660,425.9259,270.7375,446.8013,256.9819 P,0,45052,45660,H P,0,45052,45660,V V,0,45133,45134,0.595,0.595,0.35,0.595 V,0,45214,45215,0.5957,0.595,0.595,0.595 V,0,45297,45298,0.595,0.595,0.35,0.595 F,0,45356,45660,1,0 V,0,45376,45377,0.5957,0.595,0.595,0.595
Sprite,Background,Centre,"sb\btrfl2.png",527,220 S,0,45457,,0.504 R,0,45457,,-2.699981 S,0,45457,45537,0.595 M,1,45457,46065,550.5068,170.2765,561.1918,147.6749 P,0,45457,46065,H P,0,45457,46065,V V,0,45538,45539,0.595,0.595,0.35,0.595 V,0,45619,45620,0.5957,0.595,0.595,0.595 V,0,45702,45703,0.595,0.595,0.35,0.595 F,0,45761,46065,1,0 V,0,45781,45782,0.5957,0.595,0.595,0.595
Sprite,Background,Centre,"sb\btrfl2.png",350,75 S,0,46268,,0.504 R,0,46268,,-2.336956 S,0,46268,46348,0.595 M,1,46268,46876,389.6318,36.86448,407.6463,19.53016 P,0,46268,46876,H P,0,46268,46876,V V,0,46349,46350,0.595,0.595,0.35,0.595 V,0,46430,46431,0.5957,0.595,0.595,0.595 V,0,46513,46514,0.595,0.595,0.35,0.595 F,0,46572,46876,1,0 V,0,46592,46593,0.5957,0.595,0.595,0.595
Sprite,Background,Centre,"sb\btrfl2.png",177,236 S,0,47079,,0.504 R,0,47079,,-2.456544 S,0,47079,47159,0.595 M,1,47079,47687,211.7991,193.4087,227.6169,174.049 P,0,47079,47687,H P,0,47079,47687,V V,0,47160,47161,0.595,0.595,0.35,0.595 V,0,47241,47242,0.5957,0.595,0.595,0.595 V,0,47324,47325,0.595,0.595,0.35,0.595 F,0,47383,47687,1,0 V,0,47403,47404,0.5957,0.595,0.595,0.595
Sprite,Background,Centre,"sb\btrfl2.png",296,357 S,0,47484,,0.504 R,0,47484,,-2.503808 S,0,47484,47564,0.595 M,1,47484,48092,328.7479,312.8121,343.6334,292.7267 P,0,47484,48092,H P,0,47484,48092,V V,0,47565,47566,0.595,0.595,0.35,0.595 V,0,47646,47647,0.5957,0.595,0.595,0.595 V,0,47729,47730,0.595,0.595,0.35,0.595 F,0,47788,48092,1,0 V,0,47808,47809,0.5957,0.595,0.595,0.595
Sprite,Background,Centre,"sb\btrfl2.png",339,194 S,0,48295,,0.504 R,0,48295,,-2.566624 S,0,48295,48375,0.595 M,1,48295,48903,368.9095,147.8435,382.5047,126.8633 P,0,48295,48903,H P,0,48295,48903,V V,0,48376,48377,0.595,0.595,0.35,0.595 V,0,48457,48458,0.5957,0.595,0.595,0.595 V,0,48540,48541,0.595,0.595,0.35,0.595 F,0,48599,48903,1,0 V,0,48619,48620,0.5957,0.595,0.595,0.595
Sprite,Background,Centre,"sb\btrfl2.png",462,80 S,0,48700,,0.504 R,0,48700,,-2.070655 S,0,48700,48780,0.595 M,1,48700,49308,510.2708,53.63843,532.212,41.6559 P,0,48700,49308,H P,0,48700,49308,V V,0,48781,48782,0.595,0.595,0.35,0.595 V,0,48862,48863,0.5957,0.595,0.595,0.595 V,0,48945,48946,0.595,0.595,0.35,0.595 F,0,49004,49308,1,0 V,0,49024,49025,0.5957,0.595,0.595,0.595
Sprite,Background,Centre,"sb\btrfl2.png",556,307 S,0,49511,,0.504 R,0,49511,,-2.510366 S,0,49511,49591,0.595 M,1,49511,50119,588.4575,262.5983,603.2109,242.4157 P,0,49511,50119,H P,0,49511,50119,V V,0,49592,49593,0.595,0.595,0.35,0.595 V,0,49673,49674,0.5957,0.595,0.595,0.595 V,0,49756,49757,0.595,0.595,0.35,0.595 F,0,49815,50119,1,0 V,0,49835,49836,0.5957,0.595,0.595,0.595
Sprite,Background,Centre,"sb\btrfl2.png",276,259 S,0,50322,,0.504 R,0,50322,,-2.502915 S,0,50322,50402,0.595 M,1,50322,50930,308.7874,214.8413,323.6907,194.7692 P,0,50322,50930,H P,0,50322,50930,V V,0,50403,50404,0.595,0.595,0.35,0.595 V,0,50484,50485,0.5957,0.595,0.595,0.595 V,0,50567,50568,0.595,0.595,0.35,0.595 F,0,50626,50930,1,0 V,0,50646,50647,0.5957,0.595,0.595,0.595
Sprite,Background,Centre,"sb\btrfl2.png",420,172 S,0,50727,,0.504 R,0,50727,,-2.087869 S,0,50727,50807,0.595 M,1,50727,51335,467.8098,144.8114,489.5416,132.453 P,0,50727,51335,H P,0,50727,51335,V V,0,50808,50809,0.595,0.595,0.35,0.595 V,0,50889,50890,0.5957,0.595,0.595,0.595 V,0,50972,50973,0.595,0.595,0.35,0.595 F,0,51031,51335,1,0 V,0,51051,51052,0.5957,0.595,0.595,0.595
Sprite,Background,Centre,"sb\btrfl2.png",251,176 S,0,51538,,0.504 R,0,51538,,-2.633623 S,0,51538,51618,0.595 M,1,51538,52146,277.7522,127.9446,289.9123,106.1013 P,0,51538,52146,H P,0,51538,52146,V V,0,51619,51620,0.595,0.595,0.35,0.595 V,0,51700,51701,0.5957,0.595,0.595,0.595 V,0,51783,51784,0.595,0.595,0.35,0.595 F,0,51842,52146,1,0 V,0,51862,51863,0.5957,0.595,0.595,0.595
Sprite,Background,Centre,"sb\btrfl2.png",100,410 S,0,52349,,0.504 R,0,52349,,-2.132387 S,0,52349,52429,0.595 M,1,52349,52957,146.5525,380.7107,167.7127,367.3974 P,0,52349,52957,H P,0,52349,52957,V V,0,52430,52431,0.595,0.595,0.35,0.595 V,0,52511,52512,0.5957,0.595,0.595,0.595 V,0,52594,52595,0.595,0.595,0.35,0.595 F,0,52653,52957,1,0 V,0,52673,52674,0.5957,0.595,0.595,0.595
Sprite,Background,Centre,"sb\btrfl2.png",72,244 S,0,52754,,0.504 R,0,52754,,-2.333767 S,0,52754,52834,0.595 M,1,52754,53362,111.7533,205.9911,129.8229,188.7143 P,0,52754,53362,H P,0,52754,53362,V V,0,52835,52836,0.595,0.595,0.35,0.595 V,0,52916,52917,0.5957,0.595,0.595,0.595 V,0,52999,53000,0.595,0.595,0.35,0.595 F,0,53058,53362,1,0 V,0,53078,53079,0.5957,0.595,0.595,0.595
Sprite,Background,Centre,"sb\btrfl2.png",251,144 S,0,53565,,0.504 R,0,53565,,-2.378557 S,0,53565,53645,0.595 M,1,53565,54173,289.0115,104.2492,306.2895,86.18071 P,0,53565,54173,H P,0,53565,54173,V V,0,53646,53647,0.595,0.595,0.35,0.595 V,0,53727,53728,0.5957,0.595,0.595,0.595 V,0,53810,53811,0.595,0.595,0.35,0.595 F,0,53869,54173,1,0 V,0,53889,53890,0.5957,0.595,0.595,0.595
Sprite,Background,Centre,"sb\btrfl2.png",430,263 S,0,54376,,0.504 R,0,54376,,-2.22785 S,0,54376,54456,0.595 M,1,54376,54984,473.5487,229.4067,493.3436,214.137 P,0,54376,54984,H P,0,54376,54984,V V,0,54457,54458,0.595,0.595,0.35,0.595 V,0,54538,54539,0.5957,0.595,0.595,0.595 V,0,54621,54622,0.595,0.595,0.35,0.595 F,0,54680,54984,1,0 V,0,54700,54701,0.5957,0.595,0.595,0.595
Sprite,Background,Centre,"sb\btrfl2.png",511,296 S,0,55187,,0.504 R,0,55187,,-2.469726 S,0,55187,55267,0.595 M,1,55187,55795,545.2347,252.9536,560.7958,233.3871 P,0,55187,55795,H P,0,55187,55795,V V,0,55268,55269,0.595,0.595,0.35,0.595 V,0,55349,55350,0.5957,0.595,0.595,0.595 V,0,55432,55433,0.595,0.595,0.35,0.595 F,0,55491,55795,1,0 V,0,55511,55512,0.5957,0.595,0.595,0.595
Sprite,Background,Centre,"sb\btrfl2.png",346,261 S,0,55592,,0.504 R,0,55592,,-2.327878 S,0,55592,55672,0.595 M,1,55592,56200,385.9764,223.2258,404.1475,206.0557 P,0,55592,56200,H P,0,55592,56200,V V,0,55673,55674,0.595,0.595,0.35,0.595 V,0,55754,55755,0.5957,0.595,0.595,0.595 V,0,55837,55838,0.595,0.595,0.35,0.595 F,0,55896,56200,1,0 V,0,55916,55917,0.5957,0.595,0.595,0.595
Sprite,Background,Centre,"sb\btrfl2.png",438,407 S,0,55998,,0.504 R,0,55998,,-2.583448 S,0,55998,56078,0.595 M,1,55998,56606,467.1288,360.3469,480.3691,339.1409 P,0,55998,56606,H P,0,55998,56606,V V,0,56079,56080,0.595,0.595,0.35,0.595 V,0,56160,56161,0.5957,0.595,0.595,0.595 V,0,56243,56244,0.595,0.595,0.35,0.595 F,0,56302,56606,1,0 V,0,56322,56323,0.5957,0.595,0.595,0.595
Sprite,Background,Centre,"sb\btrfl2.png",385,335 S,0,56808,,0.504 R,0,56808,,-2.566443 S,0,56808,56888,0.595 M,1,56808,57416,414.9178,288.8489,428.5168,267.8712 P,0,56808,57416,H P,0,56808,57416,V V,0,56889,56890,0.595,0.595,0.35,0.595 V,0,56970,56971,0.5957,0.595,0.595,0.595 V,0,57053,57054,0.595,0.595,0.35,0.595 F,0,57112,57416,1,0 V,0,57132,57133,0.5957,0.595,0.595,0.595
Sprite,Background,Centre,"sb\btrfl2.png",99,140 S,0,58430,,0.504 R,0,58430,,-2.555541 S,0,58430,58510,0.595 M,1,58430,59038,129.4192,94.1778,143.246,73.34952 P,0,58430,59038,H P,0,58430,59038,V V,0,58511,58512,0.595,0.595,0.35,0.595 V,0,58592,58593,0.5957,0.595,0.595,0.595 V,0,58675,58676,0.595,0.595,0.35,0.595 F,0,58734,59038,1,0 V,0,58754,58755,0.5957,0.595,0.595,0.595
Sprite,Background,Centre,"sb\btrfl2.png",189,404 S,0,59241,,0.504 R,0,59241,,-2.535154 S,0,59241,59321,0.595 M,1,59241,59849,220.347,358.8074,234.5956,338.2654 P,0,59241,59849,H P,0,59241,59849,V V,0,59322,59323,0.595,0.595,0.35,0.595 V,0,59403,59404,0.5957,0.595,0.595,0.595 V,0,59486,59487,0.595,0.595,0.35,0.595 F,0,59545,59849,1,0 V,0,59565,59566,0.5957,0.595,0.595,0.595
Sprite,Background,Centre,"sb\btrfl2.png",343,205 S,0,60052,,0.504 R,0,60052,,-2.656278 S,0,60052,60132,0.595 M,1,60052,60660,368.6568,156.3509,380.3189,134.2377 P,0,60052,60660,H P,0,60052,60660,V V,0,60133,60134,0.595,0.595,0.35,0.595 V,0,60214,60215,0.5957,0.595,0.595,0.595 V,0,60297,60298,0.595,0.595,0.35,0.595 F,0,60356,60660,1,0 V,0,60376,60377,0.5957,0.595,0.595,0.595
Sprite,Background,Centre,"sb\btrfl2.png",337,374 S,0,60457,,0.504 R,0,60457,,-2.206498 S,0,60457,60537,0.595 M,1,60457,61065,381.256,341.3442,401.3724,326.5006 P,0,60457,61065,H P,0,60457,61065,V V,0,60538,60539,0.595,0.595,0.35,0.595 V,0,60619,60620,0.5957,0.595,0.595,0.595 V,0,60702,60703,0.595,0.595,0.35,0.595 F,0,60761,61065,1,0 V,0,60781,60782,0.5957,0.595,0.595,0.595
Sprite,Background,Centre,"sb\btrfl2.png",259,224 S,0,60862,,0.504 R,0,60862,,-2.36595 S,0,60862,60942,0.595 M,1,60862,61470,297.5096,184.7316,315.014,166.8823 P,0,60862,61470,H P,0,60862,61470,V V,0,60943,60944,0.595,0.595,0.35,0.595 V,0,61024,61025,0.5957,0.595,0.595,0.595 V,0,61107,61108,0.595,0.595,0.35,0.595 F,0,61166,61470,1,0 V,0,61186,61187,0.5957,0.595,0.595,0.595
Sprite,Background,Centre,"sb\btrfl2.png",427,186 S,0,61701,,0.504 R,0,61701,,-2.464375 S,0,61701,61781,0.595 M,1,61701,62309,461.4645,143.1374,477.1302,123.6545 P,0,61701,62309,H P,0,61701,62309,V V,0,61782,61783,0.595,0.595,0.35,0.595 V,0,61863,61864,0.5957,0.595,0.595,0.595 V,0,61946,61947,0.595,0.595,0.35,0.595 F,0,62005,62309,1,0 V,0,62025,62026,0.5957,0.595,0.595,0.595
Sprite,Background,Centre,"sb\btrfl2.png",228,350 S,0,62589,,0.504 R,0,62589,,-2.232812 S,0,62589,62669,0.595 M,1,62589,63197,271.3815,316.191,291.1004,300.8233 P,0,62589,63197,H P,0,62589,63197,V V,0,62670,62671,0.595,0.595,0.35,0.595 V,0,62751,62752,0.5957,0.595,0.595,0.595 V,0,62834,62835,0.595,0.595,0.35,0.595 F,0,62893,63197,1,0 V,0,62913,62914,0.5957,0.595,0.595,0.595
Sprite,Background,Centre,"sb\btrfl2.png",474,422 S,0,63550,,0.504 R,0,63550,,-2.200706 S,0,63550,63630,0.595 M,1,63550,64158,518.4445,389.6011,538.6465,374.8743 P,0,63550,64158,H P,0,63550,64158,V V,0,63631,63632,0.595,0.595,0.35,0.595 V,0,63712,63713,0.5957,0.595,0.595,0.595 V,0,63795,63796,0.595,0.595,0.35,0.595 F,0,63854,64158,1,0 V,0,63874,63875,0.5957,0.595,0.595,0.595
Sprite,Background,Centre,"sb\btrfl2.png",413,173 S,0,64640,,0.504 R,0,64640,,-2.574427 S,0,64640,64720,0.595 M,1,64640,65248,442.5484,126.6115,455.9795,105.5258 P,0,64640,65248,H P,0,64640,65248,V V,0,64721,64722,0.595,0.595,0.35,0.595 V,0,64802,64803,0.5957,0.595,0.595,0.595 V,0,64885,64886,0.595,0.595,0.35,0.595 F,0,64944,65248,1,0 V,0,64964,64965,0.5957,0.595,0.595,0.595
Sprite,Background,Centre,"sb\flame.png",533,136 S,0,52,,1.6 F,2,52,252,1,0
Sprite,Background,Centre,"sb\flame.png",255,325 S,0,863,,1.6 M,0,863,913,255,325,240.3572,328.254 F,2,863,1468,1,0 M,0,913,964,240.3572,328.254,225.5356,327.5096 M,0,964,1015,225.5356,327.5096,210.6607,325.5759 M,0,1015,1065,210.6607,325.5759,195.7859,323.6422 M,0,1065,1116,195.7859,323.6422,180.9111,321.7084 M,0,1116,1167,180.9111,321.7084,166.0362,319.7747 M,0,1167,1217,166.0362,319.7747,151.1614,317.841 M,0,1217,1268,151.1614,317.841,137,316
Sprite,Background,Centre,"sb\flame.png",266,208 S,0,1673,,1.6 F,2,1673,1873,1,0
Sprite,Background,Centre,"sb\flame.png",400,309 S,0,2079,,1.6 M,0,2079,2129,400,309,401.0946,323.96 F,2,2079,2684,1,0 M,0,2129,2180,401.0946,323.96,402.1893,338.92 M,0,2180,2231,402.1893,338.92,403.2839,353.88 M,0,2231,2281,403.2839,353.88,404.3785,368.84 M,0,2281,2332,404.3785,368.84,403.2839,353.88 M,0,2332,2383,403.2839,353.88,402.1893,338.92 M,0,2383,2433,402.1893,338.92,401.0946,323.96 M,0,2433,2484,401.0946,323.96,400,309
Sprite,Background,Centre,"sb\flame.png",246,375 S,0,2890,,1.6 F,2,2890,3090,1,0
Sprite,Background,Centre,"sb\flame.png",266,208 S,0,3295,,1.6 F,2,3295,3495,1,0
Sprite,Background,Centre,"sb\flame.png",421,142 S,0,3700,,1.6 F,2,3700,3900,1,0
Sprite,Background,Centre,"sb\flame.png",257,125 S,0,4106,,1.6 M,0,4106,4156,257,125,242.1443,122.9246 F,2,4106,5116,1,0 M,0,4156,4207,242.1443,122.9246,227.2885,120.8491 M,0,4207,4258,227.2885,120.8491,212.4328,118.7737 M,0,4258,4308,212.4328,118.7737,197.5771,116.6983 M,0,4308,4359,197.5771,116.6983,182.7214,114.6228 M,0,4359,4410,182.7214,114.6228,167.8656,112.5474 M,0,4410,4460,167.8656,112.5474,153.0099,110.472 M,0,4460,4511,153.0099,110.472,138.1542,108.3965 M,0,4511,4562,138.1542,108.3965,153.0099,110.472 M,0,4562,4612,153.0099,110.472,167.8656,112.5474 M,0,4612,4663,167.8656,112.5474,182.7214,114.6228 M,0,4663,4714,182.7214,114.6228,197.5771,116.6983 M,0,4714,4764,197.5771,116.6983,212.4328,118.7737 M,0,4764,4815,212.4328,118.7737,227.2885,120.8491 M,0,4815,4866,227.2885,120.8491,242.1443,122.9246 M,0,4866,4916,242.1443,122.9246,257,125
Sprite,Background,Centre,"sb\flame.png",266,208 S,0,5119,,1.6 F,2,5119,5319,1,0
Sprite,Background,Centre,"sb\flame.png",266,208 S,0,5322,,1.6 M,0,5322,5372,266,208,264.6761,222.9415 F,2,5322,5724,1,0 M,0,5372,5423,264.6761,222.9415,263.3521,237.8829 M,0,5423,5474,263.3521,237.8829,262.0282,252.8244 M,0,5474,5524,262.0282,252.8244,260.7043,267.7658
Sprite,Background,Centre,"sb\flame.png",190,314 S,0,5727,,1.6 M,0,5727,5777,190,314,191.5894,328.9156 F,2,5727,6332,1,0 M,0,5777,5828,191.5894,328.9156,193.1787,343.8311 M,0,5828,5879,193.1787,343.8311,194.7681,358.7467 M,0,5879,5929,194.7681,358.7467,196.3575,373.6622 M,0,5929,5980,196.3575,373.6622,197.9468,388.5778 M,0,5980,6031,197.9468,388.5778,199.5362,403.4933 M,0,6031,6081,199.5362,403.4933,201.1255,418.4089 M,0,6081,6132,201.1255,418.4089,202.7149,433.3245
Sprite,Background,Centre,"sb\flame.png",362,380 S,0,6538,,1.6 F,2,6538,6738,1,0
Sprite,Background,Centre,"sb\flame.png",525,416 S,0,6944,,1.6 F,2,6944,7144,1,0
Sprite,Background,Centre,"sb\flame.png",484,251 S,0,7349,,1.6 M,0,7349,7399,484,251,482.9142,236.0394 F,2,7349,7954,1,0 M,0,7399,7450,482.9142,236.0394,481.8283,221.0787 M,0,7450,7501,481.8283,221.0787,480.7424,206.1181 M,0,7501,7551,480.7424,206.1181,479.6566,191.1574 M,0,7551,7602,479.6566,191.1574,478.5707,176.1968 M,0,7602,7653,478.5707,176.1968,477.4849,161.2361 M,0,7653,7703,477.4849,161.2361,476.399,146.2755 M,0,7703,7754,476.399,146.2755,475.3132,131.3148
Sprite,Background,Centre,"sb\flame.png",309,102 S,0,8160,,1.6 M,0,8160,8210,309,102,307.7439,116.9473 F,2,8160,8765,1,0 M,0,8210,8261,307.7439,116.9473,306.4879,131.8946 M,0,8261,8312,306.4879,131.8946,305.2318,146.8419 M,0,8312,8362,305.2318,146.8419,303.9757,161.7893 M,0,8362,8413,303.9757,161.7893,302.7196,176.7366 M,0,8413,8464,302.7196,176.7366,301.4635,191.6839 M,0,8464,8514,301.4635,191.6839,300.2075,206.6312 M,0,8514,8565,300.2075,206.6312,299,221
Sprite,Background,Centre,"sb\flame.png",136,264 S,0,8971,,1.6 M,0,8971,9021,136,264,134.8038,249.0478 F,2,8971,9576,1,0 M,0,9021,9072,134.8038,249.0478,133.6076,234.0955 M,0,9072,9123,133.6076,234.0955,132.4115,219.1433 M,0,9123,9173,132.4115,219.1433,131.2153,204.1911 M,0,9173,9224,131.2153,204.1911,130.0191,189.2389 M,0,9224,9275,130.0191,189.2389,128.8229,174.2866 M,0,9275,9325,128.8229,174.2866,127.6268,159.3344 M,0,9325,9376,127.6268,159.3344,126.4306,144.3822
Sprite,Background,Centre,"sb\flame.png",230,276 S,0,9781,,1.6 F,2,9781,9981,1,0
Sprite,Background,Centre,"sb\flame.png",71,331 S,0,10187,,1.6 F,2,10187,10387,1,0
Sprite,Background,Centre,"sb\flame.png",199,440 S,0,10592,,1.6 M,0,10592,10642,199,440,213.9473,438.7439 F,2,10592,11197,1,0 M,0,10642,10693,213.9473,438.7439,228.8946,437.4879 M,0,10693,10744,228.8946,437.4879,243.8419,436.2318 M,0,10744,10794,243.8419,436.2318,258.7892,434.9757 M,0,10794,10845,258.7892,434.9757,273.7366,433.7196 M,0,10845,10896,273.7366,433.7196,288.6839,432.4635 M,0,10896,10946,288.6839,432.4635,303.6312,431.2075 M,0,10946,10997,303.6312,431.2075,318,430
Sprite,Background,Centre,"sb\flame.png",439,313 S,0,11403,,1.6 M,0,11403,11453,439,313,453.9573,314.1312 F,2,11403,12413,1,0 M,0,11453,11504,453.9573,314.1312,468.9146,315.2625 M,0,11504,11555,468.9146,315.2625,483.8719,316.3937 M,0,11555,11605,483.8719,316.3937,498.8291,317.5249 M,0,11605,11656,498.8291,317.5249,513.7864,318.6561 M,0,11656,11707,513.7864,318.6561,528.7437,319.7874 M,0,11707,11757,528.7437,319.7874,543.701,320.9185 M,0,11757,11808,543.701,320.9185,558,322 M,0,11808,11859,558,322,543.701,320.9185 M,0,11859,11909,543.701,320.9185,528.7437,319.7874 M,0,11909,11960,528.7437,319.7874,513.7864,318.6561 M,0,11960,12011,513.7864,318.6561,498.8291,317.5249 M,0,12011,12061,498.8291,317.5249,483.8719,316.3937 M,0,12061,12112,483.8719,316.3937,468.9146,315.2625 M,0,12112,12163,468.9146,315.2625,453.9573,314.1312 M,0,12163,12213,453.9573,314.1312,439,313
Sprite,Background,Centre,"sb\flame.png",318,195 S,0,12619,,1.6 F,2,12619,12819,1,0
Sprite,Background,Centre,"sb\flame.png",462,108 S,0,13025,,1.6 M,0,13025,13075,462,108,468.9799,121.2617 F,2,13025,13630,1,0 M,0,13075,13126,468.9799,121.2617,474.9287,135.0068 M,0,13126,13177,474.9287,135.0068,479.6271,149.2304 M,0,13177,13227,479.6271,149.2304,483.0374,163.8201 M,0,13227,13278,483.0374,163.8201,485.132,178.6607 M,0,13278,13329,485.132,178.6607,485.8931,193.6349 M,0,13329,13379,485.8931,193.6349,485.0531,208.5976 M,0,13379,13430,485.0531,208.5976,483.0753,223.4435
Sprite,Background,Centre,"sb\flame.png",353,329 S,0,13835,,1.6 M,0,13835,13885,353,329,338.2218,331.5701 F,2,13835,14440,1,0 M,0,13885,13936,338.2218,331.5701,323.4437,334.1402 M,0,13936,13987,323.4437,334.1402,308.6655,336.7104 M,0,13987,14037,308.6655,336.7104,293.786,335.408 M,0,14037,14088,293.786,335.408,278.8937,333.6137 M,0,14088,14139,278.8937,333.6137,264.0014,331.8195 M,0,14139,14189,264.0014,331.8195,249.1091,330.0252 M,0,14189,14240,249.1091,330.0252,234.2168,328.231
Sprite,Background,Centre,"sb\flame.png",81,254 S,0,14646,,1.6 F,2,14646,14846,1,0
Sprite,Background,Centre,"sb\flame.png",220,158 S,0,15052,,1.6 M,0,15052,15102,220,158,221.9825,143.1316 F,2,15052,15657,1,0 M,0,15102,15153,221.9825,143.1316,223.9649,128.2632 M,0,15153,15204,223.9649,128.2632,225.9474,113.3947 M,0,15204,15254,225.9474,113.3947,227.9298,98.52632 M,0,15254,15305,227.9298,98.52632,225.9474,113.3947 M,0,15305,15356,225.9474,113.3947,223.9649,128.2632 M,0,15356,15406,223.9649,128.2632,221.9825,143.1316 M,0,15406,15457,221.9825,143.1316,220,158
Sprite,Background,Centre,"sb\flame.png",373,232 S,0,15862,,1.6 F,2,15862,16062,1,0
Sprite,Background,Centre,"sb\flame.png",534,277 S,0,16268,,1.6 M,0,16268,16318,534,277,523.077,287.2805 F,2,16268,16873,1,0 M,0,16318,16369,523.077,287.2805,512.154,297.5609 M,0,16369,16420,512.154,297.5609,501.231,307.8414 M,0,16420,16470,501.231,307.8414,486.7394,307.8593 M,0,16470,16521,486.7394,307.8593,471.7946,306.5737 M,0,16521,16572,471.7946,306.5737,456.8498,305.2881 M,0,16572,16622,456.8498,305.2881,441.905,304.0026 M,0,16622,16673,441.905,304.0026,426.9602,302.717
Sprite,Background,Centre,"sb\flame.png",289,205 S,0,17079,,1.6 F,2,17079,17279,1,0
Sprite,Background,Centre,"sb\flame.png",140,282 S,0,17484,,1.6 F,2,17484,17684,1,0
Sprite,Background,Centre,"sb\flame.png",282,373 S,0,17890,,1.6 F,2,17890,18090,1,0
Sprite,Background,Centre,"sb\flame.png",431,296 S,0,18295,,1.6 M,0,18295,18345,431,296,433.092,310.8534 F,2,18295,18900,1,0 M,0,18345,18396,433.092,310.8534,435.1841,325.7068 M,0,18396,18447,435.1841,325.7068,437.2761,340.5602 M,0,18447,18497,437.2761,340.5602,439.3681,355.4136 M,0,18497,18548,439.3681,355.4136,437.2761,340.5602 M,0,18548,18599,437.2761,340.5602,435.1841,325.7068 M,0,18599,18649,435.1841,325.7068,433.092,310.8534 M,0,18649,18700,433.092,310.8534,431,296
Sprite,Background,Centre,"sb\flame.png",289,206 S,0,19106,,1.6 F,2,19106,19306,1,0
Sprite,Background,Centre,"sb\flame.png",194,91 S,0,19511,,1.6 M,0,19511,19561,194,91,194.7553,105.981 F,2,19511,20116,1,0 M,0,19561,19612,194.7553,105.981,195.5107,120.9619 M,0,19612,19663,195.5107,120.9619,196.266,135.9429 M,0,19663,19713,196.266,135.9429,197.0214,150.9239 M,0,19713,19764,197.0214,150.9239,197.7767,165.9048 M,0,19764,19815,197.7767,165.9048,198.5321,180.8858 M,0,19815,19865,198.5321,180.8858,199.2874,195.8668 M,0,19865,19916,199.2874,195.8668,200,210
Sprite,Background,Centre,"sb\flame.png",84,333 S,0,20322,,1.6 M,0,20322,20372,84,333,84.74906,318.0187 F,2,20322,20927,1,0 M,0,20372,20423,84.74906,318.0187,85.49813,303.0374 M,0,20423,20474,85.49813,303.0374,86.24719,288.0562 M,0,20474,20524,86.24719,288.0562,86.99626,273.0749 M,0,20524,20575,86.99626,273.0749,87.74532,258.0936 M,0,20575,20626,87.74532,258.0936,88.49438,243.1123 M,0,20626,20676,88.49438,243.1123,89.24345,228.131 M,0,20676,20727,89.24345,228.131,89.99252,213.1497
Sprite,Background,Centre,"sb\flame.png",240,290 S,0,21133,,1.6 M,0,21133,21183,240,290,240.7553,304.981 F,2,21133,21738,1,0 M,0,21183,21234,240.7553,304.981,241.5107,319.9619 M,0,21234,21285,241.5107,319.9619,242.266,334.9429 M,0,21285,21335,242.266,334.9429,243.0214,349.9239 M,0,21335,21386,243.0214,349.9239,243.7767,364.9048 M,0,21386,21437,243.7767,364.9048,244.5321,379.8858 M,0,21437,21487,244.5321,379.8858,245.2874,394.8668 M,0,21487,21538,245.2874,394.8668,246,409
Sprite,Background,Centre,"sb\flame.png",404,352 S,0,21944,,1.6 M,0,21944,21994,404,352,404.8321,337.0231 F,2,21944,22549,1,0 M,0,21994,22045,404.8321,337.0231,405.6641,322.0462 M,0,22045,22096,405.6641,322.0462,406.4962,307.0693 M,0,22096,22146,406.4962,307.0693,407.3282,292.0924 M,0,22146,22197,407.3282,292.0924,408.1602,277.1155 M,0,22197,22248,408.1602,277.1155,408.9923,262.1385 M,0,22248,22298,408.9923,262.1385,409.8243,247.1617 M,0,22298,22349,409.8243,247.1617,410.6564,232.1848
Sprite,Background,Centre,"sb\flame.png",308,99 S,0,22754,,1.6 F,2,22754,22954,1,0
Sprite,Background,Centre,"sb\flame.png",475,77 S,0,23160,,1.6 F,2,23160,23360,1,0
Sprite,Background,Centre,"sb\flame.png",342,179 S,0,23565,,1.6 M,0,23565,23615,342,179,327.8128,183.8019 F,2,23565,24170,1,0 M,0,23615,23666,327.8128,183.8019,313.2572,187.2772 M,0,23666,23717,313.2572,187.2772,298.4005,189.1378 M,0,23717,23767,298.4005,189.1378,283.4176,189.3593 M,0,23767,23818,283.4176,189.3593,268.5446,187.5982 M,0,23818,23869,268.5446,187.5982,253.9197,184.4364 M,0,23869,23919,253.9197,184.4364,239.7231,179.6892 M,0,23919,23970,239.7231,179.6892,226.0989,173.45
Sprite,Background,Centre,"sb\flame.png",70,108 S,0,24376,,1.6 M,0,24376,24426,70,108,81.2065,117.9378 F,2,24376,24981,1,0 M,0,24426,24477,81.2065,117.9378,91.44832,128.8494 M,0,24477,24528,91.44832,128.8494,100.4448,140.8178 M,0,24528,24578,100.4448,140.8178,108.089,153.705 M,0,24578,24629,108.089,153.705,113.9821,167.474 M,0,24629,24680,113.9821,167.474,118.5347,181.7276 M,0,24680,24730,118.5347,181.7276,121.5083,196.398 M,0,24730,24781,121.5083,196.398,122.9215,211.3155
Sprite,Background,Centre,"sb\flame.png",144,379 S,0,25187,,1.6 F,2,25187,25387,1,0
Sprite,Background,Centre,"sb\flame.png",458,261 S,0,25998,,1.6 M,0,25998,26048,458,261,459.3089,275.9428 F,2,25998,26603,1,0 M,0,26048,26099,459.3089,275.9428,460.6177,290.8856 M,0,26099,26150,460.6177,290.8856,461.9266,305.8284 M,0,26150,26200,461.9266,305.8284,463.2354,320.7711 M,0,26200,26251,463.2354,320.7711,464.5443,335.7139 M,0,26251,26302,464.5443,335.7139,465.8531,350.6567 M,0,26302,26352,465.8531,350.6567,467.162,365.5995 M,0,26352,26403,467.162,365.5995,468.4709,380.5423
Sprite,Background,Centre,"sb\flame.png",319,304 S,0,26808,,1.6 M,0,26808,26858,319,304,320.2457,289.0518 F,2,26808,27413,1,0 M,0,26858,26909,320.2457,289.0518,321.4914,274.1036 M,0,26909,26960,321.4914,274.1036,322.7371,259.1555 M,0,26960,27010,322.7371,259.1555,323.9827,244.2073 M,0,27010,27061,323.9827,244.2073,325.2284,229.2591 M,0,27061,27112,325.2284,229.2591,326.4741,214.3109 M,0,27112,27162,326.4741,214.3109,327.7198,199.3627 M,0,27162,27213,327.7198,199.3627,328.9655,184.4145
Sprite,Background,Centre,"sb\flame.png",476,103 S,0,27619,,1.6 F,2,27619,27819,1,0
Sprite,Background,Centre,"sb\flame.png",307,105 S,0,28025,,1.6 F,2,28025,28225,1,0
Sprite,Background,Centre,"sb\flame.png",139,94 S,0,28430,,1.6 M,0,28430,28480,139,94,140.2561,108.9473 F,2,28430,29035,1,0 M,0,28480,28531,140.2561,108.9473,141.5121,123.8946 M,0,28531,28582,141.5121,123.8946,142.7682,138.8419 M,0,28582,28632,142.7682,138.8419,144.0243,153.7893 M,0,28632,28683,144.0243,153.7893,145.2804,168.7366 M,0,28683,28734,145.2804,168.7366,146.5365,183.6839 M,0,28734,28784,146.5365,183.6839,147.7925,198.6312 M,0,28784,28835,147.7925,198.6312,149,213
Sprite,Background,Centre,"sb\flame.png",222,365 S,0,29241,,1.6 M,0,29241,29291,222,365,223.2457,350.0518 F,2,29241,29846,1,0 M,0,29291,29342,223.2457,350.0518,224.4914,335.1036 M,0,29342,29393,224.4914,335.1036,225.737,320.1555 M,0,29393,29443,225.737,320.1555,226.9827,305.2073 M,0,29443,29494,226.9827,305.2073,228.2284,290.2591 M,0,29494,29545,228.2284,290.2591,229.4741,275.3109 M,0,29545,29595,229.4741,275.3109,230.7198,260.3627 M,0,29595,29646,230.7198,260.3627,231.9655,245.4145
Sprite,Background,Centre,"sb\flame.png",393,196 S,0,30052,,1.6 F,2,30052,30252,1,0
Sprite,Background,Centre,"sb\flame.png",522,302 S,0,30457,,1.6 F,2,30457,30657,1,0
Sprite,Background,Centre,"sb\flame.png",365,360 S,0,30862,,1.6 M,0,30862,30912,365,360,350.6963,364.517 F,2,30862,31872,1,0 M,0,30912,30963,350.6963,364.517,336.3925,369.0339 M,0,30963,31014,336.3925,369.0339,322.0888,373.5509 M,0,31014,31064,322.0888,373.5509,307.7758,377.9766 M,0,31064,31115,307.7758,377.9766,292.857,376.4179 M,0,31115,31166,292.857,376.4179,277.9382,374.8592 M,0,31166,31216,277.9382,374.8592,263.0194,373.3005 M,0,31216,31267,263.0194,373.3005,248.1006,371.7419 M,0,31267,31318,248.1006,371.7419,263.0194,373.3005 M,0,31318,31368,263.0194,373.3005,277.9382,374.8592 M,0,31368,31419,277.9382,374.8592,292.857,376.4179 M,0,31419,31470,292.857,376.4179,307.7758,377.9766 M,0,31470,31520,307.7758,377.9766,322.0888,373.5509 M,0,31520,31571,322.0888,373.5509,336.3925,369.0339 M,0,31571,31622,336.3925,369.0339,350.6963,364.517 M,0,31622,31672,350.6963,364.517,365,360
Sprite,Background,Centre,"sb\flame.png",152,98 S,0,32484,,1.6 F,2,32484,32684,1,0
Sprite,Background,Centre,"sb\flame.png",115,432 S,0,33295,,1.6 M,0,33295,33345,115,432,113.3674,417.0891 F,2,33295,33900,1,0 M,0,33345,33396,113.3674,417.0891,111.7348,402.1782 M,0,33396,33447,111.7348,402.1782,110.1023,387.2673 M,0,33447,33497,110.1023,387.2673,108.4697,372.3564 M,0,33497,33548,108.4697,372.3564,106.8371,357.4456 M,0,33548,33599,106.8371,357.4456,105.2045,342.5347 M,0,33599,33649,105.2045,342.5347,103.5719,327.6238 M,0,33649,33700,103.5719,327.6238,101.9394,312.7129
Sprite,Background,Centre,"sb\flame.png",250,232 S,0,34106,,1.6 F,2,34106,34306,1,0
Sprite,Background,Centre,"sb\flame.png",396,150 S,0,34511,,1.6 M,0,34511,34561,396,150,394.2899,135.0978 F,2,34511,35116,1,0 M,0,34561,34612,394.2899,135.0978,392.5798,120.1956 M,0,34612,34663,392.5798,120.1956,390.8697,105.2934 M,0,34663,34713,390.8697,105.2934,389.1596,90.39119 M,0,34713,34764,389.1596,90.39119,390.8697,105.2934 M,0,34764,34815,390.8697,105.2934,392.5798,120.1956 M,0,34815,34865,392.5798,120.1956,394.2899,135.0978 M,0,34865,34916,394.2899,135.0978,396,150
Sprite,Background,Centre,"sb\flame.png",501,282 S,0,35322,,1.6 F,2,35322,35522,1,0
Sprite,Background,Centre,"sb\flame.png",390,405 S,0,35727,,1.6 M,0,35727,35777,390,405,375.0775,406.5227 F,2,35727,36332,1,0 M,0,35777,35828,375.0775,406.5227,360.155,408.0454 M,0,35828,35879,360.155,408.0454,345.2325,409.5681 M,0,35879,35929,345.2325,409.5681,330.3078,408.9308 M,0,35929,35980,330.3078,408.9308,315.3822,407.4382 M,0,35980,36031,315.3822,407.4382,300.4567,405.9457 M,0,36031,36081,300.4567,405.9457,285.5311,404.4531 M,0,36081,36132,285.5311,404.4531,271,403
Sprite,Background,Centre,"sb\flame.png",197,252 S,0,36538,,1.6 M,0,36538,36588,197,252,196.1546,266.9761 F,2,36538,37548,1,0 M,0,36588,36639,196.1546,266.9761,195.3091,281.9523 M,0,36639,36690,195.3091,281.9523,194.4637,296.9285 M,0,36690,36740,194.4637,296.9285,193.6183,311.9046 M,0,36740,36791,193.6183,311.9046,192.7729,326.8808 M,0,36791,36842,192.7729,326.8808,191.9274,341.8569 M,0,36842,36892,191.9274,341.8569,191.082,356.8331 M,0,36892,36943,191.082,356.8331,190.2366,371.8093 M,0,36943,36994,190.2366,371.8093,191.082,356.8331 M,0,36994,37044,191.082,356.8331,191.9274,341.8569 M,0,37044,37095,191.9274,341.8569,192.7729,326.8808 M,0,37095,37146,192.7729,326.8808,193.6183,311.9046 M,0,37146,37196,193.6183,311.9046,194.4637,296.9285 M,0,37196,37247,194.4637,296.9285,195.3091,281.9523 M,0,37247,37298,195.3091,281.9523,196.1546,266.9761 M,0,37298,37348,196.1546,266.9761,197,252
Sprite,Background,Centre,"sb\flame.png",277,224 S,0,37552,,1.6 F,2,37552,37752,1,0
Sprite,Background,Centre,"sb\flame.png",277,224 S,0,37754,,1.6 M,0,37754,37804,277,224,276.0185,238.9678 F,2,37754,38156,1,0 M,0,37804,37855,276.0185,238.9678,275.037,253.9357 M,0,37855,37906,275.037,253.9357,274.0555,268.9036 M,0,37906,37956,274.0555,268.9036,273.074,283.8714
Sprite,Background,Centre,"sb\flame.png",307,361 S,0,38160,,1.6 M,0,38160,38210,307,361,318.38,370.7519 F,2,38160,38765,1,0 M,0,38210,38261,318.38,370.7519,330.4516,379.6184 M,0,38261,38312,330.4516,379.6184,343.2585,387.3893 M,0,38312,38362,343.2585,387.3893,356.7023,394.0043 M,0,38362,38413,356.7023,394.0043,370.68,399.4121 M,0,38413,38464,370.68,399.4121,385.0846,403.5701 M,0,38464,38514,385.0846,403.5701,399.8378,406.2042 M,0,38514,38565,399.8378,406.2042,414.7337,407.8501
Sprite,Background,Centre,"sb\flame.png",535,290 S,0,38971,,1.6 F,2,38971,39171,1,0
Sprite,Background,Centre,"sb\flame.png",368,268 S,0,39376,,1.6 F,2,39376,39576,1,0
Sprite,Background,Centre,"sb\flame.png",452,121 S,0,39781,,1.6 M,0,39781,39831,452,121,437.0224,120.1809 F,2,39781,40386,1,0 M,0,39831,39882,437.0224,120.1809,422.0448,119.3618 M,0,39882,39933,422.0448,119.3618,407.0671,118.5427 M,0,39933,39983,407.0671,118.5427,392.0895,117.7236 M,0,39983,40034,392.0895,117.7236,377.1119,116.9046 M,0,40034,40085,377.1119,116.9046,362.1343,116.0855 M,0,40085,40135,362.1343,116.0855,347.1567,115.2664 M,0,40135,40186,347.1567,115.2664,332.179,114.4473
Sprite,Background,Centre,"sb\flame.png",196,214 S,0,40592,,1.6 M,0,40592,40642,196,214,210.9776,213.1809 F,2,40592,41197,1,0 M,0,40642,40693,210.9776,213.1809,225.9552,212.3618 M,0,40693,40744,225.9552,212.3618,240.9329,211.5427 M,0,40744,40794,240.9329,211.5427,255.9105,210.7236 M,0,40794,40845,255.9105,210.7236,270.8881,209.9046 M,0,40845,40896,270.8881,209.9046,285.8657,209.0855 M,0,40896,40946,285.8657,209.0855,300.8433,208.2664 M,0,40946,40997,300.8433,208.2664,315.821,207.4473
Sprite,Background,Centre,"sb\flame.png",444,312 S,0,41403,,1.6 M,0,41403,41453,444,312,429.0224,311.1809 F,2,41403,42008,1,0 M,0,41453,41504,429.0224,311.1809,414.0448,310.3618 M,0,41504,41555,414.0448,310.3618,399.0671,309.5427 M,0,41555,41605,399.0671,309.5427,384.0895,308.7236 M,0,41605,41656,384.0895,308.7236,369.1119,307.9045 M,0,41656,41707,369.1119,307.9045,354.1343,307.0854 M,0,41707,41757,354.1343,307.0854,339.1567,306.2664 M,0,41757,41808,339.1567,306.2664,324.179,305.4473
Sprite,Background,Centre,"sb\flame.png",465,405 S,0,42214,,1.6 F,2,42214,42414,1,0
Sprite,Background,Centre,"sb\flame.png",500,241 S,0,42619,,1.6 F,2,42619,42819,1,0
Sprite,Background,Centre,"sb\flame.png",386,116 S,0,43025,,1.6 M,0,43025,43075,386,116,395.4513,127.5797 F,2,43025,43630,1,0 M,0,43075,43126,395.4513,127.5797,403.1075,140.3784 M,0,43126,43177,403.1075,140.3784,408.4597,154.3139 M,0,43177,43227,408.4597,154.3139,411.3454,168.9816 M,0,43227,43278,411.3454,168.9816,411.2666,183.9242 M,0,43278,43329,411.2666,183.9242,408.8702,198.6373 M,0,43329,43379,408.8702,198.6373,403.9835,212.728 M,0,43379,43430,403.9835,212.728,396.8723,225.8819
Sprite,Background,Centre,"sb\flame.png",229,227 S,0,43835,,1.6 M,0,43835,43885,229,227,236.6154,214.1329 F,2,43835,44845,1,0 M,0,43885,43936,236.6154,214.1329,245.9853,202.5235 M,0,43936,43987,245.9853,202.5235,257.1845,192.6571 M,0,43987,44037,257.1845,192.6571,269.8963,184.8167 M,0,44037,44088,269.8963,184.8167,283.7611,179.2291 M,0,44088,44139,283.7611,179.2291,298.386,176.0583 M,0,44139,44189,298.386,176.0583,313.3336,175.8032 M,0,44189,44240,313.3336,175.8032,328.118,177.7816 M,0,44240,44291,328.118,177.7816,313.3336,175.8032 M,0,44291,44341,313.3336,175.8032,298.386,176.0583 M,0,44341,44392,298.386,176.0583,283.7611,179.2291 M,0,44392,44443,283.7611,179.2291,269.8963,184.8167 M,0,44443,44493,269.8963,184.8167,257.1845,192.6571 M,0,44493,44544,257.1845,192.6571,245.9853,202.5235 M,0,44544,44595,245.9853,202.5235,236.6154,214.1329 M,0,44595,44645,236.6154,214.1329,229,227
Sprite,Background,Centre,"sb\flame.png",380,301 S,0,45052,,1.6 F,2,45052,45252,1,0
Sprite,Background,Centre,"sb\flame.png",527,220 S,0,45457,,1.6 M,0,45457,45507,527,220,525.7746,205.0501 F,2,45457,46062,1,0 M,0,45507,45558,525.7746,205.0501,524.5492,190.1003 M,0,45558,45609,524.5492,190.1003,523.3238,175.1504 M,0,45609,45659,523.3238,175.1504,522.0984,160.2005 M,0,45659,45710,522.0984,160.2005,520.873,145.2507 M,0,45710,45761,520.873,145.2507,519.6476,130.3008 M,0,45761,45811,519.6476,130.3008,518.4222,115.351 M,0,45811,45862,518.4222,115.351,517.1968,100.4011
Sprite,Background,Centre,"sb\flame.png",350,75 S,0,46268,,1.6 M,0,46268,46318,350,75,348.7439,89.94731 F,2,46268,46873,1,0 M,0,46318,46369,348.7439,89.94731,347.4879,104.8946 M,0,46369,46420,347.4879,104.8946,346.2318,119.8419 M,0,46420,46470,346.2318,119.8419,344.9757,134.7893 M,0,46470,46521,344.9757,134.7893,343.7196,149.7366 M,0,46521,46572,343.7196,149.7366,342.4635,164.6839 M,0,46572,46622,342.4635,164.6839,341.2075,179.6312 M,0,46622,46673,341.2075,179.6312,340,194
Sprite,Background,Centre,"sb\flame.png",177,236 S,0,47079,,1.6 F,2,47079,47279,1,0
Sprite,Background,Centre,"sb\flame.png",296,357 S,0,47484,,1.6 M,0,47484,47534,296,357,294.8495,371.9558 F,2,47484,48089,1,0 M,0,47534,47585,294.8495,371.9558,293.6991,386.9116 M,0,47585,47636,293.6991,386.9116,292.5486,401.8675 M,0,47636,47686,292.5486,401.8675,291.3982,416.8233 M,0,47686,47737,291.3982,416.8233,292.5486,401.8675 M,0,47737,47788,292.5486,401.8675,293.6991,386.9116 M,0,47788,47838,293.6991,386.9116,294.8495,371.9558 M,0,47838,47889,294.8495,371.9558,296,357
Sprite,Background,Centre,"sb\flame.png",339,194 S,0,48295,,1.6 F,2,48295,48495,1,0
Sprite,Background,Centre,"sb\flame.png",462,80 S,0,48700,,1.6 M,0,48700,48750,462,80,453.9094,92.61353 F,2,48700,49305,1,0 M,0,48750,48801,453.9094,92.61353,446.8544,105.8228 M,0,48801,48852,446.8544,105.8228,441.063,119.6351 M,0,48852,48902,441.063,119.6351,436.586,133.9308 M,0,48902,48953,436.586,133.9308,433.4627,148.5861 M,0,48953,49004,433.4627,148.5861,431.7213,163.4741 M,0,49004,49054,431.7213,163.4741,431.6033,178.4583 M,0,49054,49105,431.6033,178.4583,432.7213,193.391
Sprite,Background,Centre,"sb\flame.png",556,307 S,0,49511,,1.6 M,0,49511,49561,556,307,541.0144,307.6563 F,2,49511,50116,1,0 M,0,49561,49612,541.0144,307.6563,526.0287,308.3126 M,0,49612,49663,526.0287,308.3126,511.0431,308.9689 M,0,49663,49713,511.0431,308.9689,496.0575,309.6252 M,0,49713,49764,496.0575,309.6252,481.0718,310.2815 M,0,49764,49815,481.0718,310.2815,466.0862,310.9378 M,0,49815,49865,466.0862,310.9378,451.1006,311.5941 M,0,49865,49916,451.1006,311.5941,436.1149,312.2504
Sprite,Background,Centre,"sb\flame.png",276,259 S,0,50322,,1.6 F,2,50322,50522,1,0
Sprite,Background,Centre,"sb\flame.png",420,172 S,0,50727,,1.6 M,0,50727,50777,420,172,434.9834,171.2949 F,2,50727,51332,1,0 M,0,50777,50828,434.9834,171.2949,449.9668,170.5898 M,0,50828,50879,449.9668,170.5898,464.9503,169.8847 M,0,50879,50929,464.9503,169.8847,479.9337,169.1796 M,0,50929,50980,479.9337,169.1796,464.9503,169.8847 M,0,50980,51031,464.9503,169.8847,449.9668,170.5898 M,0,51031,51081,449.9668,170.5898,434.9834,171.2949 M,0,51081,51132,434.9834,171.2949,420,172
Sprite,Background,Centre,"sb\flame.png",251,176 S,0,51538,,1.6 M,0,51538,51588,251,176,237.2833,181.941 F,2,51538,52143,1,0 M,0,51588,51639,237.2833,181.941,224.6205,189.8192 M,0,51639,51690,224.6205,189.8192,213.506,199.7773 M,0,51690,51740,213.506,199.7773,204.2751,211.5208 M,0,51740,51791,204.2751,211.5208,197.2088,224.7024 M,0,51791,51842,197.2088,224.7024,192.9232,239.0195 M,0,51842,51892,192.9232,239.0195,190.9158,253.7928 M,0,51892,51943,190.9158,253.7928,191.4967,268.6958
Sprite,Background,Centre,"sb\flame.png",100,410 S,0,52349,,1.6 F,2,52349,52549,1,0
Sprite,Background,Centre,"sb\flame.png",72,244 S,0,52754,,1.6 M,0,52754,52804,72,244,73.41104,229.0665 F,2,52754,53359,1,0 M,0,52804,52855,73.41104,229.0665,74.82207,214.133 M,0,52855,52906,74.82207,214.133,76.23312,199.1996 M,0,52906,52956,76.23312,199.1996,77.64415,184.2661 M,0,52956,53007,77.64415,184.2661,79.05519,169.3326 M,0,53007,53058,79.05519,169.3326,80.46623,154.3991 M,0,53058,53108,80.46623,154.3991,81.87727,139.4656 M,0,53108,53159,81.87727,139.4656,83.2883,124.5321
Sprite,Background,Centre,"sb\flame.png",251,144 S,0,53565,,1.6 M,0,53565,53615,251,144,252.3807,158.9363 F,2,53565,54170,1,0 M,0,53615,53666,252.3807,158.9363,253.7613,173.8727 M,0,53666,53717,253.7613,173.8727,255.142,188.809 M,0,53717,53767,255.142,188.809,256.5227,203.7453 M,0,53767,53818,256.5227,203.7453,257.9033,218.6816 M,0,53818,53869,257.9033,218.6816,259.284,233.618 M,0,53869,53919,259.284,233.618,260.6647,248.5543 M,0,53919,53970,260.6647,248.5543,262,263
Sprite,Background,Centre,"sb\flame.png",430,263 S,0,54376,,1.6 M,0,54376,54426,430,263,431.411,248.0665 F,2,54376,54981,1,0 M,0,54426,54477,431.411,248.0665,432.8221,233.133 M,0,54477,54528,432.8221,233.133,434.2331,218.1996 M,0,54528,54578,434.2331,218.1996,435.6442,203.2661 M,0,54578,54629,435.6442,203.2661,437.0552,188.3326 M,0,54629,54680,437.0552,188.3326,438.4662,173.3991 M,0,54680,54730,438.4662,173.3991,439.8773,158.4656 M,0,54730,54781,439.8773,158.4656,441.2883,143.5321
Sprite,Background,Centre,"sb\flame.png",511,296 S,0,55187,,1.6 F,2,55187,55387,1,0
Sprite,Background,Centre,"sb\flame.png",346,261 S,0,55592,,1.6 F,2,55592,55792,1,0
Sprite,Background,Centre,"sb\flame.png",438,407 S,0,55998,,1.6 M,0,55998,56048,438,407,452.405,411.0458 F,2,55998,56603,1,0 M,0,56048,56099,452.405,411.0458,467.1856,413.1964 M,0,56099,56150,467.1856,413.1964,482.1255,413.0981 M,0,56150,56200,482.1255,413.0981,496.8863,410.7513 M,0,56200,56251,496.8863,410.7513,511.1333,406.2071 M,0,56251,56302,511.1333,406.2071,524.5428,399.5656 M,0,56302,56352,524.5428,399.5656,536.8094,390.9741 M,0,56352,56403,536.8094,390.9741,547.3773,380.3834
Sprite,Background,Centre,"sb\flame.png",385,335 S,0,56808,,1.6 M,0,56808,56858,385,335,374.4754,345.6237 F,2,56808,57818,1,0 M,0,56858,56909,374.4754,345.6237,365.5426,357.5789 M,0,56909,56960,365.5426,357.5789,358.6714,370.8357 M,0,56960,57010,358.6714,370.8357,354.0464,385.0454 M,0,57010,57061,354.0464,385.0454,351.7944,399.8341 M,0,57061,57112,351.7944,399.8341,351.9813,414.8118 M,0,57112,57162,351.9813,414.8118,355.072,429.443 M,0,57162,57213,355.072,429.443,359.9326,443.5847 M,0,57213,57264,359.9326,443.5847,355.072,429.443 M,0,57264,57314,355.072,429.443,351.9813,414.8118 M,0,57314,57365,351.9813,414.8118,351.7944,399.8341 M,0,57365,57416,351.7944,399.8341,354.0464,385.0454 M,0,57416,57466,354.0464,385.0454,358.6714,370.8357 M,0,57466,57517,358.6714,370.8357,365.5426,357.5789 M,0,57517,57568,365.5426,357.5789,374.4754,345.6237 M,0,57568,57618,374.4754,345.6237,385,335
Sprite,Background,Centre,"sb\flame.png",99,140 S,0,58430,,1.6 M,0,58430,58480,99,140,99.53537,154.9904 F,2,58430,59035,1,0 M,0,58480,58531,99.53537,154.9904,100.0707,169.9809 M,0,58531,58582,100.0707,169.9809,100.6061,184.9713 M,0,58582,58632,100.6061,184.9713,101.1415,199.9618 M,0,58632,58683,101.1415,199.9618,101.6769,214.9522 M,0,58683,58734,101.6769,214.9522,102.2122,229.9427 M,0,58734,58784,102.2122,229.9427,102.7476,244.9331 M,0,58784,58835,102.7476,244.9331,103.283,259.9235
Sprite,Background,Centre,"sb\flame.png",189,404 S,0,59241,,1.6 M,0,59241,59291,189,404,189.4997,389.0083 F,2,59241,59846,1,0 M,0,59291,59342,189.4997,389.0083,189.9995,374.0167 M,0,59342,59393,189.9995,374.0167,190.4992,359.025 M,0,59393,59443,190.4992,359.025,190.9989,344.0333 M,0,59443,59494,190.9989,344.0333,191.4986,329.0416 M,0,59494,59545,191.4986,329.0416,191.9983,314.05 M,0,59545,59595,191.9983,314.05,192.4981,299.0583 M,0,59595,59646,192.4981,299.0583,192.9978,284.0666
Sprite,Background,Centre,"sb\flame.png",343,205 S,0,60052,,1.6 F,2,60052,60252,1,0
Sprite,Background,Centre,"sb\flame.png",337,374 S,0,60457,,1.6 F,2,60457,60657,1,0
Sprite,Background,Centre,"sb\flame.png",259,224 S,0,60862,,1.6 M,0,60862,60914,259,224,257.2974,209.1521 F,2,60862,61481,1,0 M,0,60914,60966,257.2974,209.1521,257.8011,194.2497 M,0,60966,61019,257.8011,194.2497,260.9009,179.6497 M,0,61019,61071,260.9009,179.6497,266.51,165.7947 M,0,61071,61124,266.51,165.7947,274.7959,153.3621 M,0,61124,61176,274.7959,153.3621,284.9182,142.4232 M,0,61176,61229,284.9182,142.4232,296.7998,133.4139 M,0,61229,61281,296.7998,133.4139,310.0845,126.6096
Sprite,Background,Centre,"sb\flame.png",427,186 S,0,61701,,1.6 M,0,61701,61756,427,186,428.7026,200.8479 F,2,61701,62345,1,0 M,0,61756,61812,428.7026,200.8479,428.1989,215.7503 M,0,61812,61867,428.1989,215.7503,425.0991,230.3503 M,0,61867,61923,425.0991,230.3503,419.4899,244.2053 M,0,61923,61978,419.4899,244.2053,411.2041,256.6379 M,0,61978,62034,411.2041,256.6379,401.0818,267.5768 M,0,62034,62089,401.0818,267.5768,389.2002,276.5861 M,0,62089,62145,389.2002,276.5861,375.9154,283.3904
Sprite,Background,Centre,"sb\flame.png",228,350 S,0,62589,,1.6 M,0,62589,62646,228,350,242.9522,351.1962 F,2,62589,63250,1,0 M,0,62646,62704,242.9522,351.1962,257.9045,352.3924 M,0,62704,62762,257.9045,352.3924,272.8567,353.5885 M,0,62762,62819,272.8567,353.5885,287.8089,354.7847 M,0,62819,62877,287.8089,354.7847,302.7611,355.9809 M,0,62877,62935,302.7611,355.9809,317.7134,357.1771 M,0,62935,62992,317.7134,357.1771,332.6656,358.3733 M,0,62992,63050,332.6656,358.3733,347.6178,359.5694
Sprite,Background,Centre,"sb\flame.png",474,422 S,0,63550,,1.6 M,0,63550,63618,474,422,467.5787,408.4439 F,2,63550,64295,1,0 M,0,63618,63686,467.5787,408.4439,461.1574,394.8879 M,0,63686,63754,461.1574,394.8879,454.7361,381.3318 M,0,63754,63822,454.7361,381.3318,448.3148,367.7757 M,0,63822,63890,448.3148,367.7757,441.8935,354.2197 M,0,63890,63959,441.8935,354.2197,435.4722,340.6636 M,0,63959,64027,435.4722,340.6636,429.0509,327.1075 M,0,64027,64095,429.0509,327.1075,422.6296,313.5515
Sprite,Background,Centre,"sb\flame.png",413,173 S,0,64640,,1.6 F,2,64640,64840,1,0
Sprite,Background,Centre,"sb\btrfl1.png",533,136 S,0,52,,0.355 R,0,52,,-3.105746 P,0,52,133,V M,1,52,660,587.9662,137.9274,612.9509,138.8035 P,0,52,660,H P,0,214,295,V F,0,356,660,1,0 P,0,376,660,V
Sprite,Background,Centre,"sb\btrfl1.png",255,325 S,0,863,,0.355 R,0,863,,-3.160395 P,0,863,944,V M,1,863,1471,309.9894,323.9221,334.9846,323.4322 P,0,863,1471,H P,0,1025,1106,V F,0,1167,1471,1,0 P,0,1187,1471,V
Sprite,Background,Centre,"sb\btrfl1.png",266,208 S,0,1673,,0.355 R,0,1673,,-3.130814 P,0,1673,1754,V M,1,1673,2281,320.9973,208.549,345.996,208.7986 P,0,1673,2281,H P,0,1835,1916,V F,0,1977,2281,1,0 P,0,1997,2281,V
Sprite,Background,Centre,"sb\btrfl1.png",400,309 S,0,2079,,0.355 R,0,2079,,-3.004897 P,0,2079,2160,V M,1,2079,2687,454.4929,316.4515,479.2624,319.8385 P,0,2079,2687,H P,0,2241,2322,V F,0,2383,2687,1,0 P,0,2403,2687,V
Sprite,Background,Centre,"sb\btrfl1.png",246,375 S,0,2890,,0.355 R,0,2890,,-2.79362 P,0,2890,2971,V M,1,2890,3498,297.7185,393.7134,321.227,402.2195 P,0,2890,3498,H P,0,3052,3133,V F,0,3194,3498,1,0 P,0,3214,3498,V
Sprite,Background,Centre,"sb\btrfl1.png",266,208 S,0,3295,,0.355 R,0,3295,,-3.005331 P,0,3295,3376,V M,1,3295,3903,320.4961,215.4278,345.2671,218.8041 P,0,3295,3903,H P,0,3457,3538,V F,0,3599,3903,1,0 P,0,3619,3903,V
Sprite,Background,Centre,"sb\btrfl1.png",421,142 S,0,3700,,0.355 R,0,3700,,-3.213616 P,0,3700,3781,V M,1,3700,4308,475.8542,137.9984,500.788,136.1796 P,0,3700,4308,H P,0,3862,3943,V F,0,4004,4308,1,0 P,0,4024,4308,V
Sprite,Background,Centre,"sb\btrfl1.png",257,125 S,0,4106,,0.355 R,0,4106,,-2.935307 P,0,4106,4187,V M,1,4106,4714,310.8429,136.2225,335.3169,141.3237 P,0,4106,4714,H P,0,4268,4349,V F,0,4410,4714,1,0 P,0,4430,4714,V
Sprite,Background,Centre,"sb\btrfl1.png",266,208 S,0,5119,,0.355 R,0,5119,,-3.25653 P,0,5119,5200,V M,1,5119,5727,320.6321,201.6488,345.4648,198.762 P,0,5119,5727,H P,0,5281,5362,V F,0,5423,5727,1,0 P,0,5443,5727,V
Sprite,Background,Centre,"sb\btrfl1.png",266,208 S,0,5322,,0.355 R,0,5322,,-2.834223 P,0,5322,5403,V M,1,5322,5930,318.4355,224.5987,342.2699,232.1435 P,0,5322,5930,H P,0,5484,5565,V F,0,5626,5930,1,0 P,0,5646,5930,V
Sprite,Background,Centre,"sb\btrfl1.png",190,314 S,0,5727,,0.355 R,0,5727,,-2.845144 P,0,5727,5808,V M,1,5727,6335,242.6137,330.025,266.529,337.3091 P,0,5727,6335,H P,0,5889,5970,V F,0,6031,6335,1,0 P,0,6051,6335,V
Sprite,Background,Centre,"sb\btrfl1.png",362,380 S,0,6538,,0.355 R,0,6538,,-2.950389 P,0,6538,6619,V M,1,6538,7146,416.006,390.4092,440.5542,395.1407 P,0,6538,7146,H P,0,6700,6781,V F,0,6842,7146,1,0 P,0,6862,7146,V
Sprite,Background,Centre,"sb\btrfl1.png",525,416 S,0,6944,,0.355 R,0,6944,,-3.049595 P,0,6944,7025,V M,1,6944,7552,579.7714,421.0091,604.6675,423.2859 P,0,6944,7552,H P,0,7106,7187,V F,0,7248,7552,1,0 P,0,7268,7552,V
Sprite,Background,Centre,"sb\btrfl1.png",484,251 S,0,7349,,0.355 R,0,7349,,-2.951707 P,0,7349,7430,V M,1,7349,7957,538.0197,261.338,562.5741,266.0371 P,0,7349,7957,H P,0,7511,7592,V F,0,7653,7957,1,0 P,0,7673,7957,V
Sprite,Background,Centre,"sb\btrfl1.png",309,102 S,0,8160,,0.355 R,0,8160,,-3.259291 P,0,8160,8241,V M,1,8160,8768,363.6143,95.49805,388.439,92.54262 P,0,8160,8768,H P,0,8322,8403,V F,0,8464,8768,1,0 P,0,8484,8768,V
Sprite,Background,Centre,"sb\btrfl1.png",136,264 S,0,8971,,0.355 R,0,8971,,-2.68822 P,0,8971,9052,V M,1,8971,9579,185.4628,288.0506,207.9459,298.9827 P,0,8971,9579,H P,0,9133,9214,V F,0,9275,9579,1,0 P,0,9295,9579,V
Sprite,Background,Centre,"sb\btrfl1.png",230,276 S,0,9781,,0.355 R,0,9781,,-3.187422 P,0,9781,9862,V M,1,9781,10389,284.9402,273.4365,309.9131,272.2713 P,0,9781,10389,H P,0,9943,10024,V F,0,10085,10389,1,0 P,0,10105,10389,V
Sprite,Background,Centre,"sb\btrfl1.png",71,331 S,0,10187,,0.355 R,0,10187,,-3.267208 P,0,10187,10268,V M,1,10187,10795,125.5611,324.0659,150.3616,320.914 P,0,10187,10795,H P,0,10349,10430,V F,0,10491,10795,1,0 P,0,10511,10795,V
Sprite,Background,Centre,"sb\btrfl1.png",199,440 S,0,10592,,0.355 R,0,10592,,-3.076309 P,0,10592,10673,V M,1,10592,11200,253.8857,443.5444,278.8337,445.1554 P,0,10592,11200,H P,0,10754,10835,V F,0,10896,11200,1,0 P,0,10916,11200,V
Sprite,Background,Centre,"sb\btrfl1.png",439,313 S,0,11403,,0.355 R,0,11403,,-2.858755 P,0,11403,11484,V M,1,11403,12011,491.8269,328.3074,515.8392,335.2654 P,0,11403,12011,H P,0,11565,11646,V F,0,11707,12011,1,0 P,0,11727,12011,V
Sprite,Background,Centre,"sb\btrfl1.png",318,195 S,0,12619,,0.355 R,0,12619,,-3.160145 P,0,12619,12700,V M,1,12619,13227,372.9897,193.9359,397.985,193.4522 P,0,12619,13227,H P,0,12781,12862,V F,0,12923,13227,1,0 P,0,12943,13227,V
Sprite,Background,Centre,"sb\btrfl1.png",462,108 S,0,13025,,0.355 R,0,13025,,-3.178831 P,0,13025,13106,V M,1,13025,13633,516.9602,105.9086,541.9421,104.958 P,0,13025,13633,H P,0,13187,13268,V F,0,13329,13633,1,0 P,0,13349,13633,V
Sprite,Background,Centre,"sb\btrfl1.png",353,329 S,0,13835,,0.355 R,0,13835,,-3.265141 P,0,13835,13916,V M,1,13835,14443,407.5753,322.1786,432.3823,319.078 P,0,13835,14443,H P,0,13997,14078,V F,0,14139,14443,1,0 P,0,14159,14443,V
Sprite,Background,Centre,"sb\btrfl1.png",81,254 S,0,14646,,0.355 R,0,14646,,-2.689575 P,0,14646,14727,V M,1,14646,15254,130.4953,277.9836,152.9932,288.8852 P,0,14646,15254,H P,0,14808,14889,V F,0,14950,15254,1,0 P,0,14970,15254,V
Sprite,Background,Centre,"sb\btrfl1.png",220,158 S,0,15052,,0.355 R,0,15052,,-3.089965 P,0,15052,15133,V M,1,15052,15660,274.929,160.7945,299.8967,162.0647 P,0,15052,15660,H P,0,15214,15295,V F,0,15356,15660,1,0 P,0,15376,15660,V
Sprite,Background,Centre,"sb\btrfl1.png",373,232 S,0,15862,,0.355 R,0,15862,,-2.98577 P,0,15862,15943,V M,1,15862,16470,427.3404,240.4923,452.0406,244.3524 P,0,15862,16470,H P,0,16024,16105,V F,0,16166,16470,1,0 P,0,16186,16470,V
Sprite,Background,Centre,"sb\btrfl1.png",534,277 S,0,16268,,0.355 R,0,16268,,-3.230411 P,0,16268,16349,V M,1,16268,16876,588.7793,272.0778,613.679,269.8404 P,0,16268,16876,H P,0,16430,16511,V F,0,16572,16876,1,0 P,0,16592,16876,V
Sprite,Background,Centre,"sb\btrfl1.png",289,205 S,0,17079,,0.355 R,0,17079,,-3.082572 P,0,17079,17160,V M,1,17079,17687,343.9068,208.2005,368.8644,209.6553 P,0,17079,17687,H P,0,17241,17322,V F,0,17383,17687,1,0 P,0,17403,17687,V
Sprite,Background,Centre,"sb\btrfl1.png",140,282 S,0,17484,,0.355 R,0,17484,,-2.998089 P,0,17484,17565,V M,1,17484,18092,194.4409,289.8223,219.1868,293.3779 P,0,17484,18092,H P,0,17646,17727,V F,0,17788,18092,1,0 P,0,17808,18092,V
Sprite,Background,Centre,"sb\btrfl1.png",282,373 S,0,17890,,0.355 R,0,17890,,-2.718666 P,0,17890,17971,V M,1,17890,18498,332.172,395.5338,354.9774,405.7764 P,0,17890,18498,H P,0,18052,18133,V F,0,18194,18498,1,0 P,0,18214,18498,V
Sprite,Background,Centre,"sb\btrfl1.png",431,296 S,0,18295,,0.355 R,0,18295,,-2.782275 P,0,18295,18376,V M,1,18295,18903,482.5029,315.299,505.9133,324.0712 P,0,18295,18903,H P,0,18457,18538,V F,0,18599,18903,1,0 P,0,18619,18903,V
Sprite,Background,Centre,"sb\btrfl1.png",289,206 S,0,19106,,0.355 R,0,19106,,-2.941996 P,0,19106,19187,V M,1,19106,19714,342.9167,216.8621,367.4243,221.7995 P,0,19106,19714,H P,0,19268,19349,V F,0,19410,19714,1,0 P,0,19430,19714,V
Sprite,Background,Centre,"sb\btrfl1.png",194,91 S,0,19511,,0.355 R,0,19511,,-2.848303 P,0,19511,19592,V M,1,19511,20119,246.664,106.8587,270.6022,114.0672 P,0,19511,20119,H P,0,19673,19754,V F,0,19815,20119,1,0 P,0,19835,20119,V
Sprite,Background,Centre,"sb\btrfl1.png",84,333 S,0,20322,,0.355 R,0,20322,,-3.263126 P,0,20322,20403,V M,1,20322,20930,138.589,326.2886,163.4022,323.238 P,0,20322,20930,H P,0,20484,20565,V F,0,20626,20930,1,0 P,0,20646,20930,V
Sprite,Background,Centre,"sb\btrfl1.png",240,290 S,0,21133,,0.355 R,0,21133,,-3.055619 P,0,21133,21214,V M,1,21133,21741,294.8006,294.6791,319.71,296.806 P,0,21133,21741,H P,0,21295,21376,V F,0,21437,21741,1,0 P,0,21457,21741,V
Sprite,Background,Centre,"sb\btrfl1.png",404,352 S,0,21944,,0.355 R,0,21944,,-3.127778 P,0,21944,22025,V M,1,21944,22552,458.9953,352.716,483.9932,353.0414 P,0,21944,22552,H P,0,22106,22187,V F,0,22248,22552,1,0 P,0,22268,22552,V
Sprite,Background,Centre,"sb\btrfl1.png",308,99 S,0,22754,,0.355 R,0,22754,,-2.688236 P,0,22754,22835,V M,1,22754,23362,357.4632,123.0498,379.9465,133.9815 P,0,22754,23362,H P,0,22916,22997,V F,0,23058,23362,1,0 P,0,23078,23362,V
Sprite,Background,Centre,"sb\btrfl1.png",475,77 S,0,23160,,0.355 R,0,23160,,-2.898603 P,0,23160,23241,V M,1,23160,23768,528.3948,90.1908,552.6652,96.18662 P,0,23160,23768,H P,0,23322,23403,V F,0,23464,23768,1,0 P,0,23484,23768,V
Sprite,Background,Centre,"sb\btrfl1.png",342,179 S,0,23565,,0.355 R,0,23565,,-2.875885 P,0,23565,23646,V M,1,23565,24173,395.0814,193.4003,419.2093,199.9459 P,0,23565,24173,H P,0,23727,23808,V F,0,23869,24173,1,0 P,0,23889,24173,V
Sprite,Background,Centre,"sb\btrfl1.png",70,108 S,0,24376,,0.355 R,0,24376,,-3.244473 P,0,24376,24457,V M,1,24376,24984,124.7047,102.308,149.5704,99.72071 P,0,24376,24984,H P,0,24538,24619,V F,0,24680,24984,1,0 P,0,24700,24984,V
Sprite,Background,Centre,"sb\btrfl1.png",144,379 S,0,25187,,0.355 R,0,25187,,-2.973078 P,0,25187,25268,V M,1,25187,25795,198.2282,388.1813,222.8775,392.3547 P,0,25187,25795,H P,0,25349,25430,V F,0,25491,25795,1,0 P,0,25511,25795,V
Sprite,Background,Centre,"sb\btrfl1.png",458,261 S,0,25998,,0.355 R,0,25998,,-3.099584 P,0,25998,26079,V M,1,25998,26606,512.9533,263.2661,537.9321,264.2961 P,0,25998,26606,H P,0,26160,26241,V F,0,26302,26606,1,0 P,0,26322,26606,V
Sprite,Background,Centre,"sb\btrfl1.png",319,304 S,0,26808,,0.355 R,0,26808,,-2.741375 P,0,26808,26889,V M,1,26808,27416,369.6707,325.3887,392.7029,335.1108 P,0,26808,27416,H P,0,26970,27051,V F,0,27112,27416,1,0 P,0,27132,27416,V
Sprite,Background,Centre,"sb\btrfl1.png",476,103 S,0,27619,,0.355 R,0,27619,,-2.834071 P,0,27619,27700,V M,1,27619,28227,528.433,119.6066,552.2662,127.1551 P,0,27619,28227,H P,0,27781,27862,V F,0,27923,28227,1,0 P,0,27943,28227,V
Sprite,Background,Centre,"sb\btrfl1.png",307,105 S,0,28025,,0.355 R,0,28025,,-3.214259 P,0,28025,28106,V M,1,28025,28633,361.8517,100.9632,386.7842,99.12829 P,0,28025,28633,H P,0,28187,28268,V F,0,28329,28633,1,0 P,0,28349,28633,V
Sprite,Background,Centre,"sb\btrfl1.png",139,94 S,0,28430,,0.355 R,0,28430,,-3.146859 P,0,28430,28511,V M,1,28430,29038,193.999,93.66653,218.9985,93.51496 P,0,28430,29038,H P,0,28592,28673,V F,0,28734,29038,1,0 P,0,28754,29038,V
Sprite,Background,Centre,"sb\btrfl1.png",222,365 S,0,29241,,0.355 R,0,29241,,-2.872296 P,0,29241,29322,V M,1,29241,29849,275.0294,379.5907,299.1336,386.2228 P,0,29241,29849,H P,0,29403,29484,V F,0,29545,29849,1,0 P,0,29565,29849,V
Sprite,Background,Centre,"sb\btrfl1.png",393,196 S,0,30052,,0.355 R,0,30052,,-2.944325 P,0,30052,30133,V M,1,30052,30660,446.9419,206.7365,471.4609,211.6168 P,0,30052,30660,H P,0,30214,30295,V F,0,30356,30660,1,0 P,0,30376,30660,V
Sprite,Background,Centre,"sb\btrfl1.png",522,302 S,0,30457,,0.355 R,0,30457,,-2.758095 P,0,30457,30538,V M,1,30457,31065,573.0212,322.5385,596.2128,331.8742 P,0,30457,31065,H P,0,30619,30700,V F,0,30761,31065,1,0 P,0,30781,31065,V
Sprite,Background,Centre,"sb\btrfl1.png",365,360 S,0,30862,,0.355 R,0,30862,,-2.802789 P,0,30862,30943,V M,1,30862,31470,416.8879,378.2384,440.4734,386.5286 P,0,30862,31470,H P,0,31024,31105,V F,0,31166,31470,1,0 P,0,31186,31470,V
Sprite,Background,Centre,"sb\btrfl1.png",152,98 S,0,32484,,0.355 R,0,32484,,-2.916044 P,0,32484,32565,V M,1,32484,33092,205.6167,110.2576,229.9879,115.8292 P,0,32484,33092,H P,0,32646,32727,V F,0,32788,33092,1,0 P,0,32808,33092,V
Sprite,Background,Centre,"sb\btrfl1.png",115,432 S,0,33295,,0.355 R,0,33295,,-3.101236 P,0,33295,33376,V M,1,33295,33903,169.957,434.1752,194.9374,435.164 P,0,33295,33903,H P,0,33457,33538,V F,0,33599,33903,1,0 P,0,33619,33903,V
Sprite,Background,Centre,"sb\btrfl1.png",250,232 S,0,34106,,0.355 R,0,34106,,-3.041898 P,0,34106,34187,V M,1,34106,34714,304.7312,237.4305,329.6091,239.899 P,0,34106,34714,H P,0,34268,34349,V F,0,34410,34714,1,0 P,0,34430,34714,V
Sprite,Background,Centre,"sb\btrfl1.png",396,150 S,0,34511,,0.355 R,0,34511,,-2.962781 P,0,34511,34592,V M,1,34511,35119,450.1308,159.7392,474.7357,164.1661 P,0,34511,35119,H P,0,34673,34754,V F,0,34815,35119,1,0 P,0,34835,35119,V
Sprite,Background,Centre,"sb\btrfl1.png",501,282 S,0,35322,,0.355 R,0,35322,,-2.786948 P,0,35322,35403,V M,1,35322,35930,552.5925,301.0581,576.0437,309.7208 P,0,35322,35930,H P,0,35484,35565,V F,0,35626,35930,1,0 P,0,35646,35930,V
Sprite,Background,Centre,"sb\btrfl1.png",390,405 S,0,35727,,0.355 R,0,35727,,-3.196915 P,0,35727,35808,V M,1,35727,36335,444.9134,401.9151,469.8741,400.5129 P,0,35727,36335,H P,0,35889,35970,V F,0,36031,36335,1,0 P,0,36051,36335,V
Sprite,Background,Centre,"sb\btrfl1.png",197,252 S,0,36538,,0.355 R,0,36538,,-3.165254 P,0,36538,36619,V M,1,36538,37146,251.9836,250.655,276.9761,250.0436 P,0,36538,37146,H P,0,36700,36781,V F,0,36842,37146,1,0 P,0,36862,37146,V
Sprite,Background,Centre,"sb\btrfl1.png",277,224 S,0,37552,,0.355 R,0,37552,,-3.111238 P,0,37552,37633,V M,1,37552,38160,331.976,225.6254,356.9651,226.3643 P,0,37552,38160,H P,0,37714,37795,V F,0,37856,38160,1,0 P,0,37876,38160,V
Sprite,Background,Centre,"sb\btrfl1.png",277,224 S,0,37754,,0.355 R,0,37754,,-3.184932 P,0,37754,37835,V M,1,37754,38362,331.9464,221.5733,356.9221,220.4703 P,0,37754,38362,H P,0,37916,37997,V F,0,38058,38362,1,0 P,0,38078,38362,V
Sprite,Background,Centre,"sb\btrfl1.png",307,361 S,0,38160,,0.355 R,0,38160,,-3.077849 P,0,38160,38241,V M,1,38160,38768,361.8911,364.4598,386.8416,366.0324 P,0,38160,38768,H P,0,38322,38403,V F,0,38464,38768,1,0 P,0,38484,38768,V
Sprite,Background,Centre,"sb\btrfl1.png",535,290 S,0,38971,,0.355 R,0,38971,,-3.04492 P,0,38971,39052,V M,1,38971,39579,589.7474,295.2651,614.6326,297.6584 P,0,38971,39579,H P,0,39133,39214,V F,0,39275,39579,1,0 P,0,39295,39579,V
Sprite,Background,Centre,"sb\btrfl1.png",368,268 S,0,39376,,0.355 R,0,39376,,-2.801044 P,0,39376,39457,V M,1,39376,39984,419.856,286.3289,443.427,294.6603 P,0,39376,39984,H P,0,39538,39619,V F,0,39680,39984,1,0 P,0,39700,39984,V
Sprite,Background,Centre,"sb\btrfl1.png",452,121 S,0,39781,,0.355 R,0,39781,,-3.207217 P,0,39781,39862,V M,1,39781,40389,506.8787,117.3495,531.8236,115.6902 P,0,39781,40389,H P,0,39943,40024,V F,0,40085,40389,1,0 P,0,40105,40389,V
Sprite,Background,Centre,"sb\btrfl1.png",196,214 S,0,40592,,0.355 R,0,40592,,-3.207864 P,0,40592,40673,V M,1,40592,41200,250.8763,210.3141,275.8202,208.6386 P,0,40592,41200,H P,0,40754,40835,V F,0,40896,41200,1,0 P,0,40916,41200,V
Sprite,Background,Centre,"sb\btrfl1.png",444,312 S,0,41403,,0.355 R,0,41403,,-2.721948 P,0,41403,41484,V M,1,41403,42011,494.2457,334.369,517.0847,344.5367 P,0,41403,42011,H P,0,41565,41646,V F,0,41707,42011,1,0 P,0,41727,42011,V
Sprite,Background,Centre,"sb\btrfl1.png",465,405 S,0,42214,,0.355 R,0,42214,,-3.173147 P,0,42214,42295,V M,1,42214,42822,519.9712,403.221,544.9581,402.4124 P,0,42214,42822,H P,0,42376,42457,V F,0,42518,42822,1,0 P,0,42538,42822,V
Sprite,Background,Centre,"sb\btrfl1.png",500,241 S,0,42619,,0.355 R,0,42619,,-2.772086 P,0,42619,42700,V M,1,42619,43227,551.3036,260.8227,574.6234,269.833 P,0,42619,43227,H P,0,42781,42862,V F,0,42923,43227,1,0 P,0,42943,43227,V
Sprite,Background,Centre,"sb\btrfl1.png",386,116 S,0,43025,,0.355 R,0,43025,,-3.056469 P,0,43025,43106,V M,1,43025,43633,440.8046,120.6325,465.7157,122.7382 P,0,43025,43633,H P,0,43187,43268,V F,0,43329,43633,1,0 P,0,43349,43633,V
Sprite,Background,Centre,"sb\btrfl1.png",229,227 S,0,43835,,0.355 R,0,43835,,-3.166089 P,0,43835,43916,V M,1,43835,44443,283.9824,225.6091,308.9744,224.9768 P,0,43835,44443,H P,0,43997,44078,V F,0,44139,44443,1,0 P,0,44159,44443,V
Sprite,Background,Centre,"sb\btrfl1.png",380,301 S,0,45052,,0.355 R,0,45052,,-2.801512 P,0,45052,45133,V M,1,45052,45660,431.8646,319.3047,455.4395,327.6249 P,0,45052,45660,H P,0,45214,45295,V F,0,45356,45660,1,0 P,0,45376,45660,V
Sprite,Background,Centre,"sb\btrfl1.png",527,220 S,0,45457,,0.355 R,0,45457,,-3.269984 P,0,45457,45538,V M,1,45457,46065,581.5417,212.9144,606.3334,209.6937 P,0,45457,46065,H P,0,45619,45700,V F,0,45761,46065,1,0 P,0,45781,46065,V
Sprite,Background,Centre,"sb\btrfl1.png",350,75 S,0,46268,,0.355 R,0,46268,,-2.958819 P,0,46268,46349,V M,1,46268,46876,404.0918,84.95358,428.679,89.47794 P,0,46268,46876,H P,0,46430,46511,V F,0,46572,46876,1,0 P,0,46592,46876,V
Sprite,Background,Centre,"sb\btrfl1.png",177,236 S,0,47079,,0.355 R,0,47079,,-3.061323 P,0,47079,47160,V M,1,47079,47687,231.8264,240.3664,256.7475,242.3512 P,0,47079,47687,H P,0,47241,47322,V F,0,47383,47687,1,0 P,0,47403,47687,V
Sprite,Background,Centre,"sb\btrfl1.png",296,357 S,0,47484,,0.355 R,0,47484,,-3.101835 P,0,47484,47565,V M,1,47484,48092,350.9583,359.1423,375.9393,360.1161 P,0,47484,48092,H P,0,47646,47727,V F,0,47788,48092,1,0 P,0,47808,48092,V
Sprite,Background,Centre,"sb\btrfl1.png",339,194 S,0,48295,,0.355 R,0,48295,,-3.155678 P,0,48295,48376,V M,1,48295,48903,393.9939,193.1816,418.9911,192.8095 P,0,48295,48903,H P,0,48457,48538,V F,0,48599,48903,1,0 P,0,48619,48903,V
Sprite,Background,Centre,"sb\btrfl1.png",462,80 S,0,48700,,0.355 R,0,48700,,-2.730561 P,0,48700,48781,V M,1,48700,49308,512.4365,101.9354,535.3622,111.906 P,0,48700,49308,H P,0,48862,48943,V F,0,49004,49308,1,0 P,0,49024,49308,V
Sprite,Background,Centre,"sb\btrfl1.png",556,307 S,0,49511,,0.355 R,0,49511,,-3.107456 P,0,49511,49592,V M,1,49511,50119,610.9694,308.8333,635.9556,309.6667 P,0,49511,50119,H P,0,49673,49754,V F,0,49815,50119,1,0 P,0,49835,50119,V
Sprite,Background,Centre,"sb\btrfl1.png",276,259 S,0,50322,,0.355 R,0,50322,,-3.10107 P,0,50322,50403,V M,1,50322,50930,330.9566,261.1844,355.9369,262.1772 P,0,50322,50930,H P,0,50484,50565,V F,0,50626,50930,1,0 P,0,50646,50930,V
Sprite,Background,Centre,"sb\btrfl1.png",420,172 S,0,50727,,0.355 R,0,50727,,-2.745316 P,0,50727,50808,V M,1,50727,51335,470.7546,193.1888,493.825,202.8201 P,0,50727,51335,H P,0,50889,50970,V F,0,51031,51335,1,0 P,0,51051,51335,V
Sprite,Background,Centre,"sb\btrfl1.png",251,176 S,0,51538,,0.355 R,0,51538,,-3.213106 P,0,51538,51619,V M,1,51538,52146,305.8563,172.0264,330.791,170.2203 P,0,51538,52146,H P,0,51700,51781,V F,0,51842,52146,1,0 P,0,51862,52146,V
Sprite,Background,Centre,"sb\btrfl1.png",100,410 S,0,52349,,0.355 R,0,52349,,-2.783474 P,0,52349,52430,V M,1,52349,52957,151.526,429.2372,174.9469,437.9813 P,0,52349,52957,H P,0,52511,52592,V F,0,52653,52957,1,0 P,0,52673,52957,V
Sprite,Background,Centre,"sb\btrfl1.png",72,244 S,0,52754,,0.355 R,0,52754,,-2.956086 P,0,52754,52835,V M,1,52754,53362,126.0644,254.1014,150.6392,258.693 P,0,52754,53362,H P,0,52916,52997,V F,0,53058,53362,1,0 P,0,53078,53362,V
Sprite,Background,Centre,"sb\btrfl1.png",251,144 S,0,53565,,0.355 R,0,53565,,-2.994477 P,0,53565,53646,V M,1,53565,54173,305.4123,152.0189,330.1451,155.6638 P,0,53565,54173,H P,0,53727,53808,V F,0,53869,54173,1,0 P,0,53889,54173,V
Sprite,Background,Centre,"sb\btrfl1.png",430,263 S,0,54376,,0.355 R,0,54376,,-2.8653 P,0,54376,54457,V M,1,54376,54984,482.926,277.9613,506.9832,284.7619 P,0,54376,54984,H P,0,54538,54619,V F,0,54680,54984,1,0 P,0,54700,54984,V
Sprite,Background,Centre,"sb\btrfl1.png",511,296 S,0,55187,,0.355 R,0,55187,,-3.072622 P,0,55187,55268,V M,1,55187,55795,565.8723,299.7467,590.8141,301.4497 P,0,55187,55795,H P,0,55349,55430,V F,0,55491,55795,1,0 P,0,55511,55795,V
Sprite,Background,Centre,"sb\btrfl1.png",346,261 S,0,55592,,0.355 R,0,55592,,-2.951039 P,0,55592,55673,V M,1,55592,56200,400.0128,271.3741,424.564,276.0897 P,0,55592,56200,H P,0,55754,55835,V F,0,55896,56200,1,0 P,0,55916,56200,V
Sprite,Background,Centre,"sb\btrfl1.png",438,407 S,0,55998,,0.355 R,0,55998,,-3.170098 P,0,55998,56079,V M,1,55998,56606,492.9764,405.3886,517.9656,404.6562 P,0,55998,56606,H P,0,56160,56241,V F,0,56302,56606,1,0 P,0,56322,56606,V
Sprite,Background,Centre,"sb\btrfl1.png",385,335 S,0,56808,,0.355 R,0,56808,,-3.155522 P,0,56808,56889,V M,1,56808,57416,439.994,334.1901,464.9913,333.822 P,0,56808,57416,H P,0,56970,57051,V F,0,57112,57416,1,0 P,0,57132,57416,V
Sprite,Background,Centre,"sb\btrfl1.png",99,140 S,0,58430,,0.355 R,0,58430,,-3.146178 P,0,58430,58511,V M,1,58430,59038,153.9992,139.704,178.9988,139.5695 P,0,58430,59038,H P,0,58592,58673,V F,0,58734,59038,1,0 P,0,58754,59038,V
Sprite,Background,Centre,"sb\btrfl1.png",189,404 S,0,59241,,0.355 R,0,59241,,-3.128704 P,0,59241,59322,V M,1,59241,59849,243.996,404.6651,268.9941,404.9674 P,0,59241,59849,H P,0,59403,59484,V F,0,59545,59849,1,0 P,0,59565,59849,V
Sprite,Background,Centre,"sb\btrfl1.png",343,205 S,0,60052,,0.355 R,0,60052,,-3.232524 P,0,60052,60133,V M,1,60052,60660,397.7688,199.962,422.6637,197.6721 P,0,60052,60660,H P,0,60214,60295,V F,0,60356,60660,1,0 P,0,60376,60660,V
Sprite,Background,Centre,"sb\btrfl1.png",337,374 S,0,60457,,0.355 R,0,60457,,-2.846998 P,0,60457,60538,V M,1,60457,61065,389.6433,389.9274,413.5721,397.1672 P,0,60457,61065,H P,0,60619,60700,V F,0,60761,61065,1,0 P,0,60781,61065,V
Sprite,Background,Centre,"sb\btrfl1.png",259,224 S,0,60862,,0.355 R,0,60862,,-2.983671 P,0,60862,60943,V M,1,60862,61470,313.3225,232.6064,338.0145,236.5184 P,0,60862,61470,H P,0,61024,61105,V F,0,61166,61470,1,0 P,0,61186,61470,V
Sprite,Background,Centre,"sb\btrfl1.png",427,186 S,0,61701,,0.355 R,0,61701,,-3.068036 P,0,61701,61782,V M,1,61701,62309,481.8545,189.9983,506.7883,191.8157 P,0,61701,62309,H P,0,61863,61944,V F,0,62005,62309,1,0 P,0,62025,62309,V
Sprite,Background,Centre,"sb\btrfl1.png",228,350 S,0,62589,,0.355 R,0,62589,,-2.869553 P,0,62589,62670,V M,1,62589,63197,280.9891,364.7361,305.0751,371.4343 P,0,62589,63197,H P,0,62751,62832,V F,0,62893,63197,1,0 P,0,62913,63197,V
Sprite,Background,Centre,"sb\btrfl1.png",474,422 S,0,63550,,0.355 R,0,63550,,-2.842033 P,0,63550,63631,V M,1,63550,64158,526.5636,438.1886,550.4561,445.5471 P,0,63550,64158,H P,0,63712,63793,V F,0,63854,64158,1,0 P,0,63874,64158,V
Sprite,Background,Centre,"sb\btrfl1.png",413,173 S,0,64640,,0.355 R,0,64640,,-3.162366 P,0,64640,64721,V M,1,64640,65248,467.9872,171.8138,492.9814,171.2746 P,0,64640,65248,H P,0,64802,64883,V F,0,64944,65248,1,0 P,0,64964,65248,V
//Storyboard Layer 1 (Fail)
//Storyboard Layer 2 (Pass)
//Storyboard Layer 3 (Foreground)
//Storyboard Sound Samples

[TimingPoints]
863,405.405405405405,4,2,1,20,1,0
863,-100,4,2,1,20,0,1
964,-100,4,2,1,20,0,0
1268,-100,4,2,1,15,0,0
1673,-100,4,2,1,20,0,0
2079,-100,4,2,1,25,0,0
2890,-100,4,2,1,15,0,0
4106,-100,4,2,1,25,0,0
4511,-100,4,2,1,15,0,0
5119,-100,4,2,1,25,0,0
5525,-100,4,2,1,20,0,0
6133,-100,4,2,1,15,0,0
7349,-100,4,2,1,20,0,0
7754,-100,4,2,1,15,0,0
8160,-100,4,2,1,20,0,0
8565,-100,4,2,1,15,0,0
8971,-100,4,2,1,20,0,0
9376,-100,4,2,1,15,0,0
10592,-100,4,2,1,20,0,0
10998,-100,4,2,1,15,0,0
11403,-100,4,2,1,20,0,0
12619,-100,4,2,1,15,0,0
13025,-100,4,2,1,20,0,0
13430,-100,4,2,1,15,0,0
13835,-100,4,2,1,25,0,1
13937,-100,4,2,1,25,0,0
14241,-100,4,2,1,15,0,0
14646,-100,4,2,1,20,0,0
15052,-100,4,2,1,25,0,0
15863,-100,4,2,1,15,0,0
17079,-100,4,2,1,25,0,0
20322,-100,4,2,1,20,0,0
20727,-100,4,2,1,15,0,0
21133,-100,4,2,1,20,0,0
21538,-100,4,2,1,15,0,0
21944,-100,4,2,1,20,0,0
22349,-100,4,2,1,15,0,0
23160,-100,4,2,1,15,0,0
23565,-100,4,2,1,20,0,0
25187,-100,4,2,1,25,0,0
25998,-100,4,2,1,20,0,0
26403,-100,4,2,1,15,0,0
26808,-100,4,2,1,20,0,0
27214,-100,4,2,1,15,0,0
28025,-100,4,2,1,25,0,0
28430,-100,4,2,1,20,0,0
28835,-100,4,2,1,15,0,0
29241,-100,4,2,1,20,0,0
29646,-100,4,2,1,15,0,0
30052,-100,4,2,1,25,0,0
31268,-100,4,2,1,20,0,0
31673,-100,4,2,1,15,0,0
32484,-100,4,2,1,25,0,0
33295,-100,4,2,1,25,0,1
33396,-100,4,2,1,25,0,0
33700,-100,4,2,1,15,0,0
34105,-100,4,2,1,20,0,0
34511,-100,4,2,1,25,0,0
35322,-100,4,2,1,15,0,0
35727,-100,4,2,1,20,0,0
36538,-100,4,2,1,25,0,0
37957,-100,4,2,1,20,0,0
38970,-100,4,2,1,15,0,0
39781,-100,4,2,1,20,0,0
46268,-100,4,2,1,25,0,1
46369,-100,4,2,1,25,0,0
46673,-100,4,2,1,15,0,0
47078,-100,4,2,1,20,0,0
47484,-100,4,2,1,25,0,0
48295,-100,4,2,1,15,0,0
49511,-100,4,2,1,25,0,0
50727,-100,4,2,1,25,0,0
52754,-100,4,2,1,20,0,0
53160,-100,4,2,1,15,0,0
53566,-100,4,2,1,20,0,0
53971,-100,4,2,1,15,0,0
54377,-100,4,2,1,20,0,0
54782,-100,4,2,1,15,0,0
55592,-100,4,2,1,10,0,0
55997,-100,4,2,1,20,0,0
55998,-100,4,2,1,20,0,0
56404,-100,4,2,1,15,0,0
56809,-100,4,2,1,20,0,0
58430,-100,4,2,1,20,0,0
58835,-100,4,2,1,15,0,0
59240,-100,4,2,1,20,0,0
59646,-100,4,2,1,15,0,0
60457,-100,4,2,1,25,0,0
60862,419.58041958042,4,2,1,20,1,0
61281,-100,4,2,1,15,0,0
61701,444.444444444444,4,2,1,20,1,0
62589,461.538461538462,4,2,1,20,1,0
63050,500,4,2,1,15,1,0
63550,545.454545454546,4,2,1,15,1,0
64095,-100,4,2,1,10,0,0
64640,-100,4,2,1,7,0,0

[Colours]
Combo1 : 255,128,64
Combo2 : 0,128,192
Combo3 : 255,128,128

[HitObjects]
469,80,52,5,0,0:0:0:0:
191,269,863,6,0,B|173:273|173:273|73:260,1,120,6|0,0:0|0:0,2:2:0:0:
202,152,1673,1,0,0:0:0:0:
336,253,2079,2,0,B|342:335,2,60,2|2|2,0:0|0:0|0:0,2:2:0:0:
182,319,2890,1,0,0:0:0:0:
202,152,3295,1,2,0:0:0:0:
357,86,3700,1,0,0:0:0:0:
193,69,4106,6,0,L|57:50,2,120,2|0|0,0:0|0:0|0:0,2:2:0:0:
202,152,5119,1,2,0:0:0:0:
202,152,5322,2,0,L|195:231,1,60,2|2,0:0|0:0,2:2:0:0:
126,258,5727,2,0,L|139:380,1,120,2|0,0:0|0:0,2:2:0:0:
298,324,6538,1,2,0:0:0:0:
461,360,6944,1,0,0:0:0:0:
420,195,7349,6,0,L|411:71,1,120,2|0,0:0|0:0,2:2:0:0:
245,46,8160,2,0,L|235:165,1,120,2|0,0:0|0:0,2:2:0:0:
72,208,8971,2,0,L|62:83,1,120,2|0,0:0|0:0,2:2:0:0:
166,220,9781,1,2,0:0:0:0:
7,275,10187,1,2,0:0:0:0:
135,384,10592,6,0,L|254:374,1,120,2|2,0:0|0:0,2:2:0:0:
375,257,11403,2,0,L|494:266,2,120,2|2|2,0:0|0:0|0:0,2:2:0:0:
254,139,12619,1,0,0:0:0:0:
398,52,13025,2,0,P|419:107|417:178,1,120,2|0,0:0|0:0,2:2:0:0:
289,273,13835,6,0,B|243:281|243:281|160:271,1,120,6|0,0:0|0:0,2:2:0:0:
17,198,14646,1,0,0:0:0:0:
156,102,15052,2,0,L|164:42,2,60,2|2|2,0:0|0:0|0:0,2:2:0:0:
309,176,15862,1,0,0:0:0:0:
470,221,16268,2,0,B|436:253|436:253|343:245,1,120,2|0,0:0|0:0,2:2:0:0:
225,149,17079,5,2,0:0:0:0:
76,226,17484,1,0,0:0:0:0:
218,317,17890,1,0,0:0:0:0:
367,240,18295,2,0,L|377:311,2,60,2|2|2,0:0|0:0|0:0,2:2:0:0:
225,150,19106,1,0,0:0:0:0:
130,35,19511,2,0,L|136:154,1,120,2|0,0:0|0:0,2:2:0:0:
20,277,20322,6,0,L|26:157,1,120,2|0,0:0|0:0,2:2:0:0:
176,234,21133,2,0,L|182:353,1,120,2|0,0:0|0:0,2:2:0:0:
340,296,21944,2,0,L|347:170,1,120,2|0,0:0|0:0,2:2:0:0:
244,43,22754,1,2,0:0:0:0:
411,21,23160,1,0,0:0:0:0:
278,123,23565,6,0,P|238:133|156:114,1,120,2|2,0:0|0:0,2:2:0:0:
6,52,24376,2,0,P|34:81|59:162,1,120,2|2,0:0|0:0,2:2:0:0:
80,323,25187,1,2,0:0:0:0:
394,205,25998,2,0,L|406:342,1,120,2|0,0:0|0:0,2:2:0:0:
255,248,26808,6,0,L|265:128,1,120,2|0,0:0|0:0,2:2:0:0:
412,47,27619,1,0,0:0:0:0:
243,49,28025,1,2,0:0:0:0:
75,38,28430,2,0,L|85:157,1,120,2|0,0:0|0:0,2:2:0:0:
158,309,29241,2,0,L|168:189,1,120,2|0,0:0|0:0,2:2:0:0:
329,140,30052,5,2,0:0:0:0:
458,246,30457,1,2,0:0:0:0:
301,304,30862,2,0,B|244:322|244:322|177:315,2,120,2|0|0,0:0|0:0|0:0,2:2:0:0:
88,42,32484,1,2,0:0:0:0:
51,376,33295,6,0,L|36:239,1,120,6|0,0:0|0:0,2:2:0:0:
186,176,34106,1,0,0:0:0:0:
332,94,34511,2,0,L|325:33,2,60,2|2|2,0:0|0:0|0:0,2:2:0:0:
437,226,35322,1,0,0:0:0:0:
326,349,35727,2,0,B|277:354|277:354|207:347,1,120,2|0,0:0|0:0,2:2:0:0:
133,196,36538,6,0,L|126:320,2,120,2|0|0,0:0|0:0|0:0,2:2:0:0:
213,168,37552,1,2,0:0:0:0:
213,168,37754,2,0,L|209:229,1,60,2|2,0:0|0:0,2:2:0:0:
243,305,38160,2,0,P|288:336|353:352,1,120,2|0,0:0|0:0,2:2:0:0:
471,234,38971,1,2,0:0:0:0:
304,212,39376,1,0,0:0:0:0:
388,65,39781,6,0,B|260:58,1,120,2|0,0:0|0:0,2:2:0:0:
132,158,40592,2,0,B|260:151,1,120,2|0,0:0|0:0,2:2:0:0:
380,256,41403,2,0,B|252:249,1,120,2|0,0:0|0:0,2:2:0:0:
401,349,42214,1,2,0:0:0:0:
436,185,42619,1,2,0:0:0:0:
322,60,43025,6,0,P|347:109|330:174,1,120,2|2,0:0|0:0,2:2:0:0:
165,171,43835,2,0,P|205:129|281:127,2,120,2|2|2,0:0|0:0|0:0,2:2:0:0:
316,245,45052,1,0,0:0:0:0:
463,164,45457,2,0,L|453:42,1,120,2|0,0:0|0:0,2:2:0:0:
286,19,46268,6,0,L|276:138,1,120,6|0,0:0|0:0,2:2:0:0:
113,180,47079,1,0,0:0:0:0:
232,301,47484,2,0,L|226:379,2,60,2|2|2,0:0|0:0|0:0,2:2:0:0:
275,138,48295,1,0,0:0:0:0:
398,24,48700,2,0,P|369:95|370:147,1,120,2|0,0:0|0:0,2:2:0:0:
492,251,49511,6,0,L|355:257,1,120,2|0,0:0|0:0,2:2:0:0:
212,203,50322,1,0,0:0:0:0:
356,116,50727,2,0,L|441:112,2,60,2|2|2,0:0|0:0|0:0,2:2:0:0:
187,120,51538,2,0,P|129:181|135:239,1,120,0|2,0:0|0:0,2:2:0:0:
36,354,52349,1,0,0:0:0:0:
8,188,52754,6,0,L|20:61,1,120,2|0,0:0|0:0,2:2:0:0:
187,88,53565,2,0,L|198:207,1,120,2|0,0:0|0:0,2:2:0:0:
366,207,54376,2,0,L|378:80,1,120,2|0,0:0|0:0,2:2:0:0:
447,240,55187,1,2,0:0:0:0:
282,205,55592,1,0,0:0:0:0:
374,351,55998,6,0,P|440:353|489:318,1,120,2|2,0:0|0:0,2:2:0:0:
321,279,56808,2,0,P|288:340|297:390,2,120,2|2|2,0:0|0:0|0:0,2:2:0:0:
35,84,58430,2,0,L|40:224,1,120,2|0,0:0|0:0,2:2:0:0:
125,348,59241,6,0,L|129:228,1,120,2|0,0:0|0:0,2:2:0:0:
279,149,60052,1,0,0:0:0:0:
273,318,60457,1,2,0:0:0:0:
195,168,60862,2,0,P|213:94|267:65,1,120,2|0,0:0|0:0,2:2:0:0:
363,130,61701,2,0,P|345:204|291:233,1,120,2|0,0:0|0:0,2:2:0:0:
164,294,62589,6,0,L|289:304,1,120,2|2,0:0|0:0,2:2:0:0:
410,366,63550,2,0,L|356:252,1,120,2|2,0:0|0:0,2:2:0:0:
349,117,64640,5,6,0:0:0:0:
