osu file format v14

[General]
AudioFilename: audio.mp3
AudioLeadIn: 0
PreviewTime: 7349
Countdown: 0
SampleSet: Soft
StackLeniency: 0.7
Mode: 0
LetterboxInBreaks: 0
WidescreenStoryboard: 1

[Editor]
DistanceSpacing: 1.2
BeatDivisor: 4
GridSize: 32
TimelineZoom: 2

[Metadata]
Title:Byakumu no Mayu ~Ricordando il passato~
TitleUnicode:白夢の繭 ~Ricordando il passato~
Artist:R3 Music Box
ArtistUnicode:R3 Music Box
Creator:EijiKuinbii
Version:Memory
Source:うみねこのなく頃に散
Tags:visual novel ushiromiya 07th expansion when they cry umineko no naku koro ni chiru Quadrocake Vad2009 Mirash
BeatmapID:1302836
BeatmapSetID:593228

[Difficulty]
HPDrainRate:5
CircleSize:4
OverallDifficulty:6.5
ApproachRate:7
SliderMultiplier:1.4
SliderTickRate:1

[Events]
//Background and Video events
0,0,"wtc.jpg",0,0
//Break Periods
//Storyboard Layer 0 (Background)
Sprite,Background,Centre,"wtc.jpg",0,0
Sprite,Background,Centre,"sb\bgfull.jpg",320,240 S,0,0,,1.15 F,0,0,2000,0,1 M,0,0,68337,320,612.4258,320,-131.8733 F,0,66337,68337,1,0
Sprite,Background,Centre,"sb\btrfl1.png",160,191 S,0,52,,0.504 R,0,52,,-6.206878 M,1,52,660,110.1425,187.2281,85.21371,185.3421 P,0,52,660,H P,0,133,214,V P,0,295,376,V F,0,356,660,1,0
Sprite,Background,Centre,"sb\btrfl1.png",447,364 S,0,863,,0.504 R,0,863,,-6.161337 M,1,863,1471,397.3659,357.9622,372.5488,354.9433 P,0,863,1471,H P,0,944,1025,V P,0,1106,1187,V F,0,1167,1471,1,0
Sprite,Background,Centre,"sb\btrfl1.png",313,134 S,0,1673,,0.504 R,0,1673,,-6.185988 M,1,1673,2281,263.2321,129.1874,238.3482,126.7812 P,0,1673,2281,H P,0,1754,1835,V P,0,1916,1997,V F,0,1977,2281,1,0
Sprite,Background,Centre,"sb\btrfl1.png",305,298 S,0,2079,,0.504 R,0,2079,,-6.290919 M,1,2079,2687,255.0018,298.4265,230.0027,298.6398 P,0,2079,2687,H P,0,2160,2241,V P,0,2322,2403,V F,0,2383,2687,1,0
Sprite,Background,Centre,"sb\btrfl1.png",350,230 S,0,2281,,0.504 R,0,2281,,-6.466983 M,1,2281,2889,300.8495,239.1774,276.2742,243.7661 P,0,2281,2889,H P,0,2362,2443,V P,0,2524,2605,V F,0,2585,2889,1,0
Sprite,Background,Centre,"sb\btrfl1.png",269,226 S,0,2484,,0.504 R,0,2484,,-6.290557 M,1,2484,3092,219.0017,226.4084,194.0025,226.6126 P,0,2484,3092,H P,0,2565,2646,V P,0,2727,2808,V F,0,2788,3092,1,0
Sprite,Background,Centre,"sb\btrfl1.png",386,302 S,0,2890,,0.504 R,0,2890,,-6.116986 M,1,2890,3498,336.6824,293.7675,312.0236,289.6513 P,0,2890,3498,H P,0,2971,3052,V P,0,3133,3214,V F,0,3194,3498,1,0
Sprite,Background,Centre,"sb\btrfl1.png",224,294 S,0,3295,,0.504 R,0,3295,,-6.348911 M,1,3295,3903,174.1106,297.3236,149.1659,298.9855 P,0,3295,3903,H P,0,3376,3457,V P,0,3538,3619,V F,0,3599,3903,1,0
Sprite,Background,Centre,"sb\btrfl1.png",431,234 S,0,4106,,0.504 R,0,4106,,-6.081225 M,1,4106,4714,382.0083,224.0095,357.5124,219.0143 P,0,4106,4714,H P,0,4187,4268,V P,0,4349,4430,V F,0,4410,4714,1,0
Sprite,Background,Centre,"sb\btrfl1.png",512,238 S,0,5120,,0.504 R,0,5120,,-6.433148 M,1,5120,5728,462.5671,245.5094,437.8507,249.2641 P,0,5120,5728,H P,0,5201,5282,V P,0,5363,5444,V F,0,5424,5728,1,0
Sprite,Background,Centre,"sb\btrfl1.png",475,166 S,0,5322,,0.504 R,0,5322,,-6.424047 M,1,5322,5930,425.5008,173.0592,400.7513,176.5888 P,0,5322,5930,H P,0,5403,5484,V P,0,5565,5646,V F,0,5626,5930,1,0
Sprite,Background,Centre,"sb\btrfl1.png",394,162 S,0,5525,,0.504 R,0,5525,,-6.336343 M,1,5525,6133,344.0728,164.6964,319.1091,166.0446 P,0,5525,6133,H P,0,5606,5687,V P,0,5768,5849,V F,0,5829,6133,1,0
Sprite,Background,Centre,"sb\btrfl1.png",351,231 S,0,5728,,0.504 R,0,5728,,-6.253671 M,1,5728,6336,301.0206,229.5643,276.0309,228.8464 P,0,5728,6336,H P,0,5809,5890,V P,0,5971,6052,V F,0,6032,6336,1,0
Sprite,Background,Centre,"sb\btrfl1.png",356,368 S,0,6133,,0.504 R,0,6133,,-6.335244 M,1,6133,6741,306.0698,370.6415,281.1047,371.9623 P,0,6133,6741,H P,0,6214,6295,V P,0,6376,6457,V F,0,6437,6741,1,0
Sprite,Background,Centre,"sb\btrfl1.png",234,303 S,0,6538,,0.504 R,0,6538,,-6.078924 M,1,6538,7146,185.0314,292.8968,160.5471,287.8452 P,0,6538,7146,H P,0,6619,6700,V P,0,6781,6862,V F,0,6842,7146,1,0
Sprite,Background,Centre,"sb\btrfl1.png",351,231 S,0,6944,,0.504 R,0,6944,,-6.554817 M,1,6944,7552,302.844,244.4535,278.766,251.1803 P,0,6944,7552,H P,0,7025,7106,V P,0,7187,7268,V F,0,7248,7552,1,0
Sprite,Background,Centre,"sb\btrfl1.png",239,440 S,0,7349,,0.504 R,0,7349,,-6.138815 M,1,7349,7957,189.5145,432.8459,164.7717,429.2689 P,0,7349,7957,H P,0,7430,7511,V P,0,7592,7673,V F,0,7653,7957,1,0
Sprite,Background,Centre,"sb\btrfl1.png",351,231 S,0,8160,,0.504 R,0,8160,,-6.072327 M,1,8160,8768,302.0991,220.5739,277.6487,215.3609 P,0,8160,8768,H P,0,8241,8322,V P,0,8403,8484,V F,0,8464,8768,1,0
Sprite,Background,Centre,"sb\btrfl1.png",115,239 S,0,8971,,0.504 R,0,8971,,-6.23141 M,1,8971,9579,65.06496,236.4521,40.09744,235.1782 P,0,8971,9579,H P,0,9052,9133,V P,0,9214,9295,V F,0,9275,9579,1,0
Sprite,Background,Centre,"sb\btrfl1.png",84,320 S,0,9781,,0.504 R,0,9781,,-6.412704 M,1,9781,10389,34.42395,326.4973,9.635925,329.746 P,0,9781,10389,H P,0,9862,9943,V P,0,10024,10105,V F,0,10085,10389,1,0
Sprite,Background,Centre,"sb\btrfl1.png",101,153 S,0,10187,,0.504 R,0,10187,,-6.161546 M,1,10187,10795,51.36463,146.9725,26.54695,143.9588 P,0,10187,10795,H P,0,10268,10349,V P,0,10430,10511,V F,0,10491,10795,1,0
Sprite,Background,Centre,"sb\btrfl1.png",170,307 S,0,10592,,0.504 R,0,10592,,-6.145974 M,1,10592,11200,120.4645,300.2004,95.69675,296.8006 P,0,10592,11200,H P,0,10673,10754,V P,0,10835,10916,V F,0,10896,11200,1,0
Sprite,Background,Centre,"sb\btrfl1.png",283,129 S,0,11403,,0.504 R,0,11403,,-6.074049 M,1,11403,12011,234.0812,118.6582,209.6218,113.4873 P,0,11403,12011,H P,0,11484,11565,V P,0,11646,11727,V F,0,11707,12011,1,0
Sprite,Background,Centre,"sb\btrfl1.png",170,219 S,0,12619,,0.504 R,0,12619,,-6.553688 M,1,12619,13227,121.8288,232.3991,97.74322,239.0987 P,0,12619,13227,H P,0,12700,12781,V P,0,12862,12943,V F,0,12923,13227,1,0
Sprite,Background,Centre,"sb\btrfl1.png",334,262 S,0,13025,,0.504 R,0,13025,,-6.220029 M,1,13025,13633,284.0972,258.884,259.1458,257.326 P,0,13025,13633,H P,0,13106,13187,V P,0,13268,13349,V F,0,13329,13633,1,0
Sprite,Background,Centre,"sb\btrfl1.png",320,182 S,0,13835,,0.504 R,0,13835,,-6.306858 M,1,13835,14443,270.015,183.2233,245.0224,183.835 P,0,13835,14443,H P,0,13916,13997,V P,0,14078,14159,V F,0,14139,14443,1,0
Sprite,Background,Centre,"sb\btrfl1.png",352,425 S,0,14646,,0.504 R,0,14646,,-6.102991 M,1,14646,15254,302.8024,416.0781,278.2036,411.6172 P,0,14646,15254,H P,0,14727,14808,V P,0,14889,14970,V F,0,14950,15254,1,0
Sprite,Background,Centre,"sb\btrfl1.png",458,198 S,0,15052,,0.504 R,0,15052,,-6.22619 M,1,15052,15660,408.0789,195.1915,383.1184,193.7873 P,0,15052,15660,H P,0,15133,15214,V P,0,15295,15376,V F,0,15356,15660,1,0
Sprite,Background,Centre,"sb\btrfl1.png",381,230 S,0,15255,,0.504 R,0,15255,,-6.296592 M,1,15255,15863,331.005,230.7101,306.0076,231.0652 P,0,15255,15863,H P,0,15336,15417,V P,0,15498,15579,V F,0,15559,15863,1,0
Sprite,Background,Centre,"sb\btrfl1.png",390,147 S,0,15457,,0.504 R,0,15457,,-6.529445 M,1,15457,16065,341.5182,159.2275,317.2773,165.3413 P,0,15457,16065,H P,0,15538,15619,V P,0,15700,15781,V F,0,15761,16065,1,0
Sprite,Background,Centre,"sb\btrfl1.png",540,191 S,0,15862,,0.504 R,0,15862,,-6.476438 M,1,15862,16470,490.9384,200.6417,466.4076,205.4625 P,0,15862,16470,H P,0,15943,16024,V P,0,16105,16186,V F,0,16166,16470,1,0
Sprite,Background,Centre,"sb\btrfl1.png",386,348 S,0,16673,,0.504 R,0,16673,,-6.343337 M,1,16673,17281,336.0928,351.0455,311.1393,352.5682 P,0,16673,17281,H P,0,16754,16835,V P,0,16916,16997,V F,0,16977,17281,1,0
Sprite,Background,Centre,"sb\btrfl1.png",291,223 S,0,17079,,0.504 R,0,17079,,-6.421414 M,1,17079,17687,241.4824,229.9289,216.7236,233.3933 P,0,17079,17687,H P,0,17160,17241,V P,0,17322,17403,V F,0,17383,17687,1,0
Sprite,Background,Centre,"sb\btrfl1.png",231,368 S,0,18295,,0.504 R,0,18295,,-6.075728 M,1,18295,18903,182.0639,357.7404,157.5959,352.6105 P,0,18295,18903,H P,0,18376,18457,V P,0,18538,18619,V F,0,18599,18903,1,0
Sprite,Background,Centre,"sb\btrfl1.png",183,305 S,0,18498,,0.504 R,0,18498,,-6.248651 M,1,18498,19106,133.0285,303.3134,108.0427,302.4702 P,0,18498,19106,H P,0,18579,18660,V P,0,18741,18822,V F,0,18802,19106,1,0
Sprite,Background,Centre,"sb\btrfl1.png",153,379 S,0,18700,,0.504 R,0,18700,,-6.188518 M,1,18700,19308,103.2201,374.3134,78.3302,371.97 P,0,18700,19308,H P,0,18781,18862,V P,0,18943,19024,V F,0,19004,19308,1,0
Sprite,Background,Centre,"sb\btrfl1.png",261,294 S,0,19106,,0.504 R,0,19106,,-6.554803 M,1,19106,19714,212.8438,307.4529,188.7657,314.1793 P,0,19106,19714,H P,0,19187,19268,V P,0,19349,19430,V F,0,19410,19714,1,0
Sprite,Background,Centre,"sb\btrfl1.png",389,346 S,0,19511,,0.504 R,0,19511,,-6.379498 M,1,19511,20119,339.2356,350.8478,314.3534,353.2717 P,0,19511,20119,H P,0,19592,19673,V P,0,19754,19835,V F,0,19815,20119,1,0
Sprite,Background,Centre,"sb\btrfl1.png",412,177 S,0,20322,,0.504 R,0,20322,,-6.398429 M,1,20322,20930,362.3362,182.789,337.5044,185.6835 P,0,20322,20930,H P,0,20403,20484,V P,0,20565,20646,V F,0,20626,20930,1,0
Sprite,Background,Centre,"sb\btrfl1.png",196,95 S,0,21133,,0.504 R,0,21133,,-6.091272 M,1,21133,21741,146.9104,85.50224,122.3655,80.75336 P,0,21133,21741,H P,0,21214,21295,V P,0,21376,21457,V F,0,21437,21741,1,0
Sprite,Background,Centre,"sb\btrfl1.png",233,324 S,0,21944,,0.504 R,0,21944,,-6.317435 M,1,21944,22552,183.0307,325.752,158.0461,326.6279 P,0,21944,22552,H P,0,22025,22106,V P,0,22187,22268,V F,0,22248,22552,1,0
Sprite,Background,Centre,"sb\btrfl1.png",315,332 S,0,22754,,0.504 R,0,22754,,-6.212014 M,1,22754,23362,265.1238,328.4841,240.1857,326.7262 P,0,22754,23362,H P,0,22835,22916,V P,0,22997,23078,V F,0,23058,23362,1,0
Sprite,Background,Centre,"sb\btrfl1.png",281,256 S,0,23565,,0.504 R,0,23565,,-6.510521 M,1,23565,24173,232.2955,267.3079,207.9432,272.9619 P,0,23565,24173,H P,0,23646,23727,V P,0,23808,23889,V F,0,23869,24173,1,0
Sprite,Background,Centre,"sb\btrfl1.png",398,341 S,0,23971,,0.504 R,0,23971,,-6.433274 M,1,23971,24579,348.5681,348.5157,323.8521,352.2735 P,0,23971,24579,H P,0,24052,24133,V P,0,24214,24295,V F,0,24275,24579,1,0
Sprite,Background,Centre,"sb\btrfl1.png",232,323 S,0,24376,,0.504 R,0,24376,,-6.116451 M,1,24376,24984,182.6868,314.7411,158.0302,310.6117 P,0,24376,24984,H P,0,24457,24538,V P,0,24619,24700,V F,0,24680,24984,1,0
Sprite,Background,Centre,"sb\btrfl1.png",364,265 S,0,24781,,0.504 R,0,24781,,-6.172617 M,1,24781,25389,314.3009,259.5224,289.4514,256.7836 P,0,24781,25389,H P,0,24862,24943,V P,0,25024,25105,V F,0,25085,25389,1,0
Sprite,Background,Centre,"sb\btrfl1.png",247,179 S,0,25187,,0.504 R,0,25187,,-6.40142 M,1,25187,25795,197.3538,184.9375,172.5307,187.9063 P,0,25187,25795,H P,0,25268,25349,V P,0,25430,25511,V F,0,25491,25795,1,0
Sprite,Background,Centre,"sb\btrfl1.png",170,154 S,0,25998,,0.504 R,0,25998,,-6.341395 M,1,25998,26606,120.087,156.9486,95.13053,158.4229 P,0,25998,26606,H P,0,26079,26160,V P,0,26241,26322,V F,0,26302,26606,1,0
Sprite,Background,Centre,"sb\btrfl1.png",382,195 S,0,26808,,0.504 R,0,26808,,-6.496587 M,1,26808,27416,333.1426,205.6282,308.714,210.9423 P,0,26808,27416,H P,0,26889,26970,V P,0,27051,27132,V F,0,27112,27416,1,0
Sprite,Background,Centre,"sb\btrfl1.png",510,155 S,0,28025,,0.504 R,0,28025,,-6.459342 M,1,28025,28633,460.7808,163.8016,436.1712,168.2024 P,0,28025,28633,H P,0,28106,28187,V P,0,28268,28349,V F,0,28329,28633,1,0
Sprite,Background,Centre,"sb\btrfl1.png",480,286 S,0,28430,,0.504 R,0,28430,,-6.364964 M,1,28430,29038,430.1704,290.124,405.2556,292.186 P,0,28430,29038,H P,0,28511,28592,V P,0,28673,28754,V F,0,28734,29038,1,0
Sprite,Background,Centre,"sb\btrfl1.png",555,254 S,0,29241,,0.504 R,0,29241,,-6.210637 M,1,29241,29849,505.1287,250.4155,480.193,248.6232 P,0,29241,29849,H P,0,29322,29403,V P,0,29484,29565,V F,0,29545,29849,1,0
Sprite,Background,Centre,"sb\btrfl1.png",223,237 S,0,30052,,0.504 R,0,30052,,-6.260085 M,1,30052,30660,173.0124,235.8849,148.0187,235.3273 P,0,30052,30660,H P,0,30133,30214,V P,0,30295,30376,V F,0,30356,30660,1,0
Sprite,Background,Centre,"sb\btrfl1.png",319,165 S,0,31268,,0.504 R,0,31268,,-6.326016 M,1,31268,31876,269.0476,167.1807,244.0714,168.271 P,0,31268,31876,H P,0,31349,31430,V P,0,31511,31592,V F,0,31572,31876,1,0
Sprite,Background,Centre,"sb\btrfl1.png",319,262 S,0,31673,,0.504 R,0,31673,,-6.472543 M,1,31673,32281,269.9012,271.4505,245.3519,276.1758 P,0,31673,32281,H P,0,31754,31835,V P,0,31916,31997,V F,0,31977,32281,1,0
Sprite,Background,Centre,"sb\btrfl1.png",319,69 S,0,32484,,0.504 R,0,32484,,-6.130904 M,1,32484,33092,269.5726,61.4547,244.8589,57.68205 P,0,32484,33092,H P,0,32565,32646,V P,0,32727,32808,V F,0,32788,33092,1,0
Sprite,Background,Centre,"sb\btrfl1.png",150,261 S,0,33295,,0.504 R,0,33295,,-6.157289 M,1,33295,33903,100.3907,254.7613,75.58611,251.6419 P,0,33295,33903,H P,0,33376,33457,V P,0,33538,33619,V F,0,33599,33903,1,0
Sprite,Background,Centre,"sb\btrfl1.png",65,231 S,0,34106,,0.504 R,0,34106,,-6.202301 M,1,34106,34714,15.16026,226.9999,-9.759602,224.9998 P,0,34106,34714,H P,0,34187,34268,V P,0,34349,34430,V F,0,34410,34714,1,0
Sprite,Background,Centre,"sb\btrfl1.png",219,203 S,0,34511,,0.504 R,0,34511,,-6.140891 M,1,34511,35119,169.4997,195.9487,144.7496,192.423 P,0,34511,35119,H P,0,34592,34673,V P,0,34754,34835,V F,0,34815,35119,1,0
Sprite,Background,Centre,"sb\btrfl1.png",270,263 S,0,34714,,0.504 R,0,34714,,-6.230125 M,1,34714,35322,220.0683,260.388,195.1024,259.082 P,0,34714,35322,H P,0,34795,34876,V P,0,34957,35038,V F,0,35018,35322,1,0
Sprite,Background,Centre,"sb\btrfl1.png",297,189 S,0,34917,,0.504 R,0,34917,,-6.257567 M,1,34917,35525,247.0154,187.759,222.0231,187.1385 P,0,34917,35525,H P,0,34998,35079,V P,0,35160,35241,V F,0,35221,35525,1,0
Sprite,Background,Centre,"sb\btrfl1.png",168,143 S,0,35322,,0.504 R,0,35322,,-6.460797 M,1,35322,35930,118.7936,151.8731,94.19044,156.3097 P,0,35322,35930,H P,0,35403,35484,V P,0,35565,35646,V F,0,35626,35930,1,0
Sprite,Background,Centre,"sb\btrfl1.png",242,336 S,0,35727,,0.504 R,0,35727,,-6.122319 M,1,35727,36335,192.6392,328.0306,167.9588,324.0459 P,0,35727,36335,H P,0,35808,35889,V P,0,35970,36051,V F,0,36031,36335,1,0
Sprite,Background,Centre,"sb\btrfl1.png",453,161 S,0,36538,,0.504 R,0,36538,,-6.12178 M,1,36538,37146,403.6435,153.004,378.9652,149.0061 P,0,36538,37146,H P,0,36619,36700,V P,0,36781,36862,V F,0,36842,37146,1,0
Sprite,Background,Centre,"sb\btrfl1.png",375,169 S,0,37552,,0.504 R,0,37552,,-6.52671 M,1,37552,38160,326.4849,181.0949,302.2274,187.1423 P,0,37552,38160,H P,0,37633,37714,V P,0,37795,37876,V F,0,37856,38160,1,0
Sprite,Background,Centre,"sb\btrfl1.png",407,96 S,0,37755,,0.504 R,0,37755,,-6.150711 M,1,37755,38363,357.4329,89.43508,332.6493,86.15263 P,0,37755,38363,H P,0,37836,37917,V P,0,37998,38079,V F,0,38059,38363,1,0
Sprite,Background,Centre,"sb\btrfl1.png",486,89 S,0,37958,,0.504 R,0,37958,,-6.484929 M,1,37958,38566,437.0221,99.05788,412.5331,104.0868 P,0,37958,38566,H P,0,38039,38120,V P,0,38201,38282,V F,0,38262,38566,1,0
Sprite,Background,Centre,"sb\btrfl1.png",532,154 S,0,38160,,0.504 R,0,38160,,-6.247942 M,1,38160,38768,482.0297,152.278,457.0445,151.417 P,0,38160,38768,H P,0,38241,38322,V P,0,38403,38484,V F,0,38464,38768,1,0
Sprite,Background,Centre,"sb\btrfl1.png",421,234 S,0,38564,,0.504 R,0,38564,,-6.156593 M,1,38564,39172,371.3951,227.7268,346.5927,224.5901 P,0,38564,39172,H P,0,38645,38726,V P,0,38807,38888,V F,0,38868,39172,1,0
Sprite,Background,Centre,"sb\btrfl1.png",295,176 S,0,38971,,0.504 R,0,38971,,-6.460406 M,1,38971,39579,245.7902,184.8539,221.1852,189.2809 P,0,38971,39579,H P,0,39052,39133,V P,0,39214,39295,V F,0,39275,39579,1,0
Sprite,Background,Centre,"sb\btrfl1.png",155,226 S,0,39781,,0.504 R,0,39781,,-6.070014 M,1,39781,40389,106.1234,215.4609,81.68503,210.1913 P,0,39781,40389,H P,0,39862,39943,V P,0,40024,40105,V F,0,40085,40389,1,0
Sprite,Background,Centre,"sb\btrfl1.png",268,322 S,0,40592,,0.504 R,0,40592,,-6.329317 M,1,40592,41200,218.0551,324.3456,193.0826,325.5183 P,0,40592,41200,H P,0,40673,40754,V P,0,40835,40916,V F,0,40896,41200,1,0
Sprite,Background,Centre,"sb\btrfl1.png",295,177 S,0,41403,,0.504 R,0,41403,,-6.243897 M,1,41403,42011,245.037,175.0759,220.0556,174.1138 P,0,41403,42011,H P,0,41484,41565,V P,0,41646,41727,V F,0,41707,42011,1,0
Sprite,Background,Centre,"sb\btrfl1.png",213,160 S,0,42214,,0.504 R,0,42214,,-6.210137 M,1,42214,42822,163.1304,156.3905,138.1957,154.5858 P,0,42214,42822,H P,0,42295,42376,V P,0,42457,42538,V F,0,42518,42822,1,0
Sprite,Background,Centre,"sb\btrfl1.png",350,115 S,0,42619,,0.504 R,0,42619,,-6.165269 M,1,42619,43227,300.3425,109.1574,275.5138,106.236 P,0,42619,43227,H P,0,42700,42781,V P,0,42862,42943,V F,0,42923,43227,1,0
Sprite,Background,Centre,"sb\btrfl1.png",186,80 S,0,43025,,0.504 R,0,43025,,-6.519532 M,1,43025,43633,137.3994,91.74635,113.099,97.61951 P,0,43025,43633,H P,0,43106,43187,V P,0,43268,43349,V F,0,43329,43633,1,0
Sprite,Background,Centre,"sb\btrfl1.png",294,177 S,0,43430,,0.504 R,0,43430,,-6.205453 M,1,43430,44038,244.1479,173.157,219.2219,171.2355 P,0,43430,44038,H P,0,43511,43592,V P,0,43673,43754,V F,0,43734,44038,1,0
Sprite,Background,Centre,"sb\btrfl1.png",159,223 S,0,43835,,0.504 R,0,43835,,-6.210774 M,1,43835,44443,109.1282,219.4223,84.19224,217.6335 P,0,43835,44443,H P,0,43916,43997,V P,0,44078,44159,V F,0,44139,44443,1,0
Sprite,Background,Centre,"sb\btrfl1.png",268,98 S,0,44241,,0.504 R,0,44241,,-6.507236 M,1,44241,44849,219.2586,109.1479,194.8879,114.7218 P,0,44241,44849,H P,0,44322,44403,V P,0,44484,44565,V F,0,44545,44849,1,0
Sprite,Background,Centre,"sb\btrfl1.png",319,255 S,0,44646,,0.504 R,0,44646,,-6.117412 M,1,44646,45254,269.6789,246.7885,245.0183,242.6828 P,0,44646,45254,H P,0,44727,44808,V P,0,44889,44970,V F,0,44950,45254,1,0
Sprite,Background,Centre,"sb\btrfl1.png",294,177 S,0,45457,,0.504 R,0,45457,,-6.475438 M,1,45457,46065,244.9288,186.5926,220.3932,191.3889 P,0,45457,46065,H P,0,45538,45619,V P,0,45700,45781,V F,0,45761,46065,1,0
Sprite,Background,Centre,"sb\btrfl1.png",477,388 S,0,46268,,0.504 R,0,46268,,-6.331595 M,1,46268,46876,427.0605,390.4593,402.0908,391.689 P,0,46268,46876,H P,0,46349,46430,V P,0,46511,46592,V F,0,46572,46876,1,0
Sprite,Background,Centre,"sb\btrfl1.png",488,108 S,0,47079,,0.504 R,0,47079,,-6.299603 M,1,47079,47687,438.0074,108.8606,413.0111,109.2909 P,0,47079,47687,H P,0,47160,47241,V P,0,47322,47403,V F,0,47383,47687,1,0
Sprite,Background,Centre,"sb\btrfl1.png",363,172 S,0,47484,,0.504 R,0,47484,,-6.407249 M,1,47484,48092,313.3893,178.2268,288.5839,181.3402 P,0,47484,48092,H P,0,47565,47646,V P,0,47727,47808,V F,0,47788,48092,1,0
Sprite,Background,Centre,"sb\btrfl1.png",287,165 S,0,47687,,0.504 R,0,47687,,-6.234482 M,1,47687,48295,237.0574,162.6055,212.086,161.4083 P,0,47687,48295,H P,0,47768,47849,V P,0,47930,48011,V F,0,47991,48295,1,0
Sprite,Background,Centre,"sb\btrfl1.png",332,99 S,0,47890,,0.504 R,0,47890,,-6.335801 M,1,47890,48498,282.0713,101.6693,257.107,103.004 P,0,47890,48498,H P,0,47971,48052,V P,0,48133,48214,V F,0,48194,48498,1,0
Sprite,Background,Centre,"sb\btrfl1.png",318,236 S,0,48295,,0.504 R,0,48295,,-6.153252 M,1,48295,48903,268.4163,229.5611,243.6245,226.3416 P,0,48295,48903,H P,0,48376,48457,V P,0,48538,48619,V F,0,48599,48903,1,0
Sprite,Background,Centre,"sb\btrfl1.png",160,154 S,0,48700,,0.504 R,0,48700,,-6.165398 M,1,48700,49308,110.3418,148.1638,85.51267,145.2457 P,0,48700,49308,H P,0,48781,48862,V P,0,48943,49024,V F,0,49004,49308,1,0
Sprite,Background,Centre,"sb\btrfl1.png",295,364 S,0,49511,,0.504 R,0,49511,,-6.173185 M,1,49511,50119,245.2978,358.5506,220.4468,355.826 P,0,49511,50119,H P,0,49592,49673,V P,0,49754,49835,V F,0,49815,50119,1,0
Sprite,Background,Centre,"sb\btrfl1.png",482,318 S,0,50727,,0.504 R,0,50727,,-6.187747 M,1,50727,51335,432.2238,313.275,407.3356,310.9124 P,0,50727,51335,H P,0,50808,50889,V P,0,50970,51051,V F,0,51031,51335,1,0
Sprite,Background,Centre,"sb\btrfl1.png",446,249 S,0,50930,,0.504 R,0,50930,,-6.10123 M,1,50930,51538,396.8182,239.9915,372.2273,235.4873 P,0,50930,51538,H P,0,51011,51092,V P,0,51173,51254,V F,0,51234,51538,1,0
Sprite,Background,Centre,"sb\btrfl1.png",525,252 S,0,51133,,0.504 R,0,51133,,-6.422502 M,1,51133,51741,475.49,258.9827,450.735,262.4741 P,0,51133,51741,H P,0,51214,51295,V P,0,51376,51457,V F,0,51437,51741,1,0
Sprite,Background,Centre,"sb\btrfl1.png",403,315 S,0,51538,,0.504 R,0,51538,,-6.308608 M,1,51538,52146,353.0172,316.3108,328.0258,316.9662 P,0,51538,52146,H P,0,51619,51700,V P,0,51781,51862,V F,0,51842,52146,1,0
Sprite,Background,Centre,"sb\btrfl1.png",373,158 S,0,51944,,0.504 R,0,51944,,-6.238304 M,1,51944,52552,323.0486,155.7964,298.0729,154.6947 P,0,51944,52552,H P,0,52025,52106,V P,0,52187,52268,V F,0,52248,52552,1,0
Sprite,Background,Centre,"sb\btrfl1.png",347,69 S,0,52754,,0.504 R,0,52754,,-6.403706 M,1,52754,53362,297.3675,75.05096,272.5512,78.07644 P,0,52754,53362,H P,0,52835,52916,V P,0,52997,53078,V F,0,53058,53362,1,0
Sprite,Background,Centre,"sb\btrfl1.png",438,317 S,0,53565,,0.504 R,0,53565,,-6.426639 M,1,53565,54173,388.5193,324.1875,363.779,327.7813 P,0,53565,54173,H P,0,53646,53727,V P,0,53808,53889,V F,0,53869,54173,1,0
Sprite,Background,Centre,"sb\btrfl1.png",179,271 S,0,54376,,0.504 R,0,54376,,-6.159695 M,1,54376,54984,129.3759,264.8807,104.5638,261.821 P,0,54376,54984,H P,0,54457,54538,V P,0,54619,54700,V F,0,54680,54984,1,0
Sprite,Background,Centre,"sb\btrfl1.png",145,192 S,0,55187,,0.504 R,0,55187,,-6.458741 M,1,55187,55795,95.77549,200.772,71.16323,205.158 P,0,55187,55795,H P,0,55268,55349,V P,0,55430,55511,V F,0,55491,55795,1,0
Sprite,Background,Centre,"sb\btrfl1.png",230,202 S,0,55998,,0.504 R,0,55998,,-6.476564 M,1,55998,56606,180.9396,211.6479,156.4095,216.4718 P,0,55998,56606,H P,0,56079,56160,V P,0,56241,56322,V F,0,56302,56606,1,0
Sprite,Background,Centre,"sb\btrfl1.png",76,140 S,0,56403,,0.504 R,0,56403,,-6.53574 M,1,56403,57011,27.59611,152.5325,3.394166,158.7988 P,0,56403,57011,H P,0,56484,56565,V P,0,56646,56727,V F,0,56707,57011,1,0
Sprite,Background,Centre,"sb\btrfl1.png",240,117 S,0,56808,,0.504 R,0,56808,,-6.257689 M,1,56808,57416,190.0153,115.7651,165.0229,115.1477 P,0,56808,57416,H P,0,56889,56970,V P,0,57051,57132,V F,0,57112,57416,1,0
Sprite,Background,Centre,"sb\btrfl1.png",179,271 S,0,57214,,0.504 R,0,57214,,-6.223477 M,1,57214,57822,129.0867,268.0561,104.1301,266.5842 P,0,57214,57822,H P,0,57295,57376,V P,0,57457,57538,V F,0,57518,57822,1,0
Sprite,Background,Centre,"sb\btrfl1.png",345,219 S,0,57619,,0.504 R,0,57619,,-6.254803 M,1,57619,58227,295.019,217.6209,270.0285,216.9313 P,0,57619,58227,H P,0,57700,57781,V P,0,57862,57943,V F,0,57923,58227,1,0
Sprite,Background,Centre,"sb\btrfl1.png",448,389 S,0,58430,,0.504 R,0,58430,,-6.106181 M,1,58430,59038,398.7742,380.2351,374.1613,375.8527 P,0,58430,59038,H P,0,58511,58592,V P,0,58673,58754,V F,0,58734,59038,1,0
Sprite,Background,Centre,"sb\btrfl1.png",228,256 S,0,59241,,0.504 R,0,59241,,-6.459329 M,1,59241,59849,178.7807,264.8009,154.171,269.2014 P,0,59241,59849,H P,0,59322,59403,V P,0,59484,59565,V F,0,59545,59849,1,0
Sprite,Background,Centre,"sb\btrfl1.png",169,113 S,0,60457,,0.504 R,0,60457,,-6.105646 M,1,60457,61065,119.7789,104.2088,95.16838,99.81319 P,0,60457,61065,H P,0,60538,60619,V P,0,60700,60781,V F,0,60761,61065,1,0
Sprite,Background,Centre,"sb\btrfl1.png",92,242 S,0,60862,,0.504 R,0,60862,,-6.536739 M,1,60862,61470,43.60865,254.5808,19.41298,260.8712 P,0,60862,61470,H P,0,60943,61024,V P,0,61105,61186,V F,0,61166,61470,1,0
Sprite,Background,Centre,"sb\btrfl1.png",373,235 S,0,61701,,0.504 R,0,61701,,-6.119948 M,1,61701,62309,323.6582,226.9136,298.9873,222.8704 P,0,61701,62309,H P,0,61782,61863,V P,0,61944,62025,V F,0,62005,62309,1,0
Sprite,Background,Centre,"sb\btrfl1.png",306,298 S,0,62589,,0.504 R,0,62589,,-6.230747 M,1,62589,63197,256.0667,295.4191,231.1,294.1286 P,0,62589,63197,H P,0,62670,62751,V P,0,62832,62913,V F,0,62893,63197,1,0
Sprite,Background,Centre,"sb\btrfl1.png",284,208 S,0,63550,,0.504 R,0,63550,,-6.523011 M,1,63550,64158,235.4405,219.9153,211.1608,225.873 P,0,63550,64158,H P,0,63631,63712,V P,0,63793,63874,V F,0,63854,64158,1,0
Sprite,Background,Centre,"sb\btrfl1.png",373,235 S,0,64640,,0.504 R,0,64640,,-6.495451 M,1,64640,65248,324.1306,245.5727,299.6959,250.859 P,0,64640,65248,H P,0,64721,64802,V P,0,64883,64964,V F,0,64944,65248,1,0
Sprite,Background,Centre,"sb\btrfl2.png",160,191 S,0,52,,0.504 R,0,52,,-4.130398 S,0,52,132,0.68 M,1,52,660,118.2315,163.5156,97.34727,149.7734 P,0,52,660,V V,0,133,134,0.68,0.68,0.4,0.68 V,0,214,215,0.6808,0.68,0.68,0.68 V,0,297,298,0.68,0.68,0.4,0.68 F,0,356,660,1,0 V,0,376,377,0.6808,0.68,0.68,0.68
Sprite,Background,Centre,"sb\btrfl2.png",447,364 S,0,863,,0.504 R,0,863,,-3.988919 S,0,863,943,0.68 M,1,863,1471,409.5244,330.9005,390.7865,314.3508 P,0,863,1471,V V,0,944,945,0.68,0.68,0.4,0.68 V,0,1025,1026,0.6808,0.68,0.68,0.68 V,0,1108,1109,0.68,0.68,0.4,0.68 F,0,1167,1471,1,0 V,0,1187,1188,0.6808,0.68,0.68,0.68
Sprite,Background,Centre,"sb\btrfl2.png",313,134 S,0,1673,,0.504 R,0,1673,,-4.180975 S,0,1673,1753,0.68 M,1,1673,2281,269.8954,108.6624,248.3431,95.99356 P,0,1673,2281,V V,0,1754,1755,0.68,0.68,0.4,0.68 V,0,1835,1836,0.6808,0.68,0.68,0.68 V,0,1918,1919,0.68,0.68,0.4,0.68 F,0,1977,2281,1,0 V,0,1997,1998,0.6808,0.68,0.68,0.68
Sprite,Background,Centre,"sb\btrfl2.png",305,298 S,0,2079,,0.504 R,0,2079,,-4.11941 S,0,2079,2159,0.68 M,1,2079,2687,263.536,270.0583,242.8041,256.0874 P,0,2079,2687,V V,0,2160,2161,0.68,0.68,0.4,0.68 V,0,2241,2242,0.6808,0.68,0.68,0.68 V,0,2324,2325,0.68,0.68,0.4,0.68 F,0,2383,2687,1,0 V,0,2403,2404,0.6808,0.68,0.68,0.68
Sprite,Background,Centre,"sb\btrfl2.png",350,230 S,0,2281,,0.504 R,0,2281,,-4.157474 S,0,2281,2361,0.68 M,1,2281,2889,307.5027,203.6564,286.2541,190.4847 P,0,2281,2889,V V,0,2362,2363,0.68,0.68,0.4,0.68 V,0,2443,2444,0.6808,0.68,0.68,0.68 V,0,2526,2527,0.68,0.68,0.4,0.68 F,0,2585,2889,1,0 V,0,2605,2606,0.6808,0.68,0.68,0.68
Sprite,Background,Centre,"sb\btrfl2.png",269,226 S,0,2484,,0.504 R,0,2484,,-4.101136 S,0,2484,2564,0.68 M,1,2484,3092,228.0535,197.3053,207.5803,182.9579 P,0,2484,3092,V V,0,2565,2566,0.68,0.68,0.4,0.68 V,0,2646,2647,0.6808,0.68,0.68,0.68 V,0,2729,2730,0.68,0.68,0.4,0.68 F,0,2788,3092,1,0 V,0,2808,2809,0.6808,0.68,0.68,0.68
Sprite,Background,Centre,"sb\btrfl2.png",386,302 S,0,2890,,0.504 R,0,2890,,-3.997184 S,0,2890,2970,0.68 M,1,2890,3498,348.2521,269.2114,329.3781,252.8171 P,0,2890,3498,V V,0,2971,2972,0.68,0.68,0.4,0.68 V,0,3052,3053,0.6808,0.68,0.68,0.68 V,0,3135,3136,0.68,0.68,0.4,0.68 F,0,3194,3498,1,0 V,0,3214,3215,0.6808,0.68,0.68,0.68
Sprite,Background,Centre,"sb\btrfl2.png",224,294 S,0,3295,,0.504 R,0,3295,,-3.926142 S,0,3295,3375,0.68 M,1,3295,3903,188.6747,258.6147,171.012,240.922 P,0,3295,3903,V V,0,3376,3377,0.68,0.68,0.4,0.68 V,0,3457,3458,0.6808,0.68,0.68,0.68 V,0,3540,3541,0.68,0.68,0.4,0.68 F,0,3599,3903,1,0 V,0,3619,3620,0.6808,0.68,0.68,0.68
Sprite,Background,Centre,"sb\btrfl2.png",431,234 S,0,4106,,0.504 R,0,4106,,-4.059925 S,0,4106,4186,0.68 M,1,4106,4714,391.2705,203.6427,371.4057,188.464 P,0,4106,4714,V V,0,4187,4188,0.68,0.68,0.4,0.68 V,0,4268,4269,0.6808,0.68,0.68,0.68 V,0,4351,4352,0.68,0.68,0.4,0.68 F,0,4410,4714,1,0 V,0,4430,4431,0.6808,0.68,0.68,0.68
Sprite,Background,Centre,"sb\btrfl2.png",512,238 S,0,5120,,0.504 R,0,5120,,-3.943105 S,0,5120,5200,0.68 M,1,5120,5728,476.0795,203.219,458.1193,185.8284 P,0,5120,5728,V V,0,5201,5202,0.68,0.68,0.4,0.68 V,0,5282,5283,0.6808,0.68,0.68,0.68 V,0,5365,5366,0.68,0.68,0.4,0.68 F,0,5424,5728,1,0 V,0,5444,5445,0.6808,0.68,0.68,0.68
Sprite,Background,Centre,"sb\btrfl2.png",475,166 S,0,5322,,0.504 R,0,5322,,-4.056145 S,0,5322,5402,0.68 M,1,5322,5930,435.3855,135.4927,415.5783,120.2391 P,0,5322,5930,V V,0,5403,5404,0.68,0.68,0.4,0.68 V,0,5484,5485,0.6808,0.68,0.68,0.68 V,0,5567,5568,0.68,0.68,0.4,0.68 F,0,5626,5930,1,0 V,0,5646,5647,0.6808,0.68,0.68,0.68
Sprite,Background,Centre,"sb\btrfl2.png",394,162 S,0,5525,,0.504 R,0,5525,,-3.775801 S,0,5525,5605,0.68 M,1,5525,6133,364.373,121.7229,349.5595,101.5844 P,0,5525,6133,V V,0,5606,5607,0.68,0.68,0.4,0.68 V,0,5687,5688,0.6808,0.68,0.68,0.68 V,0,5770,5771,0.68,0.68,0.4,0.68 F,0,5829,6133,1,0 V,0,5849,5850,0.6808,0.68,0.68,0.68
Sprite,Background,Centre,"sb\btrfl2.png",351,231 S,0,5728,,0.504 R,0,5728,,-4.078683 S,0,5728,5808,0.68 M,1,5728,6336,310.7081,201.3932,290.5621,186.5898 P,0,5728,6336,V V,0,5809,5810,0.68,0.68,0.4,0.68 V,0,5890,5891,0.6808,0.68,0.68,0.68 V,0,5973,5974,0.68,0.68,0.4,0.68 F,0,6032,6336,1,0 V,0,6052,6053,0.6808,0.68,0.68,0.68
Sprite,Background,Centre,"sb\btrfl2.png",356,368 S,0,6133,,0.504 R,0,6133,,-3.995522 S,0,6133,6213,0.68 M,1,6133,6741,318.3066,335.1487,299.4599,318.723 P,0,6133,6741,V V,0,6214,6215,0.68,0.68,0.4,0.68 V,0,6295,6296,0.6808,0.68,0.68,0.68 V,0,6378,6379,0.68,0.68,0.4,0.68 F,0,6437,6741,1,0 V,0,6457,6458,0.6808,0.68,0.68,0.68
Sprite,Background,Centre,"sb\btrfl2.png",234,303 S,0,6538,,0.504 R,0,6538,,-3.790991 S,0,6538,6618,0.68 M,1,6538,7146,203.7646,263.1776,188.6469,243.2664 P,0,6538,7146,V V,0,6619,6620,0.68,0.68,0.4,0.68 V,0,6700,6701,0.6808,0.68,0.68,0.68 V,0,6783,6784,0.68,0.68,0.4,0.68 F,0,6842,7146,1,0 V,0,6862,6863,0.6808,0.68,0.68,0.68
Sprite,Background,Centre,"sb\btrfl2.png",351,231 S,0,6944,,0.504 R,0,6944,,-4.088746 S,0,6944,7024,0.68 M,1,6944,7552,310.4122,201.8002,290.1183,187.2003 P,0,6944,7552,V V,0,7025,7026,0.68,0.68,0.4,0.68 V,0,7106,7107,0.6808,0.68,0.68,0.68 V,0,7189,7190,0.68,0.68,0.4,0.68 F,0,7248,7552,1,0 V,0,7268,7269,0.6808,0.68,0.68,0.68
Sprite,Background,Centre,"sb\btrfl2.png",239,440 S,0,7349,,0.504 R,0,7349,,-3.892262 S,0,7349,7429,0.68 M,1,7349,7957,204.8936,403.4384,187.8404,385.1576 P,0,7349,7957,V V,0,7430,7431,0.68,0.68,0.4,0.68 V,0,7511,7512,0.6808,0.68,0.68,0.68 V,0,7594,7595,0.68,0.68,0.4,0.68 F,0,7653,7957,1,0 V,0,7673,7674,0.6808,0.68,0.68,0.68
Sprite,Background,Centre,"sb\btrfl2.png",351,231 S,0,8160,,0.504 R,0,8160,,-4.057672 S,0,8160,8240,0.68 M,1,8160,8768,311.339,200.5532,291.5085,185.3299 P,0,8160,8768,V V,0,8241,8242,0.68,0.68,0.4,0.68 V,0,8322,8323,0.6808,0.68,0.68,0.68 V,0,8405,8406,0.68,0.68,0.4,0.68 F,0,8464,8768,1,0 V,0,8484,8485,0.6808,0.68,0.68,0.68
Sprite,Background,Centre,"sb\btrfl2.png",115,239 S,0,8971,,0.504 R,0,8971,,-4.119802 S,0,8971,9051,0.68 M,1,8971,9579,73.52508,211.0746,52.78762,197.1118 P,0,8971,9579,V V,0,9052,9053,0.68,0.68,0.4,0.68 V,0,9133,9134,0.6808,0.68,0.68,0.68 V,0,9216,9217,0.68,0.68,0.4,0.68 F,0,9275,9579,1,0 V,0,9295,9296,0.6808,0.68,0.68,0.68
Sprite,Background,Centre,"sb\btrfl2.png",84,320 S,0,9781,,0.504 R,0,9781,,-4.01891 S,0,9781,9861,0.68 M,1,9781,10389,45.54864,288.0392,26.32296,272.0588 P,0,9781,10389,V V,0,9862,9863,0.68,0.68,0.4,0.68 V,0,9943,9944,0.6808,0.68,0.68,0.68 V,0,10026,10027,0.68,0.68,0.4,0.68 F,0,10085,10389,1,0 V,0,10105,10106,0.6808,0.68,0.68,0.68
Sprite,Background,Centre,"sb\btrfl2.png",101,153 S,0,10187,,0.504 R,0,10187,,-4.007066 S,0,10187,10267,0.68 M,1,10187,10795,62.9299,120.586,43.89486,104.379 P,0,10187,10795,V V,0,10268,10269,0.68,0.68,0.4,0.68 V,0,10349,10350,0.6808,0.68,0.68,0.68 V,0,10432,10433,0.68,0.68,0.4,0.68 F,0,10491,10795,1,0 V,0,10511,10512,0.6808,0.68,0.68,0.68
Sprite,Background,Centre,"sb\btrfl2.png",170,307 S,0,10592,,0.504 R,0,10592,,-3.860036 S,0,10592,10672,0.68 M,1,10592,11200,137.0893,269.3584,120.634,250.5377 P,0,10592,11200,V V,0,10673,10674,0.68,0.68,0.4,0.68 V,0,10754,10755,0.6808,0.68,0.68,0.68 V,0,10837,10838,0.68,0.68,0.4,0.68 F,0,10896,11200,1,0 V,0,10916,10917,0.6808,0.68,0.68,0.68
Sprite,Background,Centre,"sb\btrfl2.png",283,129 S,0,11403,,0.504 R,0,11403,,-3.702966 S,0,11403,11483,0.68 M,1,11403,12011,256.3825,86.67376,243.0738,65.51064 P,0,11403,12011,V V,0,11484,11485,0.68,0.68,0.4,0.68 V,0,11565,11566,0.6808,0.68,0.68,0.68 V,0,11648,11649,0.68,0.68,0.4,0.68 F,0,11707,12011,1,0 V,0,11727,11728,0.6808,0.68,0.68,0.68
Sprite,Background,Centre,"sb\btrfl2.png",170,219 S,0,12619,,0.504 R,0,12619,,-3.76435 S,0,12619,12699,0.68 M,1,12619,13227,140.8361,178.3863,126.2542,158.0795 P,0,12619,13227,V V,0,12700,12701,0.68,0.68,0.4,0.68 V,0,12781,12782,0.6808,0.68,0.68,0.68 V,0,12864,12865,0.68,0.68,0.4,0.68 F,0,12923,13227,1,0 V,0,12943,12944,0.6808,0.68,0.68,0.68
Sprite,Background,Centre,"sb\btrfl2.png",334,262 S,0,13025,,0.504 R,0,13025,,-3.843988 S,0,13025,13105,0.68 M,1,13025,13633,301.6976,223.8352,285.5464,204.7527 P,0,13025,13633,V V,0,13106,13107,0.68,0.68,0.4,0.68 V,0,13187,13188,0.6808,0.68,0.68,0.68 V,0,13270,13271,0.68,0.68,0.4,0.68 F,0,13329,13633,1,0 V,0,13349,13350,0.6808,0.68,0.68,0.68
Sprite,Background,Centre,"sb\btrfl2.png",320,182 S,0,13835,,0.504 R,0,13835,,-3.892691 S,0,13835,13915,0.68 M,1,13835,14443,285.8779,145.453,268.8168,127.1795 P,0,13835,14443,V V,0,13916,13917,0.68,0.68,0.4,0.68 V,0,13997,13998,0.6808,0.68,0.68,0.68 V,0,14080,14081,0.68,0.68,0.4,0.68 F,0,14139,14443,1,0 V,0,14159,14160,0.6808,0.68,0.68,0.68
Sprite,Background,Centre,"sb\btrfl2.png",352,425 S,0,14646,,0.504 R,0,14646,,-3.746304 S,0,14646,14726,0.68 M,1,14646,15254,323.5738,383.8667,309.3606,363.3 P,0,14646,15254,V V,0,14727,14728,0.68,0.68,0.4,0.68 V,0,14808,14809,0.6808,0.68,0.68,0.68 V,0,14891,14892,0.68,0.68,0.4,0.68 F,0,14950,15254,1,0 V,0,14970,14971,0.6808,0.68,0.68,0.68
Sprite,Background,Centre,"sb\btrfl2.png",458,198 S,0,15052,,0.504 R,0,15052,,-3.902634 S,0,15052,15132,0.68 M,1,15052,15660,423.5162,161.7941,406.2743,143.6911 P,0,15052,15660,V V,0,15133,15134,0.68,0.68,0.4,0.68 V,0,15214,15215,0.6808,0.68,0.68,0.68 V,0,15297,15298,0.68,0.68,0.4,0.68 F,0,15356,15660,1,0 V,0,15376,15377,0.6808,0.68,0.68,0.68
Sprite,Background,Centre,"sb\btrfl2.png",381,230 S,0,15255,,0.504 R,0,15255,,-3.802047 S,0,15255,15335,0.68 M,1,15255,15863,350.3262,190.5143,334.9893,170.7715 P,0,15255,15863,V V,0,15336,15337,0.68,0.68,0.4,0.68 V,0,15417,15418,0.6808,0.68,0.68,0.68 V,0,15500,15501,0.68,0.68,0.4,0.68 F,0,15559,15863,1,0 V,0,15579,15580,0.6808,0.68,0.68,0.68
Sprite,Background,Centre,"sb\btrfl2.png",390,147 S,0,15457,,0.504 R,0,15457,,-4.156634 S,0,15457,15537,0.68 M,1,15457,16065,347.5249,120.6208,326.2873,107.4311 P,0,15457,16065,V V,0,15538,15539,0.68,0.68,0.4,0.68 V,0,15619,15620,0.6808,0.68,0.68,0.68 V,0,15702,15703,0.68,0.68,0.4,0.68 F,0,15761,16065,1,0 V,0,15781,15782,0.6808,0.68,0.68,0.68
Sprite,Background,Centre,"sb\btrfl2.png",540,191 S,0,15862,,0.504 R,0,15862,,-3.901096 S,0,15862,15942,0.68 M,1,15862,16470,505.572,154.7411,488.3579,136.6116 P,0,15862,16470,V V,0,15943,15944,0.68,0.68,0.4,0.68 V,0,16024,16025,0.6808,0.68,0.68,0.68 V,0,16107,16108,0.68,0.68,0.4,0.68 F,0,16166,16470,1,0 V,0,16186,16187,0.6808,0.68,0.68,0.68
Sprite,Background,Centre,"sb\btrfl2.png",386,348 S,0,16673,,0.504 R,0,16673,,-3.716884 S,0,16673,16753,0.68 M,1,16673,17281,358.796,306.0483,345.1941,285.0725 P,0,16673,17281,V V,0,16754,16755,0.68,0.68,0.4,0.68 V,0,16835,16836,0.6808,0.68,0.68,0.68 V,0,16918,16919,0.68,0.68,0.4,0.68 F,0,16977,17281,1,0 V,0,16997,16998,0.6808,0.68,0.68,0.68
Sprite,Background,Centre,"sb\btrfl2.png",291,223 S,0,17079,,0.504 R,0,17079,,-4.054958 S,0,17079,17159,0.68 M,1,17079,17687,251.4218,192.4457,231.6327,177.1686 P,0,17079,17687,V V,0,17160,17161,0.68,0.68,0.4,0.68 V,0,17241,17242,0.6808,0.68,0.68,0.68 V,0,17324,17325,0.68,0.68,0.4,0.68 F,0,17383,17687,1,0 V,0,17403,17404,0.6808,0.68,0.68,0.68
Sprite,Background,Centre,"sb\btrfl2.png",231,368 S,0,18295,,0.504 R,0,18295,,-3.769484 S,0,18295,18375,0.68 M,1,18295,18903,201.628,327.5366,186.942,307.3049 P,0,18295,18903,V V,0,18376,18377,0.68,0.68,0.4,0.68 V,0,18457,18458,0.6808,0.68,0.68,0.68 V,0,18540,18541,0.68,0.68,0.4,0.68 F,0,18599,18903,1,0 V,0,18619,18620,0.6808,0.68,0.68,0.68
Sprite,Background,Centre,"sb\btrfl2.png",183,305 S,0,18498,,0.504 R,0,18498,,-4.068884 S,0,18498,18578,0.68 M,1,18498,19106,143.0001,274.9999,123.0001,259.9998 P,0,18498,19106,V V,0,18579,18580,0.68,0.68,0.4,0.68 V,0,18660,18661,0.6808,0.68,0.68,0.68 V,0,18743,18744,0.68,0.68,0.4,0.68 F,0,18802,19106,1,0 V,0,18822,18823,0.6808,0.68,0.68,0.68
Sprite,Background,Centre,"sb\btrfl2.png",153,379 S,0,18700,,0.504 R,0,18700,,-3.711496 S,0,18700,18780,0.68 M,1,18700,19308,126.0225,336.9023,112.5337,315.8535 P,0,18700,19308,V V,0,18781,18782,0.68,0.68,0.4,0.68 V,0,18862,18863,0.6808,0.68,0.68,0.68 V,0,18945,18946,0.68,0.68,0.4,0.68 F,0,19004,19308,1,0 V,0,19024,19025,0.6808,0.68,0.68,0.68
Sprite,Background,Centre,"sb\btrfl2.png",261,294 S,0,19106,,0.504 R,0,19106,,-3.700245 S,0,19106,19186,0.68 M,1,19106,19714,234.4978,251.6015,221.2467,230.4022 P,0,19106,19714,V V,0,19187,19188,0.68,0.68,0.4,0.68 V,0,19268,19269,0.6808,0.68,0.68,0.68 V,0,19351,19352,0.68,0.68,0.4,0.68 F,0,19410,19714,1,0 V,0,19430,19431,0.6808,0.68,0.68,0.68
Sprite,Background,Centre,"sb\btrfl2.png",389,346 S,0,19511,,0.504 R,0,19511,,-3.934999 S,0,19511,19591,0.68 M,1,19511,20119,353.3627,310.9289,335.544,293.3934 P,0,19511,20119,V V,0,19592,19593,0.68,0.68,0.4,0.68 V,0,19673,19674,0.6808,0.68,0.68,0.68 V,0,19756,19757,0.68,0.68,0.4,0.68 F,0,19815,20119,1,0 V,0,19835,19836,0.6808,0.68,0.68,0.68
Sprite,Background,Centre,"sb\btrfl2.png",412,177 S,0,20322,,0.504 R,0,20322,,-3.885327 S,0,20322,20402,0.68 M,1,20322,20930,378.148,140.2027,361.222,121.8041 P,0,20322,20930,V V,0,20403,20404,0.68,0.68,0.4,0.68 V,0,20484,20485,0.6808,0.68,0.68,0.68 V,0,20567,20568,0.68,0.68,0.4,0.68 F,0,20626,20930,1,0 V,0,20646,20647,0.6808,0.68,0.68,0.68
Sprite,Background,Centre,"sb\btrfl2.png",196,95 S,0,21133,,0.504 R,0,21133,,-3.882137 S,0,21133,21213,0.68 M,1,21133,21741,162.2655,58.09492,145.3983,39.64239 P,0,21133,21741,V V,0,21214,21215,0.68,0.68,0.4,0.68 V,0,21295,21296,0.6808,0.68,0.68,0.68 V,0,21378,21379,0.68,0.68,0.4,0.68 F,0,21437,21741,1,0 V,0,21457,21458,0.6808,0.68,0.68,0.68
Sprite,Background,Centre,"sb\btrfl2.png",233,324 S,0,21944,,0.504 R,0,21944,,-3.755652 S,0,21944,22024,0.68 M,1,21944,22552,204.1905,283.1342,189.7857,262.7013 P,0,21944,22552,V V,0,22025,22026,0.68,0.68,0.4,0.68 V,0,22106,22107,0.6808,0.68,0.68,0.68 V,0,22189,22190,0.68,0.68,0.4,0.68 F,0,22248,22552,1,0 V,0,22268,22269,0.6808,0.68,0.68,0.68
Sprite,Background,Centre,"sb\btrfl2.png",315,332 S,0,22754,,0.504 R,0,22754,,-3.891458 S,0,22754,22834,0.68 M,1,22754,23362,280.923,295.4109,263.8845,277.1164 P,0,22754,23362,V V,0,22835,22836,0.68,0.68,0.4,0.68 V,0,22916,22917,0.6808,0.68,0.68,0.68 V,0,22999,23000,0.68,0.68,0.4,0.68 F,0,23058,23362,1,0 V,0,23078,23079,0.6808,0.68,0.68,0.68
Sprite,Background,Centre,"sb\btrfl2.png",281,256 S,0,23565,,0.504 R,0,23565,,-3.975919 S,0,23565,23645,0.68 M,1,23565,24173,243.9578,222.4162,225.4367,205.6242 P,0,23565,24173,V V,0,23646,23647,0.68,0.68,0.4,0.68 V,0,23727,23728,0.6808,0.68,0.68,0.68 V,0,23810,23811,0.68,0.68,0.4,0.68 F,0,23869,24173,1,0 V,0,23889,23890,0.6808,0.68,0.68,0.68
Sprite,Background,Centre,"sb\btrfl2.png",398,341 S,0,23971,,0.504 R,0,23971,,-4.176218 S,0,23971,24051,0.68 M,1,23971,24579,355.0164,315.4576,333.5247,302.6864 P,0,23971,24579,V V,0,24052,24053,0.68,0.68,0.4,0.68 V,0,24133,24134,0.6808,0.68,0.68,0.68 V,0,24216,24217,0.68,0.68,0.4,0.68 F,0,24275,24579,1,0 V,0,24295,24296,0.6808,0.68,0.68,0.68
Sprite,Background,Centre,"sb\btrfl2.png",232,323 S,0,24376,,0.504 R,0,24376,,-3.735257 S,0,24376,24456,0.68 M,1,24376,24984,204.0299,281.5552,190.0448,260.8328 P,0,24376,24984,V V,0,24457,24458,0.68,0.68,0.4,0.68 V,0,24538,24539,0.6808,0.68,0.68,0.68 V,0,24621,24622,0.68,0.68,0.4,0.68 F,0,24680,24984,1,0 V,0,24700,24701,0.6808,0.68,0.68,0.68
Sprite,Background,Centre,"sb\btrfl2.png",364,265 S,0,24781,,0.504 R,0,24781,,-3.739303 S,0,24781,24861,0.68 M,1,24781,25389,335.8625,223.6687,321.7937,203.003 P,0,24781,25389,V V,0,24862,24863,0.68,0.68,0.4,0.68 V,0,24943,24944,0.6808,0.68,0.68,0.68 V,0,25026,25027,0.68,0.68,0.4,0.68 F,0,25085,25389,1,0 V,0,25105,25106,0.6808,0.68,0.68,0.68
Sprite,Background,Centre,"sb\btrfl2.png",247,179 S,0,25187,,0.504 R,0,25187,,-3.889244 S,0,25187,25267,0.68 M,1,25187,25795,213.0041,142.3356,196.0061,124.0034 P,0,25187,25795,V V,0,25268,25269,0.68,0.68,0.4,0.68 V,0,25349,25350,0.6808,0.68,0.68,0.68 V,0,25432,25433,0.68,0.68,0.4,0.68 F,0,25491,25795,1,0 V,0,25511,25512,0.6808,0.68,0.68,0.68
Sprite,Background,Centre,"sb\btrfl2.png",170,154 S,0,25998,,0.504 R,0,25998,,-3.975602 S,0,25998,26078,0.68 M,1,25998,26606,132.9684,120.4044,114.4527,103.6066 P,0,25998,26606,V V,0,26079,26080,0.68,0.68,0.4,0.68 V,0,26160,26161,0.6808,0.68,0.68,0.68 V,0,26243,26244,0.68,0.68,0.4,0.68 F,0,26302,26606,1,0 V,0,26322,26323,0.6808,0.68,0.68,0.68
Sprite,Background,Centre,"sb\btrfl2.png",382,195 S,0,26808,,0.504 R,0,26808,,-4.066494 S,0,26808,26888,0.68 M,1,26808,27416,342.0719,164.9043,322.1079,149.8565 P,0,26808,27416,V V,0,26889,26890,0.68,0.68,0.4,0.68 V,0,26970,26971,0.6808,0.68,0.68,0.68 V,0,27053,27054,0.68,0.68,0.4,0.68 F,0,27112,27416,1,0 V,0,27132,27133,0.6808,0.68,0.68,0.68
Sprite,Background,Centre,"sb\btrfl2.png",510,155 S,0,28025,,0.504 R,0,28025,,-3.707165 S,0,28025,28105,0.68 M,1,28025,28633,483.205,112.7859,469.8075,91.67887 P,0,28025,28633,V V,0,28106,28107,0.68,0.68,0.4,0.68 V,0,28187,28188,0.6808,0.68,0.68,0.68 V,0,28270,28271,0.68,0.68,0.4,0.68 F,0,28329,28633,1,0 V,0,28349,28350,0.6808,0.68,0.68,0.68
Sprite,Background,Centre,"sb\btrfl2.png",480,286 S,0,28430,,0.504 R,0,28430,,-3.753575 S,0,28430,28510,0.68 M,1,28430,29038,451.2755,245.0744,436.9132,224.6117 P,0,28430,29038,V V,0,28511,28512,0.68,0.68,0.4,0.68 V,0,28592,28593,0.6808,0.68,0.68,0.68 V,0,28675,28676,0.68,0.68,0.4,0.68 F,0,28734,29038,1,0 V,0,28754,28755,0.6808,0.68,0.68,0.68
Sprite,Background,Centre,"sb\btrfl2.png",555,254 S,0,29241,,0.504 R,0,29241,,-3.911465 S,0,29241,29321,0.68 M,1,29241,29849,520.1978,218.1,502.7968,200.15 P,0,29241,29849,V V,0,29322,29323,0.68,0.68,0.4,0.68 V,0,29403,29404,0.6808,0.68,0.68,0.68 V,0,29486,29487,0.68,0.68,0.4,0.68 F,0,29545,29849,1,0 V,0,29565,29566,0.6808,0.68,0.68,0.68
Sprite,Background,Centre,"sb\btrfl2.png",223,237 S,0,30052,,0.504 R,0,30052,,-4.190188 S,0,30052,30132,0.68 M,1,30052,30660,179.6638,212.0605,157.9958,199.5908 P,0,30052,30660,V V,0,30133,30134,0.68,0.68,0.4,0.68 V,0,30214,30215,0.6808,0.68,0.68,0.68 V,0,30297,30298,0.68,0.68,0.4,0.68 F,0,30356,30660,1,0 V,0,30376,30377,0.6808,0.68,0.68,0.68
Sprite,Background,Centre,"sb\btrfl2.png",319,165 S,0,31268,,0.504 R,0,31268,,-4.055165 S,0,31268,31348,0.68 M,1,31268,31876,279.4154,134.4539,259.6232,119.1809 P,0,31268,31876,V V,0,31349,31350,0.68,0.68,0.4,0.68 V,0,31430,31431,0.6808,0.68,0.68,0.68 V,0,31513,31514,0.68,0.68,0.4,0.68 F,0,31572,31876,1,0 V,0,31592,31593,0.6808,0.68,0.68,0.68
Sprite,Background,Centre,"sb\btrfl2.png",319,262 S,0,31673,,0.504 R,0,31673,,-3.898146 S,0,31673,31753,0.68 M,1,31673,32281,284.679,225.6397,267.5186,207.4595 P,0,31673,32281,V V,0,31754,31755,0.68,0.68,0.4,0.68 V,0,31835,31836,0.6808,0.68,0.68,0.68 V,0,31918,31919,0.68,0.68,0.4,0.68 F,0,31977,32281,1,0 V,0,31997,31998,0.6808,0.68,0.68,0.68
Sprite,Background,Centre,"sb\btrfl2.png",319,69 S,0,32484,,0.504 R,0,32484,,-3.970362 S,0,32484,32564,0.68 M,1,32484,33092,282.145,35.21082,263.7175,18.31622 P,0,32484,33092,V V,0,32565,32566,0.68,0.68,0.4,0.68 V,0,32646,32647,0.6808,0.68,0.68,0.68 V,0,32729,32730,0.68,0.68,0.4,0.68 F,0,32788,33092,1,0 V,0,32808,32809,0.6808,0.68,0.68,0.68
Sprite,Background,Centre,"sb\btrfl2.png",150,261 S,0,33295,,0.504 R,0,33295,,-3.985952 S,0,33295,33375,0.68 M,1,33295,33903,112.6227,227.7895,93.93405,211.1842 P,0,33295,33903,V V,0,33376,33377,0.68,0.68,0.4,0.68 V,0,33457,33458,0.6808,0.68,0.68,0.68 V,0,33540,33541,0.68,0.68,0.4,0.68 F,0,33599,33903,1,0 V,0,33619,33620,0.6808,0.68,0.68,0.68
Sprite,Background,Centre,"sb\btrfl2.png",65,231 S,0,34106,,0.504 R,0,34106,,-4.116625 S,0,34106,34186,0.68 M,1,34106,34714,23.614,202.9429,2.920994,188.9144 P,0,34106,34714,V V,0,34187,34188,0.68,0.68,0.4,0.68 V,0,34268,34269,0.6808,0.68,0.68,0.68 V,0,34351,34352,0.68,0.68,0.4,0.68 F,0,34410,34714,1,0 V,0,34430,34431,0.6808,0.68,0.68,0.68
Sprite,Background,Centre,"sb\btrfl2.png",219,203 S,0,34511,,0.504 R,0,34511,,-3.975421 S,0,34511,34591,0.68 M,1,34511,35119,181.9745,169.3977,163.4618,152.5966 P,0,34511,35119,V V,0,34592,34593,0.68,0.68,0.4,0.68 V,0,34673,34674,0.6808,0.68,0.68,0.68 V,0,34756,34757,0.68,0.68,0.4,0.68 F,0,34815,35119,1,0 V,0,34835,34836,0.6808,0.68,0.68,0.68
Sprite,Background,Centre,"sb\btrfl2.png",270,263 S,0,34714,,0.504 R,0,34714,,-3.964783 S,0,34714,34794,0.68 M,1,34714,35322,233.3341,229.0057,215.0011,212.0086 P,0,34714,35322,V V,0,34795,34796,0.68,0.68,0.4,0.68 V,0,34876,34877,0.6808,0.68,0.68,0.68 V,0,34959,34960,0.68,0.68,0.4,0.68 F,0,35018,35322,1,0 V,0,35038,35039,0.6808,0.68,0.68,0.68
Sprite,Background,Centre,"sb\btrfl2.png",297,189 S,0,34917,,0.504 R,0,34917,,-4.054832 S,0,34917,34997,0.68 M,1,34917,35525,257.4256,158.4407,237.6384,143.1611 P,0,34917,35525,V V,0,34998,34999,0.68,0.68,0.4,0.68 V,0,35079,35080,0.6808,0.68,0.68,0.68 V,0,35162,35163,0.68,0.68,0.4,0.68 F,0,35221,35525,1,0 V,0,35241,35242,0.6808,0.68,0.68,0.68
Sprite,Background,Centre,"sb\btrfl2.png",168,143 S,0,35322,,0.504 R,0,35322,,-3.79455 S,0,35322,35402,0.68 M,1,35322,35930,137.6231,103.2855,122.4347,83.42819 P,0,35322,35930,V V,0,35403,35404,0.68,0.68,0.4,0.68 V,0,35484,35485,0.6808,0.68,0.68,0.68 V,0,35567,35568,0.68,0.68,0.4,0.68 F,0,35626,35930,1,0 V,0,35646,35647,0.6808,0.68,0.68,0.68
Sprite,Background,Centre,"sb\btrfl2.png",242,336 S,0,35727,,0.504 R,0,35727,,-3.824095 S,0,35727,35807,0.68 M,1,35727,36335,210.4632,297.2002,194.6947,277.8003 P,0,35727,36335,V V,0,35808,35809,0.68,0.68,0.4,0.68 V,0,35889,35890,0.6808,0.68,0.68,0.68 V,0,35972,35973,0.68,0.68,0.4,0.68 F,0,36031,36335,1,0 V,0,36051,36052,0.6808,0.68,0.68,0.68
Sprite,Background,Centre,"sb\btrfl2.png",453,161 S,0,36538,,0.504 R,0,36538,,-4.103291 S,0,36538,36618,0.68 M,1,36538,37146,411.9918,132.3936,391.4877,118.0904 P,0,36538,37146,V V,0,36619,36620,0.68,0.68,0.4,0.68 V,0,36700,36701,0.6808,0.68,0.68,0.68 V,0,36783,36784,0.68,0.68,0.4,0.68 F,0,36842,37146,1,0 V,0,36862,36863,0.6808,0.68,0.68,0.68
Sprite,Background,Centre,"sb\btrfl2.png",375,169 S,0,37552,,0.504 R,0,37552,,-3.74201 S,0,37552,37632,0.68 M,1,37552,38160,346.7506,127.745,332.626,107.1175 P,0,37552,38160,V V,0,37633,37634,0.68,0.68,0.4,0.68 V,0,37714,37715,0.6808,0.68,0.68,0.68 V,0,37797,37798,0.68,0.68,0.4,0.68 F,0,37856,38160,1,0 V,0,37876,37877,0.6808,0.68,0.68,0.68
Sprite,Background,Centre,"sb\btrfl2.png",407,96 S,0,37755,,0.504 R,0,37755,,-4.039261 S,0,37755,37835,0.68 M,1,37755,38363,367.9063,64.82825,348.3594,49.24237 P,0,37755,38363,V V,0,37836,37837,0.68,0.68,0.4,0.68 V,0,37917,37918,0.6808,0.68,0.68,0.68 V,0,38000,38001,0.68,0.68,0.4,0.68 F,0,38059,38363,1,0 V,0,38079,38080,0.6808,0.68,0.68,0.68
Sprite,Background,Centre,"sb\btrfl2.png",486,89 S,0,37958,,0.504 R,0,37958,,-3.920843 S,0,37958,38038,0.68 M,1,37958,38566,450.8627,53.42797,433.294,35.64195 P,0,37958,38566,V V,0,38039,38040,0.68,0.68,0.4,0.68 V,0,38120,38121,0.6808,0.68,0.68,0.68 V,0,38203,38204,0.68,0.68,0.4,0.68 F,0,38262,38566,1,0 V,0,38282,38283,0.6808,0.68,0.68,0.68
Sprite,Background,Centre,"sb\btrfl2.png",532,154 S,0,38160,,0.504 R,0,38160,,-4.009199 S,0,38160,38240,0.68 M,1,38160,38768,493.8608,121.6673,474.7913,105.5009 P,0,38160,38768,V V,0,38241,38242,0.68,0.68,0.4,0.68 V,0,38322,38323,0.6808,0.68,0.68,0.68 V,0,38405,38406,0.68,0.68,0.4,0.68 F,0,38464,38768,1,0 V,0,38484,38485,0.6808,0.68,0.68,0.68
Sprite,Background,Centre,"sb\btrfl2.png",421,234 S,0,38564,,0.504 R,0,38564,,-4.126637 S,0,38564,38644,0.68 M,1,38564,39172,379.3352,206.3587,358.5027,192.538 P,0,38564,39172,V V,0,38645,38646,0.68,0.68,0.4,0.68 V,0,38726,38727,0.6808,0.68,0.68,0.68 V,0,38809,38810,0.68,0.68,0.4,0.68 F,0,38868,39172,1,0 V,0,38888,38889,0.6808,0.68,0.68,0.68
Sprite,Background,Centre,"sb\btrfl2.png",295,176 S,0,38971,,0.504 R,0,38971,,-3.779495 S,0,38971,39051,0.68 M,1,38971,39579,265.2244,135.8327,250.3366,115.749 P,0,38971,39579,V V,0,39052,39053,0.68,0.68,0.4,0.68 V,0,39133,39134,0.6808,0.68,0.68,0.68 V,0,39216,39217,0.68,0.68,0.4,0.68 F,0,39275,39579,1,0 V,0,39295,39296,0.6808,0.68,0.68,0.68
Sprite,Background,Centre,"sb\btrfl2.png",155,226 S,0,39781,,0.504 R,0,39781,,-4.088501 S,0,39781,39861,0.68 M,1,39781,40389,114.4193,196.7903,94.129,182.1854 P,0,39781,40389,V V,0,39862,39863,0.68,0.68,0.4,0.68 V,0,39943,39944,0.6808,0.68,0.68,0.68 V,0,40026,40027,0.68,0.68,0.4,0.68 F,0,40085,40389,1,0 V,0,40105,40106,0.6808,0.68,0.68,0.68
Sprite,Background,Centre,"sb\btrfl2.png",268,322 S,0,40592,,0.504 R,0,40592,,-4.157264 S,0,40592,40672,0.68 M,1,40592,41200,225.5083,295.6475,204.2624,282.4713 P,0,40592,41200,V V,0,40673,40674,0.68,0.68,0.4,0.68 V,0,40754,40755,0.6808,0.68,0.68,0.68 V,0,40837,40838,0.68,0.68,0.4,0.68 F,0,40896,41200,1,0 V,0,40916,40917,0.6808,0.68,0.68,0.68
Sprite,Background,Centre,"sb\btrfl2.png",295,177 S,0,41403,,0.504 R,0,41403,,-3.872345 S,0,41403,41483,0.68 M,1,41403,42011,261.6285,139.7664,244.9427,121.1496 P,0,41403,42011,V V,0,41484,41485,0.68,0.68,0.4,0.68 V,0,41565,41566,0.6808,0.68,0.68,0.68 V,0,41648,41649,0.68,0.68,0.4,0.68 F,0,41707,42011,1,0 V,0,41727,41728,0.6808,0.68,0.68,0.68
Sprite,Background,Centre,"sb\btrfl2.png",213,160 S,0,42214,,0.504 R,0,42214,,-3.937665 S,0,42214,42294,0.68 M,1,42214,42822,177.2693,125.0241,159.4039,107.5361 P,0,42214,42822,V V,0,42295,42296,0.68,0.68,0.4,0.68 V,0,42376,42377,0.6808,0.68,0.68,0.68 V,0,42459,42460,0.68,0.68,0.4,0.68 F,0,42518,42822,1,0 V,0,42538,42539,0.6808,0.68,0.68,0.68
Sprite,Background,Centre,"sb\btrfl2.png",350,115 S,0,42619,,0.504 R,0,42619,,-3.963258 S,0,42619,42699,0.68 M,1,42619,43227,313.386,80.94987,295.0789,63.92481 P,0,42619,43227,V V,0,42700,42701,0.68,0.68,0.4,0.68 V,0,42781,42782,0.6808,0.68,0.68,0.68 V,0,42864,42865,0.68,0.68,0.4,0.68 F,0,42923,43227,1,0 V,0,42943,42944,0.6808,0.68,0.68,0.68
Sprite,Background,Centre,"sb\btrfl2.png",186,80 S,0,43025,,0.504 R,0,43025,,-3.815608 S,0,43025,43105,0.68 M,1,43025,43633,154.7936,40.9339,139.1904,21.40085 P,0,43025,43633,V V,0,43106,43107,0.68,0.68,0.4,0.68 V,0,43187,43188,0.6808,0.68,0.68,0.68 V,0,43270,43271,0.68,0.68,0.4,0.68 F,0,43329,43633,1,0 V,0,43349,43350,0.6808,0.68,0.68,0.68
Sprite,Background,Centre,"sb\btrfl2.png",294,177 S,0,43430,,0.504 R,0,43430,,-4.084117 S,0,43430,43510,0.68 M,1,43430,44038,253.5478,147.6126,233.3217,132.9189 P,0,43430,44038,V V,0,43511,43512,0.68,0.68,0.4,0.68 V,0,43592,43593,0.6808,0.68,0.68,0.68 V,0,43675,43676,0.68,0.68,0.4,0.68 F,0,43734,44038,1,0 V,0,43754,43755,0.6808,0.68,0.68,0.68
Sprite,Background,Centre,"sb\btrfl2.png",159,223 S,0,43835,,0.504 R,0,43835,,-3.726748 S,0,43835,43915,0.68 M,1,43835,44443,131.3835,181.3187,117.5753,160.478 P,0,43835,44443,V V,0,43916,43917,0.68,0.68,0.4,0.68 V,0,43997,43998,0.6808,0.68,0.68,0.68 V,0,44080,44081,0.68,0.68,0.4,0.68 F,0,44139,44443,1,0 V,0,44159,44160,0.6808,0.68,0.68,0.68
Sprite,Background,Centre,"sb\btrfl2.png",268,98 S,0,44241,,0.504 R,0,44241,,-3.729093 S,0,44241,44321,0.68 M,1,44241,44849,240.2859,56.38357,226.4288,35.57536 P,0,44241,44849,V V,0,44322,44323,0.68,0.68,0.4,0.68 V,0,44403,44404,0.6808,0.68,0.68,0.68 V,0,44486,44487,0.68,0.68,0.4,0.68 F,0,44545,44849,1,0 V,0,44565,44566,0.6808,0.68,0.68,0.68
Sprite,Background,Centre,"sb\btrfl2.png",319,255 S,0,44646,,0.504 R,0,44646,,-3.804686 S,0,44646,44726,0.68 M,1,44646,45254,288.2221,215.5954,272.8332,195.8931 P,0,44646,45254,V V,0,44727,44728,0.68,0.68,0.4,0.68 V,0,44808,44809,0.6808,0.68,0.68,0.68 V,0,44891,44892,0.68,0.68,0.4,0.68 F,0,44950,45254,1,0 V,0,44970,44971,0.6808,0.68,0.68,0.68
Sprite,Background,Centre,"sb\btrfl2.png",294,177 S,0,45457,,0.504 R,0,45457,,-3.703447 S,0,45457,45537,0.68 M,1,45457,46065,267.3622,134.6866,254.0433,113.5298 P,0,45457,46065,V V,0,45538,45539,0.68,0.68,0.4,0.68 V,0,45619,45620,0.6808,0.68,0.68,0.68 V,0,45702,45703,0.68,0.68,0.4,0.68 F,0,45761,46065,1,0 V,0,45781,45782,0.6808,0.68,0.68,0.68
Sprite,Background,Centre,"sb\btrfl2.png",477,388 S,0,46268,,0.504 R,0,46268,,-3.970702 S,0,46268,46348,0.68 M,1,46268,46876,440.1335,354.2234,421.7003,337.3351 P,0,46268,46876,V V,0,46349,46350,0.68,0.68,0.4,0.68 V,0,46430,46431,0.6808,0.68,0.68,0.68 V,0,46513,46514,0.68,0.68,0.4,0.68 F,0,46572,46876,1,0 V,0,46592,46593,0.6808,0.68,0.68,0.68
Sprite,Background,Centre,"sb\btrfl2.png",488,108 S,0,47079,,0.504 R,0,47079,,-4.03614 S,0,47079,47159,0.68 M,1,47079,47687,449.0037,76.70642,429.5056,61.05963 P,0,47079,47687,V V,0,47160,47161,0.68,0.68,0.4,0.68 V,0,47241,47242,0.6808,0.68,0.68,0.68 V,0,47324,47325,0.68,0.68,0.4,0.68 F,0,47383,47687,1,0 V,0,47403,47404,0.6808,0.68,0.68,0.68
Sprite,Background,Centre,"sb\btrfl2.png",363,172 S,0,47484,,0.504 R,0,47484,,-3.794881 S,0,47484,47564,0.68 M,1,47484,48092,332.61,132.2955,317.4149,112.4433 P,0,47484,48092,V V,0,47565,47566,0.68,0.68,0.4,0.68 V,0,47646,47647,0.6808,0.68,0.68,0.68 V,0,47729,47730,0.68,0.68,0.4,0.68 F,0,47788,48092,1,0 V,0,47808,47809,0.6808,0.68,0.68,0.68
Sprite,Background,Centre,"sb\btrfl2.png",287,165 S,0,47687,,0.504 R,0,47687,,-4.103059 S,0,47687,47767,0.68 M,1,47687,48295,245.9984,136.3841,225.4976,122.0761 P,0,47687,48295,V V,0,47768,47769,0.68,0.68,0.4,0.68 V,0,47849,47850,0.6808,0.68,0.68,0.68 V,0,47932,47933,0.68,0.68,0.4,0.68 F,0,47991,48295,1,0 V,0,48011,48012,0.6808,0.68,0.68,0.68
Sprite,Background,Centre,"sb\btrfl2.png",332,99 S,0,47890,,0.504 R,0,47890,,-4.189631 S,0,47890,47970,0.68 M,1,47890,48498,288.6777,74.03641,267.0166,61.55461 P,0,47890,48498,V V,0,47971,47972,0.68,0.68,0.4,0.68 V,0,48052,48053,0.6808,0.68,0.68,0.68 V,0,48135,48136,0.68,0.68,0.4,0.68 F,0,48194,48498,1,0 V,0,48214,48215,0.6808,0.68,0.68,0.68
Sprite,Background,Centre,"sb\btrfl2.png",318,236 S,0,48295,,0.504 R,0,48295,,-3.726696 S,0,48295,48375,0.68 M,1,48295,48903,290.3857,194.3173,276.5786,173.4759 P,0,48295,48903,V V,0,48376,48377,0.68,0.68,0.4,0.68 V,0,48457,48458,0.6808,0.68,0.68,0.68 V,0,48540,48541,0.68,0.68,0.4,0.68 F,0,48599,48903,1,0 V,0,48619,48620,0.6808,0.68,0.68,0.68
Sprite,Background,Centre,"sb\btrfl2.png",160,154 S,0,48700,,0.504 R,0,48700,,-4.199793 S,0,48700,48780,0.68 M,1,48700,49308,116.4263,129.4779,94.63943,117.2169 P,0,48700,49308,V V,0,48781,48782,0.68,0.68,0.4,0.68 V,0,48862,48863,0.6808,0.68,0.68,0.68 V,0,48945,48946,0.68,0.68,0.4,0.68 F,0,49004,49308,1,0 V,0,49024,49025,0.6808,0.68,0.68,0.68
Sprite,Background,Centre,"sb\btrfl2.png",295,364 S,0,49511,,0.504 R,0,49511,,-4.071338 S,0,49511,49591,0.68 M,1,49511,50119,254.9266,334.0981,234.8899,319.1472 P,0,49511,50119,V V,0,49592,49593,0.68,0.68,0.4,0.68 V,0,49673,49674,0.6808,0.68,0.68,0.68 V,0,49756,49757,0.68,0.68,0.4,0.68 F,0,49815,50119,1,0 V,0,49835,49836,0.6808,0.68,0.68,0.68
Sprite,Background,Centre,"sb\btrfl2.png",482,318 S,0,50727,,0.504 R,0,50727,,-3.798523 S,0,50727,50807,0.68 M,1,50727,51335,451.4655,278.4065,436.1983,258.6097 P,0,50727,51335,V V,0,50808,50809,0.68,0.68,0.4,0.68 V,0,50889,50890,0.6808,0.68,0.68,0.68 V,0,50972,50973,0.68,0.68,0.4,0.68 F,0,51031,51335,1,0 V,0,51051,51052,0.6808,0.68,0.68,0.68
Sprite,Background,Centre,"sb\btrfl2.png",446,249 S,0,50930,,0.504 R,0,50930,,-3.925544 S,0,50930,51010,0.68 M,1,50930,51538,410.6959,213.5935,393.0438,195.8903 P,0,50930,51538,V V,0,51011,51012,0.68,0.68,0.4,0.68 V,0,51092,51093,0.6808,0.68,0.68,0.68 V,0,51175,51176,0.68,0.68,0.4,0.68 F,0,51234,51538,1,0 V,0,51254,51255,0.6808,0.68,0.68,0.68
Sprite,Background,Centre,"sb\btrfl2.png",525,252 S,0,51133,,0.504 R,0,51133,,-3.78362 S,0,51133,51213,0.68 M,1,51133,51741,495.059,211.9558,480.0885,191.9337 P,0,51133,51741,V V,0,51214,51215,0.68,0.68,0.4,0.68 V,0,51295,51296,0.6808,0.68,0.68,0.68 V,0,51378,51379,0.68,0.68,0.4,0.68 F,0,51437,51741,1,0 V,0,51457,51458,0.6808,0.68,0.68,0.68
Sprite,Background,Centre,"sb\btrfl2.png",403,315 S,0,51538,,0.504 R,0,51538,,-4.159577 S,0,51538,51618,0.68 M,1,51538,52146,360.4474,288.7459,339.1711,275.6188 P,0,51538,52146,V V,0,51619,51620,0.68,0.68,0.4,0.68 V,0,51700,51701,0.6808,0.68,0.68,0.68 V,0,51783,51784,0.68,0.68,0.4,0.68 F,0,51842,52146,1,0 V,0,51862,51863,0.6808,0.68,0.68,0.68
Sprite,Background,Centre,"sb\btrfl2.png",373,158 S,0,51944,,0.504 R,0,51944,,-4.120544 S,0,51944,52024,0.68 M,1,51944,52552,331.5044,130.1053,310.7565,116.158 P,0,51944,52552,V V,0,52025,52026,0.68,0.68,0.4,0.68 V,0,52106,52107,0.6808,0.68,0.68,0.68 V,0,52189,52190,0.68,0.68,0.4,0.68 F,0,52248,52552,1,0 V,0,52268,52269,0.6808,0.68,0.68,0.68
Sprite,Background,Centre,"sb\btrfl2.png",347,69 S,0,52754,,0.504 R,0,52754,,-4.027305 S,0,52754,52834,0.68 M,1,52754,53362,308.2817,37.36311,288.9225,21.54466 P,0,52754,53362,V V,0,52835,52836,0.68,0.68,0.4,0.68 V,0,52916,52917,0.6808,0.68,0.68,0.68 V,0,52999,53000,0.68,0.68,0.4,0.68 F,0,53058,53362,1,0 V,0,53078,53079,0.6808,0.68,0.68,0.68
Sprite,Background,Centre,"sb\btrfl2.png",438,317 S,0,53565,,0.504 R,0,53565,,-4.161103 S,0,53565,53645,0.68 M,1,53565,54173,395.4074,290.8108,374.1111,277.7162 P,0,53565,54173,V V,0,53646,53647,0.68,0.68,0.4,0.68 V,0,53727,53728,0.6808,0.68,0.68,0.68 V,0,53810,53811,0.68,0.68,0.4,0.68 F,0,53869,54173,1,0 V,0,53889,53890,0.6808,0.68,0.68,0.68
Sprite,Background,Centre,"sb\btrfl2.png",179,271 S,0,54376,,0.504 R,0,54376,,-3.767362 S,0,54376,54456,0.68 M,1,54376,54984,149.7139,230.4744,135.0709,210.2116 P,0,54376,54984,V V,0,54457,54458,0.68,0.68,0.4,0.68 V,0,54538,54539,0.6808,0.68,0.68,0.68 V,0,54621,54622,0.68,0.68,0.4,0.68 F,0,54680,54984,1,0 V,0,54700,54701,0.6808,0.68,0.68,0.68
Sprite,Background,Centre,"sb\btrfl2.png",145,192 S,0,55187,,0.504 R,0,55187,,-4.072628 S,0,55187,55267,0.68 M,1,55187,55795,104.8881,162.1498,84.83212,147.2247 P,0,55187,55795,V V,0,55268,55269,0.68,0.68,0.4,0.68 V,0,55349,55350,0.6808,0.68,0.68,0.68 V,0,55432,55433,0.68,0.68,0.4,0.68 F,0,55491,55795,1,0 V,0,55511,55512,0.6808,0.68,0.68,0.68
Sprite,Background,Centre,"sb\btrfl2.png",230,202 S,0,55998,,0.504 R,0,55998,,-4.134208 S,0,55998,56078,0.68 M,1,55998,56606,188.1271,174.6749,167.1907,161.0124 P,0,55998,56606,V V,0,56079,56080,0.68,0.68,0.4,0.68 V,0,56160,56161,0.6808,0.68,0.68,0.68 V,0,56243,56244,0.68,0.68,0.4,0.68 F,0,56302,56606,1,0 V,0,56322,56323,0.6808,0.68,0.68,0.68
Sprite,Background,Centre,"sb\btrfl2.png",76,140 S,0,56403,,0.504 R,0,56403,,-3.895996 S,0,56403,56483,0.68 M,1,56403,57011,41.75729,103.566,24.63593,85.34899 P,0,56403,57011,V V,0,56484,56485,0.68,0.68,0.4,0.68 V,0,56565,56566,0.6808,0.68,0.68,0.68 V,0,56648,56649,0.68,0.68,0.4,0.68 F,0,56707,57011,1,0 V,0,56727,56728,0.6808,0.68,0.68,0.68
Sprite,Background,Centre,"sb\btrfl2.png",240,117 S,0,56808,,0.504 R,0,56808,,-4.01846 S,0,56808,56888,0.68 M,1,56808,57416,201.563,85.02187,182.3446,69.0328 P,0,56808,57416,V V,0,56889,56890,0.68,0.68,0.4,0.68 V,0,56970,56971,0.6808,0.68,0.68,0.68 V,0,57053,57054,0.68,0.68,0.4,0.68 F,0,57112,57416,1,0 V,0,57132,57133,0.6808,0.68,0.68,0.68
Sprite,Background,Centre,"sb\btrfl2.png",179,271 S,0,57214,,0.504 R,0,57214,,-4.080045 S,0,57214,57294,0.68 M,1,57214,57822,138.6678,241.4482,118.5017,226.6722 P,0,57214,57822,V V,0,57295,57296,0.68,0.68,0.4,0.68 V,0,57376,57377,0.6808,0.68,0.68,0.68 V,0,57459,57460,0.68,0.68,0.4,0.68 F,0,57518,57822,1,0 V,0,57538,57539,0.6808,0.68,0.68,0.68
Sprite,Background,Centre,"sb\btrfl2.png",345,219 S,0,57619,,0.504 R,0,57619,,-4.048965 S,0,57619,57699,0.68 M,1,57619,58227,305.6056,188.2091,285.9084,172.8136 P,0,57619,58227,V V,0,57700,57701,0.68,0.68,0.4,0.68 V,0,57781,57782,0.6808,0.68,0.68,0.68 V,0,57864,57865,0.68,0.68,0.4,0.68 F,0,57923,58227,1,0 V,0,57943,57944,0.6808,0.68,0.68,0.68
Sprite,Background,Centre,"sb\btrfl2.png",448,389 S,0,58430,,0.504 R,0,58430,,-3.986998 S,0,58430,58510,0.68 M,1,58430,59038,410.588,355.8286,391.882,339.2429 P,0,58430,59038,V V,0,58511,58512,0.68,0.68,0.4,0.68 V,0,58592,58593,0.6808,0.68,0.68,0.68 V,0,58675,58676,0.68,0.68,0.4,0.68 F,0,58734,59038,1,0 V,0,58754,58755,0.6808,0.68,0.68,0.68
Sprite,Background,Centre,"sb\btrfl2.png",228,256 S,0,59241,,0.504 R,0,59241,,-3.818664 S,0,59241,59321,0.68 M,1,59241,59849,196.6743,217.0295,181.0115,197.5442 P,0,59241,59849,V V,0,59322,59323,0.68,0.68,0.4,0.68 V,0,59403,59404,0.6808,0.68,0.68,0.68 V,0,59486,59487,0.68,0.68,0.4,0.68 F,0,59545,59849,1,0 V,0,59565,59566,0.6808,0.68,0.68,0.68
Sprite,Background,Centre,"sb\btrfl2.png",169,113 S,0,60457,,0.504 R,0,60457,,-3.796311 S,0,60457,60537,0.68 M,1,60457,61065,138.5532,73.33904,123.3298,53.50855 P,0,60457,61065,V V,0,60538,60539,0.68,0.68,0.4,0.68 V,0,60619,60620,0.6808,0.68,0.68,0.68 V,0,60702,60703,0.68,0.68,0.4,0.68 F,0,60761,61065,1,0 V,0,60781,60782,0.6808,0.68,0.68,0.68
Sprite,Background,Centre,"sb\btrfl2.png",92,242 S,0,60862,,0.504 R,0,60862,,-3.73912 S,0,60862,60942,0.68 M,1,60862,61470,63.87001,200.6635,49.80501,179.9953 P,0,60862,61470,V V,0,60943,60944,0.68,0.68,0.4,0.68 V,0,61024,61025,0.6808,0.68,0.68,0.68 V,0,61107,61108,0.68,0.68,0.4,0.68 F,0,61166,61470,1,0 V,0,61186,61187,0.6808,0.68,0.68,0.68
Sprite,Background,Centre,"sb\btrfl2.png",373,235 S,0,61701,,0.504 R,0,61701,,-3.952523 S,0,61701,61781,0.68 M,1,61701,62309,336.7536,200.5588,318.6304,183.3382 P,0,61701,62309,V V,0,61782,61783,0.68,0.68,0.4,0.68 V,0,61863,61864,0.6808,0.68,0.68,0.68 V,0,61946,61947,0.68,0.68,0.4,0.68 F,0,62005,62309,1,0 V,0,62025,62026,0.6808,0.68,0.68,0.68
Sprite,Background,Centre,"sb\btrfl2.png",306,298 S,0,62589,,0.504 R,0,62589,,-3.791907 S,0,62589,62669,0.68 M,1,62589,63197,275.7282,258.2053,260.5923,238.308 P,0,62589,63197,V V,0,62670,62671,0.68,0.68,0.4,0.68 V,0,62751,62752,0.6808,0.68,0.68,0.68 V,0,62834,62835,0.68,0.68,0.4,0.68 F,0,62893,63197,1,0 V,0,62913,62914,0.6808,0.68,0.68,0.68
Sprite,Background,Centre,"sb\btrfl2.png",284,208 S,0,63550,,0.504 R,0,63550,,-3.782538 S,0,63550,63630,0.68 M,1,63550,64158,254.1023,167.9235,239.1535,147.8852 P,0,63550,64158,V V,0,63631,63632,0.68,0.68,0.4,0.68 V,0,63712,63713,0.6808,0.68,0.68,0.68 V,0,63795,63796,0.68,0.68,0.4,0.68 F,0,63854,64158,1,0 V,0,63874,63875,0.6808,0.68,0.68,0.68
Sprite,Background,Centre,"sb\btrfl2.png",373,235 S,0,64640,,0.504 R,0,64640,,-4.086245 S,0,64640,64720,0.68 M,1,64640,65248,332.4854,205.6987,312.228,191.0481 P,0,64640,65248,V V,0,64721,64722,0.68,0.68,0.4,0.68 V,0,64802,64803,0.6808,0.68,0.68,0.68 V,0,64885,64886,0.68,0.68,0.4,0.68 F,0,64944,65248,1,0 V,0,64964,64965,0.6808,0.68,0.68,0.68
Sprite,Background,Centre,"sb\btrfl2.png",160,191 S,0,52,,0.504 R,0,52,,-2.50837 S,0,52,132,0.595 M,1,52,660,189.5873,150.6938,204.3809,130.5406 P,0,52,660,H P,0,52,660,V V,0,133,134,0.595,0.595,0.35,0.595 V,0,214,215,0.5957,0.595,0.595,0.595 V,0,297,298,0.595,0.595,0.35,0.595 F,0,356,660,1,0 V,0,376,377,0.5957,0.595,0.595,0.595
Sprite,Background,Centre,"sb\btrfl2.png",447,364 S,0,863,,0.504 R,0,863,,-2.572128 S,0,863,943,0.595 M,1,863,1471,473.9591,321.8905,487.4386,300.8358 P,0,863,1471,H P,0,863,1471,V V,0,944,945,0.595,0.595,0.35,0.595 V,0,1025,1026,0.5957,0.595,0.595,0.595 V,0,1108,1109,0.595,0.595,0.35,0.595 F,0,1167,1471,1,0 V,0,1187,1188,0.5957,0.595,0.595,0.595
Sprite,Background,Centre,"sb\btrfl2.png",313,134 S,0,1673,,0.504 R,0,1673,,-2.537616 S,0,1673,1753,0.595 M,1,1673,2281,341.396,92.84582,355.594,72.26873 P,0,1673,2281,H P,0,1673,2281,V V,0,1754,1755,0.595,0.595,0.35,0.595 V,0,1835,1836,0.5957,0.595,0.595,0.595 V,0,1918,1919,0.595,0.595,0.35,0.595 F,0,1977,2281,1,0 V,0,1997,1998,0.5957,0.595,0.595,0.595
Sprite,Background,Centre,"sb\btrfl2.png",305,298 S,0,2079,,0.504 R,0,2079,,-2.390713 S,0,2079,2159,0.595 M,1,2079,2687,339.1141,261.4456,356.1712,243.1683 P,0,2079,2687,H P,0,2079,2687,V V,0,2160,2161,0.595,0.595,0.35,0.595 V,0,2241,2242,0.5957,0.595,0.595,0.595 V,0,2324,2325,0.595,0.595,0.35,0.595 F,0,2383,2687,1,0 V,0,2403,2404,0.5957,0.595,0.595,0.595
Sprite,Background,Centre,"sb\btrfl2.png",350,230 S,0,2281,,0.504 R,0,2281,,-2.144223 S,0,2281,2361,0.595 M,1,2281,2889,392.0023,202.8743,413.0035,189.3114 P,0,2281,2889,H P,0,2281,2889,V V,0,2362,2363,0.595,0.595,0.35,0.595 V,0,2443,2444,0.5957,0.595,0.595,0.595 V,0,2526,2527,0.595,0.595,0.35,0.595 F,0,2585,2889,1,0 V,0,2605,2606,0.5957,0.595,0.595,0.595
Sprite,Background,Centre,"sb\btrfl2.png",269,226 S,0,2484,,0.504 R,0,2484,,-2.391219 S,0,2484,2564,0.595 M,1,2484,3092,303.0956,189.4283,320.1434,171.1424 P,0,2484,3092,H P,0,2484,3092,V V,0,2565,2566,0.595,0.595,0.35,0.595 V,0,2646,2647,0.5957,0.595,0.595,0.595 V,0,2729,2730,0.595,0.595,0.35,0.595 F,0,2788,3092,1,0 V,0,2808,2809,0.5957,0.595,0.595,0.595
Sprite,Background,Centre,"sb\btrfl2.png",386,302 S,0,2890,,0.504 R,0,2890,,-2.634219 S,0,2890,2970,0.595 M,1,2890,3498,410.2942,258.2988,422.4413,236.4482 P,0,2890,3498,H P,0,2890,3498,V V,0,2971,2972,0.595,0.595,0.35,0.595 V,0,3052,3053,0.5957,0.595,0.595,0.595 V,0,3135,3136,0.595,0.595,0.35,0.595 F,0,3194,3498,1,0 V,0,3214,3215,0.5957,0.595,0.595,0.595
Sprite,Background,Centre,"sb\btrfl2.png",224,294 S,0,3295,,0.504 R,0,3295,,-2.309525 S,0,3295,3375,0.595 M,1,3295,3903,260.9663,260.3326,279.4494,243.4989 P,0,3295,3903,H P,0,3295,3903,V V,0,3376,3377,0.595,0.595,0.35,0.595 V,0,3457,3458,0.5957,0.595,0.595,0.595 V,0,3540,3541,0.595,0.595,0.35,0.595 F,0,3599,3903,1,0 V,0,3619,3620,0.5957,0.595,0.595,0.595
Sprite,Background,Centre,"sb\btrfl2.png",431,234 S,0,4106,,0.504 R,0,4106,,-2.684285 S,0,4106,4186,0.595 M,1,4106,4714,453.0767,189.1378,464.1151,166.7067 P,0,4106,4714,H P,0,4106,4714,V V,0,4187,4188,0.595,0.595,0.35,0.595 V,0,4268,4269,0.5957,0.595,0.595,0.595 V,0,4351,4352,0.595,0.595,0.35,0.595 F,0,4410,4714,1,0 V,0,4430,4431,0.5957,0.595,0.595,0.595
Sprite,Background,Centre,"sb\btrfl2.png",512,238 S,0,5120,,0.504 R,0,5120,,-2.191593 S,0,5120,5200,0.595 M,1,5120,5728,552.6708,208.9158,573.0062,194.3737 P,0,5120,5728,H P,0,5120,5728,V V,0,5201,5202,0.595,0.595,0.35,0.595 V,0,5282,5283,0.5957,0.595,0.595,0.595 V,0,5365,5366,0.595,0.595,0.35,0.595 F,0,5424,5728,1,0 V,0,5444,5445,0.5957,0.595,0.595,0.595
Sprite,Background,Centre,"sb\btrfl2.png",475,166 S,0,5322,,0.504 R,0,5322,,-2.204334 S,0,5322,5402,0.595 M,1,5322,5930,515.2969,136.4,535.4454,121.6 P,0,5322,5930,H P,0,5322,5930,V V,0,5403,5404,0.595,0.595,0.35,0.595 V,0,5484,5485,0.5957,0.595,0.595,0.595 V,0,5567,5568,0.595,0.595,0.35,0.595 F,0,5626,5930,1,0 V,0,5646,5647,0.5957,0.595,0.595,0.595
Sprite,Background,Centre,"sb\btrfl2.png",394,162 S,0,5525,,0.504 R,0,5525,,-2.32712 S,0,5525,5605,0.595 M,1,5525,6133,430.3682,127.6874,448.5523,110.5311 P,0,5525,6133,H P,0,5525,6133,V V,0,5606,5607,0.595,0.595,0.35,0.595 V,0,5687,5688,0.5957,0.595,0.595,0.595 V,0,5770,5771,0.595,0.595,0.35,0.595 F,0,5829,6133,1,0 V,0,5849,5850,0.5957,0.595,0.595,0.595
Sprite,Background,Centre,"sb\btrfl2.png",351,231 S,0,5728,,0.504 R,0,5728,,-2.442861 S,0,5728,5808,0.595 M,1,5728,6336,383.1624,192.7171,399.2435,173.5756 P,0,5728,6336,H P,0,5728,6336,V V,0,5809,5810,0.595,0.595,0.35,0.595 V,0,5890,5891,0.5957,0.595,0.595,0.595 V,0,5973,5974,0.595,0.595,0.35,0.595 F,0,6032,6336,1,0 V,0,6052,6053,0.5957,0.595,0.595,0.595
Sprite,Background,Centre,"sb\btrfl2.png",356,368 S,0,6133,,0.504 R,0,6133,,-2.328658 S,0,6133,6213,0.595 M,1,6133,6741,392.3154,333.6315,410.4731,316.4472 P,0,6133,6741,H P,0,6133,6741,V V,0,6214,6215,0.595,0.595,0.35,0.595 V,0,6295,6296,0.5957,0.595,0.595,0.595 V,0,6378,6379,0.595,0.595,0.35,0.595 F,0,6437,6741,1,0 V,0,6457,6458,0.5957,0.595,0.595,0.595
Sprite,Background,Centre,"sb\btrfl2.png",234,303 S,0,6538,,0.504 R,0,6538,,-2.687506 S,0,6538,6618,0.595 M,1,6538,7146,255.9321,258.0669,266.8981,235.6004 P,0,6538,7146,H P,0,6538,7146,V V,0,6619,6620,0.595,0.595,0.35,0.595 V,0,6700,6701,0.5957,0.595,0.595,0.595 V,0,6783,6784,0.595,0.595,0.35,0.595 F,0,6842,7146,1,0 V,0,6862,6863,0.5957,0.595,0.595,0.595
Sprite,Background,Centre,"sb\btrfl2.png",351,231 S,0,6944,,0.504 R,0,6944,,-2.021257 S,0,6944,7024,0.595 M,1,6944,7552,396.0123,209.231,418.5185,198.3465 P,0,6944,7552,H P,0,6944,7552,V V,0,7025,7026,0.595,0.595,0.35,0.595 V,0,7106,7107,0.5957,0.595,0.595,0.595 V,0,7189,7190,0.595,0.595,0.35,0.595 F,0,7248,7552,1,0 V,0,7268,7269,0.5957,0.595,0.595,0.595
Sprite,Background,Centre,"sb\btrfl2.png",239,440 S,0,7349,,0.504 R,0,7349,,-2.603659 S,0,7349,7429,0.595 M,1,7349,7957,264.6181,397.0615,277.4272,375.5923 P,0,7349,7957,H P,0,7349,7957,V V,0,7430,7431,0.595,0.595,0.35,0.595 V,0,7511,7512,0.5957,0.595,0.595,0.595 V,0,7594,7595,0.595,0.595,0.35,0.595 F,0,7653,7957,1,0 V,0,7673,7674,0.5957,0.595,0.595,0.595
Sprite,Background,Centre,"sb\btrfl2.png",351,231 S,0,8160,,0.504 R,0,8160,,-2.696743 S,0,8160,8240,0.595 M,1,8160,8768,372.5161,185.8662,383.2742,163.2993 P,0,8160,8768,H P,0,8160,8768,V V,0,8241,8242,0.595,0.595,0.35,0.595 V,0,8322,8323,0.5957,0.595,0.595,0.595 V,0,8405,8406,0.595,0.595,0.35,0.595 F,0,8464,8768,1,0 V,0,8484,8485,0.5957,0.595,0.595,0.595
Sprite,Background,Centre,"sb\btrfl2.png",115,239 S,0,8971,,0.504 R,0,8971,,-2.474027 S,0,8971,9051,0.595 M,1,8971,9579,145.9538,199.7335,161.4307,180.1002 P,0,8971,9579,H P,0,8971,9579,V V,0,9052,9053,0.595,0.595,0.35,0.595 V,0,9133,9134,0.5957,0.595,0.595,0.595 V,0,9216,9217,0.595,0.595,0.35,0.595 F,0,9275,9579,1,0 V,0,9295,9296,0.5957,0.595,0.595,0.595
Sprite,Background,Centre,"sb\btrfl2.png",84,320 S,0,9781,,0.504 R,0,9781,,-2.220214 S,0,9781,9861,0.595 M,1,9781,10389,123.8218,289.7639,143.7327,274.6458 P,0,9781,10389,H P,0,9781,10389,V V,0,9862,9863,0.595,0.595,0.35,0.595 V,0,9943,9944,0.5957,0.595,0.595,0.595 V,0,10026,10027,0.595,0.595,0.35,0.595 F,0,10085,10389,1,0 V,0,10105,10106,0.5957,0.595,0.595,0.595
Sprite,Background,Centre,"sb\btrfl2.png",101,153 S,0,10187,,0.504 R,0,10187,,-2.571836 S,0,10187,10267,0.595 M,1,10187,10795,127.9714,110.8984,141.4571,89.8476 P,0,10187,10795,H P,0,10187,10795,V V,0,10268,10269,0.595,0.595,0.35,0.595 V,0,10349,10350,0.5957,0.595,0.595,0.595 V,0,10432,10433,0.595,0.595,0.35,0.595 F,0,10491,10795,1,0 V,0,10511,10512,0.5957,0.595,0.595,0.595
Sprite,Background,Centre,"sb\btrfl2.png",170,307 S,0,10592,,0.504 R,0,10592,,-2.593636 S,0,10592,10672,0.595 M,1,10592,11200,196.0472,264.3205,209.0708,242.9807 P,0,10592,11200,H P,0,10592,11200,V V,0,10673,10674,0.595,0.595,0.35,0.595 V,0,10754,10755,0.5957,0.595,0.595,0.595 V,0,10837,10838,0.595,0.595,0.35,0.595 F,0,10896,11200,1,0 V,0,10916,10917,0.5957,0.595,0.595,0.595
Sprite,Background,Centre,"sb\btrfl2.png",283,129 S,0,11403,,0.504 R,0,11403,,-2.694331 S,0,11403,11483,0.595 M,1,11403,12011,304.6249,83.91825,315.4373,61.37737 P,0,11403,12011,H P,0,11403,12011,V V,0,11484,11485,0.595,0.595,0.35,0.595 V,0,11565,11566,0.5957,0.595,0.595,0.595 V,0,11648,11649,0.595,0.595,0.35,0.595 F,0,11707,12011,1,0 V,0,11727,11728,0.5957,0.595,0.595,0.595
Sprite,Background,Centre,"sb\btrfl2.png",170,219 S,0,12619,,0.504 R,0,12619,,-2.022838 S,0,12619,12699,0.595 M,1,12619,13227,214.9779,197.1599,237.4668,186.2398 P,0,12619,13227,H P,0,12619,13227,V V,0,12700,12701,0.595,0.595,0.35,0.595 V,0,12781,12782,0.5957,0.595,0.595,0.595 V,0,12864,12865,0.595,0.595,0.35,0.595 F,0,12923,13227,1,0 V,0,12943,12944,0.5957,0.595,0.595,0.595
Sprite,Background,Centre,"sb\btrfl2.png",334,262 S,0,13025,,0.504 R,0,13025,,-2.489959 S,0,13025,13105,0.595 M,1,13025,13633,364.3243,222.2453,379.4865,202.3679 P,0,13025,13633,H P,0,13025,13633,V V,0,13106,13107,0.595,0.595,0.35,0.595 V,0,13187,13188,0.5957,0.595,0.595,0.595 V,0,13270,13271,0.595,0.595,0.35,0.595 F,0,13329,13633,1,0 V,0,13349,13350,0.5957,0.595,0.595,0.595
Sprite,Background,Centre,"sb\btrfl2.png",320,182 S,0,13835,,0.504 R,0,13835,,-2.368399 S,0,13835,13915,0.595 M,1,13835,14443,354.9212,146.2158,372.3818,128.3237 P,0,13835,14443,H P,0,13835,14443,V V,0,13916,13917,0.595,0.595,0.35,0.595 V,0,13997,13998,0.5957,0.595,0.595,0.595 V,0,14080,14081,0.595,0.595,0.35,0.595 F,0,14139,14443,1,0 V,0,14159,14160,0.5957,0.595,0.595,0.595
Sprite,Background,Centre,"sb\btrfl2.png",352,425 S,0,14646,,0.504 R,0,14646,,-2.653813 S,0,14646,14726,0.595 M,1,14646,15254,375.4333,380.8312,387.1499,358.7468 P,0,14646,15254,H P,0,14646,15254,V V,0,14727,14728,0.595,0.595,0.35,0.595 V,0,14808,14809,0.5957,0.595,0.595,0.595 V,0,14891,14892,0.595,0.595,0.35,0.595 F,0,14950,15254,1,0 V,0,14970,14971,0.5957,0.595,0.595,0.595
Sprite,Background,Centre,"sb\btrfl2.png",458,198 S,0,15052,,0.504 R,0,15052,,-2.481334 S,0,15052,15132,0.595 M,1,15052,15660,488.666,158.5083,503.9991,138.7625 P,0,15052,15660,H P,0,15052,15660,V V,0,15133,15134,0.595,0.595,0.35,0.595 V,0,15214,15215,0.5957,0.595,0.595,0.595 V,0,15297,15298,0.595,0.595,0.35,0.595 F,0,15356,15660,1,0 V,0,15376,15377,0.5957,0.595,0.595,0.595
Sprite,Background,Centre,"sb\btrfl2.png",381,230 S,0,15255,,0.504 R,0,15255,,-2.382771 S,0,15255,15335,0.595 M,1,15255,15863,415.4034,193.7176,432.605,175.5765 P,0,15255,15863,H P,0,15255,15863,V V,0,15336,15337,0.595,0.595,0.35,0.595 V,0,15417,15418,0.5957,0.595,0.595,0.595 V,0,15500,15501,0.595,0.595,0.35,0.595 F,0,15559,15863,1,0 V,0,15579,15580,0.5957,0.595,0.595,0.595
Sprite,Background,Centre,"sb\btrfl2.png",390,147 S,0,15457,,0.504 R,0,15457,,-2.056777 S,0,15457,15537,0.595 M,1,15457,16065,434.2109,123.6462,456.3163,111.9693 P,0,15457,16065,H P,0,15457,16065,V V,0,15538,15539,0.595,0.595,0.35,0.595 V,0,15619,15620,0.5957,0.595,0.595,0.595 V,0,15702,15703,0.595,0.595,0.35,0.595 F,0,15761,16065,1,0 V,0,15781,15782,0.5957,0.595,0.595,0.595
Sprite,Background,Centre,"sb\btrfl2.png",540,191 S,0,15862,,0.504 R,0,15862,,-2.130987 S,0,15862,15942,0.595 M,1,15862,16470,582.3577,164.4326,603.5365,151.1489 P,0,15862,16470,H P,0,15862,16470,V V,0,15943,15944,0.595,0.595,0.35,0.595 V,0,16024,16025,0.5957,0.595,0.595,0.595 V,0,16107,16108,0.595,0.595,0.35,0.595 F,0,16166,16470,1,0 V,0,16186,16187,0.5957,0.595,0.595,0.595
Sprite,Background,Centre,"sb\btrfl2.png",386,348 S,0,16673,,0.504 R,0,16673,,-2.317329 S,0,16673,16753,0.595 M,1,16673,17281,422.7024,314.0451,441.0536,297.0677 P,0,16673,17281,H P,0,16673,17281,V V,0,16754,16755,0.595,0.595,0.35,0.595 V,0,16835,16836,0.5957,0.595,0.595,0.595 V,0,16918,16919,0.595,0.595,0.35,0.595 F,0,16977,17281,1,0 V,0,16997,16998,0.5957,0.595,0.595,0.595
Sprite,Background,Centre,"sb\btrfl2.png",291,223 S,0,17079,,0.504 R,0,17079,,-2.20802 S,0,17079,17159,0.595 M,1,17079,17687,331.1875,193.2517,351.2813,178.3775 P,0,17079,17687,H P,0,17079,17687,V V,0,17160,17161,0.595,0.595,0.35,0.595 V,0,17241,17242,0.5957,0.595,0.595,0.595 V,0,17324,17325,0.595,0.595,0.35,0.595 F,0,17383,17687,1,0 V,0,17403,17404,0.5957,0.595,0.595,0.595
Sprite,Background,Centre,"sb\btrfl2.png",231,368 S,0,18295,,0.504 R,0,18295,,-2.691981 S,0,18295,18375,0.595 M,1,18295,18903,252.7308,322.9692,263.5962,300.4538 P,0,18295,18903,H P,0,18295,18903,V V,0,18376,18377,0.595,0.595,0.35,0.595 V,0,18457,18458,0.5957,0.595,0.595,0.595 V,0,18540,18541,0.595,0.595,0.35,0.595 F,0,18599,18903,1,0 V,0,18619,18620,0.5957,0.595,0.595,0.595
Sprite,Background,Centre,"sb\btrfl2.png",183,305 S,0,18498,,0.504 R,0,18498,,-2.449888 S,0,18498,18578,0.595 M,1,18498,19106,214.8925,266.492,230.8388,247.238 P,0,18498,19106,H P,0,18498,19106,V V,0,18579,18580,0.595,0.595,0.35,0.595 V,0,18660,18661,0.5957,0.595,0.595,0.595 V,0,18743,18744,0.595,0.595,0.35,0.595 F,0,18802,19106,1,0 V,0,18822,18823,0.5957,0.595,0.595,0.595
Sprite,Background,Centre,"sb\btrfl2.png",153,379 S,0,18700,,0.504 R,0,18700,,-2.534075 S,0,18700,18780,0.595 M,1,18700,19308,181.5416,337.9466,195.8124,317.42 P,0,18700,19308,H P,0,18700,19308,V V,0,18781,18782,0.595,0.595,0.35,0.595 V,0,18862,18863,0.5957,0.595,0.595,0.595 V,0,18945,18946,0.595,0.595,0.35,0.595 F,0,19004,19308,1,0 V,0,19024,19025,0.5957,0.595,0.595,0.595
Sprite,Background,Centre,"sb\btrfl2.png",261,294 S,0,19106,,0.504 R,0,19106,,-2.021276 S,0,19106,19186,0.595 M,1,19106,19714,306.0119,272.2301,328.5179,261.3452 P,0,19106,19714,H P,0,19106,19714,V V,0,19187,19188,0.595,0.595,0.35,0.595 V,0,19268,19269,0.5957,0.595,0.595,0.595 V,0,19351,19352,0.595,0.595,0.35,0.595 F,0,19410,19714,1,0 V,0,19430,19431,0.5957,0.595,0.595,0.595
Sprite,Background,Centre,"sb\btrfl2.png",389,346 S,0,19511,,0.504 R,0,19511,,-2.266703 S,0,19511,19591,0.595 M,1,19511,20119,427.3736,313.9459,446.5605,297.9189 P,0,19511,20119,H P,0,19511,20119,V V,0,19592,19593,0.595,0.595,0.35,0.595 V,0,19673,19674,0.5957,0.595,0.595,0.595 V,0,19756,19757,0.595,0.595,0.35,0.595 F,0,19815,20119,1,0 V,0,19835,19836,0.5957,0.595,0.595,0.595
Sprite,Background,Centre,"sb\btrfl2.png",412,177 S,0,20322,,0.504 R,0,20322,,-2.240199 S,0,20322,20402,0.595 M,1,20322,20930,451.2096,145.9741,470.8144,130.4612 P,0,20322,20930,H P,0,20322,20930,V V,0,20403,20404,0.595,0.595,0.35,0.595 V,0,20484,20485,0.5957,0.595,0.595,0.595 V,0,20567,20568,0.595,0.595,0.35,0.595 F,0,20626,20930,1,0 V,0,20646,20647,0.5957,0.595,0.595,0.595
Sprite,Background,Centre,"sb\btrfl2.png",196,95 S,0,21133,,0.504 R,0,21133,,-2.670219 S,0,21133,21213,0.595 M,1,21133,21741,218.7056,50.45274,230.0583,28.17911 P,0,21133,21741,H P,0,21133,21741,V V,0,21214,21215,0.595,0.595,0.35,0.595 V,0,21295,21296,0.5957,0.595,0.595,0.595 V,0,21378,21379,0.595,0.595,0.35,0.595 F,0,21437,21741,1,0 V,0,21457,21458,0.5957,0.595,0.595,0.595
Sprite,Background,Centre,"sb\btrfl2.png",233,324 S,0,21944,,0.504 R,0,21944,,-2.35359 S,0,21944,22024,0.595 M,1,21944,22552,268.4473,288.7368,286.1709,271.1053 P,0,21944,22552,H P,0,21944,22552,V V,0,22025,22026,0.595,0.595,0.35,0.595 V,0,22106,22107,0.5957,0.595,0.595,0.595 V,0,22189,22190,0.595,0.595,0.35,0.595 F,0,22248,22552,1,0 V,0,22268,22269,0.5957,0.595,0.595,0.595
Sprite,Background,Centre,"sb\btrfl2.png",315,332 S,0,22754,,0.504 R,0,22754,,-2.501181 S,0,22754,22834,0.595 M,1,22754,23362,344.8763,291.9075,359.8144,271.8613 P,0,22754,23362,H P,0,22754,23362,V V,0,22835,22836,0.595,0.595,0.35,0.595 V,0,22916,22917,0.5957,0.595,0.595,0.595 V,0,22999,23000,0.595,0.595,0.35,0.595 F,0,23058,23362,1,0 V,0,23078,23079,0.5957,0.595,0.595,0.595
Sprite,Background,Centre,"sb\btrfl2.png",281,256 S,0,23565,,0.504 R,0,23565,,-2.08327 S,0,23565,23645,0.595 M,1,23565,24173,324.5767,231.4832,346.3651,219.2249 P,0,23565,24173,H P,0,23565,24173,V V,0,23646,23647,0.595,0.595,0.35,0.595 V,0,23727,23728,0.5957,0.595,0.595,0.595 V,0,23810,23811,0.595,0.595,0.35,0.595 F,0,23869,24173,1,0 V,0,23889,23890,0.5957,0.595,0.595,0.595
Sprite,Background,Centre,"sb\btrfl2.png",398,341 S,0,23971,,0.504 R,0,23971,,-2.191416 S,0,23971,24051,0.595 M,1,23971,24579,438.6759,311.923,459.0139,297.3846 P,0,23971,24579,H P,0,23971,24579,V V,0,24052,24053,0.595,0.595,0.35,0.595 V,0,24133,24134,0.5957,0.595,0.595,0.595 V,0,24216,24217,0.595,0.595,0.35,0.595 F,0,24275,24579,1,0 V,0,24295,24296,0.5957,0.595,0.595,0.595
Sprite,Background,Centre,"sb\btrfl2.png",232,323 S,0,24376,,0.504 R,0,24376,,-2.634969 S,0,24376,24456,0.595 M,1,24376,24984,256.2614,279.2806,268.3921,257.4209 P,0,24376,24984,H P,0,24376,24984,V V,0,24457,24458,0.595,0.595,0.35,0.595 V,0,24538,24539,0.5957,0.595,0.595,0.595 V,0,24621,24622,0.595,0.595,0.35,0.595 F,0,24680,24984,1,0 V,0,24700,24701,0.5957,0.595,0.595,0.595
Sprite,Background,Centre,"sb\btrfl2.png",364,265 S,0,24781,,0.504 R,0,24781,,-2.556336 S,0,24781,24861,0.595 M,1,24781,25389,391.6207,223.3215,405.431,202.4822 P,0,24781,25389,H P,0,24781,25389,V V,0,24862,24863,0.595,0.595,0.35,0.595 V,0,24943,24944,0.5957,0.595,0.595,0.595 V,0,25026,25027,0.595,0.595,0.35,0.595 F,0,25085,25389,1,0 V,0,25105,25106,0.5957,0.595,0.595,0.595
Sprite,Background,Centre,"sb\btrfl2.png",247,179 S,0,25187,,0.504 R,0,25187,,-2.236012 S,0,25187,25267,0.595 M,1,25187,25795,286.3392,148.1385,306.0088,132.7078 P,0,25187,25795,H P,0,25187,25795,V V,0,25268,25269,0.595,0.595,0.35,0.595 V,0,25349,25350,0.5957,0.595,0.595,0.595 V,0,25432,25433,0.595,0.595,0.35,0.595 F,0,25491,25795,1,0 V,0,25511,25512,0.5957,0.595,0.595,0.595
Sprite,Background,Centre,"sb\btrfl2.png",170,154 S,0,25998,,0.504 R,0,25998,,-2.320046 S,0,25998,26078,0.595 M,1,25998,26606,206.61,119.9455,224.915,102.9183 P,0,25998,26606,H P,0,25998,26606,V V,0,26079,26080,0.595,0.595,0.35,0.595 V,0,26160,26161,0.5957,0.595,0.595,0.595 V,0,26243,26244,0.595,0.595,0.35,0.595 F,0,26302,26606,1,0 V,0,26322,26323,0.5957,0.595,0.595,0.595
Sprite,Background,Centre,"sb\btrfl2.png",382,195 S,0,26808,,0.504 R,0,26808,,-2.102777 S,0,26808,26888,0.595 M,1,26808,27416,425.0902,169.6379,446.6353,156.9569 P,0,26808,27416,H P,0,26808,27416,V V,0,26889,26890,0.595,0.595,0.35,0.595 V,0,26970,26971,0.5957,0.595,0.595,0.595 V,0,27053,27054,0.595,0.595,0.35,0.595 F,0,27112,27416,1,0 V,0,27132,27133,0.5957,0.595,0.595,0.595
Sprite,Background,Centre,"sb\btrfl2.png",510,155 S,0,28025,,0.504 R,0,28025,,-2.15492 S,0,28025,28105,0.595 M,1,28025,28633,551.7098,127.4266,572.5646,113.6398 P,0,28025,28633,H P,0,28025,28633,V V,0,28106,28107,0.595,0.595,0.35,0.595 V,0,28187,28188,0.5957,0.595,0.595,0.595 V,0,28270,28271,0.595,0.595,0.35,0.595 F,0,28329,28633,1,0 V,0,28349,28350,0.5957,0.595,0.595,0.595
Sprite,Background,Centre,"sb\btrfl2.png",480,286 S,0,28430,,0.504 R,0,28430,,-2.287051 S,0,28430,28510,0.595 M,1,28430,29038,517.7135,253.1718,536.5703,236.7577 P,0,28430,29038,H P,0,28430,29038,V V,0,28511,28512,0.595,0.595,0.35,0.595 V,0,28592,28593,0.5957,0.595,0.595,0.595 V,0,28675,28676,0.595,0.595,0.35,0.595 F,0,28734,29038,1,0 V,0,28754,28755,0.5957,0.595,0.595,0.595
Sprite,Background,Centre,"sb\btrfl2.png",555,254 S,0,29241,,0.504 R,0,29241,,-2.503109 S,0,29241,29321,0.595 M,1,29241,29849,584.799,213.85,599.6984,193.775 P,0,29241,29849,H P,0,29241,29849,V V,0,29322,29323,0.595,0.595,0.35,0.595 V,0,29403,29404,0.5957,0.595,0.595,0.595 V,0,29486,29487,0.595,0.595,0.35,0.595 F,0,29545,29849,1,0 V,0,29565,29566,0.5957,0.595,0.595,0.595
Sprite,Background,Centre,"sb\btrfl2.png",223,237 S,0,30052,,0.504 R,0,30052,,-2.433881 S,0,30052,30132,0.595 M,1,30052,30660,255.5048,199.0074,271.7572,180.0111 P,0,30052,30660,H P,0,30052,30660,V V,0,30133,30134,0.595,0.595,0.35,0.595 V,0,30214,30215,0.5957,0.595,0.595,0.595 V,0,30297,30298,0.595,0.595,0.35,0.595 F,0,30356,30660,1,0 V,0,30376,30377,0.5957,0.595,0.595,0.595
Sprite,Background,Centre,"sb\btrfl2.png",319,165 S,0,31268,,0.504 R,0,31268,,-2.341578 S,0,31268,31348,0.595 M,1,31268,31876,354.8683,130.1652,372.8025,112.7478 P,0,31268,31876,H P,0,31268,31876,V V,0,31349,31350,0.595,0.595,0.35,0.595 V,0,31430,31431,0.5957,0.595,0.595,0.595 V,0,31513,31514,0.595,0.595,0.35,0.595 F,0,31572,31876,1,0 V,0,31592,31593,0.5957,0.595,0.595,0.595
Sprite,Background,Centre,"sb\btrfl2.png",319,262 S,0,31673,,0.504 R,0,31673,,-2.136439 S,0,31673,31753,0.595 M,1,31673,32281,361.2122,235.2021,382.3183,221.8031 P,0,31673,32281,H P,0,31673,32281,V V,0,31754,31755,0.595,0.595,0.35,0.595 V,0,31835,31836,0.5957,0.595,0.595,0.595 V,0,31918,31919,0.595,0.595,0.35,0.595 F,0,31977,32281,1,0 V,0,31997,31998,0.5957,0.595,0.595,0.595
Sprite,Background,Centre,"sb\btrfl2.png",319,69 S,0,32484,,0.504 R,0,32484,,-2.614734 S,0,32484,32564,0.595 M,1,32484,33092,344.141,25.78046,356.7115,4.170683 P,0,32484,33092,H P,0,32484,33092,V V,0,32565,32566,0.595,0.595,0.35,0.595 V,0,32646,32647,0.5957,0.595,0.595,0.595 V,0,32729,32730,0.595,0.595,0.35,0.595 F,0,32788,33092,1,0 V,0,32808,32809,0.5957,0.595,0.595,0.595
Sprite,Background,Centre,"sb\btrfl2.png",150,261 S,0,33295,,0.504 R,0,33295,,-2.577796 S,0,33295,33375,0.595 M,1,33295,33903,176.7199,218.7384,190.0799,197.6076 P,0,33295,33903,H P,0,33295,33903,V V,0,33376,33377,0.595,0.595,0.35,0.595 V,0,33457,33458,0.5957,0.595,0.595,0.595 V,0,33540,33541,0.595,0.595,0.35,0.595 F,0,33599,33903,1,0 V,0,33619,33620,0.5957,0.595,0.595,0.595
Sprite,Background,Centre,"sb\btrfl2.png",65,231 S,0,34106,,0.504 R,0,34106,,-2.514778 S,0,34106,34186,0.595 M,1,34106,34714,94.32838,190.505,108.9926,170.2575 P,0,34106,34714,H P,0,34106,34714,V V,0,34187,34188,0.595,0.595,0.35,0.595 V,0,34268,34269,0.5957,0.595,0.595,0.595 V,0,34351,34352,0.595,0.595,0.35,0.595 F,0,34410,34714,1,0 V,0,34430,34431,0.5957,0.595,0.595,0.595
Sprite,Background,Centre,"sb\btrfl2.png",219,203 S,0,34511,,0.504 R,0,34511,,-2.600754 S,0,34511,34591,0.595 M,1,34511,35119,244.7428,160.1362,257.6142,138.7042 P,0,34511,35119,H P,0,34511,35119,V V,0,34592,34593,0.595,0.595,0.35,0.595 V,0,34673,34674,0.5957,0.595,0.595,0.595 V,0,34756,34757,0.595,0.595,0.35,0.595 F,0,34815,35119,1,0 V,0,34835,34836,0.5957,0.595,0.595,0.595
Sprite,Background,Centre,"sb\btrfl2.png",270,263 S,0,34714,,0.504 R,0,34714,,-2.475824 S,0,34714,34794,0.595 M,1,34714,35322,300.8832,223.6779,316.3248,204.0168 P,0,34714,35322,H P,0,34714,35322,V V,0,34795,34796,0.595,0.595,0.35,0.595 V,0,34876,34877,0.5957,0.595,0.595,0.595 V,0,34959,34960,0.595,0.595,0.35,0.595 F,0,35018,35322,1,0 V,0,35038,35039,0.5957,0.595,0.595,0.595
Sprite,Background,Centre,"sb\btrfl2.png",297,189 S,0,34917,,0.504 R,0,34917,,-2.437406 S,0,34917,34997,0.595 M,1,34917,35525,329.3707,150.8931,345.556,131.8396 P,0,34917,35525,H P,0,34917,35525,V V,0,34998,34999,0.595,0.595,0.35,0.595 V,0,35079,35080,0.5957,0.595,0.595,0.595 V,0,35162,35163,0.595,0.595,0.35,0.595 F,0,35221,35525,1,0 V,0,35241,35242,0.5957,0.595,0.595,0.595
Sprite,Background,Centre,"sb\btrfl2.png",168,143 S,0,35322,,0.504 R,0,35322,,-2.152885 S,0,35322,35402,0.595 M,1,35322,35930,209.7658,115.5115,230.6487,101.7673 P,0,35322,35930,H P,0,35322,35930,V V,0,35403,35404,0.595,0.595,0.35,0.595 V,0,35484,35485,0.5957,0.595,0.595,0.595 V,0,35567,35568,0.595,0.595,0.35,0.595 F,0,35626,35930,1,0 V,0,35646,35647,0.5957,0.595,0.595,0.595
Sprite,Background,Centre,"sb\btrfl2.png",242,336 S,0,35727,,0.504 R,0,35727,,-2.626754 S,0,35727,35807,0.595 M,1,35727,36335,266.6197,292.4814,278.9296,270.7221 P,0,35727,36335,H P,0,35727,36335,V V,0,35808,35809,0.595,0.595,0.35,0.595 V,0,35889,35890,0.5957,0.595,0.595,0.595 V,0,35972,35973,0.595,0.595,0.35,0.595 F,0,36031,36335,1,0 V,0,36051,36052,0.5957,0.595,0.595,0.595
Sprite,Background,Centre,"sb\btrfl2.png",453,161 S,0,36538,,0.504 R,0,36538,,-2.627508 S,0,36538,36618,0.595 M,1,36538,37146,477.5869,117.4628,489.8804,95.69427 P,0,36538,37146,H P,0,36538,37146,V V,0,36619,36620,0.595,0.595,0.35,0.595 V,0,36700,36701,0.5957,0.595,0.595,0.595 V,0,36783,36784,0.595,0.595,0.35,0.595 F,0,36842,37146,1,0 V,0,36862,36863,0.5957,0.595,0.595,0.595
Sprite,Background,Centre,"sb\btrfl2.png",375,169 S,0,37552,,0.504 R,0,37552,,-2.060606 S,0,37552,37632,0.595 M,1,37552,38160,419.1211,145.4771,441.1817,133.7157 P,0,37552,38160,H P,0,37552,38160,V V,0,37633,37634,0.595,0.595,0.35,0.595 V,0,37714,37715,0.5957,0.595,0.595,0.595 V,0,37797,37798,0.595,0.595,0.35,0.595 F,0,37856,38160,1,0 V,0,37876,37877,0.5957,0.595,0.595,0.595
Sprite,Background,Centre,"sb\btrfl2.png",407,96 S,0,37755,,0.504 R,0,37755,,-2.587005 S,0,37755,37835,0.595 M,1,37755,38363,433.3296,53.49411,446.4944,32.24116 P,0,37755,38363,H P,0,37755,38363,V V,0,37836,37837,0.595,0.595,0.35,0.595 V,0,37917,37918,0.5957,0.595,0.595,0.595 V,0,38000,38001,0.595,0.595,0.35,0.595 F,0,38059,38363,1,0 V,0,38079,38080,0.5957,0.595,0.595,0.595
Sprite,Background,Centre,"sb\btrfl2.png",486,89 S,0,37958,,0.504 R,0,37958,,-2.1191 S,0,37958,38038,0.595 M,1,37958,38566,528.6705,62.93798,550.0057,49.90698 P,0,37958,38566,H P,0,37958,38566,V V,0,38039,38040,0.595,0.595,0.35,0.595 V,0,38120,38121,0.5957,0.595,0.595,0.595 V,0,38203,38204,0.595,0.595,0.35,0.595 F,0,38262,38566,1,0 V,0,38282,38283,0.5957,0.595,0.595,0.595
Sprite,Background,Centre,"sb\btrfl2.png",532,154 S,0,38160,,0.504 R,0,38160,,-2.450881 S,0,38160,38240,0.595 M,1,38160,38768,563.8543,115.4604,579.7814,96.19055 P,0,38160,38768,H P,0,38160,38768,V V,0,38241,38242,0.595,0.595,0.35,0.595 V,0,38322,38323,0.5957,0.595,0.595,0.595 V,0,38405,38406,0.595,0.595,0.35,0.595 F,0,38464,38768,1,0 V,0,38484,38485,0.5957,0.595,0.595,0.595
Sprite,Background,Centre,"sb\btrfl2.png",421,234 S,0,38564,,0.504 R,0,38564,,-2.57877 S,0,38564,38644,0.595 M,1,38564,39172,447.6788,191.7124,461.0182,170.5686 P,0,38564,39172,H P,0,38564,39172,V V,0,38645,38646,0.595,0.595,0.35,0.595 V,0,38726,38727,0.5957,0.595,0.595,0.595 V,0,38809,38810,0.595,0.595,0.35,0.595 F,0,38868,39172,1,0 V,0,38888,38889,0.5957,0.595,0.595,0.595
Sprite,Background,Centre,"sb\btrfl2.png",295,176 S,0,38971,,0.504 R,0,38971,,-2.153431 S,0,38971,39051,0.595 M,1,38971,39579,336.7508,148.4887,357.6262,134.733 P,0,38971,39579,H P,0,38971,39579,V V,0,39052,39053,0.595,0.595,0.35,0.595 V,0,39133,39134,0.5957,0.595,0.595,0.595 V,0,39216,39217,0.595,0.595,0.35,0.595 F,0,39275,39579,1,0 V,0,39295,39296,0.5957,0.595,0.595,0.595
Sprite,Background,Centre,"sb\btrfl2.png",155,226 S,0,39781,,0.504 R,0,39781,,-2.699981 S,0,39781,39861,0.595 M,1,39781,40389,176.3699,180.7968,187.0548,158.1952 P,0,39781,40389,H P,0,39781,40389,V V,0,39862,39863,0.595,0.595,0.35,0.595 V,0,39943,39944,0.5957,0.595,0.595,0.595 V,0,40026,40027,0.595,0.595,0.35,0.595 F,0,40085,40389,1,0 V,0,40105,40106,0.5957,0.595,0.595,0.595
Sprite,Background,Centre,"sb\btrfl2.png",268,322 S,0,40592,,0.504 R,0,40592,,-2.336956 S,0,40592,40672,0.595 M,1,40592,41200,304.0289,287.3314,322.0434,269.997 P,0,40592,41200,H P,0,40592,41200,V V,0,40673,40674,0.595,0.595,0.35,0.595 V,0,40754,40755,0.5957,0.595,0.595,0.595 V,0,40837,40838,0.595,0.595,0.35,0.595 F,0,40896,41200,1,0 V,0,40916,40917,0.5957,0.595,0.595,0.595
Sprite,Background,Centre,"sb\btrfl2.png",295,177 S,0,41403,,0.504 R,0,41403,,-2.456544 S,0,41403,41483,0.595 M,1,41403,42011,326.6356,138.2806,342.4533,118.9209 P,0,41403,42011,H P,0,41403,42011,V V,0,41484,41485,0.595,0.595,0.35,0.595 V,0,41565,41566,0.5957,0.595,0.595,0.595 V,0,41648,41649,0.595,0.595,0.35,0.595 F,0,41707,42011,1,0 V,0,41727,41728,0.5957,0.595,0.595,0.595
Sprite,Background,Centre,"sb\btrfl2.png",213,160 S,0,42214,,0.504 R,0,42214,,-2.503808 S,0,42214,42294,0.595 M,1,42214,42822,242.7708,119.8292,257.6563,99.74374 P,0,42214,42822,H P,0,42214,42822,V V,0,42295,42296,0.595,0.595,0.35,0.595 V,0,42376,42377,0.5957,0.595,0.595,0.595 V,0,42459,42460,0.595,0.595,0.35,0.595 F,0,42518,42822,1,0 V,0,42538,42539,0.5957,0.595,0.595,0.595
Sprite,Background,Centre,"sb\btrfl2.png",350,115 S,0,42619,,0.504 R,0,42619,,-2.566624 S,0,42619,42699,0.595 M,1,42619,43227,377.1904,73.03954,390.7856,52.05931 P,0,42619,43227,H P,0,42619,43227,V V,0,42700,42701,0.595,0.595,0.35,0.595 V,0,42781,42782,0.5957,0.595,0.595,0.595 V,0,42864,42865,0.595,0.595,0.35,0.595 F,0,42923,43227,1,0 V,0,42943,42944,0.5957,0.595,0.595,0.595
Sprite,Background,Centre,"sb\btrfl2.png",186,80 S,0,43025,,0.504 R,0,43025,,-2.070655 S,0,43025,43105,0.595 M,1,43025,43633,229.8825,56.03493,251.8238,44.0524 P,0,43025,43633,H P,0,43025,43633,V V,0,43106,43107,0.595,0.595,0.35,0.595 V,0,43187,43188,0.5957,0.595,0.595,0.595 V,0,43270,43271,0.595,0.595,0.35,0.595 F,0,43329,43633,1,0 V,0,43349,43350,0.5957,0.595,0.595,0.595
Sprite,Background,Centre,"sb\btrfl2.png",294,177 S,0,43430,,0.504 R,0,43430,,-2.510366 S,0,43430,43510,0.595 M,1,43430,44038,323.5068,136.6348,338.2602,116.4522 P,0,43430,44038,H P,0,43430,44038,V V,0,43511,43512,0.595,0.595,0.35,0.595 V,0,43592,43593,0.5957,0.595,0.595,0.595 V,0,43675,43676,0.595,0.595,0.35,0.595 F,0,43734,44038,1,0 V,0,43754,43755,0.5957,0.595,0.595,0.595
Sprite,Background,Centre,"sb\btrfl2.png",159,223 S,0,43835,,0.504 R,0,43835,,-2.502915 S,0,43835,43915,0.595 M,1,43835,44443,188.8067,182.8557,203.71,162.7836 P,0,43835,44443,H P,0,43835,44443,V V,0,43916,43917,0.595,0.595,0.35,0.595 V,0,43997,43998,0.5957,0.595,0.595,0.595 V,0,44080,44081,0.595,0.595,0.35,0.595 F,0,44139,44443,1,0 V,0,44159,44160,0.5957,0.595,0.595,0.595
Sprite,Background,Centre,"sb\btrfl2.png",268,98 S,0,44241,,0.504 R,0,44241,,-2.087869 S,0,44241,44321,0.595 M,1,44241,44849,311.4635,73.28312,333.1953,60.92467 P,0,44241,44849,H P,0,44241,44849,V V,0,44322,44323,0.595,0.595,0.35,0.595 V,0,44403,44404,0.5957,0.595,0.595,0.595 V,0,44486,44487,0.595,0.595,0.35,0.595 F,0,44545,44849,1,0 V,0,44565,44566,0.5957,0.595,0.595,0.595
Sprite,Background,Centre,"sb\btrfl2.png",319,255 S,0,44646,,0.504 R,0,44646,,-2.633623 S,0,44646,44726,0.595 M,1,44646,45254,343.3202,211.3133,355.4803,189.4699 P,0,44646,45254,H P,0,44646,45254,V V,0,44727,44728,0.595,0.595,0.35,0.595 V,0,44808,44809,0.5957,0.595,0.595,0.595 V,0,44891,44892,0.595,0.595,0.35,0.595 F,0,44950,45254,1,0 V,0,44970,44971,0.5957,0.595,0.595,0.595
Sprite,Background,Centre,"sb\btrfl2.png",294,177 S,0,45457,,0.504 R,0,45457,,-2.132387 S,0,45457,45537,0.595 M,1,45457,46065,336.3205,150.3734,357.4807,137.06 P,0,45457,46065,H P,0,45457,46065,V V,0,45538,45539,0.595,0.595,0.35,0.595 V,0,45619,45620,0.5957,0.595,0.595,0.595 V,0,45702,45703,0.595,0.595,0.35,0.595 F,0,45761,46065,1,0 V,0,45781,45782,0.5957,0.595,0.595,0.595
Sprite,Background,Centre,"sb\btrfl2.png",477,388 S,0,46268,,0.504 R,0,46268,,-2.333767 S,0,46268,46348,0.595 M,1,46268,46876,513.1393,353.4464,531.209,336.1696 P,0,46268,46876,H P,0,46268,46876,V V,0,46349,46350,0.595,0.595,0.35,0.595 V,0,46430,46431,0.5957,0.595,0.595,0.595 V,0,46513,46514,0.595,0.595,0.35,0.595 F,0,46572,46876,1,0 V,0,46592,46593,0.5957,0.595,0.595,0.595
Sprite,Background,Centre,"sb\btrfl2.png",488,108 S,0,47079,,0.504 R,0,47079,,-2.378557 S,0,47079,47159,0.595 M,1,47079,47687,522.556,71.86295,539.8339,53.79441 P,0,47079,47687,H P,0,47079,47687,V V,0,47160,47161,0.595,0.595,0.35,0.595 V,0,47241,47242,0.5957,0.595,0.595,0.595 V,0,47324,47325,0.595,0.595,0.35,0.595 F,0,47383,47687,1,0 V,0,47403,47404,0.5957,0.595,0.595,0.595
Sprite,Background,Centre,"sb\btrfl2.png",363,172 S,0,47484,,0.504 R,0,47484,,-2.22785 S,0,47484,47564,0.595 M,1,47484,48092,402.5898,141.4606,422.3846,126.191 P,0,47484,48092,H P,0,47484,48092,V V,0,47565,47566,0.595,0.595,0.35,0.595 V,0,47646,47647,0.5957,0.595,0.595,0.595 V,0,47729,47730,0.595,0.595,0.35,0.595 F,0,47788,48092,1,0 V,0,47808,47809,0.5957,0.595,0.595,0.595
Sprite,Background,Centre,"sb\btrfl2.png",287,165 S,0,47687,,0.504 R,0,47687,,-2.469726 S,0,47687,47767,0.595 M,1,47687,48295,318.1224,125.867,333.6836,106.3004 P,0,47687,48295,H P,0,47687,48295,V V,0,47768,47769,0.595,0.595,0.35,0.595 V,0,47849,47850,0.5957,0.595,0.595,0.595 V,0,47932,47933,0.595,0.595,0.35,0.595 F,0,47991,48295,1,0 V,0,48011,48012,0.5957,0.595,0.595,0.595
Sprite,Background,Centre,"sb\btrfl2.png",332,99 S,0,47890,,0.504 R,0,47890,,-2.327878 S,0,47890,47970,0.595 M,1,47890,48498,368.3422,64.65983,386.5132,47.48974 P,0,47890,48498,H P,0,47890,48498,V V,0,47971,47972,0.595,0.595,0.35,0.595 V,0,48052,48053,0.5957,0.595,0.595,0.595 V,0,48135,48136,0.595,0.595,0.35,0.595 F,0,48194,48498,1,0 V,0,48214,48215,0.5957,0.595,0.595,0.595
Sprite,Background,Centre,"sb\btrfl2.png",318,236 S,0,48295,,0.504 R,0,48295,,-2.583448 S,0,48295,48375,0.595 M,1,48295,48903,344.4807,193.588,357.721,172.3821 P,0,48295,48903,H P,0,48295,48903,V V,0,48376,48377,0.595,0.595,0.35,0.595 V,0,48457,48458,0.5957,0.595,0.595,0.595 V,0,48540,48541,0.595,0.595,0.35,0.595 F,0,48599,48903,1,0 V,0,48619,48620,0.5957,0.595,0.595,0.595
Sprite,Background,Centre,"sb\btrfl2.png",160,154 S,0,48700,,0.504 R,0,48700,,-2.566443 S,0,48700,48780,0.595 M,1,48700,49308,187.198,112.0445,200.797,91.0667 P,0,48700,49308,H P,0,48700,49308,V V,0,48781,48782,0.595,0.595,0.35,0.595 V,0,48862,48863,0.5957,0.595,0.595,0.595 V,0,48945,48946,0.595,0.595,0.35,0.595 F,0,49004,49308,1,0 V,0,49024,49025,0.5957,0.595,0.595,0.595
Sprite,Background,Centre,"sb\btrfl2.png",295,364 S,0,49511,,0.504 R,0,49511,,-2.555541 S,0,49511,49591,0.595 M,1,49511,50119,322.6538,322.3434,336.4807,301.5152 P,0,49511,50119,H P,0,49511,50119,V V,0,49592,49593,0.595,0.595,0.35,0.595 V,0,49673,49674,0.5957,0.595,0.595,0.595 V,0,49756,49757,0.595,0.595,0.35,0.595 F,0,49815,50119,1,0 V,0,49835,49836,0.5957,0.595,0.595,0.595
Sprite,Background,Centre,"sb\btrfl2.png",482,318 S,0,50727,,0.504 R,0,50727,,-2.535154 S,0,50727,50807,0.595 M,1,50727,51335,510.4972,276.9158,524.7458,256.3738 P,0,50727,51335,H P,0,50727,51335,V V,0,50808,50809,0.595,0.595,0.35,0.595 V,0,50889,50890,0.5957,0.595,0.595,0.595 V,0,50972,50973,0.595,0.595,0.35,0.595 F,0,51031,51335,1,0 V,0,51051,51052,0.5957,0.595,0.595,0.595
Sprite,Background,Centre,"sb\btrfl2.png",446,249 S,0,50930,,0.504 R,0,50930,,-2.656278 S,0,50930,51010,0.595 M,1,50930,51538,469.3243,204.7736,480.9865,182.6604 P,0,50930,51538,H P,0,50930,51538,V V,0,51011,51012,0.595,0.595,0.35,0.595 V,0,51092,51093,0.5957,0.595,0.595,0.595 V,0,51175,51176,0.595,0.595,0.35,0.595 F,0,51234,51538,1,0 V,0,51254,51255,0.5957,0.595,0.595,0.595
Sprite,Background,Centre,"sb\btrfl2.png",525,252 S,0,51133,,0.504 R,0,51133,,-2.206498 S,0,51133,51213,0.595 M,1,51133,51741,565.2328,222.3129,585.3492,207.4693 P,0,51133,51741,H P,0,51133,51741,V V,0,51214,51215,0.595,0.595,0.35,0.595 V,0,51295,51296,0.5957,0.595,0.595,0.595 V,0,51378,51379,0.595,0.595,0.35,0.595 F,0,51437,51741,1,0 V,0,51457,51458,0.5957,0.595,0.595,0.595
Sprite,Background,Centre,"sb\btrfl2.png",403,315 S,0,51538,,0.504 R,0,51538,,-2.36595 S,0,51538,51618,0.595 M,1,51538,52146,438.0088,279.3015,455.5132,261.4522 P,0,51538,52146,H P,0,51538,52146,V V,0,51619,51620,0.595,0.595,0.35,0.595 V,0,51700,51701,0.5957,0.595,0.595,0.595 V,0,51783,51784,0.595,0.595,0.35,0.595 F,0,51842,52146,1,0 V,0,51862,51863,0.5957,0.595,0.595,0.595
Sprite,Background,Centre,"sb\btrfl2.png",373,158 S,0,51944,,0.504 R,0,51944,,-2.464375 S,0,51944,52024,0.595 M,1,51944,52552,404.3314,119.034,419.997,99.55106 P,0,51944,52552,H P,0,51944,52552,V V,0,52025,52026,0.595,0.595,0.35,0.595 V,0,52106,52107,0.5957,0.595,0.595,0.595 V,0,52189,52190,0.595,0.595,0.35,0.595 F,0,52248,52552,1,0 V,0,52268,52269,0.5957,0.595,0.595,0.595
Sprite,Background,Centre,"sb\btrfl2.png",347,69 S,0,52754,,0.504 R,0,52754,,-2.232812 S,0,52754,52834,0.595 M,1,52754,53362,386.4377,38.26459,406.1566,22.89688 P,0,52754,53362,H P,0,52754,53362,V V,0,52835,52836,0.595,0.595,0.35,0.595 V,0,52916,52917,0.5957,0.595,0.595,0.595 V,0,52999,53000,0.595,0.595,0.35,0.595 F,0,53058,53362,1,0 V,0,53078,53079,0.5957,0.595,0.595,0.595
Sprite,Background,Centre,"sb\btrfl2.png",438,317 S,0,53565,,0.504 R,0,53565,,-2.200706 S,0,53565,53645,0.595 M,1,53565,54173,478.4041,287.5464,498.6061,272.8196 P,0,53565,54173,H P,0,53565,54173,V V,0,53646,53647,0.595,0.595,0.35,0.595 V,0,53727,53728,0.5957,0.595,0.595,0.595 V,0,53810,53811,0.595,0.595,0.35,0.595 F,0,53869,54173,1,0 V,0,53889,53890,0.5957,0.595,0.595,0.595
Sprite,Background,Centre,"sb\btrfl2.png",179,271 S,0,54376,,0.504 R,0,54376,,-2.574427 S,0,54376,54456,0.595 M,1,54376,54984,205.8622,228.8286,219.2933,207.743 P,0,54376,54984,H P,0,54376,54984,V V,0,54457,54458,0.595,0.595,0.35,0.595 V,0,54538,54539,0.5957,0.595,0.595,0.595 V,0,54621,54622,0.595,0.595,0.35,0.595 F,0,54680,54984,1,0 V,0,54700,54701,0.5957,0.595,0.595,0.595
Sprite,Background,Centre,"sb\btrfl2.png",145,192 S,0,55187,,0.504 R,0,55187,,-2.155762 S,0,55187,55267,0.595 M,1,55187,55795,186.6865,164.3914,207.5298,150.5872 P,0,55187,55795,H P,0,55187,55795,V V,0,55268,55269,0.595,0.595,0.35,0.595 V,0,55349,55350,0.5957,0.595,0.595,0.595 V,0,55432,55433,0.595,0.595,0.35,0.595 F,0,55491,55795,1,0 V,0,55511,55512,0.5957,0.595,0.595,0.595
Sprite,Background,Centre,"sb\btrfl2.png",230,202 S,0,55998,,0.504 R,0,55998,,-2.13081 S,0,55998,56078,0.595 M,1,55998,56606,272.3624,175.4401,293.5436,162.1602 P,0,55998,56606,H P,0,55998,56606,V V,0,56079,56080,0.595,0.595,0.35,0.595 V,0,56160,56161,0.5957,0.595,0.595,0.595 V,0,56243,56244,0.595,0.595,0.35,0.595 F,0,56302,56606,1,0 V,0,56322,56323,0.5957,0.595,0.595,0.595
Sprite,Background,Centre,"sb\btrfl2.png",76,140 S,0,56403,,0.504 R,0,56403,,-2.047963 S,0,56403,56483,0.595 M,1,56403,57011,120.415,117.0368,142.6225,105.5552 P,0,56403,57011,H P,0,56403,57011,V V,0,56484,56485,0.595,0.595,0.35,0.595 V,0,56565,56566,0.5957,0.595,0.595,0.595 V,0,56648,56649,0.595,0.595,0.35,0.595 F,0,56707,57011,1,0 V,0,56727,56728,0.5957,0.595,0.595,0.595
Sprite,Background,Centre,"sb\btrfl2.png",240,117 S,0,56808,,0.504 R,0,56808,,-2.437236 S,0,56808,56888,0.595 M,1,56808,57416,272.3772,78.89859,288.5658,59.84788 P,0,56808,57416,H P,0,56808,57416,V V,0,56889,56890,0.595,0.595,0.35,0.595 V,0,56970,56971,0.5957,0.595,0.595,0.595 V,0,57053,57054,0.595,0.595,0.35,0.595 F,0,57112,57416,1,0 V,0,57132,57133,0.5957,0.595,0.595,0.595
Sprite,Background,Centre,"sb\btrfl2.png",179,271 S,0,57214,,0.504 R,0,57214,,-2.485132 S,0,57214,57294,0.595 M,1,57214,57822,209.5159,231.3922,224.7738,211.5882 P,0,57214,57822,H P,0,57214,57822,V V,0,57295,57296,0.595,0.595,0.35,0.595 V,0,57376,57377,0.5957,0.595,0.595,0.595 V,0,57459,57460,0.595,0.595,0.35,0.595 F,0,57518,57822,1,0 V,0,57538,57539,0.5957,0.595,0.595,0.595
Sprite,Background,Centre,"sb\btrfl2.png",345,219 S,0,57619,,0.504 R,0,57619,,-2.441276 S,0,57619,57699,0.595 M,1,57619,58227,377.223,180.7681,393.3345,161.6521 P,0,57619,58227,H P,0,57619,58227,V V,0,57700,57701,0.595,0.595,0.35,0.595 V,0,57781,57782,0.5957,0.595,0.595,0.595 V,0,57864,57865,0.595,0.595,0.35,0.595 F,0,57923,58227,1,0 V,0,57943,57944,0.5957,0.595,0.595,0.595
Sprite,Background,Centre,"sb\btrfl2.png",448,389 S,0,58430,,0.504 R,0,58430,,-2.649346 S,0,58430,58510,0.595 M,1,58430,59038,471.6303,344.9363,483.4455,322.9045 P,0,58430,59038,H P,0,58430,59038,V V,0,58511,58512,0.595,0.595,0.35,0.595 V,0,58592,58593,0.5957,0.595,0.595,0.595 V,0,58675,58676,0.595,0.595,0.35,0.595 F,0,58734,59038,1,0 V,0,58754,58755,0.5957,0.595,0.595,0.595
Sprite,Background,Centre,"sb\btrfl2.png",228,256 S,0,59241,,0.504 R,0,59241,,-2.154939 S,0,59241,59321,0.595 M,1,59241,59849,269.7093,228.4258,290.5639,214.6386 P,0,59241,59849,H P,0,59241,59849,V V,0,59322,59323,0.595,0.595,0.35,0.595 V,0,59403,59404,0.5957,0.595,0.595,0.595 V,0,59486,59487,0.595,0.595,0.35,0.595 F,0,59545,59849,1,0 V,0,59565,59566,0.5957,0.595,0.595,0.595
Sprite,Background,Centre,"sb\btrfl2.png",169,113 S,0,60457,,0.504 R,0,60457,,-2.650095 S,0,60457,60537,0.595 M,1,60457,61065,192.5973,68.91864,204.396,46.87796 P,0,60457,61065,H P,0,60457,61065,V V,0,60538,60539,0.595,0.595,0.35,0.595 V,0,60619,60620,0.5957,0.595,0.595,0.595 V,0,60702,60703,0.595,0.595,0.35,0.595 F,0,60761,61065,1,0 V,0,60781,60782,0.5957,0.595,0.595,0.595
Sprite,Background,Centre,"sb\btrfl2.png",92,242 S,0,60862,,0.504 R,0,60862,,-2.046565 S,0,60862,60942,0.595 M,1,60862,61470,136.447,219.0989,158.6706,207.6483 P,0,60862,61470,H P,0,60862,61470,V V,0,60943,60944,0.595,0.595,0.35,0.595 V,0,61024,61025,0.5957,0.595,0.595,0.595 V,0,61107,61108,0.595,0.595,0.35,0.595 F,0,61166,61470,1,0 V,0,61186,61187,0.5957,0.595,0.595,0.595
Sprite,Background,Centre,"sb\btrfl2.png",373,235 S,0,61701,,0.504 R,0,61701,,-2.630073 S,0,61701,61781,0.595 M,1,61701,62309,397.4752,191.3999,409.7127,169.5999 P,0,61701,62309,H P,0,61701,62309,V V,0,61782,61783,0.595,0.595,0.35,0.595 V,0,61863,61864,0.5957,0.595,0.595,0.595 V,0,61946,61947,0.595,0.595,0.35,0.595 F,0,62005,62309,1,0 V,0,62025,62026,0.5957,0.595,0.595,0.595
Sprite,Background,Centre,"sb\btrfl2.png",306,298 S,0,62589,,0.504 R,0,62589,,-2.474954 S,0,62589,62669,0.595 M,1,62589,63197,336.9174,258.7048,352.3761,239.0572 P,0,62589,63197,H P,0,62589,63197,V V,0,62670,62671,0.595,0.595,0.35,0.595 V,0,62751,62752,0.5957,0.595,0.595,0.595 V,0,62834,62835,0.595,0.595,0.35,0.595 F,0,62893,63197,1,0 V,0,62913,62914,0.5957,0.595,0.595,0.595
Sprite,Background,Centre,"sb\btrfl2.png",284,208 S,0,63550,,0.504 R,0,63550,,-2.065785 S,0,63550,63630,0.595 M,1,63550,64158,327.9987,184.2489,349.9981,172.3734 P,0,63550,64158,H P,0,63550,64158,V V,0,63631,63632,0.595,0.595,0.35,0.595 V,0,63712,63713,0.5957,0.595,0.595,0.595 V,0,63795,63796,0.595,0.595,0.35,0.595 F,0,63854,64158,1,0 V,0,63874,63875,0.5957,0.595,0.595,0.595
Sprite,Background,Centre,"sb\btrfl2.png",373,235 S,0,64640,,0.504 R,0,64640,,-2.104368 S,0,64640,64720,0.595 M,1,64640,65248,416.0498,209.5694,437.5747,196.8541 P,0,64640,65248,H P,0,64640,65248,V V,0,64721,64722,0.595,0.595,0.35,0.595 V,0,64802,64803,0.5957,0.595,0.595,0.595 V,0,64885,64886,0.595,0.595,0.35,0.595 F,0,64944,65248,1,0 V,0,64964,64965,0.5957,0.595,0.595,0.595
Sprite,Background,Centre,"sb\flame.png",160,191 S,0,52,,1.6 F,2,52,252,1,0
Sprite,Background,Centre,"sb\flame.png",447,364 S,0,863,,1.6 M,0,863,913,447,364,447.5869,346.5099 F,2,863,1468,1,0 M,0,913,964,447.5869,346.5099,448.1738,329.0197 M,0,964,1015,448.1738,329.0197,448.7607,311.5295 M,0,1015,1065,448.7607,311.5295,449.3477,294.0394 M,0,1065,1116,449.3477,294.0394,449.9346,276.5492 M,0,1116,1167,449.9346,276.5492,450.5215,259.0591 M,0,1167,1217,450.5215,259.0591,451.1084,241.5689 M,0,1217,1268,451.1084,241.5689,451.6953,224.0788
Sprite,Background,Centre,"sb\flame.png",313,134 S,0,1673,,1.6 F,2,1673,1873,1,0
Sprite,Background,Centre,"sb\flame.png",305,298 S,0,2079,,1.6 F,2,2079,2279,1,0
Sprite,Background,Centre,"sb\flame.png",350,230 S,0,2281,,1.6 F,2,2281,2481,1,0
Sprite,Background,Centre,"sb\flame.png",269,226 S,0,2484,,1.6 F,2,2484,2684,1,0
Sprite,Background,Centre,"sb\flame.png",386,302 S,0,2890,,1.6 F,2,2890,3090,1,0
Sprite,Background,Centre,"sb\flame.png",224,294 S,0,3295,,1.6 M,0,3295,3345,224,294,210.3473,283.1359 F,2,3295,3900,1,0 M,0,3345,3396,210.3473,283.1359,199.3328,269.6292 M,0,3396,3447,199.3328,269.6292,191.4542,254.1012 M,0,3447,3497,191.4542,254.1012,187.0661,237.2637 M,0,3497,3548,187.0661,237.2637,186.365,219.8871 M,0,3548,3599,186.365,219.8871,189.3799,202.7653 M,0,3599,3649,189.3799,202.7653,195.6523,186.5127 M,0,3649,3700,195.6523,186.5127,205.6498,172.2227
Sprite,Background,Centre,"sb\flame.png",431,234 S,0,4106,,1.6 M,0,4106,4156,431,234,430.1842,251.481 F,2,4106,5116,1,0 M,0,4156,4207,430.1842,251.481,429.3684,268.9619 M,0,4207,4258,429.3684,268.9619,428.5527,286.4429 M,0,4258,4308,428.5527,286.4429,427.7369,303.9239 M,0,4308,4359,427.7369,303.9239,426.9211,321.4049 M,0,4359,4410,426.9211,321.4049,426.1053,338.8859 M,0,4410,4460,426.1053,338.8859,425.2896,356.3668 M,0,4460,4511,425.2896,356.3668,424.4738,373.8478 M,0,4511,4562,424.4738,373.8478,425.2896,356.3668 M,0,4562,4612,425.2896,356.3668,426.1053,338.8859 M,0,4612,4663,426.1053,338.8859,426.9211,321.4049 M,0,4663,4714,426.9211,321.4049,427.7369,303.9239 M,0,4714,4764,427.7369,303.9239,428.5527,286.4429 M,0,4764,4815,428.5527,286.4429,429.3684,268.9619 M,0,4815,4866,429.3684,268.9619,430.1842,251.481 M,0,4866,4916,430.1842,251.481,431,234
Sprite,Background,Centre,"sb\flame.png",512,238 S,0,5120,,1.6 F,2,5120,5320,1,0
Sprite,Background,Centre,"sb\flame.png",475,166 S,0,5322,,1.6 F,2,5322,5522,1,0
Sprite,Background,Centre,"sb\flame.png",394,162 S,0,5525,,1.6 F,2,5525,5725,1,0
Sprite,Background,Centre,"sb\flame.png",351,231 S,0,5728,,1.6 F,2,5728,5928,1,0
Sprite,Background,Centre,"sb\flame.png",356,368 S,0,6133,,1.6 F,2,6133,6333,1,0
Sprite,Background,Centre,"sb\flame.png",234,303 S,0,6538,,1.6 F,2,6538,6738,1,0
Sprite,Background,Centre,"sb\flame.png",351,231 S,0,6944,,1.6 F,2,6944,7144,1,0
Sprite,Background,Centre,"sb\flame.png",239,440 S,0,7349,,1.6 M,0,7349,7399,239,440,221.5,426.875 F,2,7349,7954,1,0 M,0,7399,7450,221.5,426.875,204,413.75 M,0,7450,7501,204,413.75,191.0242,397.1469 M,0,7501,7551,191.0242,397.1469,182.8387,376.8611 M,0,7551,7602,182.8387,376.8611,174.6532,356.5753 M,0,7602,7653,174.6532,356.5753,160.5189,340.6851 M,0,7653,7703,160.5189,340.6851,143.5316,326.903 M,0,7703,7754,143.5316,326.903,126.5443,313.1208
Sprite,Background,Centre,"sb\flame.png",351,231 S,0,8160,,1.6 M,0,8160,8210,351,231,348.1879,252.6935 F,2,8160,8765,1,0 M,0,8210,8261,348.1879,252.6935,345.3758,274.387 M,0,8261,8312,345.3758,274.387,337.1528,293.8293 M,0,8312,8362,337.1528,293.8293,323.7473,311.1153 M,0,8362,8413,323.7473,311.1153,310.3418,328.4014 M,0,8413,8464,310.3418,328.4014,303.6039,348.5947 M,0,8464,8514,303.6039,348.5947,300.0599,370.1808 M,0,8514,8565,300.0599,370.1808,296.5159,391.7668
Sprite,Background,Centre,"sb\flame.png",115,239 S,0,8971,,1.6 M,0,8971,9021,115,239,135.0225,230.1901 F,2,8971,9576,1,0 M,0,9021,9072,135.0225,230.1901,155.045,221.3802 M,0,9072,9123,155.045,221.3802,175.9056,218.4302 M,0,9123,9173,175.9056,218.4302,197.5949,221.2747 M,0,9173,9224,197.5949,221.2747,219.2841,224.1192 M,0,9224,9275,219.2841,224.1192,240.1401,219.6975 M,0,9275,9325,240.1401,219.6975,260.6223,212.0166 M,0,9325,9376,260.6223,212.0166,281.1045,204.3358
Sprite,Background,Centre,"sb\flame.png",84,320 S,0,9781,,1.6 F,2,9781,9981,1,0
Sprite,Background,Centre,"sb\flame.png",101,153 S,0,10187,,1.6 F,2,10187,10387,1,0
Sprite,Background,Centre,"sb\flame.png",170,307 S,0,10592,,1.6 M,0,10592,10642,170,307,180.3245,321.0764 F,2,10592,11197,1,0 M,0,10642,10693,180.3245,321.0764,193.1979,332.8438 M,0,10693,10744,193.1979,332.8438,208.1184,341.8503 M,0,10744,10794,208.1184,341.8503,224.5058,347.7511 M,0,10794,10845,224.5058,347.7511,241.7244,350.3208 M,0,10845,10896,241.7244,350.3208,259.1069,349.4625 M,0,10896,10946,259.1069,349.4625,275.98,345.211 M,0,10946,10997,275.98,345.211,291.8636,338.0245
Sprite,Background,Centre,"sb\flame.png",283,129 S,0,11403,,1.6 M,0,11403,11453,283,129,279.9587,146.2337 F,2,11403,12413,1,0 M,0,11453,11504,279.9587,146.2337,276.9175,163.4674 M,0,11504,11555,276.9175,163.4674,273.6361,180.612 M,0,11555,11605,273.6361,180.612,264.6923,195.6538 M,0,11605,11656,264.6923,195.6538,255.7485,210.6957 M,0,11656,11707,255.7485,210.6957,250.6565,227.0763 M,0,11707,11757,250.6565,227.0763,248.3436,244.4228 M,0,11757,11808,248.3436,244.4228,246.0308,261.7693 M,0,11808,11859,246.0308,261.7693,248.3436,244.4228 M,0,11859,11909,248.3436,244.4228,250.6565,227.0763 M,0,11909,11960,250.6565,227.0763,255.7485,210.6957 M,0,11960,12011,255.7485,210.6957,264.6923,195.6538 M,0,12011,12061,264.6923,195.6538,273.6361,180.612 M,0,12061,12112,273.6361,180.612,276.9175,163.4674 M,0,12112,12163,276.9175,163.4674,279.9587,146.2337 M,0,12163,12213,279.9587,146.2337,283,129
Sprite,Background,Centre,"sb\flame.png",170,219 S,0,12619,,1.6 F,2,12619,12819,1,0
Sprite,Background,Centre,"sb\flame.png",334,262 S,0,13025,,1.6 M,0,13025,13075,334,262,351.3649,264.1706 F,2,13025,13630,1,0 M,0,13075,13126,351.3649,264.1706,368.7297,266.3412 M,0,13126,13177,368.7297,266.3412,386.0755,265.3426 M,0,13177,13227,386.0755,265.3426,403.413,262.9629 M,0,13227,13278,403.413,262.9629,420.7504,260.5833 M,0,13278,13329,420.7504,260.5833,438.0879,258.2036 M,0,13329,13379,438.0879,258.2036,455.4253,255.824 M,0,13379,13430,455.4253,255.824,472.7628,253.4443
Sprite,Background,Centre,"sb\flame.png",320,182 S,0,13835,,1.6 M,0,13835,13885,320,182,303.3304,187.1667 F,2,13835,14440,1,0 M,0,13885,13936,303.3304,187.1667,288.142,195.7293 M,0,13936,13987,288.142,195.7293,275.1152,207.2973 M,0,13987,14037,275.1152,207.2973,264.8329,221.3461 M,0,14037,14088,264.8329,221.3461,257.7543,237.2409 M,0,14088,14139,257.7543,237.2409,254.1948,254.2647 M,0,14139,14189,254.1948,254.2647,254.3119,271.6507 M,0,14189,14240,254.3119,271.6507,258.0987,288.6161
Sprite,Background,Centre,"sb\flame.png",352,425 S,0,14646,,1.6 F,2,14646,14846,1,0
Sprite,Background,Centre,"sb\flame.png",458,198 S,0,15052,,1.6 F,2,15052,15252,1,0
Sprite,Background,Centre,"sb\flame.png",381,230 S,0,15255,,1.6 F,2,15255,15455,1,0
Sprite,Background,Centre,"sb\flame.png",390,147 S,0,15457,,1.6 F,2,15457,15657,1,0
Sprite,Background,Centre,"sb\flame.png",540,191 S,0,15862,,1.6 M,0,15862,15912,540,191,541.7765,208.4096 F,2,15862,16467,1,0 M,0,15912,15963,541.7765,208.4096,543.553,225.8192 M,0,15963,16014,543.553,225.8192,544.3496,243.1797 M,0,16014,16064,544.3496,243.1797,540.8427,260.3247 M,0,16064,16115,540.8427,260.3247,537.3357,277.4697 M,0,16115,16166,537.3357,277.4697,537.0176,294.7867 M,0,16166,16216,537.0176,294.7867,538.6613,312.2093 M,0,16216,16267,538.6613,312.2093,540.3049,329.6319
Sprite,Background,Centre,"sb\flame.png",386,348 S,0,16673,,1.6 F,2,16673,16873,1,0
Sprite,Background,Centre,"sb\flame.png",291,223 S,0,17079,,1.6 M,0,17079,17129,291,223,292.8911,205.6025 F,2,17079,18089,1,0 M,0,17129,17180,292.8911,205.6025,294.7821,188.2049 M,0,17180,17231,294.7821,188.2049,294.7517,170.8973 M,0,17231,17281,294.7517,170.8973,291.2448,153.7523 M,0,17281,17332,291.2448,153.7523,287.7379,136.6073 M,0,17332,17383,287.7379,136.6073,288.4316,119.2563 M,0,17383,17433,288.4316,119.2563,290.2448,101.8505 M,0,17433,17484,290.2448,101.8505,292,85 M,0,17484,17535,292,85,290.2448,101.8505 M,0,17535,17585,290.2448,101.8505,288.4316,119.2563 M,0,17585,17636,288.4316,119.2563,287.7379,136.6073 M,0,17636,17687,287.7379,136.6073,291.2448,153.7523 M,0,17687,17737,291.2448,153.7523,294.7517,170.8973 M,0,17737,17788,294.7517,170.8973,294.7821,188.2049 M,0,17788,17839,294.7821,188.2049,292.8911,205.6025 M,0,17839,17889,292.8911,205.6025,291,223
Sprite,Background,Centre,"sb\flame.png",231,368 S,0,18295,,1.6 F,2,18295,18495,1,0
Sprite,Background,Centre,"sb\flame.png",183,305 S,0,18498,,1.6 F,2,18498,18698,1,0
Sprite,Background,Centre,"sb\flame.png",153,379 S,0,18700,,1.6 F,2,18700,18900,1,0
Sprite,Background,Centre,"sb\flame.png",261,294 S,0,19106,,1.6 F,2,19106,19306,1,0
Sprite,Background,Centre,"sb\flame.png",389,346 S,0,19511,,1.6 M,0,19511,19561,389,346,406.4837,346.7547 F,2,19511,20116,1,0 M,0,19561,19612,406.4837,346.7547,423.9674,347.5094 M,0,19612,19663,423.9674,347.5094,441.4512,348.2641 M,0,19663,19713,441.4512,348.2641,458.9349,349.0188 M,0,19713,19764,458.9349,349.0188,476.4186,349.7735 M,0,19764,19815,476.4186,349.7735,493.9023,350.5282 M,0,19815,19865,493.9023,350.5282,511.386,351.2828 M,0,19865,19916,511.386,351.2828,528,352
Sprite,Background,Centre,"sb\flame.png",412,177 S,0,20322,,1.6 M,0,20322,20372,412,177,400.5168,195.6013 F,2,20322,20927,1,0 M,0,20372,20423,400.5168,195.6013,386.5347,212.3956 M,0,20423,20474,386.5347,212.3956,373.862,229.3049 M,0,20474,20524,373.862,229.3049,367.7173,250.2991 M,0,20524,20575,367.7173,250.2991,356.138,266.5818 M,0,20575,20626,356.138,266.5818,337.7061,278.2844 M,0,20626,20676,337.7061,278.2844,322.5375,293.9636 M,0,20676,20727,322.5375,293.9636,311.8713,312.9944
Sprite,Background,Centre,"sb\flame.png",196,95 S,0,21133,,1.6 M,0,21133,21183,196,95,217.8548,95.14091 F,2,21133,21738,1,0 M,0,21183,21234,217.8548,95.14091,239.3887,98.82043 M,0,21234,21285,239.3887,98.82043,260.3478,101.0124 M,0,21285,21335,260.3478,101.0124,281.628,95.94572 M,0,21335,21386,281.628,95.94572,301.4539,98.31512 M,0,21386,21437,301.4539,98.31512,320.8697,108.2956 M,0,21437,21487,320.8697,108.2956,342.0877,113.3631 M,0,21487,21538,342.0877,113.3631,363.9003,112.8796
Sprite,Background,Centre,"sb\flame.png",233,324 S,0,21944,,1.6 M,0,21944,21994,233,324,222.5542,304.7983 F,2,21944,22549,1,0 M,0,21994,22045,222.5542,304.7983,215.0262,284.2847 M,0,22045,22096,215.0262,284.2847,206.9483,264.7799 M,0,22096,22146,206.9483,264.7799,191.7359,249.0605 M,0,22146,22197,191.7359,249.0605,182.8134,231.1686 M,0,22197,22248,182.8134,231.1686,182.0743,209.3497 M,0,22248,22298,182.0743,209.3497,176.1387,188.3604 M,0,22298,22349,176.1387,188.3604,164.9214,169.6526
Sprite,Background,Centre,"sb\flame.png",315,332 S,0,22754,,1.6 M,0,22754,22804,315,332,311.9924,349.1919 F,2,22754,23359,1,0 M,0,22804,22855,311.9924,349.1919,305.4288,365.3472 M,0,22855,22906,305.4288,365.3472,295.6098,379.7414 M,0,22906,22956,295.6098,379.7414,282.9813,391.7298 M,0,22956,23007,282.9813,391.7298,268.1146,400.7759 M,0,23007,23058,268.1146,400.7759,251.6803,406.476 M,0,23058,23108,251.6803,406.476,234.4192,408.5762 M,0,23108,23159,234.4192,408.5762,217.1083,406.984
Sprite,Background,Centre,"sb\flame.png",281,256 S,0,23565,,1.6 F,2,23565,23765,1,0
Sprite,Background,Centre,"sb\flame.png",398,341 S,0,23971,,1.6 F,2,23971,24171,1,0
Sprite,Background,Centre,"sb\flame.png",232,323 S,0,24376,,1.6 F,2,24376,24576,1,0
Sprite,Background,Centre,"sb\flame.png",364,265 S,0,24781,,1.6 F,2,24781,24981,1,0
Sprite,Background,Centre,"sb\flame.png",247,179 S,0,25187,,1.6 M,0,25187,25237,247,179,241.0195,195.4464 F,2,25187,25792,1,0 M,0,25237,25288,241.0195,195.4464,235.039,211.8928 M,0,25288,25339,235.039,211.8928,229.0585,228.3391 M,0,25339,25389,229.0585,228.3391,223.078,244.7855 M,0,25389,25440,223.078,244.7855,222.1585,262.2513 M,0,25440,25491,222.1585,262.2513,221.3058,279.7305 M,0,25491,25541,221.3058,279.7305,220.4532,297.2097 M,0,25541,25592,220.4532,297.2097,219.6005,314.6889
Sprite,Background,Centre,"sb\flame.png",170,154 S,0,25998,,1.6 M,0,25998,26048,170,154,177.2535,138.1297 F,2,25998,26603,1,0 M,0,26048,26099,177.2535,138.1297,187.6848,124.1647 M,0,26099,26150,187.6848,124.1647,200.8194,112.729 M,0,26150,26200,200.8194,112.729,216.0629,104.3327 M,0,26200,26251,216.0629,104.3327,232.7276,99.34977 M,0,26251,26302,232.7276,99.34977,250.0627,98.00148 M,0,26302,26352,250.0627,98.00148,267.3851,99.9531 M,0,26352,26403,267.3851,99.9531,283.7473,106.0153
Sprite,Background,Centre,"sb\flame.png",382,195 S,0,26808,,1.6 M,0,26808,26858,382,195,365.1086,199.5216 F,2,26808,27818,1,0 M,0,26858,26909,365.1086,199.5216,347.8304,202.175 M,0,26909,26960,347.8304,202.175,330.3703,202.9298 M,0,26960,27010,330.3703,202.9298,312.935,201.7777 M,0,27010,27061,312.935,201.7777,295.7311,198.733 M,0,27061,27112,295.7311,198.733,278.8961,194.021 M,0,27112,27162,278.8961,194.021,262.7733,187.2528 M,0,27162,27213,262.7733,187.2528,247.4492,178.8295 M,0,27213,27264,247.4492,178.8295,262.7733,187.2528 M,0,27264,27314,262.7733,187.2528,278.8961,194.021 M,0,27314,27365,278.8961,194.021,295.7311,198.733 M,0,27365,27416,295.7311,198.733,312.935,201.7777 M,0,27416,27466,312.935,201.7777,330.3703,202.9298 M,0,27466,27517,330.3703,202.9298,347.8304,202.175 M,0,27517,27568,347.8304,202.175,365.1086,199.5216 M,0,27568,27618,365.1086,199.5216,382,195
Sprite,Background,Centre,"sb\flame.png",510,155 S,0,28025,,1.6 F,2,28025,28225,1,0
Sprite,Background,Centre,"sb\flame.png",480,286 S,0,28430,,1.6 M,0,28430,28480,480,286,481.4945,303.4361 F,2,28430,29035,1,0 M,0,28480,28531,481.4945,303.4361,482.989,320.8721 M,0,28531,28582,482.989,320.8721,484.4836,338.3082 M,0,28582,28632,484.4836,338.3082,485.9781,355.7443 M,0,28632,28683,485.9781,355.7443,493.619,371.4688 M,0,28683,28734,493.619,371.4688,501.3513,387.1678 M,0,28734,28784,501.3513,387.1678,509.0837,402.8669 M,0,28784,28835,509.0837,402.8669,516.816,418.566
Sprite,Background,Centre,"sb\flame.png",555,254 S,0,29241,,1.6 M,0,29241,29291,555,254,537.6252,251.9106 F,2,29241,29846,1,0 M,0,29291,29342,537.6252,251.9106,520.2504,249.8212 M,0,29342,29393,520.2504,249.8212,502.8755,247.7319 M,0,29393,29443,502.8755,247.7319,485.5007,245.6425 M,0,29443,29494,485.5007,245.6425,468.1259,243.5531 M,0,29494,29545,468.1259,243.5531,450.751,241.4637 M,0,29545,29595,450.751,241.4637,433.3762,239.3744 M,0,29595,29646,433.3762,239.3744,416.0014,237.285
Sprite,Background,Centre,"sb\flame.png",223,237 S,0,30052,,1.6 M,0,30052,30102,223,237,205.6313,239.1396 F,2,30052,31062,1,0 M,0,30102,30153,205.6313,239.1396,188.2626,241.2793 M,0,30153,30204,188.2626,241.2793,170.8939,243.4189 M,0,30204,30254,170.8939,243.4189,153.5252,245.5585 M,0,30254,30305,153.5252,245.5585,136.1565,247.6981 M,0,30305,30356,136.1565,247.6981,118.7878,249.8377 M,0,30356,30406,118.7878,249.8377,101.419,251.9774 M,0,30406,30457,101.419,251.9774,85,254 M,0,30457,30508,85,254,101.419,251.9774 M,0,30508,30558,101.419,251.9774,118.7878,249.8377 M,0,30558,30609,118.7878,249.8377,136.1565,247.6981 M,0,30609,30660,136.1565,247.6981,153.5252,245.5585 M,0,30660,30710,153.5252,245.5585,170.8939,243.4189 M,0,30710,30761,170.8939,243.4189,188.2626,241.2793 M,0,30761,30812,188.2626,241.2793,205.6313,239.1396 M,0,30812,30862,205.6313,239.1396,223,237
Sprite,Background,Centre,"sb\flame.png",319,165 S,0,31268,,1.6 F,2,31268,31468,1,0
Sprite,Background,Centre,"sb\flame.png",319,262 S,0,31673,,1.6 F,2,31673,31873,1,0
Sprite,Background,Centre,"sb\flame.png",319,69 S,0,32484,,1.6 F,2,32484,32684,1,0
Sprite,Background,Centre,"sb\flame.png",150,261 S,0,33295,,1.6 M,0,33295,33345,150,261,146.8998,278.2232 F,2,33295,33900,1,0 M,0,33345,33396,146.8998,278.2232,143.7997,295.4464 M,0,33396,33447,143.7997,295.4464,141.1409,312.6906 M,0,33447,33497,141.1409,312.6906,142.5942,330.1302 M,0,33497,33548,142.5942,330.1302,144.0475,347.5697 M,0,33548,33599,144.0475,347.5697,144.0731,364.9584 M,0,33599,33649,144.0731,364.9584,141.3833,382.2505 M,0,33649,33700,141.3833,382.2505,138.6934,399.5425
Sprite,Background,Centre,"sb\flame.png",65,231 S,0,34106,,1.6 F,2,34106,34306,1,0
Sprite,Background,Centre,"sb\flame.png",219,203 S,0,34511,,1.6 F,2,34511,34711,1,0
Sprite,Background,Centre,"sb\flame.png",270,263 S,0,34714,,1.6 F,2,34714,34914,1,0
Sprite,Background,Centre,"sb\flame.png",297,189 S,0,34917,,1.6 F,2,34917,35117,1,0
Sprite,Background,Centre,"sb\flame.png",168,143 S,0,35322,,1.6 F,2,35322,35522,1,0
Sprite,Background,Centre,"sb\flame.png",242,336 S,0,35727,,1.6 M,0,35727,35777,242,336,257.8807,343.3522 F,2,35727,36332,1,0 M,0,35777,35828,257.8807,343.3522,273.7614,350.7043 M,0,35828,35879,273.7614,350.7043,289.642,358.0565 M,0,35879,35929,289.642,358.0565,306.4464,360.0051 M,0,35929,35980,306.4464,360.0051,323.8676,358.3459 M,0,35980,36031,323.8676,358.3459,341.2888,356.6868 M,0,36031,36081,341.2888,356.6868,358.7099,355.0276 M,0,36081,36132,358.7099,355.0276,376.1311,353.3685
Sprite,Background,Centre,"sb\flame.png",453,161 S,0,36538,,1.6 M,0,36538,36588,453,161,454.3422,178.4485 F,2,36538,37548,1,0 M,0,36588,36639,454.3422,178.4485,455.6844,195.8969 M,0,36639,36690,455.6844,195.8969,456.903,213.3325 M,0,36690,36740,456.903,213.3325,452.003,230.1325 M,0,36740,36791,452.003,230.1325,447.103,246.9325 M,0,36791,36842,447.103,246.9325,443.2699,263.8336 M,0,36842,36892,443.2699,263.8336,444.929,281.2547 M,0,36892,36943,444.929,281.2547,446.5882,298.6759 M,0,36943,36994,446.5882,298.6759,444.929,281.2547 M,0,36994,37044,444.929,281.2547,443.2699,263.8336 M,0,37044,37095,443.2699,263.8336,447.103,246.9325 M,0,37095,37146,447.103,246.9325,452.003,230.1325 M,0,37146,37196,452.003,230.1325,456.903,213.3325 M,0,37196,37247,456.903,213.3325,455.6844,195.8969 M,0,37247,37298,455.6844,195.8969,454.3422,178.4485 M,0,37298,37348,454.3422,178.4485,453,161
Sprite,Background,Centre,"sb\flame.png",375,169 S,0,37552,,1.6 F,2,37552,37752,1,0
Sprite,Background,Centre,"sb\flame.png",407,96 S,0,37755,,1.6 F,2,37755,37955,1,0
Sprite,Background,Centre,"sb\flame.png",486,89 S,0,37958,,1.6 F,2,37958,38158,1,0
Sprite,Background,Centre,"sb\flame.png",532,154 S,0,38160,,1.6 F,2,38160,38360,1,0
Sprite,Background,Centre,"sb\flame.png",421,234 S,0,38564,,1.6 F,2,38564,38764,1,0
Sprite,Background,Centre,"sb\flame.png",295,176 S,0,38971,,1.6 M,0,38971,39021,295,176,308.1003,187.6031 F,2,38971,39576,1,0 M,0,39021,39072,308.1003,187.6031,321.2006,199.2062 M,0,39072,39123,321.2006,199.2062,330.9098,212.6728 M,0,39123,39173,330.9098,212.6728,333.681,229.952 M,0,39173,39224,333.681,229.952,336.4522,247.2312 M,0,39224,39275,336.4522,247.2312,339.2234,264.5104 M,0,39275,39325,339.2234,264.5104,341.9946,281.7896 M,0,39325,39376,341.9946,281.7896,344.7657,299.0688
Sprite,Background,Centre,"sb\flame.png",155,226 S,0,39781,,1.6 M,0,39781,39831,155,226,175.272,217.9366 F,2,39781,40386,1,0 M,0,39831,39882,175.272,217.9366,192.4416,204.5246 M,0,39882,39933,192.4416,204.5246,204.6238,186.4771 M,0,39933,39983,204.6238,186.4771,212.4404,166.0479 M,0,39983,40034,212.4404,166.0479,219.892,145.4904 M,0,40034,40085,219.892,145.4904,231.0642,126.7437 M,0,40085,40135,231.0642,126.7437,246.433,111.2541 M,0,40135,40186,246.433,111.2541,264.9504,99.68669
Sprite,Background,Centre,"sb\flame.png",268,322 S,0,40592,,1.6 M,0,40592,40642,268,322,250.8747,308.4786 F,2,40592,41197,1,0 M,0,40642,40693,250.8747,308.4786,230.7432,300.1308 M,0,40693,40744,230.7432,300.1308,209.0556,298.1577 M,0,40744,40794,209.0556,298.1577,187.4971,301.8653 M,0,40794,40845,187.4971,301.8653,165.9315,305.4992 M,0,40845,40896,165.9315,305.4992,144.1067,305.2679 M,0,40896,40946,144.1067,305.2679,122.9586,299.8868 M,0,40946,40997,122.9586,299.8868,103.5707,289.8463
Sprite,Background,Centre,"sb\flame.png",295,177 S,0,41403,,1.6 M,0,41403,41453,295,177,291.4438,198.5143 F,2,41403,42008,1,0 M,0,41453,41504,291.4438,198.5143,294.5049,220.0761 M,0,41504,41555,294.5049,220.0761,304.2267,239.5548 M,0,41555,41605,304.2267,239.5548,318.1223,256.4481 M,0,41605,41656,318.1223,256.4481,332.1701,273.2032 M,0,41656,41707,332.1701,273.2032,342.7536,292.29 M,0,41707,41757,342.7536,292.29,348.4544,313.3526 M,0,41757,41808,348.4544,313.3526,349.1639,335.1736
Sprite,Background,Centre,"sb\flame.png",213,160 S,0,42214,,1.6 F,2,42214,42414,1,0
Sprite,Background,Centre,"sb\flame.png",350,115 S,0,42619,,1.6 F,2,42619,42819,1,0
Sprite,Background,Centre,"sb\flame.png",186,80 S,0,43025,,1.6 F,2,43025,43225,1,0
Sprite,Background,Centre,"sb\flame.png",294,177 S,0,43430,,1.6 F,2,43430,43630,1,0
Sprite,Background,Centre,"sb\flame.png",159,223 S,0,43835,,1.6 F,2,43835,44035,1,0
Sprite,Background,Centre,"sb\flame.png",268,98 S,0,44241,,1.6 F,2,44241,44441,1,0
Sprite,Background,Centre,"sb\flame.png",319,255 S,0,44646,,1.6 M,0,44646,44696,319,255,310.2743,270.1354 F,2,44646,45251,1,0 M,0,44696,44747,310.2743,270.1354,299.1916,283.6272 M,0,44747,44798,299.1916,283.6272,286.0532,295.1131 M,0,44798,44848,286.0532,295.1131,271.2155,304.2852 M,0,44848,44899,271.2155,304.2852,255.0797,310.8976 M,0,44899,44950,255.0797,310.8976,238.0822,314.7732 M,0,44950,45000,238.0822,314.7732,220.682,315.8086 M,0,45000,45051,220.682,315.8086,203.2935,314.2741
Sprite,Background,Centre,"sb\flame.png",294,177 S,0,45457,,1.6 M,0,45457,45507,294,177,311.1157,173.5861 F,2,45457,46062,1,0 M,0,45507,45558,311.1157,173.5861,328.5508,173.9376 M,0,45558,45609,328.5508,173.9376,345.4888,178.0324 M,0,45609,45659,345.4888,178.0324,361.1372,185.6739 M,0,45659,45710,361.1372,185.6739,374.7647,196.5001 M,0,45710,45761,374.7647,196.5001,385.7353,210.0006 M,0,45761,45811,385.7353,210.0006,393.5374,225.5408 M,0,45811,45862,393.5374,225.5408,397.8076,242.3911
Sprite,Background,Centre,"sb\flame.png",477,388 S,0,46268,,1.6 M,0,46268,46318,477,388,477.7137,370.5146 F,2,46268,46873,1,0 M,0,46318,46369,477.7137,370.5146,478.4274,353.0291 M,0,46369,46420,478.4274,353.0291,479.1411,335.5437 M,0,46420,46470,479.1411,335.5437,479.8548,318.0582 M,0,46470,46521,479.8548,318.0582,480.5685,300.5728 M,0,46521,46572,480.5685,300.5728,481.2821,283.0873 M,0,46572,46622,481.2821,283.0873,481.9958,265.6019 M,0,46622,46673,481.9958,265.6019,482.7095,248.1165
Sprite,Background,Centre,"sb\flame.png",488,108 S,0,47079,,1.6 F,2,47079,47279,1,0
Sprite,Background,Centre,"sb\flame.png",363,172 S,0,47484,,1.6 F,2,47484,47684,1,0
Sprite,Background,Centre,"sb\flame.png",287,165 S,0,47687,,1.6 F,2,47687,47887,1,0
Sprite,Background,Centre,"sb\flame.png",332,99 S,0,47890,,1.6 F,2,47890,48090,1,0
Sprite,Background,Centre,"sb\flame.png",318,236 S,0,48295,,1.6 F,2,48295,48495,1,0
Sprite,Background,Centre,"sb\flame.png",160,154 S,0,48700,,1.6 M,0,48700,48750,160,154,156.853,171.1955 F,2,48700,49305,1,0 M,0,48750,48801,156.853,171.1955,155.9511,188.6462 M,0,48801,48852,155.9511,188.6462,157.3077,206.0616 M,0,48852,48902,157.3077,206.0616,160.899,223.152 M,0,48902,48953,160.899,223.152,166.6643,239.633 M,0,48953,49004,166.6643,239.633,174.507,255.2305 M,0,49004,49054,174.507,255.2305,184.1193,269.8206 M,0,49054,49105,184.1193,269.8206,195.7605,282.8586
Sprite,Background,Centre,"sb\flame.png",295,364 S,0,49511,,1.6 M,0,49511,49561,295,364,277.8844,367.6476 F,2,49511,50521,1,0 M,0,49561,49612,277.8844,367.6476,260.7687,371.2952 M,0,49612,49663,260.7687,371.2952,243.6531,374.9428 M,0,49663,49713,243.6531,374.9428,226.3717,377.1658 M,0,49713,49764,226.3717,377.1658,208.8758,377.5462 M,0,49764,49815,208.8758,377.5462,191.3799,377.9265 M,0,49815,49865,191.3799,377.9265,173.8841,378.3069 M,0,49865,49916,173.8841,378.3069,156.3882,378.6872 M,0,49916,49967,156.3882,378.6872,173.8841,378.3069 M,0,49967,50017,173.8841,378.3069,191.3799,377.9265 M,0,50017,50068,191.3799,377.9265,208.8758,377.5462 M,0,50068,50119,208.8758,377.5462,226.3717,377.1658 M,0,50119,50169,226.3717,377.1658,243.6531,374.9428 M,0,50169,50220,243.6531,374.9428,260.7687,371.2952 M,0,50220,50271,260.7687,371.2952,277.8844,367.6476 M,0,50271,50321,277.8844,367.6476,295,364
Sprite,Background,Centre,"sb\flame.png",482,318 S,0,50727,,1.6 F,2,50727,50927,1,0
Sprite,Background,Centre,"sb\flame.png",446,249 S,0,50930,,1.6 F,2,50930,51130,1,0
Sprite,Background,Centre,"sb\flame.png",525,252 S,0,51133,,1.6 F,2,51133,51333,1,0
Sprite,Background,Centre,"sb\flame.png",403,315 S,0,51538,,1.6 F,2,51538,51738,1,0
Sprite,Background,Centre,"sb\flame.png",373,158 S,0,51944,,1.6 M,0,51944,51994,373,158,390.253,155.0703 F,2,51944,52549,1,0 M,0,51994,52045,390.253,155.0703,407.506,152.1405 M,0,52045,52096,407.506,152.1405,424.759,149.2107 M,0,52096,52146,424.759,149.2107,442.2293,149.6242 M,0,52146,52197,442.2293,149.6242,459.7163,150.2968 M,0,52197,52248,459.7163,150.2968,477.2034,150.9694 M,0,52248,52298,477.2034,150.9694,494.6905,151.6419 M,0,52298,52349,494.6905,151.6419,512.1776,152.3145
Sprite,Background,Centre,"sb\flame.png",347,69 S,0,52754,,1.6 M,0,52754,52804,347,69,331.8795,84.80779 F,2,52754,53359,1,0 M,0,52804,52855,331.8795,84.80779,316.759,100.6156 M,0,52855,52906,316.759,100.6156,302.4706,116.8972 M,0,52906,52956,302.4706,116.8972,296.5906,137.9671 M,0,52956,53007,296.5906,137.9671,290.2466,158.7691 M,0,53007,53058,290.2466,158.7691,274.9389,174.3957 M,0,53058,53108,274.9389,174.3957,259.6312,190.0223 M,0,53108,53159,259.6312,190.0223,244.3235,205.6489
Sprite,Background,Centre,"sb\flame.png",438,317 S,0,53565,,1.6 M,0,53565,53615,438,317,431.901,295.9924 F,2,53565,54170,1,0 M,0,53615,53666,431.901,295.9924,425.8021,274.9849 M,0,53666,53717,425.8021,274.9849,419.259,254.2351 M,0,53717,53767,419.259,254.2351,404.0385,238.5236 M,0,53767,53818,404.0385,238.5236,388.9312,222.7476 M,0,53818,53869,388.9312,222.7476,383.1755,201.6434 M,0,53869,53919,383.1755,201.6434,377.4198,180.5392 M,0,53919,53970,377.4198,180.5392,371.6641,159.435
Sprite,Background,Centre,"sb\flame.png",179,271 S,0,54376,,1.6 M,0,54376,54426,179,271,200.1811,276.4661 F,2,54376,54981,1,0 M,0,54426,54477,200.1811,276.4661,221.3621,281.9322 M,0,54477,54528,221.3621,281.9322,242.544,286.605 M,0,54528,54578,242.544,286.605,263.7366,281.1837 M,0,54578,54629,263.7366,281.1837,284.9288,276.2392 M,0,54629,54680,284.9288,276.2392,306.1123,281.6956 M,0,54680,54730,306.1123,281.6956,327.2959,287.152 M,0,54730,54781,327.2959,287.152,348.4795,292.6083
Sprite,Background,Centre,"sb\flame.png",145,192 S,0,55187,,1.6 M,0,55187,55237,145,192,129.9756,200.8833 F,2,55187,55792,1,0 M,0,55237,55288,129.9756,200.8833,117.02,212.5533 M,0,55288,55339,117.02,212.5533,106.6396,226.5459 M,0,55339,55389,106.6396,226.5459,99.23973,242.3071 M,0,55389,55440,99.23973,242.3071,95.10904,259.2144 M,0,55440,55491,95.10904,259.2144,94.40827,276.6009 M,0,55491,55541,94.40827,276.6009,96.90117,293.8427 M,0,55541,55592,96.90117,293.8427,103.1297,310.1314
Sprite,Background,Centre,"sb\flame.png",230,202 S,0,55998,,1.6 F,2,55998,56198,1,0
Sprite,Background,Centre,"sb\flame.png",76,140 S,0,56403,,1.6 F,2,56403,56603,1,0
Sprite,Background,Centre,"sb\flame.png",240,117 S,0,56808,,1.6 F,2,56808,57008,1,0
Sprite,Background,Centre,"sb\flame.png",179,271 S,0,57214,,1.6 F,2,57214,57414,1,0
Sprite,Background,Centre,"sb\flame.png",345,219 S,0,57619,,1.6 M,0,57619,57669,345,219,354.9706,204.6906 F,2,57619,58224,1,0 M,0,57669,57720,354.9706,204.6906,367.9837,193.1098 M,0,57720,57771,367.9837,193.1098,383.3203,184.8862 M,0,57771,57821,383.3203,184.8862,400.1359,180.4643 M,0,57821,57872,400.1359,180.4643,417.5071,180.0809 M,0,57872,57923,417.5071,180.0809,434.4809,183.7524 M,0,57923,57973,434.4809,183.7524,450.127,191.2742 M,0,57973,58024,450.127,191.2742,463.9119,201.9185
Sprite,Background,Centre,"sb\flame.png",448,389 S,0,58430,,1.6 M,0,58430,58480,448,389,439.3176,373.8058 F,2,58430,59035,1,0 M,0,58480,58531,439.3176,373.8058,430.6351,358.6115 M,0,58531,58582,430.6351,358.6115,426.036,341.9706 M,0,58582,58632,426.036,341.9706,423.2162,324.6992 M,0,58632,58683,423.2162,324.6992,420.3964,307.4279 M,0,58683,58734,420.3964,307.4279,417.5766,290.1566 M,0,58734,58784,417.5766,290.1566,414.7568,272.8853 M,0,58784,58835,414.7568,272.8853,412,256
Sprite,Background,Centre,"sb\flame.png",228,256 S,0,59241,,1.6 M,0,59241,59291,228,256,225.1802,273.2713 F,2,59241,60251,1,0 M,0,59291,59342,225.1802,273.2713,222.3604,290.5427 M,0,59342,59393,222.3604,290.5427,219.5406,307.814 M,0,59393,59443,219.5406,307.814,216.7208,325.0853 M,0,59443,59494,216.7208,325.0853,213.901,342.3566 M,0,59494,59545,213.901,342.3566,209.1708,358.9511 M,0,59545,59595,209.1708,358.9511,200.4884,374.1454 M,0,59595,59646,200.4884,374.1454,192,389 M,0,59646,59697,192,389,200.4884,374.1454 M,0,59697,59747,200.4884,374.1454,209.1708,358.9511 M,0,59747,59798,209.1708,358.9511,213.901,342.3566 M,0,59798,59849,213.901,342.3566,216.7208,325.0853 M,0,59849,59899,216.7208,325.0853,219.5406,307.814 M,0,59899,59950,219.5406,307.814,222.3604,290.5427 M,0,59950,60001,222.3604,290.5427,225.1802,273.2713 M,0,60001,60051,225.1802,273.2713,228,256
Sprite,Background,Centre,"sb\flame.png",169,113 S,0,60457,,1.6 F,2,60457,60657,1,0
Sprite,Background,Centre,"sb\flame.png",92,242 S,0,60862,,1.6 M,0,60862,60914,92,242,108.3858,248.1447 F,2,60862,61481,1,0 M,0,60914,60966,108.3858,248.1447,124.7715,254.2893 M,0,60966,61019,124.7715,254.2893,141.2349,259.9485 M,0,61019,61071,141.2349,259.9485,158.7197,259.22 M,0,61071,61124,158.7197,259.22,176.2046,258.4915 M,0,61124,61176,176.2046,258.4915,193.6894,257.7629 M,0,61176,61229,193.6894,257.7629,211.1742,257.0344 M,0,61229,61281,211.1742,257.0344,228.6591,256.3059
Sprite,Background,Centre,"sb\flame.png",373,235 S,0,61701,,1.6 M,0,61701,61756,373,235,378.3868,218.3497 F,2,61701,62345,1,0 M,0,61756,61812,378.3868,218.3497,383.7737,201.6994 M,0,61812,61867,383.7737,201.6994,389.1606,185.0492 M,0,61867,61923,389.1606,185.0492,394.5474,168.3989 M,0,61923,61978,394.5474,168.3989,393.2298,151.0683 M,0,61978,62034,393.2298,151.0683,391.2973,133.6754 M,0,62034,62089,391.2973,133.6754,389.3647,116.2824 M,0,62089,62145,389.3647,116.2824,387.4322,98.88943
Sprite,Background,Centre,"sb\flame.png",306,298 S,0,62589,,1.6 M,0,62589,62646,306,298,297.2984,313.167 F,2,62589,63250,1,0 M,0,62646,62704,297.2984,313.167,291.0225,329.4807 M,0,62704,62762,291.0225,329.4807,287.761,346.647 M,0,62762,62819,287.761,346.647,287.855,364.1192 M,0,62819,62877,287.855,364.1192,291.1956,381.2739 M,0,62877,62935,291.1956,381.2739,297.6106,396.6142 M,0,62935,62992,297.6106,396.6142,311.2657,385.7301 M,0,62992,63050,311.2657,385.7301,321.5185,371.634
Sprite,Background,Centre,"sb\flame.png",284,208 S,0,63550,,1.6 M,0,63550,63618,284,208,274.9501,193.0373 F,2,63550,64295,1,0 M,0,63618,63686,274.9501,193.0373,263.795,179.5785 M,0,63686,63754,263.795,179.5785,250.4814,168.259 M,0,63754,63822,250.4814,168.259,235.2842,159.6358 M,0,63822,63890,235.2842,159.6358,218.7586,153.9489 M,0,63890,63959,218.7586,153.9489,201.5179,151.0479 M,0,63959,64027,201.5179,151.0479,203.9728,167.684 M,0,64027,64095,203.9728,167.684,211.2345,183.5395
Sprite,Background,Centre,"sb\flame.png",373,235 S,0,64640,,1.6 M,0,64640,64708,373,235,381.7468,235.1636 F,2,64640,65930,1,0 M,0,64708,64776,381.7468,235.1636,390.4833,234.7173 M,0,64776,64844,390.4833,234.7173,399.1578,233.5897 M,0,64844,64912,399.1578,233.5897,407.7054,231.7327 M,0,64912,64980,407.7054,231.7327,416.0479,229.1047 M,0,64980,65049,416.0479,229.1047,424.1005,225.691 M,0,65049,65117,424.1005,225.691,431.7817,221.508 M,0,65117,65185,431.7817,221.508,439.0183,216.5954 M,0,65185,65253,439.0183,216.5954,445.7614,211.0243 M,0,65253,65321,445.7614,211.0243,451.9843,204.877 M,0,65321,65389,451.9843,204.877,457.6805,198.2381 M,0,65389,65458,457.6805,198.2381,462.8673,191.1936 M,0,65458,65526,462.8673,191.1936,455.0672,187.9126 M,0,65526,65594,455.0672,187.9126,446.6462,185.5511 M,0,65594,65662,446.6462,185.5511,438.0106,184.1763 M,0,65662,65730,438.0106,184.1763,429.2708,183.9386
Sprite,Background,Centre,"sb\btrfl1.png",160,191 S,0,52,,0.355 R,0,52,,-3.105746 P,0,52,133,V M,1,52,660,209.9693,192.7522,234.9539,193.6282 P,0,52,660,H P,0,214,295,V F,0,356,660,1,0 P,0,376,660,V
Sprite,Background,Centre,"sb\btrfl1.png",447,364 S,0,863,,0.355 R,0,863,,-3.160395 P,0,863,944,V M,1,863,1471,496.9904,363.0201,521.9856,362.5302 P,0,863,1471,H P,0,1025,1106,V F,0,1167,1471,1,0 P,0,1187,1471,V
Sprite,Background,Centre,"sb\btrfl1.png",313,134 S,0,1673,,0.355 R,0,1673,,-3.130814 P,0,1673,1754,V M,1,1673,2281,362.9975,134.4991,387.9963,134.7487 P,0,1673,2281,H P,0,1835,1916,V F,0,1977,2281,1,0 P,0,1997,2281,V
Sprite,Background,Centre,"sb\btrfl1.png",305,298 S,0,2079,,0.355 R,0,2079,,-3.004897 P,0,2079,2160,V M,1,2079,2687,354.539,304.7741,379.3085,308.1611 P,0,2079,2687,H P,0,2241,2322,V F,0,2383,2687,1,0 P,0,2403,2687,V
Sprite,Background,Centre,"sb\btrfl1.png",350,230 S,0,2281,,0.355 R,0,2281,,-2.79362 P,0,2281,2362,V M,1,2281,2889,397.0168,247.0122,420.5253,255.5183 P,0,2281,2889,H P,0,2443,2524,V F,0,2585,2889,1,0 P,0,2605,2889,V
Sprite,Background,Centre,"sb\btrfl1.png",269,226 S,0,2484,,0.355 R,0,2484,,-3.005331 P,0,2484,2565,V M,1,2484,3092,318.5419,232.7526,343.3129,236.1289 P,0,2484,3092,H P,0,2646,2727,V F,0,2788,3092,1,0 P,0,2808,3092,V
Sprite,Background,Centre,"sb\btrfl1.png",386,302 S,0,2890,,0.355 R,0,2890,,-3.213616 P,0,2890,2971,V M,1,2890,3498,435.8675,298.3622,460.8012,296.5433 P,0,2890,3498,H P,0,3052,3133,V F,0,3194,3498,1,0 P,0,3214,3498,V
Sprite,Background,Centre,"sb\btrfl1.png",224,294 S,0,3295,,0.355 R,0,3295,,-2.935307 P,0,3295,3376,V M,1,3295,3903,272.9481,304.2023,297.4221,309.3035 P,0,3295,3903,H P,0,3457,3538,V F,0,3599,3903,1,0 P,0,3619,3903,V
Sprite,Background,Centre,"sb\btrfl1.png",431,234 S,0,4106,,0.355 R,0,4106,,-3.25653 P,0,4106,4187,V M,1,4106,4714,480.6655,228.2262,505.4983,225.3394 P,0,4106,4714,H P,0,4268,4349,V F,0,4410,4714,1,0 P,0,4430,4714,V
Sprite,Background,Centre,"sb\btrfl1.png",512,238 S,0,5120,,0.355 R,0,5120,,-2.834223 P,0,5120,5201,V M,1,5120,5728,559.6686,253.0897,583.503,260.6346 P,0,5120,5728,H P,0,5282,5363,V F,0,5424,5728,1,0 P,0,5444,5728,V
Sprite,Background,Centre,"sb\btrfl1.png",475,166 S,0,5322,,0.355 R,0,5322,,-2.845144 P,0,5322,5403,V M,1,5322,5930,522.8306,180.5682,546.7459,187.8523 P,0,5322,5930,H P,0,5484,5565,V F,0,5626,5930,1,0 P,0,5646,5930,V
Sprite,Background,Centre,"sb\btrfl1.png",394,162 S,0,5525,,0.355 R,0,5525,,-2.950389 P,0,5525,5606,V M,1,5525,6133,443.0964,171.463,467.6445,176.1944 P,0,5525,6133,H P,0,5687,5768,V F,0,5829,6133,1,0 P,0,5849,6133,V
Sprite,Background,Centre,"sb\btrfl1.png",351,231 S,0,5728,,0.355 R,0,5728,,-3.049595 P,0,5728,5809,V M,1,5728,6336,400.7922,235.5537,425.6883,237.8306 P,0,5728,6336,H P,0,5890,5971,V F,0,6032,6336,1,0 P,0,6052,6336,V
Sprite,Background,Centre,"sb\btrfl1.png",356,368 S,0,6133,,0.355 R,0,6133,,-2.951707 P,0,6133,6214,V M,1,6133,6741,405.1088,377.3982,429.6632,382.0973 P,0,6133,6741,H P,0,6295,6376,V F,0,6437,6741,1,0 P,0,6457,6741,V
Sprite,Background,Centre,"sb\btrfl1.png",234,303 S,0,6538,,0.355 R,0,6538,,-3.259291 P,0,6538,6619,V M,1,6538,7146,283.6494,297.0891,308.4741,294.1337 P,0,6538,7146,H P,0,6700,6781,V F,0,6842,7146,1,0 P,0,6862,7146,V
Sprite,Background,Centre,"sb\btrfl1.png",351,231 S,0,6944,,0.355 R,0,6944,,-2.68822 P,0,6944,7025,V M,1,6944,7552,395.9662,252.8642,418.4493,263.7963 P,0,6944,7552,H P,0,7106,7187,V F,0,7248,7552,1,0 P,0,7268,7552,V
Sprite,Background,Centre,"sb\btrfl1.png",239,440 S,0,7349,,0.355 R,0,7349,,-3.187422 P,0,7349,7430,V M,1,7349,7957,288.9456,437.6696,313.9185,436.5043 P,0,7349,7957,H P,0,7511,7592,V F,0,7653,7957,1,0 P,0,7673,7957,V
Sprite,Background,Centre,"sb\btrfl1.png",351,231 S,0,8160,,0.355 R,0,8160,,-3.267208 P,0,8160,8241,V M,1,8160,8768,400.601,224.6962,425.4016,221.5443 P,0,8160,8768,H P,0,8322,8403,V F,0,8464,8768,1,0 P,0,8484,8768,V
Sprite,Background,Centre,"sb\btrfl1.png",115,239 S,0,8971,,0.355 R,0,8971,,-3.076309 P,0,8971,9052,V M,1,8971,9579,164.8961,242.2222,189.8441,243.8332 P,0,8971,9579,H P,0,9133,9214,V F,0,9275,9579,1,0 P,0,9295,9579,V
Sprite,Background,Centre,"sb\btrfl1.png",84,320 S,0,9781,,0.355 R,0,9781,,-2.858755 P,0,9781,9862,V M,1,9781,10389,132.0245,333.9158,156.0367,340.8737 P,0,9781,10389,H P,0,9943,10024,V F,0,10085,10389,1,0 P,0,10105,10389,V
Sprite,Background,Centre,"sb\btrfl1.png",101,153 S,0,10187,,0.355 R,0,10187,,-3.160145 P,0,10187,10268,V M,1,10187,10795,150.9906,152.0326,175.986,151.549 P,0,10187,10795,H P,0,10349,10430,V F,0,10491,10795,1,0 P,0,10511,10795,V
Sprite,Background,Centre,"sb\btrfl1.png",170,307 S,0,10592,,0.355 R,0,10592,,-3.178831 P,0,10592,10673,V M,1,10592,11200,219.9638,305.0987,244.9458,304.1481 P,0,10592,11200,H P,0,10754,10835,V F,0,10896,11200,1,0 P,0,10916,11200,V
Sprite,Background,Centre,"sb\btrfl1.png",283,129 S,0,11403,,0.355 R,0,11403,,-3.265141 P,0,11403,11484,V M,1,11403,12011,332.614,122.7988,357.4209,119.6981 P,0,11403,12011,H P,0,11565,11646,V F,0,11707,12011,1,0 P,0,11727,12011,V
Sprite,Background,Centre,"sb\btrfl1.png",170,219 S,0,12619,,0.355 R,0,12619,,-2.689575 P,0,12619,12700,V M,1,12619,13227,214.9958,240.8032,237.4936,251.7049 P,0,12619,13227,H P,0,12781,12862,V F,0,12923,13227,1,0 P,0,12943,13227,V
Sprite,Background,Centre,"sb\btrfl1.png",334,262 S,0,13025,,0.355 R,0,13025,,-3.089965 P,0,13025,13106,V M,1,13025,13633,383.9354,264.5405,408.9031,265.8107 P,0,13025,13633,H P,0,13187,13268,V F,0,13329,13633,1,0 P,0,13349,13633,V
Sprite,Background,Centre,"sb\btrfl1.png",320,182 S,0,13835,,0.355 R,0,13835,,-2.98577 P,0,13835,13916,V M,1,13835,14443,369.4004,189.7203,394.1006,193.5804 P,0,13835,14443,H P,0,13997,14078,V F,0,14139,14443,1,0 P,0,14159,14443,V
Sprite,Background,Centre,"sb\btrfl1.png",352,425 S,0,14646,,0.355 R,0,14646,,-3.230411 P,0,14646,14727,V M,1,14646,15254,401.7994,420.5252,426.699,418.2879 P,0,14646,15254,H P,0,14808,14889,V F,0,14950,15254,1,0 P,0,14970,15254,V
Sprite,Background,Centre,"sb\btrfl1.png",458,198 S,0,15052,,0.355 R,0,15052,,-3.082572 P,0,15052,15133,V M,1,15052,15660,507.9153,200.9096,532.8729,202.3643 P,0,15052,15660,H P,0,15214,15295,V F,0,15356,15660,1,0 P,0,15376,15660,V
Sprite,Background,Centre,"sb\btrfl1.png",381,230 S,0,15255,,0.355 R,0,15255,,-2.998089 P,0,15255,15336,V M,1,15255,15863,430.4917,237.1112,455.2376,240.6667 P,0,15255,15863,H P,0,15417,15498,V F,0,15559,15863,1,0 P,0,15579,15863,V
Sprite,Background,Centre,"sb\btrfl1.png",390,147 S,0,15457,,0.355 R,0,15457,,-2.718666 P,0,15457,15538,V M,1,15457,16065,435.6109,167.4852,458.4164,177.7279 P,0,15457,16065,H P,0,15619,15700,V F,0,15761,16065,1,0 P,0,15781,16065,V
Sprite,Background,Centre,"sb\btrfl1.png",540,191 S,0,15862,,0.355 R,0,15862,,-2.782275 P,0,15862,15943,V M,1,15862,16470,586.8208,208.5445,610.2313,217.3168 P,0,15862,16470,H P,0,16024,16105,V F,0,16166,16470,1,0 P,0,16186,16470,V
Sprite,Background,Centre,"sb\btrfl1.png",386,348 S,0,16673,,0.355 R,0,16673,,-2.941996 P,0,16673,16754,V M,1,16673,17281,435.0152,357.8747,459.5228,362.812 P,0,16673,17281,H P,0,16835,16916,V F,0,16977,17281,1,0 P,0,16997,17281,V
Sprite,Background,Centre,"sb\btrfl1.png",291,223 S,0,17079,,0.355 R,0,17079,,-2.848303 P,0,17079,17160,V M,1,17079,17687,338.8764,237.417,362.8146,244.6255 P,0,17079,17687,H P,0,17241,17322,V F,0,17383,17687,1,0 P,0,17403,17687,V
Sprite,Background,Centre,"sb\btrfl1.png",231,368 S,0,18295,,0.355 R,0,18295,,-3.263126 P,0,18295,18376,V M,1,18295,18903,280.6263,361.8987,305.4395,358.8481 P,0,18295,18903,H P,0,18457,18538,V F,0,18599,18903,1,0 P,0,18619,18903,V
Sprite,Background,Centre,"sb\btrfl1.png",183,305 S,0,18498,,0.355 R,0,18498,,-3.055619 P,0,18498,18579,V M,1,18498,19106,232.8187,309.2538,257.7281,311.3806 P,0,18498,19106,H P,0,18660,18741,V F,0,18802,19106,1,0 P,0,18822,19106,V
Sprite,Background,Centre,"sb\btrfl1.png",153,379 S,0,18700,,0.355 R,0,18700,,-3.127778 P,0,18700,18781,V M,1,18700,19308,202.9958,379.6509,227.9937,379.9763 P,0,18700,19308,H P,0,18862,18943,V F,0,19004,19308,1,0 P,0,19024,19308,V
Sprite,Background,Centre,"sb\btrfl1.png",261,294 S,0,19106,,0.355 R,0,19106,,-2.688236 P,0,19106,19187,V M,1,19106,19714,305.9666,315.8635,328.4498,326.7952 P,0,19106,19714,H P,0,19268,19349,V F,0,19410,19714,1,0 P,0,19430,19714,V
Sprite,Background,Centre,"sb\btrfl1.png",389,346 S,0,19511,,0.355 R,0,19511,,-2.898603 P,0,19511,19592,V M,1,19511,20119,437.5407,357.9916,461.8111,363.9875 P,0,19511,20119,H P,0,19673,19754,V F,0,19815,20119,1,0 P,0,19835,20119,V
Sprite,Background,Centre,"sb\btrfl1.png",412,177 S,0,20322,,0.355 R,0,20322,,-2.875885 P,0,20322,20403,V M,1,20322,20930,460.2558,190.0912,484.3837,196.6368 P,0,20322,20930,H P,0,20484,20565,V F,0,20626,20930,1,0 P,0,20646,20930,V
Sprite,Background,Centre,"sb\btrfl1.png",196,95 S,0,21133,,0.355 R,0,21133,,-3.244473 P,0,21133,21214,V M,1,21133,21741,245.7315,89.82544,270.5973,87.23817 P,0,21133,21741,H P,0,21295,21376,V F,0,21437,21741,1,0 P,0,21457,21741,V
Sprite,Background,Centre,"sb\btrfl1.png",233,324 S,0,21944,,0.355 R,0,21944,,-2.973078 P,0,21944,22025,V M,1,21944,22552,282.2984,332.3467,306.9476,336.52 P,0,21944,22552,H P,0,22106,22187,V F,0,22248,22552,1,0 P,0,22268,22552,V
Sprite,Background,Centre,"sb\btrfl1.png",315,332 S,0,22754,,0.355 R,0,22754,,-3.099584 P,0,22754,22835,V M,1,22754,23362,364.9576,334.0601,389.9363,335.0901 P,0,22754,23362,H P,0,22916,22997,V F,0,23058,23362,1,0 P,0,23078,23362,V
Sprite,Background,Centre,"sb\btrfl1.png",281,256 S,0,23565,,0.355 R,0,23565,,-2.741375 P,0,23565,23646,V M,1,23565,24173,327.0643,275.4443,350.0965,285.1664 P,0,23565,24173,H P,0,23727,23808,V F,0,23869,24173,1,0 P,0,23889,24173,V
Sprite,Background,Centre,"sb\btrfl1.png",398,341 S,0,23971,,0.355 R,0,23971,,-2.834071 P,0,23971,24052,V M,1,23971,24579,445.6664,356.0969,469.4995,363.6454 P,0,23971,24579,H P,0,24133,24214,V F,0,24275,24579,1,0 P,0,24295,24579,V
Sprite,Background,Centre,"sb\btrfl1.png",232,323 S,0,24376,,0.355 R,0,24376,,-3.214259 P,0,24376,24457,V M,1,24376,24984,281.8651,319.3302,306.7977,317.4953 P,0,24376,24984,H P,0,24538,24619,V F,0,24680,24984,1,0 P,0,24700,24984,V
Sprite,Background,Centre,"sb\btrfl1.png",364,265 S,0,24781,,0.355 R,0,24781,,-3.146859 P,0,24781,24862,V M,1,24781,25389,413.9991,264.6968,438.9986,264.5453 P,0,24781,25389,H P,0,24943,25024,V F,0,25085,25389,1,0 P,0,25105,25389,V
Sprite,Background,Centre,"sb\btrfl1.png",247,179 S,0,25187,,0.355 R,0,25187,,-2.872296 P,0,25187,25268,V M,1,25187,25795,295.2085,192.2643,319.3127,198.8964 P,0,25187,25795,H P,0,25349,25430,V F,0,25491,25795,1,0 P,0,25511,25795,V
Sprite,Background,Centre,"sb\btrfl1.png",170,154 S,0,25998,,0.355 R,0,25998,,-2.944325 P,0,25998,26079,V M,1,25998,26606,219.0381,163.7605,243.5571,168.6407 P,0,25998,26606,H P,0,26160,26241,V F,0,26302,26606,1,0 P,0,26322,26606,V
Sprite,Background,Centre,"sb\btrfl1.png",382,195 S,0,26808,,0.355 R,0,26808,,-2.758095 P,0,26808,26889,V M,1,26808,27416,428.383,213.6714,451.5744,223.0071 P,0,26808,27416,H P,0,26970,27051,V F,0,27112,27416,1,0 P,0,27132,27416,V
Sprite,Background,Centre,"sb\btrfl1.png",510,155 S,0,28025,,0.355 R,0,28025,,-2.802789 P,0,28025,28106,V M,1,28025,28633,557.1708,171.5804,580.7563,179.8706 P,0,28025,28633,H P,0,28187,28268,V F,0,28329,28633,1,0 P,0,28349,28633,V
Sprite,Background,Centre,"sb\btrfl1.png",480,286 S,0,28430,,0.355 R,0,28430,,-2.916044 P,0,28430,28511,V M,1,28430,29038,528.7425,297.1432,553.1137,302.7149 P,0,28430,29038,H P,0,28592,28673,V F,0,28734,29038,1,0 P,0,28754,29038,V
Sprite,Background,Centre,"sb\btrfl1.png",555,254 S,0,29241,,0.355 R,0,29241,,-3.101236 P,0,29241,29322,V M,1,29241,29849,604.9609,255.9775,629.9413,256.9662 P,0,29241,29849,H P,0,29403,29484,V F,0,29545,29849,1,0 P,0,29565,29849,V
Sprite,Background,Centre,"sb\btrfl1.png",223,237 S,0,30052,,0.355 R,0,30052,,-3.041898 P,0,30052,30133,V M,1,30052,30660,272.7557,241.9368,297.6335,244.4053 P,0,30052,30660,H P,0,30214,30295,V F,0,30356,30660,1,0 P,0,30376,30660,V
Sprite,Background,Centre,"sb\btrfl1.png",319,165 S,0,31268,,0.355 R,0,31268,,-2.962781 P,0,31268,31349,V M,1,31268,31876,368.2098,173.8538,392.8148,178.2808 P,0,31268,31876,H P,0,31430,31511,V F,0,31572,31876,1,0 P,0,31592,31876,V
Sprite,Background,Centre,"sb\btrfl1.png",319,262 S,0,31673,,0.355 R,0,31673,,-2.786948 P,0,31673,31754,V M,1,31673,32281,365.9023,279.3255,389.3535,287.9883 P,0,31673,32281,H P,0,31835,31916,V F,0,31977,32281,1,0 P,0,31997,32281,V
Sprite,Background,Centre,"sb\btrfl1.png",319,69 S,0,32484,,0.355 R,0,32484,,-3.196915 P,0,32484,32565,V M,1,32484,33092,368.9213,66.19554,393.8819,64.79332 P,0,32484,33092,H P,0,32646,32727,V F,0,32788,33092,1,0 P,0,32808,33092,V
Sprite,Background,Centre,"sb\btrfl1.png",150,261 S,0,33295,,0.355 R,0,33295,,-3.165254 P,0,33295,33376,V M,1,33295,33903,199.985,259.7773,224.9776,259.1659 P,0,33295,33903,H P,0,33457,33538,V F,0,33599,33903,1,0 P,0,33619,33903,V
Sprite,Background,Centre,"sb\btrfl1.png",65,231 S,0,34106,,0.355 R,0,34106,,-3.111238 P,0,34106,34187,V M,1,34106,34714,114.9782,232.4777,139.9672,233.2165 P,0,34106,34714,H P,0,34268,34349,V F,0,34410,34714,1,0 P,0,34430,34714,V
Sprite,Background,Centre,"sb\btrfl1.png",219,203 S,0,34511,,0.355 R,0,34511,,-3.184932 P,0,34511,34592,V M,1,34511,35119,268.9513,200.794,293.927,199.6909 P,0,34511,35119,H P,0,34673,34754,V F,0,34815,35119,1,0 P,0,34835,35119,V
Sprite,Background,Centre,"sb\btrfl1.png",270,263 S,0,34714,,0.355 R,0,34714,,-3.077849 P,0,34714,34795,V M,1,34714,35322,319.901,266.1453,344.8515,267.7179 P,0,34714,35322,H P,0,34876,34957,V F,0,35018,35322,1,0 P,0,35038,35322,V
Sprite,Background,Centre,"sb\btrfl1.png",297,189 S,0,34917,,0.355 R,0,34917,,-3.04492 P,0,34917,34998,V M,1,34917,35525,346.7704,193.7865,371.6555,196.1797 P,0,34917,35525,H P,0,35079,35160,V F,0,35221,35525,1,0 P,0,35241,35525,V
Sprite,Background,Centre,"sb\btrfl1.png",168,143 S,0,35322,,0.355 R,0,35322,,-2.801044 P,0,35322,35403,V M,1,35322,35930,215.1419,159.6627,238.7128,167.994 P,0,35322,35930,H P,0,35484,35565,V F,0,35626,35930,1,0 P,0,35646,35930,V
Sprite,Background,Centre,"sb\btrfl1.png",242,336 S,0,35727,,0.355 R,0,35727,,-3.207217 P,0,35727,35808,V M,1,35727,36335,291.8897,332.6814,316.8346,331.0221 P,0,35727,36335,H P,0,35889,35970,V F,0,36031,36335,1,0 P,0,36051,36335,V
Sprite,Background,Centre,"sb\btrfl1.png",453,161 S,0,36538,,0.355 R,0,36538,,-3.207864 P,0,36538,36619,V M,1,36538,37146,502.8876,157.6491,527.8314,155.9737 P,0,36538,37146,H P,0,36700,36781,V F,0,36842,37146,1,0 P,0,36862,37146,V
Sprite,Background,Centre,"sb\btrfl1.png",375,169 S,0,37552,,0.355 R,0,37552,,-2.721948 P,0,37552,37633,V M,1,37552,38160,420.6779,189.3354,443.5168,199.5031 P,0,37552,38160,H P,0,37714,37795,V F,0,37856,38160,1,0 P,0,37876,38160,V
Sprite,Background,Centre,"sb\btrfl1.png",407,96 S,0,37755,,0.355 R,0,37755,,-3.173147 P,0,37755,37836,V M,1,37755,38363,456.9738,94.38273,481.9608,93.57409 P,0,37755,38363,H P,0,37917,37998,V F,0,38059,38363,1,0 P,0,38079,38363,V
Sprite,Background,Centre,"sb\btrfl1.png",486,89 S,0,37958,,0.355 R,0,37958,,-2.772086 P,0,37958,38039,V M,1,37958,38566,532.6396,107.0207,555.9595,116.031 P,0,37958,38566,H P,0,38120,38201,V F,0,38262,38566,1,0 P,0,38282,38566,V
Sprite,Background,Centre,"sb\btrfl1.png",532,154 S,0,38160,,0.355 R,0,38160,,-3.056469 P,0,38160,38241,V M,1,38160,38768,581.8223,158.2114,606.7335,160.317 P,0,38160,38768,H P,0,38322,38403,V F,0,38464,38768,1,0 P,0,38484,38768,V
Sprite,Background,Centre,"sb\btrfl1.png",421,234 S,0,38564,,0.355 R,0,38564,,-3.166089 P,0,38564,38645,V M,1,38564,39172,470.984,232.7355,495.976,232.1033 P,0,38564,39172,H P,0,38726,38807,V F,0,38868,39172,1,0 P,0,38888,39172,V
Sprite,Background,Centre,"sb\btrfl1.png",295,176 S,0,38971,,0.355 R,0,38971,,-2.801512 P,0,38971,39052,V M,1,38971,39579,342.1497,192.6406,365.7245,200.9609 P,0,38971,39579,H P,0,39133,39214,V F,0,39275,39579,1,0 P,0,39295,39579,V
Sprite,Background,Centre,"sb\btrfl1.png",155,226 S,0,39781,,0.355 R,0,39781,,-3.269984 P,0,39781,39862,V M,1,39781,40389,204.5833,219.5586,229.375,216.3379 P,0,39781,40389,H P,0,39943,40024,V F,0,40085,40389,1,0 P,0,40105,40389,V
Sprite,Background,Centre,"sb\btrfl1.png",268,322 S,0,40592,,0.355 R,0,40592,,-2.958819 P,0,40592,40673,V M,1,40592,41200,317.1744,331.0487,341.7616,335.5731 P,0,40592,41200,H P,0,40754,40835,V F,0,40896,41200,1,0 P,0,40916,41200,V
Sprite,Background,Centre,"sb\btrfl1.png",295,177 S,0,41403,,0.355 R,0,41403,,-3.061323 P,0,41403,41484,V M,1,41403,42011,344.8422,180.9695,369.7633,182.9542 P,0,41403,42011,H P,0,41565,41646,V F,0,41707,42011,1,0 P,0,41727,42011,V
Sprite,Background,Centre,"sb\btrfl1.png",213,160 S,0,42214,,0.355 R,0,42214,,-3.101835 P,0,42214,42295,V M,1,42214,42822,262.9621,161.9475,287.9431,162.9213 P,0,42214,42822,H P,0,42376,42457,V F,0,42518,42822,1,0 P,0,42538,42822,V
Sprite,Background,Centre,"sb\btrfl1.png",350,115 S,0,42619,,0.355 R,0,42619,,-3.155678 P,0,42619,42700,V M,1,42619,43227,399.9945,114.256,424.9917,113.8839 P,0,42619,43227,H P,0,42781,42862,V F,0,42923,43227,1,0 P,0,42943,43227,V
Sprite,Background,Centre,"sb\btrfl1.png",186,80 S,0,43025,,0.355 R,0,43025,,-2.730561 P,0,43025,43106,V M,1,43025,43633,231.8513,99.94125,254.777,109.9119 P,0,43025,43633,H P,0,43187,43268,V F,0,43329,43633,1,0 P,0,43349,43633,V
Sprite,Background,Centre,"sb\btrfl1.png",294,177 S,0,43430,,0.355 R,0,43430,,-3.107456 P,0,43430,43511,V M,1,43430,44038,343.9722,178.6667,368.9583,179.5 P,0,43430,44038,H P,0,43592,43673,V F,0,43734,44038,1,0 P,0,43754,44038,V
Sprite,Background,Centre,"sb\btrfl1.png",159,223 S,0,43835,,0.355 R,0,43835,,-3.10107 P,0,43835,43916,V M,1,43835,44443,208.9606,224.9858,233.9408,225.9787 P,0,43835,44443,H P,0,43997,44078,V F,0,44139,44443,1,0 P,0,44159,44443,V
Sprite,Background,Centre,"sb\btrfl1.png",268,98 S,0,44241,,0.355 R,0,44241,,-2.745316 P,0,44241,44322,V M,1,44241,44849,314.1406,117.2626,337.2109,126.8938 P,0,44241,44849,H P,0,44403,44484,V F,0,44545,44849,1,0 P,0,44565,44849,V
Sprite,Background,Centre,"sb\btrfl1.png",319,255 S,0,44646,,0.355 R,0,44646,,-3.213106 P,0,44646,44727,V M,1,44646,45254,368.8694,251.3877,393.804,249.5815 P,0,44646,45254,H P,0,44808,44889,V F,0,44950,45254,1,0 P,0,44970,45254,V
Sprite,Background,Centre,"sb\btrfl1.png",294,177 S,0,45457,,0.355 R,0,45457,,-2.783474 P,0,45457,45538,V M,1,45457,46065,340.8418,194.4883,364.2628,203.2325 P,0,45457,46065,H P,0,45619,45700,V F,0,45761,46065,1,0 P,0,45781,46065,V
Sprite,Background,Centre,"sb\btrfl1.png",477,388 S,0,46268,,0.355 R,0,46268,,-2.956086 P,0,46268,46349,V M,1,46268,46876,526.1495,397.1831,550.7242,401.7746 P,0,46268,46876,H P,0,46430,46511,V F,0,46572,46876,1,0 P,0,46592,46876,V
Sprite,Background,Centre,"sb\btrfl1.png",488,108 S,0,47079,,0.355 R,0,47079,,-2.994477 P,0,47079,47160,V M,1,47079,47687,537.4657,115.2899,562.1986,118.9348 P,0,47079,47687,H P,0,47241,47322,V F,0,47383,47687,1,0 P,0,47403,47687,V
Sprite,Background,Centre,"sb\btrfl1.png",363,172 S,0,47484,,0.355 R,0,47484,,-2.8653 P,0,47484,47565,V M,1,47484,48092,411.1145,185.6012,435.1718,192.4018 P,0,47484,48092,H P,0,47646,47727,V F,0,47788,48092,1,0 P,0,47808,48092,V
Sprite,Background,Centre,"sb\btrfl1.png",287,165 S,0,47687,,0.355 R,0,47687,,-3.072622 P,0,47687,47768,V M,1,47687,48295,336.8839,168.4061,361.8258,170.1091 P,0,47687,48295,H P,0,47849,47930,V F,0,47991,48295,1,0 P,0,48011,48295,V
Sprite,Background,Centre,"sb\btrfl1.png",332,99 S,0,47890,,0.355 R,0,47890,,-2.951039 P,0,47890,47971,V M,1,47890,48498,381.1025,108.431,405.6537,113.1466 P,0,47890,48498,H P,0,48052,48133,V F,0,48194,48498,1,0 P,0,48214,48498,V
Sprite,Background,Centre,"sb\btrfl1.png",318,236 S,0,48295,,0.355 R,0,48295,,-3.170098 P,0,48295,48376,V M,1,48295,48903,367.9785,234.5351,392.9678,233.8027 P,0,48295,48903,H P,0,48457,48538,V F,0,48599,48903,1,0 P,0,48619,48903,V
Sprite,Background,Centre,"sb\btrfl1.png",160,154 S,0,48700,,0.355 R,0,48700,,-3.155522 P,0,48700,48781,V M,1,48700,49308,209.9946,153.2637,234.9919,152.8956 P,0,48700,49308,H P,0,48862,48943,V F,0,49004,49308,1,0 P,0,49024,49308,V
Sprite,Background,Centre,"sb\btrfl1.png",295,364 S,0,49511,,0.355 R,0,49511,,-3.146178 P,0,49511,49592,V M,1,49511,50119,344.9993,363.7309,369.9989,363.5964 P,0,49511,50119,H P,0,49673,49754,V F,0,49815,50119,1,0 P,0,49835,50119,V
Sprite,Background,Centre,"sb\btrfl1.png",482,318 S,0,50727,,0.355 R,0,50727,,-3.128704 P,0,50727,50808,V M,1,50727,51335,531.9963,318.6046,556.9945,318.9069 P,0,50727,51335,H P,0,50889,50970,V F,0,51031,51335,1,0 P,0,51051,51335,V
Sprite,Background,Centre,"sb\btrfl1.png",446,249 S,0,50930,,0.355 R,0,50930,,-3.232524 P,0,50930,51011,V M,1,50930,51538,495.7898,244.42,520.6847,242.1301 P,0,50930,51538,H P,0,51092,51173,V F,0,51234,51538,1,0 P,0,51254,51538,V
Sprite,Background,Centre,"sb\btrfl1.png",525,252 S,0,51133,,0.355 R,0,51133,,-2.846998 P,0,51133,51214,V M,1,51133,51741,572.8575,266.4795,596.7863,273.7192 P,0,51133,51741,H P,0,51295,51376,V F,0,51437,51741,1,0 P,0,51457,51741,V
Sprite,Background,Centre,"sb\btrfl1.png",403,315 S,0,51538,,0.355 R,0,51538,,-2.983671 P,0,51538,51619,V M,1,51538,52146,452.3841,322.824,477.0761,326.736 P,0,51538,52146,H P,0,51700,51781,V F,0,51842,52146,1,0 P,0,51862,52146,V
Sprite,Background,Centre,"sb\btrfl1.png",373,158 S,0,51944,,0.355 R,0,51944,,-3.068036 P,0,51944,52025,V M,1,51944,52552,422.8677,161.6348,447.8015,163.4522 P,0,51944,52552,H P,0,52106,52187,V F,0,52248,52552,1,0 P,0,52268,52552,V
Sprite,Background,Centre,"sb\btrfl1.png",347,69 S,0,52754,,0.355 R,0,52754,,-2.869553 P,0,52754,52835,V M,1,52754,53362,395.1719,82.39645,419.2579,89.09468 P,0,52754,53362,H P,0,52916,52997,V F,0,53058,53362,1,0 P,0,53078,53362,V
Sprite,Background,Centre,"sb\btrfl1.png",438,317 S,0,53565,,0.355 R,0,53565,,-2.842033 P,0,53565,53646,V M,1,53565,54173,485.7851,331.7169,509.6776,339.0753 P,0,53565,54173,H P,0,53727,53808,V F,0,53869,54173,1,0 P,0,53889,54173,V
Sprite,Background,Centre,"sb\btrfl1.png",179,271 S,0,54376,,0.355 R,0,54376,,-3.162366 P,0,54376,54457,V M,1,54376,54984,228.9884,269.9216,253.9826,269.3824 P,0,54376,54984,H P,0,54538,54619,V F,0,54680,54984,1,0 P,0,54700,54984,V
Sprite,Background,Centre,"sb\btrfl1.png",145,192 S,0,55187,,0.355 R,0,55187,,-2.803511 P,0,55187,55268,V M,1,55187,55795,192.1828,208.5463,215.7742,216.8195 P,0,55187,55795,H P,0,55349,55430,V F,0,55491,55795,1,0 P,0,55511,55795,V
Sprite,Background,Centre,"sb\btrfl1.png",230,202 S,0,55998,,0.355 R,0,55998,,-2.782123 P,0,55998,56079,V M,1,55998,56606,276.8182,219.5516,300.2273,228.3274 P,0,55998,56606,H P,0,56160,56241,V F,0,56302,56606,1,0 P,0,56322,56606,V
Sprite,Background,Centre,"sb\btrfl1.png",76,140 S,0,56403,,0.355 R,0,56403,,-2.711111 P,0,56403,56484,V M,1,56403,57011,121.4548,160.8292,144.1823,171.2438 P,0,56403,57011,H P,0,56565,56646,V F,0,56707,57011,1,0 P,0,56727,57011,V
Sprite,Background,Centre,"sb\btrfl1.png",240,117 S,0,56808,,0.355 R,0,56808,,-3.044774 P,0,56808,56889,V M,1,56808,57416,289.7697,121.7938,314.6545,124.1906 P,0,56808,57416,H P,0,56970,57051,V F,0,57112,57416,1,0 P,0,57132,57416,V
Sprite,Background,Centre,"sb\btrfl1.png",179,271 S,0,57214,,0.355 R,0,57214,,-3.085827 P,0,57214,57295,V M,1,57214,57822,228.9245,273.7471,253.8867,275.1206 P,0,57214,57822,H P,0,57376,57457,V F,0,57518,57822,1,0 P,0,57538,57822,V
Sprite,Background,Centre,"sb\btrfl1.png",345,219 S,0,57619,,0.355 R,0,57619,,-3.048237 P,0,57619,57700,V M,1,57619,58227,394.786,223.6214,419.679,225.9321 P,0,57619,58227,H P,0,57781,57862,V F,0,57923,58227,1,0 P,0,57943,58227,V
Sprite,Background,Centre,"sb\btrfl1.png",448,389 S,0,58430,,0.355 R,0,58430,,-3.226583 P,0,58430,58511,V M,1,58430,59038,497.8161,384.7159,522.7242,382.5739 P,0,58430,59038,H P,0,58592,58673,V F,0,58734,59038,1,0 P,0,58754,59038,V
Sprite,Background,Centre,"sb\btrfl1.png",228,256 S,0,59241,,0.355 R,0,59241,,-2.802805 P,0,59241,59322,V M,1,59241,59849,275.1711,272.5796,298.7567,280.8694 P,0,59241,59849,H P,0,59403,59484,V F,0,59545,59849,1,0 P,0,59565,59849,V
Sprite,Background,Centre,"sb\btrfl1.png",169,113 S,0,60457,,0.355 R,0,60457,,-3.227225 P,0,60457,60538,V M,1,60457,61065,218.8134,108.684,243.7201,106.5259 P,0,60457,61065,H P,0,60619,60700,V F,0,60761,61065,1,0 P,0,60781,61065,V
Sprite,Background,Centre,"sb\btrfl1.png",92,242 S,0,60862,,0.355 R,0,60862,,-2.709913 P,0,60862,60943,V M,1,60862,61470,137.4299,262.8837,160.1448,273.3255 P,0,60862,61470,H P,0,61024,61105,V F,0,61166,61470,1,0 P,0,61186,61470,V
Sprite,Background,Centre,"sb\btrfl1.png",373,235 S,0,61701,,0.355 R,0,61701,,-3.210063 P,0,61701,61782,V M,1,61701,62309,422.8801,231.5395,447.8202,229.8092 P,0,61701,62309,H P,0,61863,61944,V F,0,62005,62309,1,0 P,0,62025,62309,V
Sprite,Background,Centre,"sb\btrfl1.png",306,298 S,0,62589,,0.355 R,0,62589,,-3.077103 P,0,62589,62670,V M,1,62589,63197,355.8986,301.1825,380.8479,302.7737 P,0,62589,63197,H P,0,62751,62832,V F,0,62893,63197,1,0 P,0,62913,63197,V
Sprite,Background,Centre,"sb\btrfl1.png",284,208 S,0,63550,,0.355 R,0,63550,,-2.726387 P,0,63550,63631,V M,1,63550,64158,329.7677,228.1325,352.6516,238.1987 P,0,63550,64158,H P,0,63712,63793,V F,0,63854,64158,1,0 P,0,63874,64158,V
Sprite,Background,Centre,"sb\btrfl1.png",373,235 S,0,64640,,0.355 R,0,64640,,-2.759459 P,0,64640,64721,V M,1,64640,65248,419.4084,253.6081,442.6126,262.9122 P,0,64640,65248,H P,0,64802,64883,V F,0,64944,65248,1,0 P,0,64964,65248,V
//Storyboard Layer 1 (Fail)
//Storyboard Layer 2 (Pass)
//Storyboard Layer 3 (Foreground)
//Storyboard Sound Samples

[TimingPoints]
863,405.405405405405,4,2,1,20,1,0
863,-100,4,2,1,20,0,1
964,-100,4,2,1,20,0,0
1268,-100,4,2,1,15,0,0
1673,-100,4,2,1,20,0,0
2079,-100,4,2,1,25,0,0
2890,-100,4,2,1,20,0,0
3700,-100,4,2,1,15,0,0
4106,-100,4,2,1,25,0,0
4511,-100,4,2,1,15,0,0
5119,-100,4,2,1,20,0,0
6133,-100,4,2,1,15,0,0
6538,-100,4,2,1,20,0,0
6944,-100,4,2,1,15,0,0
7349,-80,4,2,1,25,0,0
7754,-80,4,2,1,15,0,0
8160,-80,4,2,1,25,0,0
8565,-80,4,2,1,15,0,0
8971,-80,4,2,1,25,0,0
9376,-100,4,2,1,15,0,0
9781,-100,4,2,1,20,0,0
12619,-100,4,2,1,15,0,0
13025,-100,4,2,1,20,0,0
13835,-100,4,2,1,25,0,1
13937,-100,4,2,1,25,0,0
14241,-100,4,2,1,15,0,0
14646,-100,4,2,1,20,0,0
15052,-100,4,2,1,25,0,0
15862,-100,4,2,1,20,0,0
16673,-100,4,2,1,15,0,0
17079,-100,4,2,1,25,0,0
17484,-100,4,2,1,15,0,0
18295,-100,4,2,1,25,0,0
19106,-100,4,2,1,15,0,0
19511,-100,4,2,1,20,0,0
20322,-80,4,2,1,25,0,0
20727,-80,4,2,1,15,0,0
21133,-80,4,2,1,25,0,0
21538,-80,4,2,1,15,0,0
21944,-80,4,2,1,25,0,0
22349,-100,4,2,1,15,0,0
22754,-100,4,2,1,20,0,0
23160,-100,4,2,1,15,0,0
23565,-100,4,2,1,20,0,0
25592,-100,4,2,1,15,0,0
25998,-100,4,2,1,25,0,0
26403,-100,4,2,1,15,0,0
26808,-100,4,2,1,25,0,0
27214,-100,4,2,1,15,0,0
28025,-100,4,2,1,20,0,0
28835,-100,4,2,1,15,0,0
29241,-100,4,2,1,20,0,0
29646,-100,4,2,1,15,0,0
30052,-100,4,2,1,20,0,0
31268,-100,4,2,1,15,0,0
32484,-100,4,2,1,25,0,0
33295,-100,4,2,1,25,0,1
33396,-100,4,2,1,25,0,0
33700,-100,4,2,1,15,0,0
34106,-100,4,2,1,20,0,0
34511,-100,4,2,1,25,0,0
35322,-100,4,2,1,15,0,0
35727,-100,4,2,1,25,0,0
36133,-100,4,2,1,15,0,0
36538,-100,4,2,1,25,0,0
36944,-100,4,2,1,15,0,0
37552,-100,4,2,1,20,0,0
38565,-100,4,2,1,15,0,0
38971,-100,4,2,1,20,0,0
39376,-100,4,2,1,15,0,0
39781,-80,4,2,1,25,0,0
40187,-80,4,2,1,15,0,0
40592,-80,4,2,1,25,0,0
40998,-80,4,2,1,15,0,0
41403,-80,4,2,1,25,0,0
41808,-100,4,2,1,15,0,0
42214,-100,4,2,1,20,0,0
45052,-100,4,2,1,15,0,0
45457,-100,4,2,1,20,0,0
45862,-100,4,2,1,15,0,0
46268,-100,4,2,1,25,0,1
46369,-100,4,2,1,25,0,0
46673,-100,4,2,1,15,0,0
47079,-100,4,2,1,20,0,0
47484,-100,4,2,1,25,0,0
48295,-100,4,2,1,15,0,0
48700,-100,4,2,1,20,0,0
49106,-100,4,2,1,15,0,0
49511,-100,4,2,1,25,0,0
49917,-100,4,2,1,15,0,0
50727,-100,4,2,1,25,0,0
51538,-100,4,2,1,15,0,0
51944,-100,4,2,1,20,0,0
52349,-100,4,2,1,15,0,0
52754,-80,4,2,1,25,0,0
53160,-80,4,2,1,15,0,0
53565,-80,4,2,1,25,0,0
53971,-80,4,2,1,15,0,0
54376,-80,4,2,1,25,0,0
54781,-100,4,2,1,15,0,0
55187,-100,4,2,1,20,0,0
55592,-100,4,2,1,15,0,0
55998,-100,4,2,1,20,0,0
58025,-100,4,2,1,15,0,0
58430,-100,4,2,1,20,0,0
58835,-100,4,2,1,15,0,0
59241,-100,4,2,1,20,0,0
59646,-100,4,2,1,15,0,0
60457,-100,4,2,1,20,0,0
60862,419.58041958042,4,2,1,20,1,0
61281,-100,4,2,1,15,0,0
61701,444.444444444444,4,2,1,20,1,0
62145,-100,4,2,1,15,0,0
62589,461.538461538462,4,2,1,20,1,0
63050,500,4,2,1,15,1,0
63550,545.454545454546,4,2,1,15,1,0
64095,-100,4,2,1,10,0,0
64640,-200,4,2,1,10,0,0
65731,-200,4,2,2,5,0,0

[Colours]
Combo1 : 255,128,64
Combo2 : 0,128,192
Combo3 : 255,128,128

[HitObjects]
96,135,52,5,0,0:0:0:0:
383,308,863,6,0,L|388:159,1,140,6|0,0:0|0:0,0:0:0:0:
249,78,1673,1,0,0:0:0:0:
241,242,2079,1,2,0:0:0:0:
286,174,2281,1,2,0:0:0:0:
205,170,2484,1,2,0:0:0:0:
322,246,2890,1,0,0:0:0:0:
160,238,3295,2,0,P|123:183|152:106,1,140,2|0,0:0|0:0,0:0:0:0:
367,178,4106,6,0,L|360:328,2,140,2|0|0,0:0|0:0|0:0,0:0:0:0:
448,182,5120,1,2,0:0:0:0:
411,110,5322,1,2,0:0:0:0:
330,106,5525,1,2,0:0:0:0:
287,175,5728,1,2,0:0:0:0:
292,312,6133,1,0,0:0:0:0:
170,247,6538,1,2,0:0:0:0:
287,175,6944,1,0,0:0:0:0:
175,384,7349,6,0,B|131:351|131:351|108:294|108:294|55:251,1,175,2|0,0:0|0:0,0:0:0:0:
287,175,8160,2,0,B|280:229|280:229|242:278|242:278|231:345,1,175,2|0,0:0|0:0,0:0:0:0:
51,183,8971,2,0,B|101:161|101:161|162:169|162:169|226:145,1,175,2|0,0:0|0:0,0:0:0:0:
20,264,9781,5,2,0:0:0:0:
37,97,10187,1,2,0:0:0:0:
106,251,10592,2,0,P|146:287|234:278,1,140,2|2,0:0|0:0,0:0:0:0:
219,73,11403,2,0,B|210:124|210:124|188:161|188:161|182:206,2,140,2|2|2,0:0|0:0|0:0,0:0:0:0:
106,163,12619,1,0,0:0:0:0:
270,206,13025,2,0,B|310:211|310:211|412:197,1,140,2|0,0:0|0:0,0:0:0:0:
256,126,13835,6,0,P|212:150|197:241,1,140,6|0,0:0|0:0,0:0:0:0:
288,369,14646,1,0,0:0:0:0:
394,142,15052,1,2,0:0:0:0:
317,174,15255,1,2,0:0:0:0:
326,91,15457,1,2,0:0:0:0:
476,135,15862,2,0,B|481:184|481:184|472:228|472:228|477:281,1,140,0|2,0:0|0:0,0:0:0:0:
322,292,16673,1,0,0:0:0:0:
227,167,17079,6,0,B|232:121|232:121|223:77|223:77|228:29,2,140,2|0|0,0:0|0:0|0:0,0:0:0:0:
167,312,18295,1,2,0:0:0:0:
119,249,18498,1,2,0:0:0:0:
89,323,18700,1,2,0:0:0:0:
197,238,19106,1,0,0:0:0:0:
325,290,19511,2,0,L|464:296,1,140,2|0,0:0|0:0,0:0:0:0:
348,121,20322,6,0,B|333:149|312:166|312:166|300:207|300:207|259:224|246:262,1,175,2|0,0:0|0:0,0:0:0:0:
132,39,21133,2,0,B|163:37|188:47|188:47|230:37|230:37|265:64|305:56,1,175,2|0,0:0|0:0,0:0:0:0:
169,268,21944,2,0,B|152:241|148:214|148:214|118:183|118:183|124:139|97:109,1,175,2|0,0:0|0:0,0:0:0:0:
251,276,22754,6,0,P|225:331|136:346,1,140,2|0,0:0|0:0,0:0:0:0:
217,200,23565,1,2,0:0:0:0:
334,285,23971,1,2,0:0:0:0:
168,267,24376,1,2,0:0:0:0:
300,209,24781,1,2,0:0:0:0:
183,123,25187,2,0,B|159:189|159:189|155:271,1,140,2|0,0:0|0:0,0:0:0:0:
106,98,25998,2,0,P|164:44|239:63,1,140,2|0,0:0|0:0,0:0:0:0:
318,139,26808,6,0,P|232:143|179:120,2,140,2|0|0,0:0|0:0|0:0,0:0:0:0:
446,99,28025,1,2,0:0:0:0:
416,230,28430,2,0,B|422:300|422:300|455:367,1,140,2|0,0:0|0:0,0:0:0:0:
491,198,29241,2,0,L|333:179,1,140,2|0,0:0|0:0,0:0:0:0:
159,181,30052,6,0,L|21:198,2,140,2|2|2,0:0|0:0|0:0,0:0:0:0:
255,109,31268,1,2,0:0:0:0:
255,206,31673,1,0,0:0:0:0:
255,13,32484,1,0,0:0:0:0:
86,205,33295,6,0,B|77:255|77:255|81:303|81:303|74:348,1,140,6|0,0:0|0:0,0:0:0:0:
1,175,34106,1,0,0:0:0:0:
155,147,34511,1,2,0:0:0:0:
206,207,34714,1,2,0:0:0:0:
233,133,34917,1,2,0:0:0:0:
104,87,35322,1,0,0:0:0:0:
178,280,35727,2,0,B|232:305|232:305|337:295,1,140,2|0,0:0|0:0,0:0:0:0:
389,105,36538,6,0,B|393:157|393:157|379:205|379:205|385:268,2,140,2|0|0,0:0|0:0|0:0,0:0:0:0:
311,113,37552,1,2,0:0:0:0:
343,40,37755,1,2,0:0:0:0:
422,33,37958,1,2,0:0:0:0:
468,98,38160,1,2,0:0:0:0:
357,178,38564,1,0,0:0:0:0:
231,120,38971,2,0,B|266:151|266:151|283:257,1,140,2|0,0:0|0:0,0:0:0:0:
91,170,39781,6,0,B|125:161|140:132|140:132|147:115|154:94|154:94|172:48|228:34,1,175,2|0,0:0|0:0,0:0:0:0:
204,266,40592,2,0,B|179:241|146:242|146:242|128:245|106:249|106:249|57:256|17:215,1,175,2|0,0:0|0:0,0:0:0:0:
231,121,41403,2,0,B|221:154|239:182|239:182|250:196|265:213|265:213|296:252|280:307,1,175,2|0,0:0|0:0,0:0:0:0:
149,104,42214,5,2,0:0:0:0:
286,59,42619,1,2,0:0:0:0:
122,24,43025,1,2,0:0:0:0:
230,121,43430,1,2,0:0:0:0:
95,167,43835,1,2,0:0:0:0:
204,42,44241,1,2,0:0:0:0:
255,199,44646,2,0,P|232:231|116:251,1,140,2|0,0:0|0:0,0:0:0:0:
230,121,45457,2,0,P|282:122|335:197,1,140,2|0,0:0|0:0,0:0:0:0:
413,332,46268,6,0,L|419:185,1,140,6|0,0:0|0:0,0:0:0:0:
424,52,47079,1,0,0:0:0:0:
299,116,47484,1,2,0:0:0:0:
223,109,47687,1,2,0:0:0:0:
268,43,47890,1,2,0:0:0:0:
254,180,48295,1,0,0:0:0:0:
96,98,48700,2,0,P|103:185|156:246,1,140,2|0,0:0|0:0,0:0:0:0:
231,308,49511,6,0,B|170:321|170:321|78:323,2,140,2|0|0,0:0|0:0|0:0,0:0:0:0:
418,262,50727,1,2,0:0:0:0:
382,193,50930,1,2,0:0:0:0:
461,196,51133,1,2,0:0:0:0:
339,259,51538,1,0,0:0:0:0:
309,102,51944,2,0,B|362:93|362:93|466:97,1,140,2|0,0:0|0:0,0:0:0:0:
283,13,52754,6,0,B|239:59|239:59|227:102|227:102|179:151,1,175,2|0,0:0|0:0,0:0:0:0:
374,261,53565,2,0,B|356:199|356:199|325:167|325:167|307:101,1,175,2|0,0:0|0:0,0:0:0:0:
115,215,54376,2,0,B|177:231|177:231|220:220|220:220|286:237,1,175,2|0,0:0|0:0,0:0:0:0:
81,136,55187,6,0,P|35:186|46:266,1,140,2|0,0:0|0:0,0:0:0:0:
166,146,55998,1,2,0:0:0:0:
12,84,56403,1,2,0:0:0:0:
176,61,56808,1,2,0:0:0:0:
115,215,57214,1,2,0:0:0:0:
281,163,57619,2,0,P|316:130|400:146,1,140,2|0,0:0|0:0,0:0:0:0:
384,333,58430,2,0,B|364:298|364:298|348:200,1,140,2|0,0:0|0:0,0:0:0:0:
164,200,59241,6,0,B|148:298|148:298|128:333,2,140,2|0|0,0:0|0:0|0:0,0:0:0:0:
105,57,60457,1,2,0:0:0:0:
28,186,60862,2,0,B|76:204|76:204|172:200,1,140,2|0,0:0|0:0,0:0:0:0:
309,179,61701,2,0,B|331:111|331:111|323:39,1,140,2|0,0:0|0:0,0:0:0:0:
242,242,62589,6,0,B|210:290|233:341|233:341|257:326|262:303,1,140,2|2,0:0|0:0,0:0:0:0:
220,152,63550,2,0,B|193:100|137:95|137:95|139:122|156:138,1,140,2|2,0:0|0:0,0:0:0:0:
309,179,64640,6,0,B|367:182|399:135|399:135|374:124|352:130,1,140,2|0,0:0|0:0,0:0:0:0:
