osu file format v14

[General]
AudioFilename: audio.mp3
AudioLeadIn: 0
PreviewTime: 7349
Countdown: 0
SampleSet: Soft
StackLeniency: 0.7
Mode: 0
LetterboxInBreaks: 0
WidescreenStoryboard: 1

[Editor]
Bookmarks: 33295
DistanceSpacing: 1.2
BeatDivisor: 4
GridSize: 32
TimelineZoom: 1

[Metadata]
Title:Byakumu no Mayu ~Ricordando il passato~
TitleUnicode:白夢の繭 ~Ricordando il passato~
Artist:R3 Music Box
ArtistUnicode:R3 Music Box
Creator:EijiKuinbii
Version:Easy
Source:うみねこのなく頃に散
Tags:visual novel ushiromiya 07th expansion when they cry umineko no naku koro ni chiru Quadrocake Vad2009 Mirash
BeatmapID:1353804
BeatmapSetID:593228

[Difficulty]
HPDrainRate:2
CircleSize:3
OverallDifficulty:2
ApproachRate:3
SliderMultiplier:0.8
SliderTickRate:1

[Events]
//Background and Video events
0,0,"wtc.jpg",0,0
//Break Periods
//Storyboard Layer 0 (Background)
Sprite,Background,Centre,"wtc.jpg",0,0
Sprite,Background,Centre,"sb\bgfull.jpg",320,240 S,0,0,,1.15 F,0,0,2000,0,1 M,0,0,68337,320,612.4258,320,-131.8733 F,0,66337,68337,1,0
Sprite,Background,Centre,"sb\btrfl1.png",124,267 S,0,52,,0.504 R,0,52,,-6.206878 M,1,52,660,69.15672,262.8509,44.22797,260.9649 P,0,52,660,H P,0,133,214,V P,0,295,376,V F,0,356,660,1,0
Sprite,Background,Centre,"sb\btrfl1.png",294,367 S,0,863,,0.504 R,0,863,,-6.161337 M,1,863,1471,239.4025,360.3584,214.5854,357.3395 P,0,863,1471,H P,0,944,1025,V P,0,1106,1187,V F,0,1167,1471,1,0
Sprite,Background,Centre,"sb\btrfl1.png",457,316 S,0,1673,,0.504 R,0,1673,,-6.185988 M,1,1673,2281,402.2554,310.7062,377.3714,308.2999 P,0,1673,2281,H P,0,1754,1835,V P,0,1916,1997,V F,0,1977,2281,1,0
Sprite,Background,Centre,"sb\btrfl1.png",372,266 S,0,2079,,0.504 R,0,2079,,-6.290919 M,1,2079,2687,317.002,266.4692,292.0029,266.6824 P,0,2079,2687,H P,0,2160,2241,V P,0,2322,2403,V F,0,2383,2687,1,0
Sprite,Background,Centre,"sb\btrfl1.png",455,217 S,0,3295,,0.504 R,0,3295,,-6.466983 M,1,3295,3903,400.9344,227.0951,376.3591,231.6838 P,0,3295,3903,H P,0,3376,3457,V P,0,3538,3619,V F,0,3599,3903,1,0
Sprite,Background,Centre,"sb\btrfl1.png",298,110 S,0,4106,,0.504 R,0,4106,,-6.290557 M,1,4106,4714,243.0018,110.4493,218.0027,110.6535 P,0,4106,4714,H P,0,4187,4268,V P,0,4349,4430,V F,0,4410,4714,1,0
Sprite,Background,Centre,"sb\btrfl1.png",317,282 S,0,4917,,0.504 R,0,4917,,-6.116986 M,1,4917,5525,262.7506,272.9443,238.0918,268.8281 P,0,4917,5525,H P,0,4998,5079,V P,0,5160,5241,V F,0,5221,5525,1,0
Sprite,Background,Centre,"sb\btrfl1.png",254,430 S,0,5727,,0.504 R,0,5727,,-6.348911 M,1,5727,6335,199.1216,433.656,174.1769,435.3178 P,0,5727,6335,H P,0,5808,5889,V P,0,5970,6051,V F,0,6031,6335,1,0
Sprite,Background,Centre,"sb\btrfl1.png",86,368 S,0,6538,,0.504 R,0,6538,,-6.081225 M,1,6538,7146,32.10909,357.0105,7.613225,352.0152 P,0,6538,7146,H P,0,6619,6700,V P,0,6781,6862,V F,0,6842,7146,1,0
Sprite,Background,Centre,"sb\btrfl1.png",176,198 S,0,7349,,0.504 R,0,7349,,-6.433148 M,1,7349,7957,121.6238,206.2604,96.90741,210.0151 P,0,7349,7957,H P,0,7430,7511,V P,0,7592,7673,V F,0,7653,7957,1,0
Sprite,Background,Centre,"sb\btrfl1.png",281,105 S,0,8160,,0.504 R,0,8160,,-6.424047 M,1,8160,8768,226.5509,112.7652,201.8013,116.2948 P,0,8160,8768,H P,0,8241,8322,V P,0,8403,8484,V F,0,8464,8768,1,0
Sprite,Background,Centre,"sb\btrfl1.png",385,203 S,0,8971,,0.504 R,0,8971,,-6.336343 M,1,8971,9579,330.08,205.966,305.1164,207.3142 P,0,8971,9579,H P,0,9052,9133,V P,0,9214,9295,V F,0,9275,9579,1,0
Sprite,Background,Centre,"sb\btrfl1.png",488,101 S,0,9781,,0.504 R,0,9781,,-6.253671 M,1,9781,10389,433.0227,99.4207,408.033,98.70284 P,0,9781,10389,H P,0,9862,9943,V P,0,10024,10105,V F,0,10085,10389,1,0
Sprite,Background,Centre,"sb\btrfl1.png",557,255 S,0,10592,,0.504 R,0,10592,,-6.335244 M,1,10592,11200,502.0768,257.9057,477.1117,259.2264 P,0,10592,11200,H P,0,10673,10754,V P,0,10835,10916,V F,0,10896,11200,1,0
Sprite,Background,Centre,"sb\btrfl1.png",571,350 S,0,10998,,0.504 R,0,10998,,-6.078924 M,1,10998,11606,517.1345,338.8865,492.6502,333.8349 P,0,10998,11606,H P,0,11079,11160,V P,0,11241,11322,V F,0,11302,11606,1,0
Sprite,Background,Centre,"sb\btrfl1.png",484,391 S,0,11403,,0.504 R,0,11403,,-6.554817 M,1,11403,12011,431.0284,405.7989,406.9503,412.5256 P,0,11403,12011,H P,0,11484,11565,V P,0,11646,11727,V F,0,11707,12011,1,0
Sprite,Background,Centre,"sb\btrfl1.png",311,213 S,0,13025,,0.504 R,0,13025,,-6.138815 M,1,13025,13633,256.5659,205.1305,231.8231,201.5535 P,0,13025,13633,H P,0,13106,13187,V P,0,13268,13349,V F,0,13329,13633,1,0
Sprite,Background,Centre,"sb\btrfl1.png",140,301 S,0,13836,,0.504 R,0,13836,,-6.072327 M,1,13836,14444,86.20901,289.5313,61.75857,284.3183 P,0,13836,14444,H P,0,13917,13998,V P,0,14079,14160,V F,0,14140,14444,1,0
Sprite,Background,Centre,"sb\btrfl1.png",179,213 S,0,14646,,0.504 R,0,14646,,-6.23141 M,1,14646,15254,124.0715,210.1973,99.10394,208.9234 P,0,14646,15254,H P,0,14727,14808,V P,0,14889,14970,V F,0,14950,15254,1,0
Sprite,Background,Centre,"sb\btrfl1.png",217,124 S,0,15052,,0.504 R,0,15052,,-6.412704 M,1,15052,15660,162.4663,131.1471,137.6783,134.3957 P,0,15052,15660,H P,0,15133,15214,V P,0,15295,15376,V F,0,15356,15660,1,0
Sprite,Background,Centre,"sb\btrfl1.png",123,136 S,0,16268,,0.504 R,0,16268,,-6.161546 M,1,16268,16876,68.40109,129.3698,43.58341,126.3561 P,0,16268,16876,H P,0,16349,16430,V P,0,16511,16592,V F,0,16572,16876,1,0
Sprite,Background,Centre,"sb\btrfl1.png",252,278 S,0,17079,,0.504 R,0,17079,,-6.145974 M,1,17079,17687,197.511,270.5204,172.7432,267.1206 P,0,17079,17687,H P,0,17160,17241,V P,0,17322,17403,V F,0,17383,17687,1,0
Sprite,Background,Centre,"sb\btrfl1.png",268,181 S,0,17484,,0.504 R,0,17484,,-6.074049 M,1,17484,18092,214.1893,169.624,189.7299,164.4531 P,0,17484,18092,H P,0,17565,17646,V P,0,17727,17808,V F,0,17788,18092,1,0
Sprite,Background,Centre,"sb\btrfl1.png",415,113 S,0,18295,,0.504 R,0,18295,,-6.553688 M,1,18295,18903,362.0117,127.739,337.9261,134.4386 P,0,18295,18903,H P,0,18376,18457,V P,0,18538,18619,V F,0,18599,18903,1,0
Sprite,Background,Centre,"sb\btrfl1.png",431,208 S,0,18700,,0.504 R,0,18700,,-6.220029 M,1,18700,19308,376.1069,204.5724,351.1555,203.0144 P,0,18700,19308,H P,0,18781,18862,V P,0,18943,19024,V F,0,19004,19308,1,0
Sprite,Background,Centre,"sb\btrfl1.png",252,426 S,0,20322,,0.504 R,0,20322,,-6.306858 M,1,20322,20930,197.0165,427.3457,172.0239,427.9573 P,0,20322,20930,H P,0,20403,20484,V P,0,20565,20646,V F,0,20626,20930,1,0
Sprite,Background,Centre,"sb\btrfl1.png",156,324 S,0,21133,,0.504 R,0,21133,,-6.102991 M,1,21133,21741,101.8827,314.1859,77.2839,309.725 P,0,21133,21741,H P,0,21214,21295,V P,0,21376,21457,V F,0,21437,21741,1,0
Sprite,Background,Centre,"sb\btrfl1.png",270,227 S,0,21944,,0.504 R,0,21944,,-6.22619 M,1,21944,22552,215.0868,223.9107,190.1263,222.5064 P,0,21944,22552,H P,0,22025,22106,V P,0,22187,22268,V F,0,22248,22552,1,0
Sprite,Background,Centre,"sb\btrfl1.png",174,125 S,0,22754,,0.504 R,0,22754,,-6.296592 M,1,22754,23362,119.0055,125.7812,94.00807,126.1362 P,0,22754,23362,H P,0,22835,22916,V P,0,22997,23078,V F,0,23058,23362,1,0
Sprite,Background,Centre,"sb\btrfl1.png",348,134 S,0,23565,,0.504 R,0,23565,,-6.529445 M,1,23565,24173,294.67,147.4503,270.4291,153.564 P,0,23565,24173,H P,0,23646,23727,V P,0,23808,23889,V F,0,23869,24173,1,0
Sprite,Background,Centre,"sb\btrfl1.png",442,117 S,0,23971,,0.504 R,0,23971,,-6.476438 M,1,23971,24579,388.0323,127.6058,363.5015,132.4267 P,0,23971,24579,H P,0,24052,24133,V P,0,24214,24295,V F,0,24275,24579,1,0
Sprite,Background,Centre,"sb\btrfl1.png",410,207 S,0,25187,,0.504 R,0,25187,,-6.343337 M,1,25187,25795,355.1021,210.35,330.1485,211.8728 P,0,25187,25795,H P,0,25268,25349,V P,0,25430,25511,V F,0,25491,25795,1,0
Sprite,Background,Centre,"sb\btrfl1.png",466,390 S,0,25998,,0.504 R,0,25998,,-6.421414 M,1,25998,26606,411.5307,397.6218,386.7719,401.0862 P,0,25998,26606,H P,0,26079,26160,V P,0,26241,26322,V F,0,26302,26606,1,0
Sprite,Background,Centre,"sb\btrfl1.png",349,309 S,0,26808,,0.504 R,0,26808,,-6.075728 M,1,26808,27416,295.1703,297.7144,270.7023,292.5846 P,0,26808,27416,H P,0,26889,26970,V P,0,27051,27132,V F,0,27112,27416,1,0
Sprite,Background,Centre,"sb\btrfl1.png",433,263 S,0,28025,,0.504 R,0,28025,,-6.248651 M,1,28025,28633,378.0313,261.1448,353.0455,260.3015 P,0,28025,28633,H P,0,28106,28187,V P,0,28268,28349,V F,0,28329,28633,1,0
Sprite,Background,Centre,"sb\btrfl1.png",455,175 S,0,28430,,0.504 R,0,28430,,-6.188518 M,1,28430,29038,400.2422,169.8447,375.3522,167.5014 P,0,28430,29038,H P,0,28511,28592,V P,0,28673,28754,V F,0,28734,29038,1,0
Sprite,Background,Centre,"sb\btrfl1.png",106,219 S,0,30052,,0.504 R,0,30052,,-6.554803 M,1,30052,30660,53.02817,233.7981,28.95006,240.5246 P,0,30052,30660,H P,0,30133,30214,V P,0,30295,30376,V F,0,30356,30660,1,0
Sprite,Background,Centre,"sb\btrfl1.png",188,268 S,0,31268,,0.504 R,0,31268,,-6.379498 M,1,31268,31876,133.2591,273.3326,108.3769,275.7565 P,0,31268,31876,H P,0,31349,31430,V P,0,31511,31592,V F,0,31572,31876,1,0
Sprite,Background,Centre,"sb\btrfl1.png",182,155 S,0,32484,,0.504 R,0,32484,,-6.398429 M,1,32484,33092,127.3699,161.3679,102.538,164.2624 P,0,32484,33092,H P,0,32565,32646,V P,0,32727,32808,V F,0,32788,33092,1,0
Sprite,Background,Centre,"sb\btrfl1.png",368,109 S,0,33295,,0.504 R,0,33295,,-6.091272 M,1,33295,33903,314.0014,98.55246,289.4566,93.80358 P,0,33295,33903,H P,0,33376,33457,V P,0,33538,33619,V F,0,33599,33903,1,0
Sprite,Background,Centre,"sb\btrfl1.png",425,185 S,0,33700,,0.504 R,0,33700,,-6.317435 M,1,33700,34308,370.0338,186.9272,345.0491,187.8031 P,0,33700,34308,H P,0,33781,33862,V P,0,33943,34024,V F,0,34004,34308,1,0
Sprite,Background,Centre,"sb\btrfl1.png",445,357 S,0,34511,,0.504 R,0,34511,,-6.212014 M,1,34511,35119,390.1361,353.1326,365.198,351.3746 P,0,34511,35119,H P,0,34592,34673,V P,0,34754,34835,V F,0,34815,35119,1,0
Sprite,Background,Centre,"sb\btrfl1.png",539,374 S,0,34917,,0.504 R,0,34917,,-6.510521 M,1,34917,35525,485.425,386.4387,461.0728,392.0927 P,0,34917,35525,H P,0,34998,35079,V P,0,35160,35241,V F,0,35221,35525,1,0
Sprite,Background,Centre,"sb\btrfl1.png",554,200 S,0,35727,,0.504 R,0,35727,,-6.433274 M,1,35727,36335,499.6249,208.2672,474.9089,212.0251 P,0,35727,36335,H P,0,35808,35889,V P,0,35970,36051,V F,0,36031,36335,1,0
Sprite,Background,Centre,"sb\btrfl1.png",445,100 S,0,36538,,0.504 R,0,36538,,-6.116451 M,1,36538,37146,390.7555,90.91524,366.0989,86.7858 P,0,36538,37146,H P,0,36619,36700,V P,0,36781,36862,V F,0,36842,37146,1,0
Sprite,Background,Centre,"sb\btrfl1.png",268,94 S,0,37349,,0.504 R,0,37349,,-6.172617 M,1,37349,37957,213.331,87.97467,188.4815,85.23589 P,0,37349,37957,H P,0,37430,37511,V P,0,37592,37673,V F,0,37653,37957,1,0
Sprite,Background,Centre,"sb\btrfl1.png",372,215 S,0,38160,,0.504 R,0,38160,,-6.40142 M,1,38160,38768,317.3892,221.5313,292.5661,224.5 P,0,38160,38768,H P,0,38241,38322,V P,0,38403,38484,V F,0,38464,38768,1,0
Sprite,Background,Centre,"sb\btrfl1.png",552,149 S,0,38971,,0.504 R,0,38971,,-6.341395 M,1,38971,39579,497.0957,152.2435,472.1392,153.7178 P,0,38971,39579,H P,0,39052,39133,V P,0,39214,39295,V F,0,39275,39579,1,0
Sprite,Background,Centre,"sb\btrfl1.png",495,329 S,0,39781,,0.504 R,0,39781,,-6.496587 M,1,39781,40389,441.2569,340.691,416.8282,346.0052 P,0,39781,40389,H P,0,39862,39943,V P,0,40024,40105,V F,0,40085,40389,1,0
Sprite,Background,Centre,"sb\btrfl1.png",391,222 S,0,40592,,0.504 R,0,40592,,-6.459342 M,1,40592,41200,336.8589,231.6817,312.2492,236.0825 P,0,40592,41200,H P,0,40673,40754,V P,0,40835,40916,V F,0,40896,41200,1,0
Sprite,Background,Centre,"sb\btrfl1.png",286,327 S,0,41403,,0.504 R,0,41403,,-6.364964 M,1,41403,42011,231.1874,331.5364,206.2726,333.5984 P,0,41403,42011,H P,0,41484,41565,V P,0,41646,41727,V F,0,41707,42011,1,0
Sprite,Background,Centre,"sb\btrfl1.png",184,213 S,0,42214,,0.504 R,0,42214,,-6.210637 M,1,42214,42822,129.1415,209.057,104.2058,207.2647 P,0,42214,42822,H P,0,42295,42376,V P,0,42457,42538,V F,0,42518,42822,1,0
Sprite,Background,Centre,"sb\btrfl1.png",104,361 S,0,43025,,0.504 R,0,43025,,-6.260085 M,1,43025,43633,49.01368,359.7734,24.0199,359.2158 P,0,43025,43633,H P,0,43106,43187,V P,0,43268,43349,V F,0,43329,43633,1,0
Sprite,Background,Centre,"sb\btrfl1.png",67,269 S,0,43430,,0.504 R,0,43430,,-6.326016 M,1,43430,44038,12.05233,271.3987,-12.92388,272.489 P,0,43430,44038,H P,0,43511,43592,V P,0,43673,43754,V F,0,43734,44038,1,0
Sprite,Background,Centre,"sb\btrfl1.png",80,174 S,0,43835,,0.504 R,0,43835,,-6.472543 M,1,43835,44443,25.99137,184.3956,1.441993,189.1208 P,0,43835,44443,H P,0,43916,43997,V P,0,44078,44159,V F,0,44139,44443,1,0
Sprite,Background,Centre,"sb\btrfl1.png",398,107 S,0,45457,,0.504 R,0,45457,,-6.130904 M,1,45457,46065,343.6299,98.70017,318.9161,94.92752 P,0,45457,46065,H P,0,45538,45619,V P,0,45700,45781,V F,0,45761,46065,1,0
Sprite,Background,Centre,"sb\btrfl1.png",252,232 S,0,46268,,0.504 R,0,46268,,-6.157289 M,1,46268,46876,197.4298,225.1374,172.6252,222.018 P,0,46268,46876,H P,0,46349,46430,V P,0,46511,46592,V F,0,46572,46876,1,0
Sprite,Background,Centre,"sb\btrfl1.png",164,265 S,0,47079,,0.504 R,0,47079,,-6.202301 M,1,47079,47687,109.1763,260.5999,84.25642,258.5998 P,0,47079,47687,H P,0,47160,47241,V P,0,47322,47403,V F,0,47383,47687,1,0
Sprite,Background,Centre,"sb\btrfl1.png",86,321 S,0,47484,,0.504 R,0,47484,,-6.140891 M,1,47484,48092,31.54968,313.2435,6.799539,309.7178 P,0,47484,48092,H P,0,47565,47646,V P,0,47727,47808,V F,0,47788,48092,1,0
Sprite,Background,Centre,"sb\btrfl1.png",76,225 S,0,48700,,0.504 R,0,48700,,-6.230125 M,1,48700,49308,21.0751,222.1268,-3.890766,220.8208 P,0,48700,49308,H P,0,48781,48862,V P,0,48943,49024,V F,0,49004,49308,1,0
Sprite,Background,Centre,"sb\btrfl1.png",227,107 S,0,49511,,0.504 R,0,49511,,-6.257567 M,1,49511,50119,172.0169,105.6349,147.0246,105.0144 P,0,49511,50119,H P,0,49592,49673,V P,0,49754,49835,V F,0,49815,50119,1,0
Sprite,Background,Centre,"sb\btrfl1.png",274,189 S,0,49917,,0.504 R,0,49917,,-6.460797 M,1,49917,50525,219.873,198.7605,195.2698,203.197 P,0,49917,50525,H P,0,49998,50079,V P,0,50160,50241,V F,0,50221,50525,1,0
Sprite,Background,Centre,"sb\btrfl1.png",339,329 S,0,50727,,0.504 R,0,50727,,-6.122319 M,1,50727,51335,284.7031,320.2337,260.0227,316.249 P,0,50727,51335,H P,0,50808,50889,V P,0,50970,51051,V F,0,51031,51335,1,0
Sprite,Background,Centre,"sb\btrfl1.png",361,241 S,0,51133,,0.504 R,0,51133,,-6.12178 M,1,51133,51741,306.7079,232.2044,282.0296,228.2065 P,0,51133,51741,H P,0,51214,51295,V P,0,51376,51457,V F,0,51437,51741,1,0
Sprite,Background,Centre,"sb\btrfl1.png",442,275 S,0,52754,,0.504 R,0,52754,,-6.52671 M,1,52754,53362,388.6334,288.3044,364.3759,294.3518 P,0,52754,53362,H P,0,52835,52916,V P,0,52997,53078,V F,0,53058,53362,1,0
Sprite,Background,Centre,"sb\btrfl1.png",342,381 S,0,53565,,0.504 R,0,53565,,-6.150711 M,1,53565,54173,287.4761,373.7786,262.6926,370.4961 P,0,53565,54173,H P,0,53646,53727,V P,0,53808,53889,V F,0,53869,54173,1,0
Sprite,Background,Centre,"sb\btrfl1.png",243,271 S,0,54376,,0.504 R,0,54376,,-6.484929 M,1,54376,54984,189.1243,282.0637,164.6353,287.0926 P,0,54376,54984,H P,0,54457,54538,V P,0,54619,54700,V F,0,54680,54984,1,0
Sprite,Background,Centre,"sb\btrfl1.png",143,377 S,0,55187,,0.504 R,0,55187,,-6.247942 M,1,55187,55795,88.03263,375.1058,63.04746,374.2448 P,0,55187,55795,H P,0,55268,55349,V P,0,55430,55511,V F,0,55491,55795,1,0
Sprite,Background,Centre,"sb\btrfl1.png",131,201 S,0,55998,,0.504 R,0,55998,,-6.156593 M,1,55998,56606,76.43461,194.0994,51.63215,190.9628 P,0,55998,56606,H P,0,56079,56160,V P,0,56241,56322,V F,0,56302,56606,1,0
Sprite,Background,Centre,"sb\btrfl1.png",197,132 S,0,56403,,0.504 R,0,56403,,-6.460406 M,1,56403,57011,142.8692,141.7393,118.2643,146.1663 P,0,56403,57011,H P,0,56484,56565,V P,0,56646,56727,V F,0,56707,57011,1,0
Sprite,Background,Centre,"sb\btrfl1.png",107,110 S,0,57619,,0.504 R,0,57619,,-6.070014 M,1,57619,58227,53.23568,98.40697,28.79736,93.13741 P,0,57619,58227,H P,0,57700,57781,V P,0,57862,57943,V F,0,57923,58227,1,0
Sprite,Background,Centre,"sb\btrfl1.png",182,285 S,0,58430,,0.504 R,0,58430,,-6.329317 M,1,58430,59038,127.0606,287.5801,102.0881,288.7529 P,0,58430,59038,H P,0,58511,58592,V P,0,58673,58754,V F,0,58734,59038,1,0
Sprite,Background,Centre,"sb\btrfl1.png",350,257 S,0,59241,,0.504 R,0,59241,,-6.243897 M,1,59241,59849,295.0407,254.8835,270.0593,253.9214 P,0,59241,59849,H P,0,59322,59403,V P,0,59484,59565,V F,0,59545,59849,1,0
Sprite,Background,Centre,"sb\btrfl1.png",333,351 S,0,60457,,0.504 R,0,60457,,-6.210137 M,1,60457,61065,278.1435,347.0296,253.2087,345.2249 P,0,60457,61065,H P,0,60538,60619,V P,0,60700,60781,V F,0,60761,61065,1,0
Sprite,Background,Centre,"sb\btrfl1.png",260,290 S,0,60862,,0.504 R,0,60862,,-6.165269 M,1,60862,61470,205.3768,283.5731,180.5481,280.6518 P,0,60862,61470,H P,0,60943,61024,V P,0,61105,61186,V F,0,61166,61470,1,0
Sprite,Background,Centre,"sb\btrfl1.png",238,128 S,0,61701,,0.504 R,0,61701,,-6.519532 M,1,61701,62309,184.5393,140.921,160.239,146.7941 P,0,61701,62309,H P,0,61782,61863,V P,0,61944,62025,V F,0,62005,62309,1,0
Sprite,Background,Centre,"sb\btrfl1.png",169,281 S,0,62589,,0.504 R,0,62589,,-6.205453 M,1,62589,63197,114.1627,276.7727,89.23665,274.8512 P,0,62589,63197,H P,0,62670,62751,V P,0,62832,62913,V F,0,62893,63197,1,0
Sprite,Background,Centre,"sb\btrfl1.png",279,381 S,0,63550,,0.504 R,0,63550,,-6.210774 M,1,63550,64158,224.141,377.0646,199.2051,375.2758 P,0,63550,64158,H P,0,63631,63712,V P,0,63793,63874,V F,0,63854,64158,1,0
Sprite,Background,Centre,"sb\btrfl1.png",423,314 S,0,64640,,0.504 R,0,64640,,-6.507236 M,1,64640,65248,369.3845,326.2627,345.0138,331.8366 P,0,64640,65248,H P,0,64721,64802,V P,0,64883,64964,V F,0,64944,65248,1,0
Sprite,Background,Centre,"sb\btrfl2.png",124,267 S,0,52,,0.504 R,0,52,,-4.130398 S,0,52,132,0.68 M,1,52,660,78.05467,236.7671,57.17043,223.0249 P,0,52,660,V V,0,133,134,0.68,0.68,0.4,0.68 V,0,214,215,0.6808,0.68,0.68,0.68 V,0,297,298,0.68,0.68,0.4,0.68 F,0,356,660,1,0 V,0,376,377,0.6808,0.68,0.68,0.68
Sprite,Background,Centre,"sb\btrfl2.png",294,367 S,0,863,,0.504 R,0,863,,-3.988919 S,0,863,943,0.68 M,1,863,1471,252.7768,330.5906,234.039,314.0408 P,0,863,1471,V V,0,944,945,0.68,0.68,0.4,0.68 V,0,1025,1026,0.6808,0.68,0.68,0.68 V,0,1108,1109,0.68,0.68,0.4,0.68 F,0,1167,1471,1,0 V,0,1187,1188,0.6808,0.68,0.68,0.68
Sprite,Background,Centre,"sb\btrfl2.png",457,316 S,0,1673,,0.504 R,0,1673,,-4.180975 S,0,1673,1753,0.68 M,1,1673,2281,409.585,288.1286,388.0327,275.4598 P,0,1673,2281,V V,0,1754,1755,0.68,0.68,0.4,0.68 V,0,1835,1836,0.6808,0.68,0.68,0.68 V,0,1918,1919,0.68,0.68,0.4,0.68 F,0,1977,2281,1,0 V,0,1997,1998,0.6808,0.68,0.68,0.68
Sprite,Background,Centre,"sb\btrfl2.png",372,266 S,0,2079,,0.504 R,0,2079,,-4.11941 S,0,2079,2159,0.68 M,1,2079,2687,326.3896,235.2641,305.6577,221.2932 P,0,2079,2687,V V,0,2160,2161,0.68,0.68,0.4,0.68 V,0,2241,2242,0.6808,0.68,0.68,0.68 V,0,2324,2325,0.68,0.68,0.4,0.68 F,0,2383,2687,1,0 V,0,2403,2404,0.6808,0.68,0.68,0.68
Sprite,Background,Centre,"sb\btrfl2.png",455,217 S,0,3295,,0.504 R,0,3295,,-4.157474 S,0,3295,3375,0.68 M,1,3295,3903,408.253,188.0221,387.0044,174.8503 P,0,3295,3903,V V,0,3376,3377,0.68,0.68,0.4,0.68 V,0,3457,3458,0.6808,0.68,0.68,0.68 V,0,3540,3541,0.68,0.68,0.4,0.68 F,0,3599,3903,1,0 V,0,3619,3620,0.6808,0.68,0.68,0.68
Sprite,Background,Centre,"sb\btrfl2.png",298,110 S,0,4106,,0.504 R,0,4106,,-4.101136 S,0,4106,4186,0.68 M,1,4106,4714,252.9589,78.43582,232.4856,64.08847 P,0,4106,4714,V V,0,4187,4188,0.68,0.68,0.4,0.68 V,0,4268,4269,0.6808,0.68,0.68,0.68 V,0,4351,4352,0.68,0.68,0.4,0.68 F,0,4410,4714,1,0 V,0,4430,4431,0.6808,0.68,0.68,0.68
Sprite,Background,Centre,"sb\btrfl2.png",317,282 S,0,4917,,0.504 R,0,4917,,-3.997184 S,0,4917,4997,0.68 M,1,4917,5525,275.4773,245.9325,256.6033,229.5382 P,0,4917,5525,V V,0,4998,4999,0.68,0.68,0.4,0.68 V,0,5079,5080,0.6808,0.68,0.68,0.68 V,0,5162,5163,0.68,0.68,0.4,0.68 F,0,5221,5525,1,0 V,0,5241,5242,0.6808,0.68,0.68,0.68
Sprite,Background,Centre,"sb\btrfl2.png",254,430 S,0,5727,,0.504 R,0,5727,,-3.926142 S,0,5727,5807,0.68 M,1,5727,6335,215.1422,391.0761,197.4795,373.3835 P,0,5727,6335,V V,0,5808,5809,0.68,0.68,0.4,0.68 V,0,5889,5890,0.6808,0.68,0.68,0.68 V,0,5972,5973,0.68,0.68,0.4,0.68 F,0,6031,6335,1,0 V,0,6051,6052,0.6808,0.68,0.68,0.68
Sprite,Background,Centre,"sb\btrfl2.png",86,368 S,0,6538,,0.504 R,0,6538,,-4.059925 S,0,6538,6618,0.68 M,1,6538,7146,42.29754,334.607,22.43278,319.4283 P,0,6538,7146,V V,0,6619,6620,0.68,0.68,0.4,0.68 V,0,6700,6701,0.6808,0.68,0.68,0.68 V,0,6783,6784,0.68,0.68,0.4,0.68 F,0,6842,7146,1,0 V,0,6862,6863,0.6808,0.68,0.68,0.68
Sprite,Background,Centre,"sb\btrfl2.png",176,198 S,0,7349,,0.504 R,0,7349,,-3.943105 S,0,7349,7429,0.68 M,1,7349,7957,136.4875,159.7409,118.5273,142.3503 P,0,7349,7957,V V,0,7430,7431,0.68,0.68,0.4,0.68 V,0,7511,7512,0.6808,0.68,0.68,0.68 V,0,7594,7595,0.68,0.68,0.4,0.68 F,0,7653,7957,1,0 V,0,7673,7674,0.6808,0.68,0.68,0.68
Sprite,Background,Centre,"sb\btrfl2.png",281,105 S,0,8160,,0.504 R,0,8160,,-4.056145 S,0,8160,8240,0.68 M,1,8160,8768,237.4241,71.44199,217.6169,56.18836 P,0,8160,8768,V V,0,8241,8242,0.68,0.68,0.4,0.68 V,0,8322,8323,0.6808,0.68,0.68,0.68 V,0,8405,8406,0.68,0.68,0.4,0.68 F,0,8464,8768,1,0 V,0,8484,8485,0.6808,0.68,0.68,0.68
Sprite,Background,Centre,"sb\btrfl2.png",385,203 S,0,8971,,0.504 R,0,8971,,-3.775801 S,0,8971,9051,0.68 M,1,8971,9579,352.4103,158.6952,337.5968,138.5567 P,0,8971,9579,V V,0,9052,9053,0.68,0.68,0.4,0.68 V,0,9133,9134,0.6808,0.68,0.68,0.68 V,0,9216,9217,0.68,0.68,0.4,0.68 F,0,9275,9579,1,0 V,0,9295,9296,0.6808,0.68,0.68,0.68
Sprite,Background,Centre,"sb\btrfl2.png",488,101 S,0,9781,,0.504 R,0,9781,,-4.078683 S,0,9781,9861,0.68 M,1,9781,10389,443.6789,68.43255,423.5329,53.62916 P,0,9781,10389,V V,0,9862,9863,0.68,0.68,0.4,0.68 V,0,9943,9944,0.6808,0.68,0.68,0.68 V,0,10026,10027,0.68,0.68,0.4,0.68 F,0,10085,10389,1,0 V,0,10105,10106,0.6808,0.68,0.68,0.68
Sprite,Background,Centre,"sb\btrfl2.png",557,255 S,0,10592,,0.504 R,0,10592,,-3.995522 S,0,10592,10672,0.68 M,1,10592,11200,515.5373,218.8636,496.6906,202.4379 P,0,10592,11200,V V,0,10673,10674,0.68,0.68,0.4,0.68 V,0,10754,10755,0.6808,0.68,0.68,0.68 V,0,10837,10838,0.68,0.68,0.4,0.68 F,0,10896,11200,1,0 V,0,10916,10917,0.6808,0.68,0.68,0.68
Sprite,Background,Centre,"sb\btrfl2.png",571,350 S,0,10998,,0.504 R,0,10998,,-3.790991 S,0,10998,11078,0.68 M,1,10998,11606,537.7411,306.1954,522.6234,286.2842 P,0,10998,11606,V V,0,11079,11080,0.68,0.68,0.4,0.68 V,0,11160,11161,0.6808,0.68,0.68,0.68 V,0,11243,11244,0.68,0.68,0.4,0.68 F,0,11302,11606,1,0 V,0,11322,11323,0.6808,0.68,0.68,0.68
Sprite,Background,Centre,"sb\btrfl2.png",484,391 S,0,11403,,0.504 R,0,11403,,-4.088746 S,0,11403,11483,0.68 M,1,11403,12011,439.3534,358.8802,419.0595,344.2803 P,0,11403,12011,V V,0,11484,11485,0.68,0.68,0.4,0.68 V,0,11565,11566,0.6808,0.68,0.68,0.68 V,0,11648,11649,0.68,0.68,0.4,0.68 F,0,11707,12011,1,0 V,0,11727,11728,0.6808,0.68,0.68,0.68
Sprite,Background,Centre,"sb\btrfl2.png",311,213 S,0,13025,,0.504 R,0,13025,,-3.892262 S,0,13025,13105,0.68 M,1,13025,13633,273.4829,172.7822,256.4297,154.5014 P,0,13025,13633,V V,0,13106,13107,0.68,0.68,0.4,0.68 V,0,13187,13188,0.6808,0.68,0.68,0.68 V,0,13270,13271,0.68,0.68,0.4,0.68 F,0,13329,13633,1,0 V,0,13349,13350,0.6808,0.68,0.68,0.68
Sprite,Background,Centre,"sb\btrfl2.png",140,301 S,0,13836,,0.504 R,0,13836,,-4.057672 S,0,13836,13916,0.68 M,1,13836,14444,96.3729,267.5086,76.5424,252.2852 P,0,13836,14444,V V,0,13917,13918,0.68,0.68,0.4,0.68 V,0,13998,13999,0.6808,0.68,0.68,0.68 V,0,14081,14082,0.68,0.68,0.4,0.68 F,0,14140,14444,1,0 V,0,14160,14161,0.6808,0.68,0.68,0.68
Sprite,Background,Centre,"sb\btrfl2.png",179,213 S,0,14646,,0.504 R,0,14646,,-4.119802 S,0,14646,14726,0.68 M,1,14646,15254,133.3776,182.282,112.6401,168.3193 P,0,14646,15254,V V,0,14727,14728,0.68,0.68,0.4,0.68 V,0,14808,14809,0.6808,0.68,0.68,0.68 V,0,14891,14892,0.68,0.68,0.4,0.68 F,0,14950,15254,1,0 V,0,14970,14971,0.6808,0.68,0.68,0.68
Sprite,Background,Centre,"sb\btrfl2.png",217,124 S,0,15052,,0.504 R,0,15052,,-4.01891 S,0,15052,15132,0.68 M,1,15052,15660,174.7035,88.84312,155.4778,72.86272 P,0,15052,15660,V V,0,15133,15134,0.68,0.68,0.4,0.68 V,0,15214,15215,0.6808,0.68,0.68,0.68 V,0,15297,15298,0.68,0.68,0.4,0.68 F,0,15356,15660,1,0 V,0,15376,15377,0.6808,0.68,0.68,0.68
Sprite,Background,Centre,"sb\btrfl2.png",123,136 S,0,16268,,0.504 R,0,16268,,-4.007066 S,0,16268,16348,0.68 M,1,16268,16876,81.12289,100.3446,62.08784,84.13759 P,0,16268,16876,V V,0,16349,16350,0.68,0.68,0.4,0.68 V,0,16430,16431,0.6808,0.68,0.68,0.68 V,0,16513,16514,0.68,0.68,0.4,0.68 F,0,16572,16876,1,0 V,0,16592,16593,0.6808,0.68,0.68,0.68
Sprite,Background,Centre,"sb\btrfl2.png",252,278 S,0,17079,,0.504 R,0,17079,,-3.860036 S,0,17079,17159,0.68 M,1,17079,17687,215.7982,236.5943,199.3429,217.7735 P,0,17079,17687,V V,0,17160,17161,0.68,0.68,0.4,0.68 V,0,17241,17242,0.6808,0.68,0.68,0.68 V,0,17324,17325,0.68,0.68,0.4,0.68 F,0,17383,17687,1,0 V,0,17403,17404,0.6808,0.68,0.68,0.68
Sprite,Background,Centre,"sb\btrfl2.png",268,181 S,0,17484,,0.504 R,0,17484,,-3.702966 S,0,17484,17564,0.68 M,1,17484,18092,238.7208,134.4411,225.412,113.278 P,0,17484,18092,V V,0,17565,17566,0.68,0.68,0.4,0.68 V,0,17646,17647,0.6808,0.68,0.68,0.68 V,0,17729,17730,0.68,0.68,0.4,0.68 F,0,17788,18092,1,0 V,0,17808,17809,0.6808,0.68,0.68,0.68
Sprite,Background,Centre,"sb\btrfl2.png",415,113 S,0,18295,,0.504 R,0,18295,,-3.76435 S,0,18295,18375,0.68 M,1,18295,18903,382.9197,68.32498,368.3378,48.01815 P,0,18295,18903,V V,0,18376,18377,0.68,0.68,0.4,0.68 V,0,18457,18458,0.6808,0.68,0.68,0.68 V,0,18540,18541,0.68,0.68,0.4,0.68 F,0,18599,18903,1,0 V,0,18619,18620,0.6808,0.68,0.68,0.68
Sprite,Background,Centre,"sb\btrfl2.png",431,208 S,0,18700,,0.504 R,0,18700,,-3.843988 S,0,18700,18780,0.68 M,1,18700,19308,395.4673,166.0187,379.3162,146.9363 P,0,18700,19308,V V,0,18781,18782,0.68,0.68,0.4,0.68 V,0,18862,18863,0.6808,0.68,0.68,0.68 V,0,18945,18946,0.68,0.68,0.4,0.68 F,0,19004,19308,1,0 V,0,19024,19025,0.6808,0.68,0.68,0.68
Sprite,Background,Centre,"sb\btrfl2.png",252,426 S,0,20322,,0.504 R,0,20322,,-3.892691 S,0,20322,20402,0.68 M,1,20322,20930,214.4657,385.7983,197.4046,367.5248 P,0,20322,20930,V V,0,20403,20404,0.68,0.68,0.4,0.68 V,0,20484,20485,0.6808,0.68,0.68,0.68 V,0,20567,20568,0.68,0.68,0.4,0.68 F,0,20626,20930,1,0 V,0,20646,20647,0.6808,0.68,0.68,0.68
Sprite,Background,Centre,"sb\btrfl2.png",156,324 S,0,21133,,0.504 R,0,21133,,-3.746304 S,0,21133,21213,0.68 M,1,21133,21741,124.7311,278.7534,110.518,258.1867 P,0,21133,21741,V V,0,21214,21215,0.68,0.68,0.4,0.68 V,0,21295,21296,0.6808,0.68,0.68,0.68 V,0,21378,21379,0.68,0.68,0.4,0.68 F,0,21437,21741,1,0 V,0,21457,21458,0.6808,0.68,0.68,0.68
Sprite,Background,Centre,"sb\btrfl2.png",270,227 S,0,21944,,0.504 R,0,21944,,-3.902634 S,0,21944,22024,0.68 M,1,21944,22552,232.0678,187.1735,214.8259,169.0705 P,0,21944,22552,V V,0,22025,22026,0.68,0.68,0.4,0.68 V,0,22106,22107,0.6808,0.68,0.68,0.68 V,0,22189,22190,0.68,0.68,0.4,0.68 F,0,22248,22552,1,0 V,0,22268,22269,0.6808,0.68,0.68,0.68
Sprite,Background,Centre,"sb\btrfl2.png",174,125 S,0,22754,,0.504 R,0,22754,,-3.802047 S,0,22754,22834,0.68 M,1,22754,23362,140.2589,81.56574,124.922,61.8229 P,0,22754,23362,V V,0,22835,22836,0.68,0.68,0.4,0.68 V,0,22916,22917,0.6808,0.68,0.68,0.68 V,0,22999,23000,0.68,0.68,0.4,0.68 F,0,23058,23362,1,0 V,0,23078,23079,0.6808,0.68,0.68,0.68
Sprite,Background,Centre,"sb\btrfl2.png",348,134 S,0,23565,,0.504 R,0,23565,,-4.156634 S,0,23565,23645,0.68 M,1,23565,24173,301.2774,104.9828,280.0398,91.7932 P,0,23565,24173,V V,0,23646,23647,0.68,0.68,0.4,0.68 V,0,23727,23728,0.6808,0.68,0.68,0.68 V,0,23810,23811,0.68,0.68,0.4,0.68 F,0,23869,24173,1,0 V,0,23889,23890,0.6808,0.68,0.68,0.68
Sprite,Background,Centre,"sb\btrfl2.png",442,117 S,0,23971,,0.504 R,0,23971,,-3.901096 S,0,23971,24051,0.68 M,1,23971,24579,404.1292,77.11519,386.9151,58.98573 P,0,23971,24579,V V,0,24052,24053,0.68,0.68,0.4,0.68 V,0,24133,24134,0.6808,0.68,0.68,0.68 V,0,24216,24217,0.68,0.68,0.4,0.68 F,0,24275,24579,1,0 V,0,24295,24296,0.6808,0.68,0.68,0.68
Sprite,Background,Centre,"sb\btrfl2.png",410,207 S,0,25187,,0.504 R,0,25187,,-3.716884 S,0,25187,25267,0.68 M,1,25187,25795,380.0756,160.8531,366.4737,139.8773 P,0,25187,25795,V V,0,25268,25269,0.68,0.68,0.4,0.68 V,0,25349,25350,0.6808,0.68,0.68,0.68 V,0,25432,25433,0.68,0.68,0.4,0.68 F,0,25491,25795,1,0 V,0,25511,25512,0.6808,0.68,0.68,0.68
Sprite,Background,Centre,"sb\btrfl2.png",466,390 S,0,25998,,0.504 R,0,25998,,-4.054958 S,0,25998,26078,0.68 M,1,25998,26606,422.464,356.3903,402.6748,341.1132 P,0,25998,26606,V V,0,26079,26080,0.68,0.68,0.4,0.68 V,0,26160,26161,0.6808,0.68,0.68,0.68 V,0,26243,26244,0.68,0.68,0.4,0.68 F,0,26302,26606,1,0 V,0,26322,26323,0.6808,0.68,0.68,0.68
Sprite,Background,Centre,"sb\btrfl2.png",349,309 S,0,26808,,0.504 R,0,26808,,-3.769484 S,0,26808,26888,0.68 M,1,26808,27416,316.6908,264.4903,302.0049,244.2585 P,0,26808,27416,V V,0,26889,26890,0.68,0.68,0.4,0.68 V,0,26970,26971,0.6808,0.68,0.68,0.68 V,0,27053,27054,0.68,0.68,0.4,0.68 F,0,27112,27416,1,0 V,0,27132,27133,0.6808,0.68,0.68,0.68
Sprite,Background,Centre,"sb\btrfl2.png",433,263 S,0,28025,,0.504 R,0,28025,,-4.068884 S,0,28025,28105,0.68 M,1,28025,28633,389.0001,229.9999,369.0002,214.9998 P,0,28025,28633,V V,0,28106,28107,0.68,0.68,0.4,0.68 V,0,28187,28188,0.6808,0.68,0.68,0.68 V,0,28270,28271,0.68,0.68,0.4,0.68 F,0,28329,28633,1,0 V,0,28349,28350,0.6808,0.68,0.68,0.68
Sprite,Background,Centre,"sb\btrfl2.png",455,175 S,0,28430,,0.504 R,0,28430,,-3.711496 S,0,28430,28510,0.68 M,1,28430,29038,425.3247,128.6926,411.836,107.6437 P,0,28430,29038,V V,0,28511,28512,0.68,0.68,0.4,0.68 V,0,28592,28593,0.6808,0.68,0.68,0.68 V,0,28675,28676,0.68,0.68,0.4,0.68 F,0,28734,29038,1,0 V,0,28754,28755,0.6808,0.68,0.68,0.68
Sprite,Background,Centre,"sb\btrfl2.png",106,219 S,0,30052,,0.504 R,0,30052,,-3.700245 S,0,30052,30132,0.68 M,1,30052,30660,76.84758,172.3616,63.59648,151.1624 P,0,30052,30660,V V,0,30133,30134,0.68,0.68,0.4,0.68 V,0,30214,30215,0.6808,0.68,0.68,0.68 V,0,30297,30298,0.68,0.68,0.4,0.68 F,0,30356,30660,1,0 V,0,30376,30377,0.6808,0.68,0.68,0.68
Sprite,Background,Centre,"sb\btrfl2.png",188,268 S,0,31268,,0.504 R,0,31268,,-3.934999 S,0,31268,31348,0.68 M,1,31268,31876,148.799,229.4218,130.9803,211.8863 P,0,31268,31876,V V,0,31349,31350,0.68,0.68,0.4,0.68 V,0,31430,31431,0.6808,0.68,0.68,0.68 V,0,31513,31514,0.68,0.68,0.4,0.68 F,0,31572,31876,1,0 V,0,31592,31593,0.6808,0.68,0.68,0.68
Sprite,Background,Centre,"sb\btrfl2.png",182,155 S,0,32484,,0.504 R,0,32484,,-3.885327 S,0,32484,32564,0.68 M,1,32484,33092,144.7628,114.523,127.8367,96.12435 P,0,32484,33092,V V,0,32565,32566,0.68,0.68,0.4,0.68 V,0,32646,32647,0.6808,0.68,0.68,0.68 V,0,32729,32730,0.68,0.68,0.4,0.68 F,0,32788,33092,1,0 V,0,32808,32809,0.6808,0.68,0.68,0.68
Sprite,Background,Centre,"sb\btrfl2.png",368,109 S,0,33295,,0.504 R,0,33295,,-3.882137 S,0,33295,33375,0.68 M,1,33295,33903,330.8921,68.40442,314.0248,49.95188 P,0,33295,33903,V V,0,33376,33377,0.68,0.68,0.4,0.68 V,0,33457,33458,0.6808,0.68,0.68,0.68 V,0,33540,33541,0.68,0.68,0.4,0.68 F,0,33599,33903,1,0 V,0,33619,33620,0.6808,0.68,0.68,0.68
Sprite,Background,Centre,"sb\btrfl2.png",425,185 S,0,33700,,0.504 R,0,33700,,-3.755652 S,0,33700,33780,0.68 M,1,33700,34308,393.3095,140.0476,378.9048,119.6148 P,0,33700,34308,V V,0,33781,33782,0.68,0.68,0.4,0.68 V,0,33862,33863,0.6808,0.68,0.68,0.68 V,0,33945,33946,0.68,0.68,0.4,0.68 F,0,34004,34308,1,0 V,0,34024,34025,0.6808,0.68,0.68,0.68
Sprite,Background,Centre,"sb\btrfl2.png",445,357 S,0,34511,,0.504 R,0,34511,,-3.891458 S,0,34511,34591,0.68 M,1,34511,35119,407.5153,316.752,390.4768,298.4576 P,0,34511,35119,V V,0,34592,34593,0.68,0.68,0.4,0.68 V,0,34673,34674,0.6808,0.68,0.68,0.68 V,0,34756,34757,0.68,0.68,0.4,0.68 F,0,34815,35119,1,0 V,0,34835,34836,0.6808,0.68,0.68,0.68
Sprite,Background,Centre,"sb\btrfl2.png",539,374 S,0,34917,,0.504 R,0,34917,,-3.975919 S,0,34917,34997,0.68 M,1,34917,35525,498.2536,337.0578,479.7325,320.2658 P,0,34917,35525,V V,0,34998,34999,0.68,0.68,0.4,0.68 V,0,35079,35080,0.6808,0.68,0.68,0.68 V,0,35162,35163,0.68,0.68,0.4,0.68 F,0,35221,35525,1,0 V,0,35241,35242,0.6808,0.68,0.68,0.68
Sprite,Background,Centre,"sb\btrfl2.png",554,200 S,0,35727,,0.504 R,0,35727,,-4.176218 S,0,35727,35807,0.68 M,1,35727,36335,506.7181,171.9034,485.2263,159.1321 P,0,35727,36335,V V,0,35808,35809,0.68,0.68,0.4,0.68 V,0,35889,35890,0.6808,0.68,0.68,0.68 V,0,35972,35973,0.68,0.68,0.4,0.68 F,0,36031,36335,1,0 V,0,36051,36052,0.6808,0.68,0.68,0.68
Sprite,Background,Centre,"sb\btrfl2.png",445,100 S,0,36538,,0.504 R,0,36538,,-3.735257 S,0,36538,36618,0.68 M,1,36538,37146,414.2329,54.41069,400.2478,33.68828 P,0,36538,37146,V V,0,36619,36620,0.68,0.68,0.4,0.68 V,0,36700,36701,0.6808,0.68,0.68,0.68 V,0,36783,36784,0.68,0.68,0.4,0.68 F,0,36842,37146,1,0 V,0,36862,36863,0.6808,0.68,0.68,0.68
Sprite,Background,Centre,"sb\btrfl2.png",268,94 S,0,37349,,0.504 R,0,37349,,-3.739303 S,0,37349,37429,0.68 M,1,37349,37957,237.0487,48.53554,222.9799,27.86988 P,0,37349,37957,V V,0,37430,37431,0.68,0.68,0.4,0.68 V,0,37511,37512,0.6808,0.68,0.68,0.68 V,0,37594,37595,0.68,0.68,0.4,0.68 F,0,37653,37957,1,0 V,0,37673,37674,0.6808,0.68,0.68,0.68
Sprite,Background,Centre,"sb\btrfl2.png",372,215 S,0,38160,,0.504 R,0,38160,,-3.889244 S,0,38160,38240,0.68 M,1,38160,38768,334.6045,174.6692,317.6065,156.337 P,0,38160,38768,V V,0,38241,38242,0.68,0.68,0.4,0.68 V,0,38322,38323,0.6808,0.68,0.68,0.68 V,0,38405,38406,0.68,0.68,0.4,0.68 F,0,38464,38768,1,0 V,0,38484,38485,0.6808,0.68,0.68,0.68
Sprite,Background,Centre,"sb\btrfl2.png",552,149 S,0,38971,,0.504 R,0,38971,,-3.975602 S,0,38971,39051,0.68 M,1,38971,39579,511.2653,112.0449,492.7495,95.24707 P,0,38971,39579,V V,0,39052,39053,0.68,0.68,0.4,0.68 V,0,39133,39134,0.6808,0.68,0.68,0.68 V,0,39216,39217,0.68,0.68,0.4,0.68 F,0,39275,39579,1,0 V,0,39295,39296,0.6808,0.68,0.68,0.68
Sprite,Background,Centre,"sb\btrfl2.png",495,329 S,0,39781,,0.504 R,0,39781,,-4.066494 S,0,39781,39861,0.68 M,1,39781,40389,451.0791,295.8947,431.1151,280.8469 P,0,39781,40389,V V,0,39862,39863,0.68,0.68,0.4,0.68 V,0,39943,39944,0.6808,0.68,0.68,0.68 V,0,40026,40027,0.68,0.68,0.4,0.68 F,0,40085,40389,1,0 V,0,40105,40106,0.6808,0.68,0.68,0.68
Sprite,Background,Centre,"sb\btrfl2.png",391,222 S,0,40592,,0.504 R,0,40592,,-3.707165 S,0,40592,40672,0.68 M,1,40592,41200,361.5255,175.5645,348.1281,154.4575 P,0,40592,41200,V V,0,40673,40674,0.68,0.68,0.4,0.68 V,0,40754,40755,0.6808,0.68,0.68,0.68 V,0,40837,40838,0.68,0.68,0.4,0.68 F,0,40896,41200,1,0 V,0,40916,40917,0.6808,0.68,0.68,0.68
Sprite,Background,Centre,"sb\btrfl2.png",286,327 S,0,41403,,0.504 R,0,41403,,-3.753575 S,0,41403,41483,0.68 M,1,41403,42011,254.403,281.9819,240.0407,261.5191 P,0,41403,42011,V V,0,41484,41485,0.68,0.68,0.4,0.68 V,0,41565,41566,0.6808,0.68,0.68,0.68 V,0,41648,41649,0.68,0.68,0.4,0.68 F,0,41707,42011,1,0 V,0,41727,41728,0.6808,0.68,0.68,0.68
Sprite,Background,Centre,"sb\btrfl2.png",184,213 S,0,42214,,0.504 R,0,42214,,-3.911465 S,0,42214,42294,0.68 M,1,42214,42822,145.7176,173.51,128.3165,155.56 P,0,42214,42822,V V,0,42295,42296,0.68,0.68,0.4,0.68 V,0,42376,42377,0.6808,0.68,0.68,0.68 V,0,42459,42460,0.68,0.68,0.4,0.68 F,0,42518,42822,1,0 V,0,42538,42539,0.6808,0.68,0.68,0.68
Sprite,Background,Centre,"sb\btrfl2.png",104,361 S,0,43025,,0.504 R,0,43025,,-4.190188 S,0,43025,43105,0.68 M,1,43025,43633,56.33022,333.5666,34.66214,321.0969 P,0,43025,43633,V V,0,43106,43107,0.68,0.68,0.4,0.68 V,0,43187,43188,0.6808,0.68,0.68,0.68 V,0,43270,43271,0.68,0.68,0.4,0.68 F,0,43329,43633,1,0 V,0,43349,43350,0.6808,0.68,0.68,0.68
Sprite,Background,Centre,"sb\btrfl2.png",67,269 S,0,43430,,0.504 R,0,43430,,-4.055165 S,0,43430,43510,0.68 M,1,43430,44038,23.45699,235.3993,3.664715,220.1263 P,0,43430,44038,V V,0,43511,43512,0.68,0.68,0.4,0.68 V,0,43592,43593,0.6808,0.68,0.68,0.68 V,0,43675,43676,0.68,0.68,0.4,0.68 F,0,43734,44038,1,0 V,0,43754,43755,0.6808,0.68,0.68,0.68
Sprite,Background,Centre,"sb\btrfl2.png",80,174 S,0,43835,,0.504 R,0,43835,,-3.898146 S,0,43835,43915,0.68 M,1,43835,44443,42.24696,134.0036,25.08649,115.8235 P,0,43835,44443,V V,0,43916,43917,0.68,0.68,0.4,0.68 V,0,43997,43998,0.6808,0.68,0.68,0.68 V,0,44080,44081,0.68,0.68,0.4,0.68 F,0,44139,44443,1,0 V,0,44159,44160,0.6808,0.68,0.68,0.68
Sprite,Background,Centre,"sb\btrfl2.png",398,107 S,0,45457,,0.504 R,0,45457,,-3.970362 S,0,45457,45537,0.68 M,1,45457,46065,357.4595,69.83189,339.032,52.93731 P,0,45457,46065,V V,0,45538,45539,0.68,0.68,0.4,0.68 V,0,45619,45620,0.6808,0.68,0.68,0.68 V,0,45702,45703,0.68,0.68,0.4,0.68 F,0,45761,46065,1,0 V,0,45781,45782,0.6808,0.68,0.68,0.68
Sprite,Background,Centre,"sb\btrfl2.png",252,232 S,0,46268,,0.504 R,0,46268,,-3.985952 S,0,46268,46348,0.68 M,1,46268,46876,210.885,195.4684,192.1963,178.8632 P,0,46268,46876,V V,0,46349,46350,0.68,0.68,0.4,0.68 V,0,46430,46431,0.6808,0.68,0.68,0.68 V,0,46513,46514,0.68,0.68,0.4,0.68 F,0,46572,46876,1,0 V,0,46592,46593,0.6808,0.68,0.68,0.68
Sprite,Background,Centre,"sb\btrfl2.png",164,265 S,0,47079,,0.504 R,0,47079,,-4.116625 S,0,47079,47159,0.68 M,1,47079,47687,118.4754,234.1372,97.78239,220.1087 P,0,47079,47687,V V,0,47160,47161,0.68,0.68,0.4,0.68 V,0,47241,47242,0.6808,0.68,0.68,0.68 V,0,47324,47325,0.68,0.68,0.4,0.68 F,0,47383,47687,1,0 V,0,47403,47404,0.6808,0.68,0.68,0.68
Sprite,Background,Centre,"sb\btrfl2.png",86,321 S,0,47484,,0.504 R,0,47484,,-3.975421 S,0,47484,47564,0.68 M,1,47484,48092,45.27196,284.0375,26.75922,267.2364 P,0,47484,48092,V V,0,47565,47566,0.68,0.68,0.4,0.68 V,0,47646,47647,0.6808,0.68,0.68,0.68 V,0,47729,47730,0.68,0.68,0.4,0.68 F,0,47788,48092,1,0 V,0,47808,47809,0.6808,0.68,0.68,0.68
Sprite,Background,Centre,"sb\btrfl2.png",76,225 S,0,48700,,0.504 R,0,48700,,-3.964783 S,0,48700,48780,0.68 M,1,48700,49308,35.66749,187.6063,17.33453,170.6092 P,0,48700,49308,V V,0,48781,48782,0.68,0.68,0.4,0.68 V,0,48862,48863,0.6808,0.68,0.68,0.68 V,0,48945,48946,0.68,0.68,0.4,0.68 F,0,49004,49308,1,0 V,0,49024,49025,0.6808,0.68,0.68,0.68
Sprite,Background,Centre,"sb\btrfl2.png",227,107 S,0,49511,,0.504 R,0,49511,,-4.054832 S,0,49511,49591,0.68 M,1,49511,50119,183.4682,73.3848,163.681,58.10517 P,0,49511,50119,V V,0,49592,49593,0.68,0.68,0.4,0.68 V,0,49673,49674,0.6808,0.68,0.68,0.68 V,0,49756,49757,0.68,0.68,0.4,0.68 F,0,49815,50119,1,0 V,0,49835,49836,0.6808,0.68,0.68,0.68
Sprite,Background,Centre,"sb\btrfl2.png",274,189 S,0,49917,,0.504 R,0,49917,,-3.79455 S,0,49917,49997,0.68 M,1,49917,50525,240.5854,145.314,225.397,125.4567 P,0,49917,50525,V V,0,49998,49999,0.68,0.68,0.4,0.68 V,0,50079,50080,0.6808,0.68,0.68,0.68 V,0,50162,50163,0.68,0.68,0.4,0.68 F,0,50221,50525,1,0 V,0,50241,50242,0.6808,0.68,0.68,0.68
Sprite,Background,Centre,"sb\btrfl2.png",339,329 S,0,50727,,0.504 R,0,50727,,-3.824095 S,0,50727,50807,0.68 M,1,50727,51335,304.3094,286.3202,288.541,266.9203 P,0,50727,51335,V V,0,50808,50809,0.68,0.68,0.4,0.68 V,0,50889,50890,0.6808,0.68,0.68,0.68 V,0,50972,50973,0.68,0.68,0.4,0.68 F,0,51031,51335,1,0 V,0,51051,51052,0.6808,0.68,0.68,0.68
Sprite,Background,Centre,"sb\btrfl2.png",361,241 S,0,51133,,0.504 R,0,51133,,-4.103291 S,0,51133,51213,0.68 M,1,51133,51741,315.891,209.533,295.3868,195.2298 P,0,51133,51741,V V,0,51214,51215,0.68,0.68,0.4,0.68 V,0,51295,51296,0.6808,0.68,0.68,0.68 V,0,51378,51379,0.68,0.68,0.4,0.68 F,0,51437,51741,1,0 V,0,51457,51458,0.6808,0.68,0.68,0.68
Sprite,Background,Centre,"sb\btrfl2.png",442,275 S,0,52754,,0.504 R,0,52754,,-3.74201 S,0,52754,52834,0.68 M,1,52754,53362,410.9257,229.6195,396.8011,208.992 P,0,52754,53362,V V,0,52835,52836,0.68,0.68,0.4,0.68 V,0,52916,52917,0.6808,0.68,0.68,0.68 V,0,52999,53000,0.68,0.68,0.4,0.68 F,0,53058,53362,1,0 V,0,53078,53079,0.6808,0.68,0.68,0.68
Sprite,Background,Centre,"sb\btrfl2.png",342,381 S,0,53565,,0.504 R,0,53565,,-4.039261 S,0,53565,53645,0.68 M,1,53565,54173,298.9969,346.7111,279.45,331.1252 P,0,53565,54173,V V,0,53646,53647,0.68,0.68,0.4,0.68 V,0,53727,53728,0.6808,0.68,0.68,0.68 V,0,53810,53811,0.68,0.68,0.4,0.68 F,0,53869,54173,1,0 V,0,53889,53890,0.6808,0.68,0.68,0.68
Sprite,Background,Centre,"sb\btrfl2.png",243,271 S,0,54376,,0.504 R,0,54376,,-3.920843 S,0,54376,54456,0.68 M,1,54376,54984,204.349,231.8708,186.7803,214.0847 P,0,54376,54984,V V,0,54457,54458,0.68,0.68,0.4,0.68 V,0,54538,54539,0.6808,0.68,0.68,0.68 V,0,54621,54622,0.68,0.68,0.4,0.68 F,0,54680,54984,1,0 V,0,54700,54701,0.6808,0.68,0.68,0.68
Sprite,Background,Centre,"sb\btrfl2.png",143,377 S,0,55187,,0.504 R,0,55187,,-4.009199 S,0,55187,55267,0.68 M,1,55187,55795,101.0469,341.434,81.97734,325.2677 P,0,55187,55795,V V,0,55268,55269,0.68,0.68,0.4,0.68 V,0,55349,55350,0.6808,0.68,0.68,0.68 V,0,55432,55433,0.68,0.68,0.4,0.68 F,0,55491,55795,1,0 V,0,55511,55512,0.6808,0.68,0.68,0.68
Sprite,Background,Centre,"sb\btrfl2.png",131,201 S,0,55998,,0.504 R,0,55998,,-4.126637 S,0,55998,56078,0.68 M,1,55998,56606,85.16869,170.5946,64.33627,156.7739 P,0,55998,56606,V V,0,56079,56080,0.68,0.68,0.4,0.68 V,0,56160,56161,0.6808,0.68,0.68,0.68 V,0,56243,56244,0.68,0.68,0.4,0.68 F,0,56302,56606,1,0 V,0,56322,56323,0.6808,0.68,0.68,0.68
Sprite,Background,Centre,"sb\btrfl2.png",197,132 S,0,56403,,0.504 R,0,56403,,-3.779495 S,0,56403,56483,0.68 M,1,56403,57011,164.2468,87.81594,149.359,67.73228 P,0,56403,57011,V V,0,56484,56485,0.68,0.68,0.4,0.68 V,0,56565,56566,0.6808,0.68,0.68,0.68 V,0,56648,56649,0.68,0.68,0.4,0.68 F,0,56707,57011,1,0 V,0,56727,56728,0.6808,0.68,0.68,0.68
Sprite,Background,Centre,"sb\btrfl2.png",107,110 S,0,57619,,0.504 R,0,57619,,-4.088501 S,0,57619,57699,0.68 M,1,57619,58227,62.36127,77.86928,42.07093,63.2644 P,0,57619,58227,V V,0,57700,57701,0.68,0.68,0.4,0.68 V,0,57781,57782,0.6808,0.68,0.68,0.68 V,0,57864,57865,0.68,0.68,0.4,0.68 F,0,57923,58227,1,0 V,0,57943,57944,0.6808,0.68,0.68,0.68
Sprite,Background,Centre,"sb\btrfl2.png",182,285 S,0,58430,,0.504 R,0,58430,,-4.157264 S,0,58430,58510,0.68 M,1,58430,59038,135.2591,256.0123,114.0133,242.836 P,0,58430,59038,V V,0,58511,58512,0.68,0.68,0.4,0.68 V,0,58592,58593,0.6808,0.68,0.68,0.68 V,0,58675,58676,0.68,0.68,0.4,0.68 F,0,58734,59038,1,0 V,0,58754,58755,0.6808,0.68,0.68,0.68
Sprite,Background,Centre,"sb\btrfl2.png",350,257 S,0,59241,,0.504 R,0,59241,,-3.872345 S,0,59241,59321,0.68 M,1,59241,59849,313.2914,216.043,296.6056,197.4262 P,0,59241,59849,V V,0,59322,59323,0.68,0.68,0.4,0.68 V,0,59403,59404,0.6808,0.68,0.68,0.68 V,0,59486,59487,0.68,0.68,0.4,0.68 F,0,59545,59849,1,0 V,0,59565,59566,0.6808,0.68,0.68,0.68
Sprite,Background,Centre,"sb\btrfl2.png",333,351 S,0,60457,,0.504 R,0,60457,,-3.937665 S,0,60457,60537,0.68 M,1,60457,61065,293.6962,312.5265,275.8309,295.0385 P,0,60457,61065,V V,0,60538,60539,0.68,0.68,0.4,0.68 V,0,60619,60620,0.6808,0.68,0.68,0.68 V,0,60702,60703,0.68,0.68,0.4,0.68 F,0,60761,61065,1,0 V,0,60781,60782,0.6808,0.68,0.68,0.68
Sprite,Background,Centre,"sb\btrfl2.png",260,290 S,0,60862,,0.504 R,0,60862,,-3.963258 S,0,60862,60942,0.68 M,1,60862,61470,219.7245,252.5449,201.4175,235.5198 P,0,60862,61470,V V,0,60943,60944,0.68,0.68,0.4,0.68 V,0,61024,61025,0.6808,0.68,0.68,0.68 V,0,61107,61108,0.68,0.68,0.4,0.68 F,0,61166,61470,1,0 V,0,61186,61187,0.6808,0.68,0.68,0.68
Sprite,Background,Centre,"sb\btrfl2.png",238,128 S,0,61701,,0.504 R,0,61701,,-3.815608 S,0,61701,61781,0.68 M,1,61701,62309,203.673,85.02729,188.0697,65.49424 P,0,61701,62309,V V,0,61782,61783,0.68,0.68,0.4,0.68 V,0,61863,61864,0.6808,0.68,0.68,0.68 V,0,61946,61947,0.68,0.68,0.4,0.68 F,0,62005,62309,1,0 V,0,62025,62026,0.6808,0.68,0.68,0.68
Sprite,Background,Centre,"sb\btrfl2.png",169,281 S,0,62589,,0.504 R,0,62589,,-4.084117 S,0,62589,62669,0.68 M,1,62589,63197,124.5026,248.6739,104.2765,233.9802 P,0,62589,63197,V V,0,62670,62671,0.68,0.68,0.4,0.68 V,0,62751,62752,0.6808,0.68,0.68,0.68 V,0,62834,62835,0.68,0.68,0.4,0.68 F,0,62893,63197,1,0 V,0,62913,62914,0.6808,0.68,0.68,0.68
Sprite,Background,Centre,"sb\btrfl2.png",279,381 S,0,63550,,0.504 R,0,63550,,-3.726748 S,0,63550,63630,0.68 M,1,63550,64158,248.6219,335.1506,234.8137,314.3099 P,0,63550,64158,V V,0,63631,63632,0.68,0.68,0.4,0.68 V,0,63712,63713,0.6808,0.68,0.68,0.68 V,0,63795,63796,0.68,0.68,0.4,0.68 F,0,63854,64158,1,0 V,0,63874,63875,0.6808,0.68,0.68,0.68
Sprite,Background,Centre,"sb\btrfl2.png",423,314 S,0,64640,,0.504 R,0,64640,,-3.729093 S,0,64640,64720,0.68 M,1,64640,65248,392.5145,268.2219,378.6574,247.4137 P,0,64640,65248,V V,0,64721,64722,0.68,0.68,0.4,0.68 V,0,64802,64803,0.6808,0.68,0.68,0.68 V,0,64885,64886,0.68,0.68,0.4,0.68 F,0,64944,65248,1,0 V,0,64964,64965,0.6808,0.68,0.68,0.68
Sprite,Background,Centre,"sb\btrfl2.png",124,267 S,0,52,,0.504 R,0,52,,-2.50837 S,0,52,132,0.595 M,1,52,660,156.546,222.6631,171.3396,202.51 P,0,52,660,H P,0,52,660,V V,0,133,134,0.595,0.595,0.35,0.595 V,0,214,215,0.5957,0.595,0.595,0.595 V,0,297,298,0.595,0.595,0.35,0.595 F,0,356,660,1,0 V,0,376,377,0.5957,0.595,0.595,0.595
Sprite,Background,Centre,"sb\btrfl2.png",294,367 S,0,863,,0.504 R,0,863,,-2.572128 S,0,863,943,0.595 M,1,863,1471,323.655,320.6796,337.1345,299.6248 P,0,863,1471,H P,0,863,1471,V V,0,944,945,0.595,0.595,0.35,0.595 V,0,1025,1026,0.5957,0.595,0.595,0.595 V,0,1108,1109,0.595,0.595,0.35,0.595 F,0,1167,1471,1,0 V,0,1187,1188,0.5957,0.595,0.595,0.595
Sprite,Background,Centre,"sb\btrfl2.png",457,316 S,0,1673,,0.504 R,0,1673,,-2.537616 S,0,1673,1753,0.595 M,1,1673,2281,488.2356,270.7304,502.4336,250.1533 P,0,1673,2281,H P,0,1673,2281,V V,0,1754,1755,0.595,0.595,0.35,0.595 V,0,1835,1836,0.5957,0.595,0.595,0.595 V,0,1918,1919,0.595,0.595,0.35,0.595 F,0,1977,2281,1,0 V,0,1997,1998,0.5957,0.595,0.595,0.595
Sprite,Background,Centre,"sb\btrfl2.png",372,266 S,0,2079,,0.504 R,0,2079,,-2.390713 S,0,2079,2159,0.595 M,1,2079,2687,409.5255,225.7901,426.5826,207.5129 P,0,2079,2687,H P,0,2079,2687,V V,0,2160,2161,0.595,0.595,0.35,0.595 V,0,2241,2242,0.5957,0.595,0.595,0.595 V,0,2324,2325,0.595,0.595,0.35,0.595 F,0,2383,2687,1,0 V,0,2403,2404,0.5957,0.595,0.595,0.595
Sprite,Background,Centre,"sb\btrfl2.png",455,217 S,0,3295,,0.504 R,0,3295,,-2.144223 S,0,3295,3375,0.595 M,1,3295,3903,501.2026,187.1617,522.2037,173.5989 P,0,3295,3903,H P,0,3295,3903,V V,0,3376,3377,0.595,0.595,0.35,0.595 V,0,3457,3458,0.5957,0.595,0.595,0.595 V,0,3540,3541,0.595,0.595,0.35,0.595 F,0,3599,3903,1,0 V,0,3619,3620,0.5957,0.595,0.595,0.595
Sprite,Background,Centre,"sb\btrfl2.png",298,110 S,0,4106,,0.504 R,0,4106,,-2.391219 S,0,4106,4186,0.595 M,1,4106,4714,335.5052,69.77111,352.5529,51.48525 P,0,4106,4714,H P,0,4106,4714,V V,0,4187,4188,0.595,0.595,0.35,0.595 V,0,4268,4269,0.5957,0.595,0.595,0.595 V,0,4351,4352,0.595,0.595,0.35,0.595 F,0,4410,4714,1,0 V,0,4430,4431,0.5957,0.595,0.595,0.595
Sprite,Background,Centre,"sb\btrfl2.png",317,282 S,0,4917,,0.504 R,0,4917,,-2.634219 S,0,4917,4997,0.595 M,1,4917,5525,343.7236,233.9287,355.8707,212.0781 P,0,4917,5525,H P,0,4917,5525,V V,0,4998,4999,0.595,0.595,0.35,0.595 V,0,5079,5080,0.5957,0.595,0.595,0.595 V,0,5162,5163,0.595,0.595,0.35,0.595 F,0,5221,5525,1,0 V,0,5241,5242,0.5957,0.595,0.595,0.595
Sprite,Background,Centre,"sb\btrfl2.png",254,430 S,0,5727,,0.504 R,0,5727,,-2.309525 S,0,5727,5807,0.595 M,1,5727,6335,294.6629,392.9659,313.1461,376.1321 P,0,5727,6335,H P,0,5727,6335,V V,0,5808,5809,0.595,0.595,0.35,0.595 V,0,5889,5890,0.5957,0.595,0.595,0.595 V,0,5972,5973,0.595,0.595,0.35,0.595 F,0,6031,6335,1,0 V,0,6051,6052,0.5957,0.595,0.595,0.595
Sprite,Background,Centre,"sb\btrfl2.png",86,368 S,0,6538,,0.504 R,0,6538,,-2.684285 S,0,6538,6618,0.595 M,1,6538,7146,110.2844,318.6516,121.3227,296.2205 P,0,6538,7146,H P,0,6538,7146,V V,0,6619,6620,0.595,0.595,0.35,0.595 V,0,6700,6701,0.5957,0.595,0.595,0.595 V,0,6783,6784,0.595,0.595,0.35,0.595 F,0,6842,7146,1,0 V,0,6862,6863,0.5957,0.595,0.595,0.595
Sprite,Background,Centre,"sb\btrfl2.png",176,198 S,0,7349,,0.504 R,0,7349,,-2.191593 S,0,7349,7429,0.595 M,1,7349,7957,220.7378,166.0074,241.0732,151.4653 P,0,7349,7957,H P,0,7349,7957,V V,0,7430,7431,0.595,0.595,0.35,0.595 V,0,7511,7512,0.5957,0.595,0.595,0.595 V,0,7594,7595,0.595,0.595,0.35,0.595 F,0,7653,7957,1,0 V,0,7673,7674,0.5957,0.595,0.595,0.595
Sprite,Background,Centre,"sb\btrfl2.png",281,105 S,0,8160,,0.504 R,0,8160,,-2.204334 S,0,8160,8240,0.595 M,1,8160,8768,325.3266,72.44,345.475,57.64001 P,0,8160,8768,H P,0,8160,8768,V V,0,8241,8242,0.595,0.595,0.35,0.595 V,0,8322,8323,0.5957,0.595,0.595,0.595 V,0,8405,8406,0.595,0.595,0.35,0.595 F,0,8464,8768,1,0 V,0,8484,8485,0.5957,0.595,0.595,0.595
Sprite,Background,Centre,"sb\btrfl2.png",385,203 S,0,8971,,0.504 R,0,8971,,-2.32712 S,0,8971,9051,0.595 M,1,8971,9579,425.005,165.2561,443.1891,148.0998 P,0,8971,9579,H P,0,8971,9579,V V,0,9052,9053,0.595,0.595,0.35,0.595 V,0,9133,9134,0.5957,0.595,0.595,0.595 V,0,9216,9217,0.595,0.595,0.35,0.595 F,0,9275,9579,1,0 V,0,9295,9296,0.5957,0.595,0.595,0.595
Sprite,Background,Centre,"sb\btrfl2.png",488,101 S,0,9781,,0.504 R,0,9781,,-2.442861 S,0,9781,9861,0.595 M,1,9781,10389,523.3786,58.88876,539.4597,39.74729 P,0,9781,10389,H P,0,9781,10389,V V,0,9862,9863,0.595,0.595,0.35,0.595 V,0,9943,9944,0.5957,0.595,0.595,0.595 V,0,10026,10027,0.595,0.595,0.35,0.595 F,0,10085,10389,1,0 V,0,10105,10106,0.5957,0.595,0.595,0.595
Sprite,Background,Centre,"sb\btrfl2.png",557,255 S,0,10592,,0.504 R,0,10592,,-2.328658 S,0,10592,10672,0.595 M,1,10592,11200,596.9469,217.1946,615.1046,200.0104 P,0,10592,11200,H P,0,10592,11200,V V,0,10673,10674,0.595,0.595,0.35,0.595 V,0,10754,10755,0.5957,0.595,0.595,0.595 V,0,10837,10838,0.595,0.595,0.35,0.595 F,0,10896,11200,1,0 V,0,10916,10917,0.5957,0.595,0.595,0.595
Sprite,Background,Centre,"sb\btrfl2.png",571,350 S,0,10998,,0.504 R,0,10998,,-2.687506 S,0,10998,11078,0.595 M,1,10998,11606,595.1253,300.5736,606.0914,278.1071 P,0,10998,11606,H P,0,10998,11606,V V,0,11079,11080,0.595,0.595,0.35,0.595 V,0,11160,11161,0.5957,0.595,0.595,0.595 V,0,11243,11244,0.595,0.595,0.35,0.595 F,0,11302,11606,1,0 V,0,11322,11323,0.5957,0.595,0.595,0.595
Sprite,Background,Centre,"sb\btrfl2.png",484,391 S,0,11403,,0.504 R,0,11403,,-2.021257 S,0,11403,11483,0.595 M,1,11403,12011,533.5135,367.0541,556.0197,356.1696 P,0,11403,12011,H P,0,11403,12011,V V,0,11484,11485,0.595,0.595,0.35,0.595 V,0,11565,11566,0.5957,0.595,0.595,0.595 V,0,11648,11649,0.595,0.595,0.35,0.595 F,0,11707,12011,1,0 V,0,11727,11728,0.5957,0.595,0.595,0.595
Sprite,Background,Centre,"sb\btrfl2.png",311,213 S,0,13025,,0.504 R,0,13025,,-2.603659 S,0,13025,13105,0.595 M,1,13025,13633,339.1799,165.7677,351.989,144.2985 P,0,13025,13633,H P,0,13025,13633,V V,0,13106,13107,0.595,0.595,0.35,0.595 V,0,13187,13188,0.5957,0.595,0.595,0.595 V,0,13270,13271,0.595,0.595,0.35,0.595 F,0,13329,13633,1,0 V,0,13349,13350,0.5957,0.595,0.595,0.595
Sprite,Background,Centre,"sb\btrfl2.png",140,301 S,0,13836,,0.504 R,0,13836,,-2.696743 S,0,13836,13916,0.595 M,1,13836,14444,163.6677,251.3529,174.4258,228.786 P,0,13836,14444,H P,0,13836,14444,V V,0,13917,13918,0.595,0.595,0.35,0.595 V,0,13998,13999,0.5957,0.595,0.595,0.595 V,0,14081,14082,0.595,0.595,0.35,0.595 F,0,14140,14444,1,0 V,0,14160,14161,0.5957,0.595,0.595,0.595
Sprite,Background,Centre,"sb\btrfl2.png",179,213 S,0,14646,,0.504 R,0,14646,,-2.474027 S,0,14646,14726,0.595 M,1,14646,15254,213.0492,169.8068,228.5261,150.1735 P,0,14646,15254,H P,0,14646,15254,V V,0,14727,14728,0.595,0.595,0.35,0.595 V,0,14808,14809,0.5957,0.595,0.595,0.595 V,0,14891,14892,0.595,0.595,0.35,0.595 F,0,14950,15254,1,0 V,0,14970,14971,0.5957,0.595,0.595,0.595
Sprite,Background,Centre,"sb\btrfl2.png",217,124 S,0,15052,,0.504 R,0,15052,,-2.220214 S,0,15052,15132,0.595 M,1,15052,15660,260.804,90.74024,280.7149,75.62217 P,0,15052,15660,H P,0,15052,15660,V V,0,15133,15134,0.595,0.595,0.35,0.595 V,0,15214,15215,0.5957,0.595,0.595,0.595 V,0,15297,15298,0.595,0.595,0.35,0.595 F,0,15356,15660,1,0 V,0,15376,15377,0.5957,0.595,0.595,0.595
Sprite,Background,Centre,"sb\btrfl2.png",123,136 S,0,16268,,0.504 R,0,16268,,-2.571836 S,0,16268,16348,0.595 M,1,16268,16876,152.6685,89.68824,166.1542,68.63744 P,0,16268,16876,H P,0,16268,16876,V V,0,16349,16350,0.595,0.595,0.35,0.595 V,0,16430,16431,0.5957,0.595,0.595,0.595 V,0,16513,16514,0.595,0.595,0.35,0.595 F,0,16572,16876,1,0 V,0,16592,16593,0.5957,0.595,0.595,0.595
Sprite,Background,Centre,"sb\btrfl2.png",252,278 S,0,17079,,0.504 R,0,17079,,-2.593636 S,0,17079,17159,0.595 M,1,17079,17687,280.6519,231.0525,293.6755,209.7127 P,0,17079,17687,H P,0,17079,17687,V V,0,17160,17161,0.595,0.595,0.35,0.595 V,0,17241,17242,0.5957,0.595,0.595,0.595 V,0,17324,17325,0.595,0.595,0.35,0.595 F,0,17383,17687,1,0 V,0,17403,17404,0.5957,0.595,0.595,0.595
Sprite,Background,Centre,"sb\btrfl2.png",268,181 S,0,17484,,0.504 R,0,17484,,-2.694331 S,0,17484,17564,0.595 M,1,17484,18092,291.7874,131.4101,302.5998,108.8692 P,0,17484,18092,H P,0,17484,18092,V V,0,17565,17566,0.595,0.595,0.35,0.595 V,0,17646,17647,0.5957,0.595,0.595,0.595 V,0,17729,17730,0.595,0.595,0.35,0.595 F,0,17788,18092,1,0 V,0,17808,17809,0.5957,0.595,0.595,0.595
Sprite,Background,Centre,"sb\btrfl2.png",415,113 S,0,18295,,0.504 R,0,18295,,-2.022838 S,0,18295,18375,0.595 M,1,18295,18903,464.4756,88.97585,486.9646,78.05579 P,0,18295,18903,H P,0,18295,18903,V V,0,18376,18377,0.595,0.595,0.35,0.595 V,0,18457,18458,0.5957,0.595,0.595,0.595 V,0,18540,18541,0.595,0.595,0.35,0.595 F,0,18599,18903,1,0 V,0,18619,18620,0.5957,0.595,0.595,0.595
Sprite,Background,Centre,"sb\btrfl2.png",431,208 S,0,18700,,0.504 R,0,18700,,-2.489959 S,0,18700,18780,0.595 M,1,18700,19308,464.3567,164.2698,479.5189,144.3925 P,0,18700,19308,H P,0,18700,19308,V V,0,18781,18782,0.595,0.595,0.35,0.595 V,0,18862,18863,0.5957,0.595,0.595,0.595 V,0,18945,18946,0.595,0.595,0.35,0.595 F,0,19004,19308,1,0 V,0,19024,19025,0.5957,0.595,0.595,0.595
Sprite,Background,Centre,"sb\btrfl2.png",252,426 S,0,20322,,0.504 R,0,20322,,-2.368399 S,0,20322,20402,0.595 M,1,20322,20930,290.4134,386.6374,307.874,368.7453 P,0,20322,20930,H P,0,20322,20930,V V,0,20403,20404,0.595,0.595,0.35,0.595 V,0,20484,20485,0.5957,0.595,0.595,0.595 V,0,20567,20568,0.595,0.595,0.35,0.595 F,0,20626,20930,1,0 V,0,20646,20647,0.5957,0.595,0.595,0.595
Sprite,Background,Centre,"sb\btrfl2.png",156,324 S,0,21133,,0.504 R,0,21133,,-2.653813 S,0,21133,21213,0.595 M,1,21133,21741,181.7766,275.4143,193.4932,253.3299 P,0,21133,21741,H P,0,21133,21741,V V,0,21214,21215,0.595,0.595,0.35,0.595 V,0,21295,21296,0.5957,0.595,0.595,0.595 V,0,21378,21379,0.595,0.595,0.35,0.595 F,0,21437,21741,1,0 V,0,21457,21458,0.5957,0.595,0.595,0.595
Sprite,Background,Centre,"sb\btrfl2.png",270,227 S,0,21944,,0.504 R,0,21944,,-2.481334 S,0,21944,22024,0.595 M,1,21944,22552,303.7327,183.5591,319.0657,163.8133 P,0,21944,22552,H P,0,21944,22552,V V,0,22025,22026,0.595,0.595,0.35,0.595 V,0,22106,22107,0.5957,0.595,0.595,0.595 V,0,22189,22190,0.595,0.595,0.35,0.595 F,0,22248,22552,1,0 V,0,22268,22269,0.5957,0.595,0.595,0.595
Sprite,Background,Centre,"sb\btrfl2.png",174,125 S,0,22754,,0.504 R,0,22754,,-2.382771 S,0,22754,22834,0.595 M,1,22754,23362,211.8437,85.08941,229.0454,66.94823 P,0,22754,23362,H P,0,22754,23362,V V,0,22835,22836,0.595,0.595,0.35,0.595 V,0,22916,22917,0.5957,0.595,0.595,0.595 V,0,22999,23000,0.595,0.595,0.35,0.595 F,0,23058,23362,1,0 V,0,23078,23079,0.5957,0.595,0.595,0.595
Sprite,Background,Centre,"sb\btrfl2.png",348,134 S,0,23565,,0.504 R,0,23565,,-2.056777 S,0,23565,23645,0.595 M,1,23565,24173,396.632,108.3108,418.7374,96.63395 P,0,23565,24173,H P,0,23565,24173,V V,0,23646,23647,0.595,0.595,0.35,0.595 V,0,23727,23728,0.5957,0.595,0.595,0.595 V,0,23810,23811,0.595,0.595,0.35,0.595 F,0,23869,24173,1,0 V,0,23889,23890,0.5957,0.595,0.595,0.595
Sprite,Background,Centre,"sb\btrfl2.png",442,117 S,0,23971,,0.504 R,0,23971,,-2.130987 S,0,23971,24051,0.595 M,1,23971,24579,488.5934,87.77586,509.7723,74.49216 P,0,23971,24579,H P,0,23971,24579,V V,0,24052,24053,0.595,0.595,0.35,0.595 V,0,24133,24134,0.5957,0.595,0.595,0.595 V,0,24216,24217,0.595,0.595,0.35,0.595 F,0,24275,24579,1,0 V,0,24295,24296,0.5957,0.595,0.595,0.595
Sprite,Background,Centre,"sb\btrfl2.png",410,207 S,0,25187,,0.504 R,0,25187,,-2.317329 S,0,25187,25267,0.595 M,1,25187,25795,450.3727,169.6496,468.7238,152.6722 P,0,25187,25795,H P,0,25187,25795,V V,0,25268,25269,0.595,0.595,0.35,0.595 V,0,25349,25350,0.5957,0.595,0.595,0.595 V,0,25432,25433,0.595,0.595,0.35,0.595 F,0,25491,25795,1,0 V,0,25511,25512,0.5957,0.595,0.595,0.595
Sprite,Background,Centre,"sb\btrfl2.png",466,390 S,0,25998,,0.504 R,0,25998,,-2.20802 S,0,25998,26078,0.595 M,1,25998,26606,510.2063,357.2769,530.3,342.4027 P,0,25998,26606,H P,0,25998,26606,V V,0,26079,26080,0.595,0.595,0.35,0.595 V,0,26160,26161,0.5957,0.595,0.595,0.595 V,0,26243,26244,0.595,0.595,0.35,0.595 F,0,26302,26606,1,0 V,0,26322,26323,0.5957,0.595,0.595,0.595
Sprite,Background,Centre,"sb\btrfl2.png",349,309 S,0,26808,,0.504 R,0,26808,,-2.691981 S,0,26808,26888,0.595 M,1,26808,27416,372.9039,259.4661,383.7693,236.9507 P,0,26808,27416,H P,0,26808,27416,V V,0,26889,26890,0.595,0.595,0.35,0.595 V,0,26970,26971,0.5957,0.595,0.595,0.595 V,0,27053,27054,0.595,0.595,0.35,0.595 F,0,27112,27416,1,0 V,0,27132,27133,0.5957,0.595,0.595,0.595
Sprite,Background,Centre,"sb\btrfl2.png",433,263 S,0,28025,,0.504 R,0,28025,,-2.449888 S,0,28025,28105,0.595 M,1,28025,28633,468.0818,220.6412,484.0281,201.3872 P,0,28025,28633,H P,0,28025,28633,V V,0,28106,28107,0.595,0.595,0.35,0.595 V,0,28187,28188,0.5957,0.595,0.595,0.595 V,0,28270,28271,0.595,0.595,0.35,0.595 F,0,28329,28633,1,0 V,0,28349,28350,0.5957,0.595,0.595,0.595
Sprite,Background,Centre,"sb\btrfl2.png",455,175 S,0,28430,,0.504 R,0,28430,,-2.534075 S,0,28430,28510,0.595 M,1,28430,29038,486.3957,129.8413,500.6665,109.3146 P,0,28430,29038,H P,0,28430,29038,V V,0,28511,28512,0.595,0.595,0.35,0.595 V,0,28592,28593,0.5957,0.595,0.595,0.595 V,0,28675,28676,0.595,0.595,0.35,0.595 F,0,28734,29038,1,0 V,0,28754,28755,0.5957,0.595,0.595,0.595
Sprite,Background,Centre,"sb\btrfl2.png",106,219 S,0,30052,,0.504 R,0,30052,,-2.021276 S,0,30052,30132,0.595 M,1,30052,30660,155.5131,195.0531,178.0191,184.1682 P,0,30052,30660,H P,0,30052,30660,V V,0,30133,30134,0.595,0.595,0.35,0.595 V,0,30214,30215,0.5957,0.595,0.595,0.595 V,0,30297,30298,0.595,0.595,0.35,0.595 F,0,30356,30660,1,0 V,0,30376,30377,0.5957,0.595,0.595,0.595
Sprite,Background,Centre,"sb\btrfl2.png",188,268 S,0,31268,,0.504 R,0,31268,,-2.266703 S,0,31268,31348,0.595 M,1,31268,31876,230.211,232.7405,249.3978,216.7135 P,0,31268,31876,H P,0,31268,31876,V V,0,31349,31350,0.595,0.595,0.35,0.595 V,0,31430,31431,0.5957,0.595,0.595,0.595 V,0,31513,31514,0.595,0.595,0.35,0.595 F,0,31572,31876,1,0 V,0,31592,31593,0.5957,0.595,0.595,0.595
Sprite,Background,Centre,"sb\btrfl2.png",182,155 S,0,32484,,0.504 R,0,32484,,-2.240199 S,0,32484,32564,0.595 M,1,32484,33092,225.1306,120.8715,244.7354,105.3586 P,0,32484,33092,H P,0,32484,33092,V V,0,32565,32566,0.595,0.595,0.35,0.595 V,0,32646,32647,0.5957,0.595,0.595,0.595 V,0,32729,32730,0.595,0.595,0.35,0.595 F,0,32788,33092,1,0 V,0,32808,32809,0.5957,0.595,0.595,0.595
Sprite,Background,Centre,"sb\btrfl2.png",368,109 S,0,33295,,0.504 R,0,33295,,-2.670219 S,0,33295,33375,0.595 M,1,33295,33903,392.9761,59.99802,404.3289,37.72439 P,0,33295,33903,H P,0,33295,33903,V V,0,33376,33377,0.595,0.595,0.35,0.595 V,0,33457,33458,0.5957,0.595,0.595,0.595 V,0,33540,33541,0.595,0.595,0.35,0.595 F,0,33599,33903,1,0 V,0,33619,33620,0.5957,0.595,0.595,0.595
Sprite,Background,Centre,"sb\btrfl2.png",425,185 S,0,33700,,0.504 R,0,33700,,-2.35359 S,0,33700,33780,0.595 M,1,33700,34308,463.992,146.2105,481.7157,128.5789 P,0,33700,34308,H P,0,33700,34308,V V,0,33781,33782,0.595,0.595,0.35,0.595 V,0,33862,33863,0.5957,0.595,0.595,0.595 V,0,33945,33946,0.595,0.595,0.35,0.595 F,0,34004,34308,1,0 V,0,34024,34025,0.5957,0.595,0.595,0.595
Sprite,Background,Centre,"sb\btrfl2.png",445,357 S,0,34511,,0.504 R,0,34511,,-2.501181 S,0,34511,34591,0.595 M,1,34511,35119,477.8639,312.8983,492.8021,292.852 P,0,34511,35119,H P,0,34511,35119,V V,0,34592,34593,0.595,0.595,0.35,0.595 V,0,34673,34674,0.5957,0.595,0.595,0.595 V,0,34756,34757,0.595,0.595,0.35,0.595 F,0,34815,35119,1,0 V,0,34835,34836,0.5957,0.595,0.595,0.595
Sprite,Background,Centre,"sb\btrfl2.png",539,374 S,0,34917,,0.504 R,0,34917,,-2.08327 S,0,34917,34997,0.595 M,1,34917,35525,586.9344,347.0316,608.7227,334.7732 P,0,34917,35525,H P,0,34917,35525,V V,0,34998,34999,0.595,0.595,0.35,0.595 V,0,35079,35080,0.5957,0.595,0.595,0.595 V,0,35162,35163,0.595,0.595,0.35,0.595 F,0,35221,35525,1,0 V,0,35241,35242,0.5957,0.595,0.595,0.595
Sprite,Background,Centre,"sb\btrfl2.png",554,200 S,0,35727,,0.504 R,0,35727,,-2.191416 S,0,35727,35807,0.595 M,1,35727,36335,598.7435,168.0153,619.0815,153.4769 P,0,35727,36335,H P,0,35727,36335,V V,0,35808,35809,0.595,0.595,0.35,0.595 V,0,35889,35890,0.5957,0.595,0.595,0.595 V,0,35972,35973,0.595,0.595,0.35,0.595 F,0,36031,36335,1,0 V,0,36051,36052,0.5957,0.595,0.595,0.595
Sprite,Background,Centre,"sb\btrfl2.png",445,100 S,0,36538,,0.504 R,0,36538,,-2.634969 S,0,36538,36618,0.595 M,1,36538,37146,471.6876,51.90868,483.8183,30.04899 P,0,36538,37146,H P,0,36538,37146,V V,0,36619,36620,0.595,0.595,0.35,0.595 V,0,36700,36701,0.5957,0.595,0.595,0.595 V,0,36783,36784,0.595,0.595,0.35,0.595 F,0,36842,37146,1,0 V,0,36862,36863,0.5957,0.595,0.595,0.595
Sprite,Background,Centre,"sb\btrfl2.png",268,94 S,0,37349,,0.504 R,0,37349,,-2.556336 S,0,37349,37429,0.595 M,1,37349,37957,298.3828,48.15363,312.1931,27.31438 P,0,37349,37957,H P,0,37349,37957,V V,0,37430,37431,0.595,0.595,0.35,0.595 V,0,37511,37512,0.5957,0.595,0.595,0.595 V,0,37594,37595,0.595,0.595,0.35,0.595 F,0,37653,37957,1,0 V,0,37673,37674,0.5957,0.595,0.595,0.595
Sprite,Background,Centre,"sb\btrfl2.png",372,215 S,0,38160,,0.504 R,0,38160,,-2.236012 S,0,38160,38240,0.595 M,1,38160,38768,415.2731,181.0524,434.9427,165.6217 P,0,38160,38768,H P,0,38160,38768,V V,0,38241,38242,0.595,0.595,0.35,0.595 V,0,38322,38323,0.5957,0.595,0.595,0.595 V,0,38405,38406,0.595,0.595,0.35,0.595 F,0,38464,38768,1,0 V,0,38484,38485,0.5957,0.595,0.595,0.595
Sprite,Background,Centre,"sb\btrfl2.png",552,149 S,0,38971,,0.504 R,0,38971,,-2.320046 S,0,38971,39051,0.595 M,1,38971,39579,592.271,111.5401,610.576,94.51283 P,0,38971,39579,H P,0,38971,39579,V V,0,39052,39053,0.595,0.595,0.35,0.595 V,0,39133,39134,0.5957,0.595,0.595,0.595 V,0,39216,39217,0.595,0.595,0.35,0.595 F,0,39275,39579,1,0 V,0,39295,39296,0.5957,0.595,0.595,0.595
Sprite,Background,Centre,"sb\btrfl2.png",495,329 S,0,39781,,0.504 R,0,39781,,-2.102777 S,0,39781,39861,0.595 M,1,39781,40389,542.3992,301.1017,563.9443,288.4207 P,0,39781,40389,H P,0,39781,40389,V V,0,39862,39863,0.595,0.595,0.35,0.595 V,0,39943,39944,0.5957,0.595,0.595,0.595 V,0,40026,40027,0.595,0.595,0.35,0.595 F,0,40085,40389,1,0 V,0,40105,40106,0.5957,0.595,0.595,0.595
Sprite,Background,Centre,"sb\btrfl2.png",391,222 S,0,40592,,0.504 R,0,40592,,-2.15492 S,0,40592,40672,0.595 M,1,40592,41200,436.8807,191.6692,457.7356,177.8825 P,0,40592,41200,H P,0,40592,41200,V V,0,40673,40674,0.595,0.595,0.35,0.595 V,0,40754,40755,0.5957,0.595,0.595,0.595 V,0,40837,40838,0.595,0.595,0.35,0.595 F,0,40896,41200,1,0 V,0,40916,40917,0.5957,0.595,0.595,0.595
Sprite,Background,Centre,"sb\btrfl2.png",286,327 S,0,41403,,0.504 R,0,41403,,-2.287051 S,0,41403,41483,0.595 M,1,41403,42011,327.4848,290.8889,346.3416,274.4749 P,0,41403,42011,H P,0,41403,42011,V V,0,41484,41485,0.595,0.595,0.35,0.595 V,0,41565,41566,0.5957,0.595,0.595,0.595 V,0,41648,41649,0.595,0.595,0.35,0.595 F,0,41707,42011,1,0 V,0,41727,41728,0.5957,0.595,0.595,0.595
Sprite,Background,Centre,"sb\btrfl2.png",184,213 S,0,42214,,0.504 R,0,42214,,-2.503109 S,0,42214,42294,0.595 M,1,42214,42822,216.7788,168.835,231.6783,148.76 P,0,42214,42822,H P,0,42214,42822,V V,0,42295,42296,0.595,0.595,0.35,0.595 V,0,42376,42377,0.5957,0.595,0.595,0.595 V,0,42459,42460,0.595,0.595,0.35,0.595 F,0,42518,42822,1,0 V,0,42538,42539,0.5957,0.595,0.595,0.595
Sprite,Background,Centre,"sb\btrfl2.png",104,361 S,0,43025,,0.504 R,0,43025,,-2.433881 S,0,43025,43105,0.595 M,1,43025,43633,139.7553,319.2082,156.0077,300.2119 P,0,43025,43633,H P,0,43025,43633,V V,0,43106,43107,0.595,0.595,0.35,0.595 V,0,43187,43188,0.5957,0.595,0.595,0.595 V,0,43270,43271,0.595,0.595,0.35,0.595 F,0,43329,43633,1,0 V,0,43349,43350,0.5957,0.595,0.595,0.595
Sprite,Background,Centre,"sb\btrfl2.png",67,269 S,0,43430,,0.504 R,0,43430,,-2.341578 S,0,43430,43510,0.595 M,1,43430,44038,106.4552,230.6817,124.3893,213.2643 P,0,43430,44038,H P,0,43430,44038,V V,0,43511,43512,0.595,0.595,0.35,0.595 V,0,43592,43593,0.5957,0.595,0.595,0.595 V,0,43675,43676,0.595,0.595,0.35,0.595 F,0,43734,44038,1,0 V,0,43754,43755,0.5957,0.595,0.595,0.595
Sprite,Background,Centre,"sb\btrfl2.png",80,174 S,0,43835,,0.504 R,0,43835,,-2.136439 S,0,43835,43915,0.595 M,1,43835,44443,126.4334,144.5223,147.5395,131.1233 P,0,43835,44443,H P,0,43835,44443,V V,0,43916,43917,0.595,0.595,0.35,0.595 V,0,43997,43998,0.5957,0.595,0.595,0.595 V,0,44080,44081,0.595,0.595,0.35,0.595 F,0,44139,44443,1,0 V,0,44159,44160,0.5957,0.595,0.595,0.595
Sprite,Background,Centre,"sb\btrfl2.png",398,107 S,0,45457,,0.504 R,0,45457,,-2.614734 S,0,45457,45537,0.595 M,1,45457,46065,425.6551,59.4585,438.2256,37.84873 P,0,45457,46065,H P,0,45457,46065,V V,0,45538,45539,0.595,0.595,0.35,0.595 V,0,45619,45620,0.5957,0.595,0.595,0.595 V,0,45702,45703,0.595,0.595,0.35,0.595 F,0,45761,46065,1,0 V,0,45781,45782,0.5957,0.595,0.595,0.595
Sprite,Background,Centre,"sb\btrfl2.png",252,232 S,0,46268,,0.504 R,0,46268,,-2.577796 S,0,46268,46348,0.595 M,1,46268,46876,281.3919,185.5122,294.7519,164.3814 P,0,46268,46876,H P,0,46268,46876,V V,0,46349,46350,0.595,0.595,0.35,0.595 V,0,46430,46431,0.5957,0.595,0.595,0.595 V,0,46513,46514,0.595,0.595,0.35,0.595 F,0,46572,46876,1,0 V,0,46592,46593,0.5957,0.595,0.595,0.595
Sprite,Background,Centre,"sb\btrfl2.png",164,265 S,0,47079,,0.504 R,0,47079,,-2.514778 S,0,47079,47159,0.595 M,1,47079,47687,196.2612,220.4555,210.9254,200.208 P,0,47079,47687,H P,0,47079,47687,V V,0,47160,47161,0.595,0.595,0.35,0.595 V,0,47241,47242,0.5957,0.595,0.595,0.595 V,0,47324,47325,0.595,0.595,0.35,0.595 F,0,47383,47687,1,0 V,0,47403,47404,0.5957,0.595,0.595,0.595
Sprite,Background,Centre,"sb\btrfl2.png",86,321 S,0,47484,,0.504 R,0,47484,,-2.600754 S,0,47484,47564,0.595 M,1,47484,48092,114.3171,273.8498,127.1884,252.4178 P,0,47484,48092,H P,0,47484,48092,V V,0,47565,47566,0.595,0.595,0.35,0.595 V,0,47646,47647,0.5957,0.595,0.595,0.595 V,0,47729,47730,0.595,0.595,0.35,0.595 F,0,47788,48092,1,0 V,0,47808,47809,0.5957,0.595,0.595,0.595
Sprite,Background,Centre,"sb\btrfl2.png",76,225 S,0,48700,,0.504 R,0,48700,,-2.475824 S,0,48700,48780,0.595 M,1,48700,49308,109.9715,181.7457,125.4131,162.0846 P,0,48700,49308,H P,0,48700,49308,V V,0,48781,48782,0.595,0.595,0.35,0.595 V,0,48862,48863,0.5957,0.595,0.595,0.595 V,0,48945,48946,0.595,0.595,0.35,0.595 F,0,49004,49308,1,0 V,0,49024,49025,0.5957,0.595,0.595,0.595
Sprite,Background,Centre,"sb\btrfl2.png",227,107 S,0,49511,,0.504 R,0,49511,,-2.437406 S,0,49511,49591,0.595 M,1,49511,50119,262.6078,65.08238,278.7931,46.02892 P,0,49511,50119,H P,0,49511,50119,V V,0,49592,49593,0.595,0.595,0.35,0.595 V,0,49673,49674,0.5957,0.595,0.595,0.595 V,0,49756,49757,0.595,0.595,0.35,0.595 F,0,49815,50119,1,0 V,0,49835,49836,0.5957,0.595,0.595,0.595
Sprite,Background,Centre,"sb\btrfl2.png",274,189 S,0,49917,,0.504 R,0,49917,,-2.152885 S,0,49917,49997,0.595 M,1,49917,50525,319.9424,158.7627,340.8253,145.0184 P,0,49917,50525,H P,0,49917,50525,V V,0,49998,49999,0.595,0.595,0.35,0.595 V,0,50079,50080,0.5957,0.595,0.595,0.595 V,0,50162,50163,0.595,0.595,0.35,0.595 F,0,50221,50525,1,0 V,0,50241,50242,0.5957,0.595,0.595,0.595
Sprite,Background,Centre,"sb\btrfl2.png",339,329 S,0,50727,,0.504 R,0,50727,,-2.626754 S,0,50727,50807,0.595 M,1,50727,51335,366.0817,281.1295,378.3916,259.3702 P,0,50727,51335,H P,0,50727,51335,V V,0,50808,50809,0.595,0.595,0.35,0.595 V,0,50889,50890,0.5957,0.595,0.595,0.595 V,0,50972,50973,0.595,0.595,0.35,0.595 F,0,51031,51335,1,0 V,0,51051,51052,0.5957,0.595,0.595,0.595
Sprite,Background,Centre,"sb\btrfl2.png",361,241 S,0,51133,,0.504 R,0,51133,,-2.627508 S,0,51133,51213,0.595 M,1,51133,51741,388.0456,193.1091,400.3391,171.3405 P,0,51133,51741,H P,0,51133,51741,V V,0,51214,51215,0.595,0.595,0.35,0.595 V,0,51295,51296,0.5957,0.595,0.595,0.595 V,0,51378,51379,0.595,0.595,0.35,0.595 F,0,51437,51741,1,0 V,0,51457,51458,0.5957,0.595,0.595,0.595
Sprite,Background,Centre,"sb\btrfl2.png",442,275 S,0,52754,,0.504 R,0,52754,,-2.060606 S,0,52754,52834,0.595 M,1,52754,53362,490.5332,249.1248,512.5938,237.3634 P,0,52754,53362,H P,0,52754,53362,V V,0,52835,52836,0.595,0.595,0.35,0.595 V,0,52916,52917,0.5957,0.595,0.595,0.595 V,0,52999,53000,0.595,0.595,0.35,0.595 F,0,53058,53362,1,0 V,0,53078,53079,0.5957,0.595,0.595,0.595
Sprite,Background,Centre,"sb\btrfl2.png",342,381 S,0,53565,,0.504 R,0,53565,,-2.587005 S,0,53565,53645,0.595 M,1,53565,54173,370.9626,334.2435,384.1274,312.9906 P,0,53565,54173,H P,0,53565,54173,V V,0,53646,53647,0.595,0.595,0.35,0.595 V,0,53727,53728,0.5957,0.595,0.595,0.595 V,0,53810,53811,0.595,0.595,0.35,0.595 F,0,53869,54173,1,0 V,0,53889,53890,0.5957,0.595,0.595,0.595
Sprite,Background,Centre,"sb\btrfl2.png",243,271 S,0,54376,,0.504 R,0,54376,,-2.1191 S,0,54376,54456,0.595 M,1,54376,54984,289.9376,242.3318,311.2728,229.3008 P,0,54376,54984,H P,0,54376,54984,V V,0,54457,54458,0.595,0.595,0.35,0.595 V,0,54538,54539,0.5957,0.595,0.595,0.595 V,0,54621,54622,0.595,0.595,0.35,0.595 F,0,54680,54984,1,0 V,0,54700,54701,0.5957,0.595,0.595,0.595
Sprite,Background,Centre,"sb\btrfl2.png",143,377 S,0,55187,,0.504 R,0,55187,,-2.450881 S,0,55187,55267,0.595 M,1,55187,55795,178.0397,334.6064,193.9669,315.3366 P,0,55187,55795,H P,0,55187,55795,V V,0,55268,55269,0.595,0.595,0.35,0.595 V,0,55349,55350,0.5957,0.595,0.595,0.595 V,0,55432,55433,0.595,0.595,0.35,0.595 F,0,55491,55795,1,0 V,0,55511,55512,0.5957,0.595,0.595,0.595
Sprite,Background,Centre,"sb\btrfl2.png",131,201 S,0,55998,,0.504 R,0,55998,,-2.57877 S,0,55998,56078,0.595 M,1,55998,56606,160.3466,154.4836,173.686,133.3398 P,0,55998,56606,H P,0,55998,56606,V V,0,56079,56080,0.595,0.595,0.35,0.595 V,0,56160,56161,0.5957,0.595,0.595,0.595 V,0,56243,56244,0.595,0.595,0.35,0.595 F,0,56302,56606,1,0 V,0,56322,56323,0.5957,0.595,0.595,0.595
Sprite,Background,Centre,"sb\btrfl2.png",197,132 S,0,56403,,0.504 R,0,56403,,-2.153431 S,0,56403,56483,0.595 M,1,56403,57011,242.9259,101.7376,263.8013,87.98191 P,0,56403,57011,H P,0,56403,57011,V V,0,56484,56485,0.595,0.595,0.35,0.595 V,0,56565,56566,0.5957,0.595,0.595,0.595 V,0,56648,56649,0.595,0.595,0.35,0.595 F,0,56707,57011,1,0 V,0,56727,56728,0.5957,0.595,0.595,0.595
Sprite,Background,Centre,"sb\btrfl2.png",107,110 S,0,57619,,0.504 R,0,57619,,-2.699981 S,0,57619,57699,0.595 M,1,57619,58227,130.5069,60.27648,141.1918,37.67488 P,0,57619,58227,H P,0,57619,58227,V V,0,57700,57701,0.595,0.595,0.35,0.595 V,0,57781,57782,0.5957,0.595,0.595,0.595 V,0,57864,57865,0.595,0.595,0.35,0.595 F,0,57923,58227,1,0 V,0,57943,57944,0.5957,0.595,0.595,0.595
Sprite,Background,Centre,"sb\btrfl2.png",182,285 S,0,58430,,0.504 R,0,58430,,-2.336956 S,0,58430,58510,0.595 M,1,58430,59038,221.6318,246.8645,239.6463,229.5302 P,0,58430,59038,H P,0,58430,59038,V V,0,58511,58512,0.595,0.595,0.35,0.595 V,0,58592,58593,0.5957,0.595,0.595,0.595 V,0,58675,58676,0.595,0.595,0.35,0.595 F,0,58734,59038,1,0 V,0,58754,58755,0.5957,0.595,0.595,0.595
Sprite,Background,Centre,"sb\btrfl2.png",350,257 S,0,59241,,0.504 R,0,59241,,-2.456544 S,0,59241,59321,0.595 M,1,59241,59849,384.7991,214.4087,400.6169,195.049 P,0,59241,59849,H P,0,59241,59849,V V,0,59322,59323,0.595,0.595,0.35,0.595 V,0,59403,59404,0.5957,0.595,0.595,0.595 V,0,59486,59487,0.595,0.595,0.35,0.595 F,0,59545,59849,1,0 V,0,59565,59566,0.5957,0.595,0.595,0.595
Sprite,Background,Centre,"sb\btrfl2.png",333,351 S,0,60457,,0.504 R,0,60457,,-2.503808 S,0,60457,60537,0.595 M,1,60457,61065,365.7479,306.8121,380.6334,286.7267 P,0,60457,61065,H P,0,60457,61065,V V,0,60538,60539,0.595,0.595,0.35,0.595 V,0,60619,60620,0.5957,0.595,0.595,0.595 V,0,60702,60703,0.595,0.595,0.35,0.595 F,0,60761,61065,1,0 V,0,60781,60782,0.5957,0.595,0.595,0.595
Sprite,Background,Centre,"sb\btrfl2.png",260,290 S,0,60862,,0.504 R,0,60862,,-2.566624 S,0,60862,60942,0.595 M,1,60862,61470,289.9095,243.8435,303.5047,222.8633 P,0,60862,61470,H P,0,60862,61470,V V,0,60943,60944,0.595,0.595,0.35,0.595 V,0,61024,61025,0.5957,0.595,0.595,0.595 V,0,61107,61108,0.595,0.595,0.35,0.595 F,0,61166,61470,1,0 V,0,61186,61187,0.5957,0.595,0.595,0.595
Sprite,Background,Centre,"sb\btrfl2.png",238,128 S,0,61701,,0.504 R,0,61701,,-2.070655 S,0,61701,61781,0.595 M,1,61701,62309,286.2708,101.6384,308.212,89.65589 P,0,61701,62309,H P,0,61701,62309,V V,0,61782,61783,0.595,0.595,0.35,0.595 V,0,61863,61864,0.5957,0.595,0.595,0.595 V,0,61946,61947,0.595,0.595,0.35,0.595 F,0,62005,62309,1,0 V,0,62025,62026,0.5957,0.595,0.595,0.595
Sprite,Background,Centre,"sb\btrfl2.png",169,281 S,0,62589,,0.504 R,0,62589,,-2.510366 S,0,62589,62669,0.595 M,1,62589,63197,201.4575,236.5983,216.2108,216.4157 P,0,62589,63197,H P,0,62589,63197,V V,0,62670,62671,0.595,0.595,0.35,0.595 V,0,62751,62752,0.5957,0.595,0.595,0.595 V,0,62834,62835,0.595,0.595,0.35,0.595 F,0,62893,63197,1,0 V,0,62913,62914,0.5957,0.595,0.595,0.595
Sprite,Background,Centre,"sb\btrfl2.png",279,381 S,0,63550,,0.504 R,0,63550,,-2.502915 S,0,63550,63630,0.595 M,1,63550,64158,311.7874,336.8413,326.6907,316.7692 P,0,63550,64158,H P,0,63550,64158,V V,0,63631,63632,0.595,0.595,0.35,0.595 V,0,63712,63713,0.5957,0.595,0.595,0.595 V,0,63795,63796,0.595,0.595,0.35,0.595 F,0,63854,64158,1,0 V,0,63874,63875,0.5957,0.595,0.595,0.595
Sprite,Background,Centre,"sb\btrfl2.png",423,314 S,0,64640,,0.504 R,0,64640,,-2.087869 S,0,64640,64720,0.595 M,1,64640,65248,470.8098,286.8114,492.5416,274.453 P,0,64640,65248,H P,0,64640,65248,V V,0,64721,64722,0.595,0.595,0.35,0.595 V,0,64802,64803,0.5957,0.595,0.595,0.595 V,0,64885,64886,0.595,0.595,0.35,0.595 F,0,64944,65248,1,0 V,0,64964,64965,0.5957,0.595,0.595,0.595
Sprite,Background,Centre,"sb\flame.png",124,267 S,0,52,,1.6 F,2,52,252,1,0
Sprite,Background,Centre,"sb\flame.png",294,367 S,0,863,,1.6 M,0,863,913,294,367,303.9941,366.6554 F,2,863,1468,1,0 M,0,913,964,303.9941,366.6554,313.9881,366.3108 M,0,964,1015,313.9881,366.3108,323.9822,365.9661 M,0,1015,1065,323.9822,365.9661,333.9762,365.6215 M,0,1065,1116,333.9762,365.6215,343.9703,365.2769 M,0,1116,1167,343.9703,365.2769,353.9644,364.9323 M,0,1167,1217,353.9644,364.9323,363.9584,364.5876 M,0,1217,1268,363.9584,364.5876,373.9525,364.243
Sprite,Background,Centre,"sb\flame.png",457,316 S,0,1673,,1.6 F,2,1673,1873,1,0
Sprite,Background,Centre,"sb\flame.png",372,266 S,0,2079,,1.6 M,0,2079,2129,372,266,362.0031,266.2499 F,2,2079,3089,1,0 M,0,2129,2180,362.0031,266.2499,352.0063,266.4998 M,0,2180,2231,352.0063,266.4998,342.0094,266.7498 M,0,2231,2281,342.0094,266.7498,332.0125,266.9997 M,0,2281,2332,332.0125,266.9997,322.0156,267.2496 M,0,2332,2383,322.0156,267.2496,312.0187,267.4995 M,0,2383,2433,312.0187,267.4995,302.0219,267.7495 M,0,2433,2484,302.0219,267.7495,292.025,267.9994 M,0,2484,2535,292.025,267.9994,302.0219,267.7495 M,0,2535,2585,302.0219,267.7495,312.0187,267.4995 M,0,2585,2636,312.0187,267.4995,322.0156,267.2496 M,0,2636,2687,322.0156,267.2496,332.0125,266.9997 M,0,2687,2737,332.0125,266.9997,342.0094,266.7498 M,0,2737,2788,342.0094,266.7498,352.0063,266.4998 M,0,2788,2839,352.0063,266.4998,362.0031,266.2499 M,0,2839,2889,362.0031,266.2499,372,266
Sprite,Background,Centre,"sb\flame.png",455,217 S,0,3295,,1.6 F,2,3295,3495,1,0
Sprite,Background,Centre,"sb\flame.png",298,110 S,0,4106,,1.6 M,0,4106,4156,298,110,296.2333,119.8427 F,2,4106,4711,1,0 M,0,4156,4207,296.2333,119.8427,294.4667,129.6854 M,0,4207,4258,294.4667,129.6854,292.7001,139.5281 M,0,4258,4308,292.7001,139.5281,291.0313,149.3755 M,0,4308,4359,291.0313,149.3755,291.8618,159.3409 M,0,4359,4410,291.8618,159.3409,292.6922,169.3064 M,0,4410,4460,292.6922,169.3064,293.5226,179.2719 M,0,4460,4511,293.5226,179.2719,294.3531,189.2373
Sprite,Background,Centre,"sb\flame.png",317,282 S,0,4917,,1.6 M,0,4917,4967,317,282,318.7667,291.8427 F,2,4917,5522,1,0 M,0,4967,5018,318.7667,291.8427,320.5333,301.6854 M,0,5018,5069,320.5333,301.6854,322.2999,311.5281 M,0,5069,5119,322.2999,311.5281,323.9687,321.3755 M,0,5119,5170,323.9687,321.3755,323.1382,331.3409 M,0,5170,5221,323.1382,331.3409,322.3078,341.3064 M,0,5221,5271,322.3078,341.3064,321.4774,351.2719 M,0,5271,5322,321.4774,351.2719,320.6469,361.2373
Sprite,Background,Centre,"sb\flame.png",254,430 S,0,5727,,1.6 F,2,5727,5927,1,0
Sprite,Background,Centre,"sb\flame.png",86,368 S,0,6538,,1.6 F,2,6538,6738,1,0
Sprite,Background,Centre,"sb\flame.png",176,198 S,0,7349,,1.6 M,0,7349,7399,176,198,177.3216,188.0877 F,2,7349,7954,1,0 M,0,7399,7450,177.3216,188.0877,178.6433,178.1754 M,0,7450,7501,178.6433,178.1754,179.9649,168.2632 M,0,7501,7551,179.9649,168.2632,181.2865,158.3509 M,0,7551,7602,181.2865,158.3509,182.6082,148.4386 M,0,7602,7653,182.6082,148.4386,183.9298,138.5263 M,0,7653,7703,183.9298,138.5263,185.2515,128.614 M,0,7703,7754,185.2515,128.614,186.5731,118.7018
Sprite,Background,Centre,"sb\flame.png",281,105 S,0,8160,,1.6 M,0,8160,8210,281,105,282.2558,114.9208 F,2,8160,8765,1,0 M,0,8210,8261,282.2558,114.9208,283.5116,124.8417 M,0,8261,8312,283.5116,124.8417,284.7674,134.7625 M,0,8312,8362,284.7674,134.7625,286.0232,144.6833 M,0,8362,8413,286.0232,144.6833,287.279,154.6042 M,0,8413,8464,287.279,154.6042,288.5348,164.525 M,0,8464,8514,288.5348,164.525,289.7906,174.4458 M,0,8514,8565,289.7906,174.4458,291,184
Sprite,Background,Centre,"sb\flame.png",385,203 S,0,8971,,1.6 M,0,8971,9021,385,203,386.3216,193.0877 F,2,8971,9576,1,0 M,0,9021,9072,386.3216,193.0877,387.6433,183.1754 M,0,9072,9123,387.6433,183.1754,388.9649,173.2632 M,0,9123,9173,388.9649,173.2632,390.2866,163.3509 M,0,9173,9224,390.2866,163.3509,391.6082,153.4386 M,0,9224,9275,391.6082,153.4386,392.9298,143.5263 M,0,9275,9325,392.9298,143.5263,394.2515,133.614 M,0,9325,9376,394.2515,133.614,395.5731,123.7018
Sprite,Background,Centre,"sb\flame.png",488,101 S,0,9781,,1.6 M,0,9781,9831,488,101,489.2558,110.9208 F,2,9781,10386,1,0 M,0,9831,9882,489.2558,110.9208,490.5116,120.8417 M,0,9882,9933,490.5116,120.8417,491.7674,130.7625 M,0,9933,9983,491.7674,130.7625,493.0232,140.6833 M,0,9983,10034,493.0232,140.6833,494.279,150.6042 M,0,10034,10085,494.279,150.6042,495.5348,160.525 M,0,10085,10135,495.5348,160.525,496.7906,170.4458 M,0,10135,10186,496.7906,170.4458,498,180
Sprite,Background,Centre,"sb\flame.png",557,255 S,0,10592,,1.6 F,2,10592,10792,1,0
Sprite,Background,Centre,"sb\flame.png",571,350 S,0,10998,,1.6 F,2,10998,11198,1,0
Sprite,Background,Centre,"sb\flame.png",484,391 S,0,11403,,1.6 M,0,11403,11453,484,391,474.2561,393.2486 F,2,11403,12413,1,0 M,0,11453,11504,474.2561,393.2486,464.5122,395.4972 M,0,11504,11555,464.5122,395.4972,454.7682,397.7458 M,0,11555,11605,454.7682,397.7458,445.0244,399.9944 M,0,11605,11656,445.0244,399.9944,435.2805,402.243 M,0,11656,11707,435.2805,402.243,425.5365,404.4916 M,0,11707,11757,425.5365,404.4916,415.7926,406.7402 M,0,11757,11808,415.7926,406.7402,406.0487,408.9888 M,0,11808,11859,406.0487,408.9888,396.0901,408.1072 M,0,11859,11909,396.0901,408.1072,386.1305,407.21 M,0,11909,11960,386.1305,407.21,376.1708,406.3127 M,0,11960,12011,376.1708,406.3127,366.2111,405.4154 M,0,12011,12061,366.2111,405.4154,356.2515,404.5182 M,0,12061,12112,356.2515,404.5182,346.2918,403.6209 M,0,12112,12163,346.2918,403.6209,336.3322,402.7236 M,0,12163,12213,336.3322,402.7236,326.3725,401.8264
Sprite,Background,Centre,"sb\flame.png",311,213 S,0,13025,,1.6 F,2,13025,13225,1,0
Sprite,Background,Centre,"sb\flame.png",140,301 S,0,13836,,1.6 M,0,13836,13886,140,301,131.1576,296.3656 F,2,13836,14441,1,0 M,0,13886,13937,131.1576,296.3656,122.8408,290.8585 M,0,13937,13988,122.8408,290.8585,115.1339,284.5361 M,0,13988,14038,115.1339,284.5361,108.115,277.4637 M,0,14038,14089,108.115,277.4637,101.8556,269.7139 M,0,14089,14140,101.8556,269.7139,96.22757,261.4882 M,0,14140,14190,96.22757,261.4882,91.79314,252.5529 M,0,14190,14241,91.79314,252.5529,88.08923,243.2767
Sprite,Background,Centre,"sb\flame.png",179,213 S,0,14646,,1.6 F,2,14646,14846,1,0
Sprite,Background,Centre,"sb\flame.png",217,124 S,0,15052,,1.6 M,0,15052,15102,217,124,225.8424,128.6344 F,2,15052,16062,1,0 M,0,15102,15153,225.8424,128.6344,234.1592,134.1414 M,0,15153,15204,234.1592,134.1414,241.8661,140.4639 M,0,15204,15254,241.8661,140.4639,248.885,147.5363 M,0,15254,15305,248.885,147.5363,255.1444,155.286 M,0,15305,15356,255.1444,155.286,260.7724,163.5118 M,0,15356,15406,260.7724,163.5118,265.2068,172.4471 M,0,15406,15457,265.2068,172.4471,268.9108,181.7233 M,0,15457,15508,268.9108,181.7233,265.2068,172.4471 M,0,15508,15558,265.2068,172.4471,260.7724,163.5118 M,0,15558,15609,260.7724,163.5118,255.1444,155.286 M,0,15609,15660,255.1444,155.286,248.885,147.5363 M,0,15660,15710,248.885,147.5363,241.8661,140.4639 M,0,15710,15761,241.8661,140.4639,234.1592,134.1414 M,0,15761,15812,234.1592,134.1414,225.8424,128.6344 M,0,15812,15862,225.8424,128.6344,217,124
Sprite,Background,Centre,"sb\flame.png",123,136 S,0,16268,,1.6 F,2,16268,16468,1,0
Sprite,Background,Centre,"sb\flame.png",252,278 S,0,17079,,1.6 F,2,17079,17279,1,0
Sprite,Background,Centre,"sb\flame.png",268,181 S,0,17484,,1.6 M,0,17484,17534,268,181,271.3219,171.5899 F,2,17484,18089,1,0 M,0,17534,17585,271.3219,171.5899,275.6596,162.614 M,0,17585,17636,275.6596,162.614,280.9598,154.179 M,0,17636,17686,280.9598,154.179,287.1583,146.3851 M,0,17686,17737,287.1583,146.3851,294.0175,139.159 M,0,17737,17788,294.0175,139.159,301.8977,133.0499 M,0,17788,17838,301.8977,133.0499,310.3987,127.854 M,0,17838,17889,310.3987,127.854,319.2939,123.3167
Sprite,Background,Centre,"sb\flame.png",415,113 S,0,18295,,1.6 F,2,18295,18495,1,0
Sprite,Background,Centre,"sb\flame.png",431,208 S,0,18700,,1.6 M,0,18700,18750,431,208,431.3843,217.9926 F,2,18700,19710,1,0 M,0,18750,18801,431.3843,217.9926,431.7687,227.9852 M,0,18801,18852,431.7687,227.9852,432.153,237.9778 M,0,18852,18902,432.153,237.9778,432.5373,247.9704 M,0,18902,18953,432.5373,247.9704,432.9217,257.9631 M,0,18953,19004,432.9217,257.9631,434.8349,267.7472 M,0,19004,19054,434.8349,267.7472,437.1395,277.478 M,0,19054,19105,437.1395,277.478,439.4442,287.2088 M,0,19105,19156,439.4442,287.2088,441.7489,296.9396 M,0,19156,19206,441.7489,296.9396,442.2048,306.908 M,0,19206,19257,442.2048,306.908,442.4346,316.9053 M,0,19257,19308,442.4346,316.9053,442.6644,326.9027 M,0,19308,19358,442.6644,326.9027,442.8943,336.9 M,0,19358,19409,442.8943,336.9,443.1241,346.8974 M,0,19409,19460,443.1241,346.8974,443.3539,356.8947 M,0,19460,19510,443.3539,356.8947,443.5837,366.8921
Sprite,Background,Centre,"sb\flame.png",252,426 S,0,20322,,1.6 M,0,20322,20372,252,426,242.0411,425.0946 F,2,20322,20927,1,0 M,0,20372,20423,242.0411,425.0946,232.0821,424.1893 M,0,20423,20474,232.0821,424.1893,222.1232,423.2839 M,0,20474,20524,222.1232,423.2839,212.1643,422.3786 M,0,20524,20575,212.1643,422.3786,202.2053,421.4732 M,0,20575,20626,202.2053,421.4732,192.2464,420.5678 M,0,20626,20676,192.2464,420.5678,182.2875,419.6625 M,0,20676,20727,182.2875,419.6625,172.3286,418.7571
Sprite,Background,Centre,"sb\flame.png",156,324 S,0,21133,,1.6 M,0,21133,21183,156,324,165.9589,323.0946 F,2,21133,21738,1,0 M,0,21183,21234,165.9589,323.0946,175.9179,322.1893 M,0,21234,21285,175.9179,322.1893,185.8768,321.2839 M,0,21285,21335,185.8768,321.2839,195.8357,320.3786 M,0,21335,21386,195.8357,320.3786,205.7947,319.4732 M,0,21386,21437,205.7947,319.4732,215.7536,318.5678 M,0,21437,21487,215.7536,318.5678,225.7125,317.6625 M,0,21487,21538,225.7125,317.6625,235.6714,316.7571
Sprite,Background,Centre,"sb\flame.png",270,227 S,0,21944,,1.6 M,0,21944,21994,270,227,260.0411,226.0946 F,2,21944,22549,1,0 M,0,21994,22045,260.0411,226.0946,250.0821,225.1893 M,0,22045,22096,250.0821,225.1893,240.1232,224.2839 M,0,22096,22146,240.1232,224.2839,230.1643,223.3786 M,0,22146,22197,230.1643,223.3786,220.2053,222.4732 M,0,22197,22248,220.2053,222.4732,210.2464,221.5679 M,0,22248,22298,210.2464,221.5679,200.2875,220.6625 M,0,22298,22349,200.2875,220.6625,190.3286,219.7571
Sprite,Background,Centre,"sb\flame.png",174,125 S,0,22754,,1.6 M,0,22754,22804,174,125,183.9589,124.0946 F,2,22754,23359,1,0 M,0,22804,22855,183.9589,124.0946,193.9179,123.1893 M,0,22855,22906,193.9179,123.1893,203.8768,122.2839 M,0,22906,22956,203.8768,122.2839,213.8357,121.3786 M,0,22956,23007,213.8357,121.3786,223.7947,120.4732 M,0,23007,23058,223.7947,120.4732,233.7536,119.5679 M,0,23058,23108,233.7536,119.5679,243.7125,118.6625 M,0,23108,23159,243.7125,118.6625,253.6714,117.7571
Sprite,Background,Centre,"sb\flame.png",348,134 S,0,23565,,1.6 F,2,23565,23765,1,0
Sprite,Background,Centre,"sb\flame.png",442,117 S,0,23971,,1.6 M,0,23971,24021,442,117,451.9504,117.995 F,2,23971,24981,1,0 M,0,24021,24072,451.9504,117.995,461.9008,118.9901 M,0,24072,24123,461.9008,118.9901,471.8511,119.9851 M,0,24123,24173,471.8511,119.9851,481.8015,120.9801 M,0,24173,24224,481.8015,120.9801,491.7519,121.9752 M,0,24224,24275,491.7519,121.9752,501.7022,122.9702 M,0,24275,24325,501.7022,122.9702,511.6526,123.9653 M,0,24325,24376,511.6526,123.9653,521.603,124.9603 M,0,24376,24427,521.603,124.9603,511.6526,123.9653 M,0,24427,24477,511.6526,123.9653,501.7022,122.9702 M,0,24477,24528,501.7022,122.9702,491.7519,121.9752 M,0,24528,24579,491.7519,121.9752,481.8015,120.9801 M,0,24579,24629,481.8015,120.9801,471.8511,119.9851 M,0,24629,24680,471.8511,119.9851,461.9008,118.9901 M,0,24680,24731,461.9008,118.9901,451.9504,117.995 M,0,24731,24781,451.9504,117.995,442,117
Sprite,Background,Centre,"sb\flame.png",410,207 S,0,25187,,1.6 F,2,25187,25387,1,0
Sprite,Background,Centre,"sb\flame.png",466,390 S,0,25998,,1.6 M,0,25998,26048,466,390,456.0496,390.995 F,2,25998,26603,1,0 M,0,26048,26099,456.0496,390.995,446.0992,391.9901 M,0,26099,26150,446.0992,391.9901,436.1489,392.9851 M,0,26150,26200,436.1489,392.9851,426.1985,393.9802 M,0,26200,26251,426.1985,393.9802,416.2481,394.9752 M,0,26251,26302,416.2481,394.9752,406.2978,395.9702 M,0,26302,26352,406.2978,395.9702,396.3474,396.9653 M,0,26352,26403,396.3474,396.9653,386.397,397.9603
Sprite,Background,Centre,"sb\flame.png",349,309 S,0,26808,,1.6 M,0,26808,26858,349,309,339.0496,308.0049 F,2,26808,27818,1,0 M,0,26858,26909,339.0496,308.0049,329.0992,307.0099 M,0,26909,26960,329.0992,307.0099,319.1489,306.0149 M,0,26960,27010,319.1489,306.0149,309.1985,305.0198 M,0,27010,27061,309.1985,305.0198,299.2481,304.0248 M,0,27061,27112,299.2481,304.0248,289.2978,303.0298 M,0,27112,27162,289.2978,303.0298,279.3474,302.0347 M,0,27162,27213,279.3474,302.0347,269.397,301.0397 M,0,27213,27264,269.397,301.0397,279.3474,302.0347 M,0,27264,27314,279.3474,302.0347,289.2978,303.0298 M,0,27314,27365,289.2978,303.0298,299.2481,304.0248 M,0,27365,27416,299.2481,304.0248,309.1985,305.0198 M,0,27416,27466,309.1985,305.0198,319.1489,306.0149 M,0,27466,27517,319.1489,306.0149,329.0992,307.0099 M,0,27517,27568,329.0992,307.0099,339.0496,308.0049 M,0,27568,27618,339.0496,308.0049,349,309
Sprite,Background,Centre,"sb\flame.png",433,263 S,0,28025,,1.6 F,2,28025,28225,1,0
Sprite,Background,Centre,"sb\flame.png",455,175 S,0,28430,,1.6 M,0,28430,28480,455,175,445.0086,175.4138 F,2,28430,29440,1,0 M,0,28480,28531,445.0086,175.4138,435.0171,175.8277 M,0,28531,28582,435.0171,175.8277,425.0257,176.2415 M,0,28582,28632,425.0257,176.2415,415.0343,176.6554 M,0,28632,28683,415.0343,176.6554,405.0428,177.0692 M,0,28683,28734,405.0428,177.0692,395.0514,177.4831 M,0,28734,28784,395.0514,177.4831,385.06,177.8969 M,0,28784,28835,385.06,177.8969,375.0685,178.3108 M,0,28835,28886,375.0685,178.3108,365.0771,178.7246 M,0,28886,28936,365.0771,178.7246,355.0857,179.1385 M,0,28936,28987,355.0857,179.1385,345.0942,179.5523 M,0,28987,29038,345.0942,179.5523,335.1028,179.9662 M,0,29038,29088,335.1028,179.9662,325.1114,180.38 M,0,29088,29139,325.1114,180.38,315.1199,180.7939 M,0,29139,29190,315.1199,180.7939,305.1285,181.2077 M,0,29190,29240,305.1285,181.2077,295.1371,181.6216
Sprite,Background,Centre,"sb\flame.png",106,219 S,0,30052,,1.6 M,0,30052,30102,106,219,105.178,228.9662 F,2,30052,31062,1,0 M,0,30102,30153,105.178,228.9662,104.3561,238.9323 M,0,30153,30204,104.3561,238.9323,103.5341,248.8985 M,0,30204,30254,103.5341,248.8985,102.7122,258.8647 M,0,30254,30305,102.7122,258.8647,101.8902,268.8308 M,0,30305,30356,101.8902,268.8308,101.0683,278.797 M,0,30356,30406,101.0683,278.797,100.2463,288.7631 M,0,30406,30457,100.2463,288.7631,99.42439,298.7293 M,0,30457,30508,99.42439,298.7293,100.2463,288.7631 M,0,30508,30558,100.2463,288.7631,101.0683,278.797 M,0,30558,30609,101.0683,278.797,101.8902,268.8308 M,0,30609,30660,101.8902,268.8308,102.7122,258.8647 M,0,30660,30710,102.7122,258.8647,103.5341,248.8985 M,0,30710,30761,103.5341,248.8985,104.3561,238.9323 M,0,30761,30812,104.3561,238.9323,105.178,228.9662 M,0,30812,30862,105.178,228.9662,106,219
Sprite,Background,Centre,"sb\flame.png",188,268 S,0,31268,,1.6 M,0,31268,31318,188,268,188.822,277.9662 F,2,31268,31873,1,0 M,0,31318,31369,188.822,277.9662,189.6439,287.9323 M,0,31369,31420,189.6439,287.9323,190.4659,297.8985 M,0,31420,31470,190.4659,297.8985,191.2878,307.8647 M,0,31470,31521,191.2878,307.8647,192.1098,317.8308 M,0,31521,31572,192.1098,317.8308,192.9317,327.797 M,0,31572,31622,192.9317,327.797,193.7537,337.7631 M,0,31622,31673,193.7537,337.7631,194.5756,347.7293
Sprite,Background,Centre,"sb\flame.png",182,155 S,0,32484,,1.6 F,2,32484,32684,1,0
Sprite,Background,Centre,"sb\flame.png",368,109 S,0,33295,,1.6 F,2,33295,33495,1,0
Sprite,Background,Centre,"sb\flame.png",425,185 S,0,33700,,1.6 M,0,33700,33750,425,185,424.3421,194.9783 F,2,33700,34305,1,0 M,0,33750,33801,424.3421,194.9783,423.6842,204.9567 M,0,33801,33852,423.6842,204.9567,423.0263,214.935 M,0,33852,33902,423.0263,214.935,422.3683,224.9133 M,0,33902,33953,422.3683,224.9133,421.7104,234.8917 M,0,33953,34004,421.7104,234.8917,421.0525,244.87 M,0,34004,34054,421.0525,244.87,420.3946,254.8483 M,0,34054,34105,420.3946,254.8483,419.7367,264.8267
Sprite,Background,Centre,"sb\flame.png",445,357 S,0,34511,,1.6 F,2,34511,34711,1,0
Sprite,Background,Centre,"sb\flame.png",539,374 S,0,34917,,1.6 M,0,34917,34967,539,374,542.4052,364.6007 F,2,34917,35522,1,0 M,0,34967,35018,542.4052,364.6007,545.3799,355.058 M,0,35018,35069,545.3799,355.058,547.9182,345.3914 M,0,35069,35119,547.9182,345.3914,550.0148,335.6205 M,0,35119,35170,550.0148,335.6205,551.6658,325.7653 M,0,35170,35221,551.6658,325.7653,552.8677,315.8458 M,0,35221,35271,552.8677,315.8458,553.6182,305.8824 M,0,35271,35322,553.6182,305.8824,554.0756,295.8969
Sprite,Background,Centre,"sb\flame.png",554,200 S,0,35727,,1.6 M,0,35727,35777,554,200,553.6507,190.0089 F,2,35727,36332,1,0 M,0,35777,35828,553.6507,190.0089,552.8522,180.045 M,0,35828,35879,552.8522,180.045,551.6063,170.1284 M,0,35879,35929,551.6063,170.1284,549.9154,160.2788 M,0,35929,35980,549.9154,160.2788,547.7832,150.5162 M,0,35980,36031,547.7832,150.5162,545.2138,140.86 M,0,36031,36081,545.2138,140.86,542.2126,131.3296 M,0,36081,36132,542.2126,131.3296,539,122
Sprite,Background,Centre,"sb\flame.png",445,100 S,0,36538,,1.6 M,0,36538,36588,445,100,435.0023,99.78728 F,2,36538,37143,1,0 M,0,36588,36639,435.0023,99.78728,425.0045,99.57457 M,0,36639,36690,425.0045,99.57457,415.0068,99.36185 M,0,36690,36740,415.0068,99.36185,405.0091,99.14912 M,0,36740,36791,405.0091,99.14912,395.0113,98.93641 M,0,36791,36842,395.0113,98.93641,385.0136,98.72369 M,0,36842,36892,385.0136,98.72369,375.0158,98.51097 M,0,36892,36943,375.0158,98.51097,365.0181,98.29826
Sprite,Background,Centre,"sb\flame.png",268,94 S,0,37349,,1.6 M,0,37349,37399,268,94,268.0006,103.9855 F,2,37349,37954,1,0 M,0,37399,37450,268.0006,103.9855,268.9935,113.9139 M,0,37450,37501,268.9935,113.9139,270.9677,123.6883 M,0,37501,37551,270.9677,123.6883,273.9031,133.2132 M,0,37551,37602,273.9031,133.2132,277.7702,142.3956 M,0,37602,37653,277.7702,142.3956,282.5307,151.1459 M,0,37653,37703,282.5307,151.1459,287.8761,159.5712 M,0,37703,37754,287.8761,159.5712,294.3171,167.2094
Sprite,Background,Centre,"sb\flame.png",372,215 S,0,38160,,1.6 F,2,38160,38360,1,0
Sprite,Background,Centre,"sb\flame.png",552,149 S,0,38971,,1.6 F,2,38971,39171,1,0
Sprite,Background,Centre,"sb\flame.png",495,329 S,0,39781,,1.6 M,0,39781,39831,495,329,493.5166,319.1106 F,2,39781,40386,1,0 M,0,39831,39882,493.5166,319.1106,492.0332,309.2213 M,0,39882,39933,492.0332,309.2213,490.5498,299.3319 M,0,39933,39983,490.5498,299.3319,489.0664,289.4426 M,0,39983,40034,489.0664,289.4426,487.583,279.5532 M,0,40034,40085,487.583,279.5532,486.0996,269.6638 M,0,40085,40135,486.0996,269.6638,484.6162,259.7745 M,0,40135,40186,484.6162,259.7745,483.1328,249.8851
Sprite,Background,Centre,"sb\flame.png",391,222 S,0,40592,,1.6 M,0,40592,40642,391,222,389.4982,231.8866 F,2,40592,41197,1,0 M,0,40642,40693,389.4982,231.8866,387.9965,241.7732 M,0,40693,40744,387.9965,241.7732,386.4947,251.6598 M,0,40744,40794,386.4947,251.6598,384.993,261.5464 M,0,40794,40845,384.993,261.5464,383.4912,271.433 M,0,40845,40896,383.4912,271.433,381.9894,281.3195 M,0,40896,40946,381.9894,281.3195,380.4877,291.2061 M,0,40946,40997,380.4877,291.2061,379,301
Sprite,Background,Centre,"sb\flame.png",286,327 S,0,41403,,1.6 M,0,41403,41453,286,327,284.5166,317.1106 F,2,41403,42008,1,0 M,0,41453,41504,284.5166,317.1106,283.0332,307.2213 M,0,41504,41555,283.0332,307.2213,281.5498,297.3319 M,0,41555,41605,281.5498,297.3319,280.0664,287.4426 M,0,41605,41656,280.0664,287.4426,278.583,277.5532 M,0,41656,41707,278.583,277.5532,277.0996,267.6638 M,0,41707,41757,277.0996,267.6638,275.6161,257.7745 M,0,41757,41808,275.6161,257.7745,274.1328,247.8851
Sprite,Background,Centre,"sb\flame.png",184,213 S,0,42214,,1.6 M,0,42214,42264,184,213,182.255,222.8466 F,2,42214,42819,1,0 M,0,42264,42315,182.255,222.8466,180.5101,232.6932 M,0,42315,42366,180.5101,232.6932,178.7651,242.5397 M,0,42366,42416,178.7651,242.5397,177.0201,252.3863 M,0,42416,42467,177.0201,252.3863,175.2752,262.2329 M,0,42467,42518,175.2752,262.2329,173.5302,272.0795 M,0,42518,42568,173.5302,272.0795,171.7852,281.9261 M,0,42568,42619,171.7852,281.9261,170.0403,291.7726
Sprite,Background,Centre,"sb\flame.png",104,361 S,0,43025,,1.6 F,2,43025,43225,1,0
Sprite,Background,Centre,"sb\flame.png",67,269 S,0,43430,,1.6 F,2,43430,43630,1,0
Sprite,Background,Centre,"sb\flame.png",80,174 S,0,43835,,1.6 M,0,43835,43885,80,174,83.70505,164.7252 F,2,43835,44845,1,0 M,0,43885,43936,83.70505,164.7252,88.1993,155.813 M,0,43936,43987,88.1993,155.813,93.44881,147.329 M,0,43987,44037,93.44881,147.329,99.41431,139.3357 M,0,44037,44088,99.41431,139.3357,105.8731,131.7234 M,0,44088,44139,105.8731,131.7234,113.2304,124.9734 M,0,44139,44189,113.2304,124.9734,121.1421,118.8917 M,0,44189,44240,121.1421,118.8917,129.5493,113.5227 M,0,44240,44291,129.5493,113.5227,138.3897,108.9059 M,0,44291,44341,138.3897,108.9059,147.5271,104.9006 M,0,44341,44392,147.5271,104.9006,157.0808,102.0079 M,0,44392,44443,157.0808,102.0079,166.8451,99.95742 M,0,44443,44493,166.8451,99.95742,176.7477,98.7639 M,0,44493,44544,176.7477,98.7639,186.7156,98.17231 M,0,44544,44595,186.7156,98.17231,196.6784,98.84419 M,0,44595,44645,196.6784,98.84419,206.5395,100.3785
Sprite,Background,Centre,"sb\flame.png",398,107 S,0,45457,,1.6 F,2,45457,45657,1,0
Sprite,Background,Centre,"sb\flame.png",252,232 S,0,46268,,1.6 M,0,46268,46318,252,232,254.7216,241.608 F,2,46268,46873,1,0 M,0,46318,46369,254.7216,241.608,256.5172,251.424 M,0,46369,46420,256.5172,251.424,257.3716,261.3605 M,0,46420,46470,257.3716,261.3605,257.2783,271.3292 M,0,46470,46521,257.2783,271.3292,256.2385,281.2413 M,0,46521,46572,256.2385,281.2413,254.556,291.0797 M,0,46572,46622,254.556,291.0797,251.5367,300.5952 M,0,46622,46673,251.5367,300.5952,247.6298,309.7749
Sprite,Background,Centre,"sb\flame.png",164,265 S,0,47079,,1.6 F,2,47079,47279,1,0
Sprite,Background,Centre,"sb\flame.png",86,321 S,0,47484,,1.6 M,0,47484,47534,86,321,83.27838,330.608 F,2,47484,48494,1,0 M,0,47534,47585,83.27838,330.608,81.48288,340.424 M,0,47585,47636,81.48288,340.424,80.6284,350.3605 M,0,47636,47686,80.6284,350.3605,80.72175,360.3292 M,0,47686,47737,80.72175,360.3292,81.76154,370.2413 M,0,47737,47788,81.76154,370.2413,83.44397,380.0797 M,0,47788,47838,83.44397,380.0797,86.46329,389.5952 M,0,47838,47889,86.46329,389.5952,90.37019,398.7749 M,0,47889,47940,90.37019,398.7749,86.46329,389.5952 M,0,47940,47990,86.46329,389.5952,83.44397,380.0797 M,0,47990,48041,83.44397,380.0797,81.76154,370.2413 M,0,48041,48092,81.76154,370.2413,80.72175,360.3292 M,0,48092,48142,80.72175,360.3292,80.6284,350.3605 M,0,48142,48193,80.6284,350.3605,81.48288,340.424 M,0,48193,48244,81.48288,340.424,83.27838,330.608 M,0,48244,48294,83.27838,330.608,86,321
Sprite,Background,Centre,"sb\flame.png",76,225 S,0,48700,,1.6 F,2,48700,48900,1,0
Sprite,Background,Centre,"sb\flame.png",227,107 S,0,49511,,1.6 F,2,49511,49711,1,0
Sprite,Background,Centre,"sb\flame.png",274,189 S,0,49917,,1.6 M,0,49917,49967,274,189,272.8681,198.9357 F,2,49917,50522,1,0 M,0,49967,50018,272.8681,198.9357,271.7361,208.8715 M,0,50018,50069,271.7361,208.8715,270.6042,218.8072 M,0,50069,50119,270.6042,218.8072,269.4723,228.7429 M,0,50119,50170,269.4723,228.7429,268.3404,238.6786 M,0,50170,50221,268.3404,238.6786,267.2085,248.6144 M,0,50221,50271,267.2085,248.6144,266.0766,258.5501 M,0,50271,50322,266.0766,258.5501,265,268
Sprite,Background,Centre,"sb\flame.png",339,329 S,0,50727,,1.6 F,2,50727,50927,1,0
Sprite,Background,Centre,"sb\flame.png",361,241 S,0,51133,,1.6 M,0,51133,51183,361,241,362.0117,231.0513 F,2,51133,52143,1,0 M,0,51183,51234,362.0117,231.0513,363.0235,221.1026 M,0,51234,51285,363.0235,221.1026,364.0352,211.1539 M,0,51285,51335,364.0352,211.1539,365.0469,201.2052 M,0,51335,51386,365.0469,201.2052,366.0587,191.2566 M,0,51386,51437,366.0587,191.2566,367.1892,181.3305 M,0,51437,51487,367.1892,181.3305,369.9088,171.7074 M,0,51487,51538,369.9088,171.7074,372.6283,162.0843 M,0,51538,51589,372.6283,162.0843,375.3479,152.4612 M,0,51589,51639,375.3479,152.4612,378.0675,142.8381 M,0,51639,51690,378.0675,142.8381,380.2574,133.1174 M,0,51690,51741,380.2574,133.1174,381.1467,123.1571 M,0,51741,51791,381.1467,123.1571,382.036,113.1967 M,0,51791,51842,382.036,113.1967,382.9253,103.2363 M,0,51842,51893,382.9253,103.2363,383.8146,93.27593 M,0,51893,51943,383.8146,93.27593,384.704,83.31555
Sprite,Background,Centre,"sb\flame.png",442,275 S,0,52754,,1.6 M,0,52754,52804,442,275,441.1211,284.9613 F,2,52754,53359,1,0 M,0,52804,52855,441.1211,284.9613,440.2421,294.9226 M,0,52855,52906,440.2421,294.9226,439.3632,304.8839 M,0,52906,52956,439.3632,304.8839,438.4843,314.8452 M,0,52956,53007,438.4843,314.8452,437.6053,324.8065 M,0,53007,53058,437.6053,324.8065,436.7264,334.7678 M,0,53058,53108,436.7264,334.7678,435.8474,344.7291 M,0,53108,53159,435.8474,344.7291,434.9685,354.6904
Sprite,Background,Centre,"sb\flame.png",342,381 S,0,53565,,1.6 M,0,53565,53615,342,381,341.005,371.0496 F,2,53565,54170,1,0 M,0,53615,53666,341.005,371.0496,340.0099,361.0992 M,0,53666,53717,340.0099,361.0992,339.0149,351.1489 M,0,53717,53767,339.0149,351.1489,338.0198,341.1985 M,0,53767,53818,338.0198,341.1985,337.0248,331.2481 M,0,53818,53869,337.0248,331.2481,336.0298,321.2978 M,0,53869,53919,336.0298,321.2978,335.0347,311.3474 M,0,53919,53970,335.0347,311.3474,334.0397,301.397
Sprite,Background,Centre,"sb\flame.png",243,271 S,0,54376,,1.6 M,0,54376,54426,243,271,242.1211,280.9613 F,2,54376,54981,1,0 M,0,54426,54477,242.1211,280.9613,241.2421,290.9226 M,0,54477,54528,241.2421,290.9226,240.3632,300.8839 M,0,54528,54578,240.3632,300.8839,239.4843,310.8452 M,0,54578,54629,239.4843,310.8452,238.6053,320.8065 M,0,54629,54680,238.6053,320.8065,237.7264,330.7678 M,0,54680,54730,237.7264,330.7678,236.8474,340.7291 M,0,54730,54781,236.8474,340.7291,235.9685,350.6904
Sprite,Background,Centre,"sb\flame.png",143,377 S,0,55187,,1.6 M,0,55187,55237,143,377,142.005,367.0496 F,2,55187,55792,1,0 M,0,55237,55288,142.005,367.0496,141.0099,357.0992 M,0,55288,55339,141.0099,357.0992,140.0149,347.1489 M,0,55339,55389,140.0149,347.1489,139.0199,337.1985 M,0,55389,55440,139.0199,337.1985,138.0248,327.2481 M,0,55440,55491,138.0248,327.2481,137.0298,317.2978 M,0,55491,55541,137.0298,317.2978,136.0347,307.3474 M,0,55541,55592,136.0347,307.3474,135.0397,297.397
Sprite,Background,Centre,"sb\flame.png",131,201 S,0,55998,,1.6 F,2,55998,56198,1,0
Sprite,Background,Centre,"sb\flame.png",197,132 S,0,56403,,1.6 M,0,56403,56453,197,132,203.8459,139.2644 F,2,56403,57413,1,0 M,0,56453,56504,203.8459,139.2644,209.862,147.2179 M,0,56504,56555,209.862,147.2179,214.9805,155.7683 M,0,56555,56605,214.9805,155.7683,219.1435,164.8166 M,0,56605,56656,219.1435,164.8166,222.3038,174.2585 M,0,56656,56707,222.3038,174.2585,224.7583,183.9266 M,0,56707,56757,224.7583,183.9266,225.6788,193.8617 M,0,56757,56808,225.6788,193.8617,225.5215,203.8298 M,0,56808,56859,225.5215,203.8298,225.6788,193.8617 M,0,56859,56909,225.6788,193.8617,224.7583,183.9266 M,0,56909,56960,224.7583,183.9266,222.3038,174.2585 M,0,56960,57011,222.3038,174.2585,219.1435,164.8166 M,0,57011,57061,219.1435,164.8166,214.9805,155.7683 M,0,57061,57112,214.9805,155.7683,209.862,147.2179 M,0,57112,57163,209.862,147.2179,203.8459,139.2644 M,0,57163,57213,203.8459,139.2644,197,132
Sprite,Background,Centre,"sb\flame.png",107,110 S,0,57619,,1.6 F,2,57619,57819,1,0
Sprite,Background,Centre,"sb\flame.png",182,285 S,0,58430,,1.6 M,0,58430,58480,182,285,191.4294,288.3032 F,2,58430,59035,1,0 M,0,58480,58531,191.4294,288.3032,201.0809,290.8691 M,0,58531,58582,201.0809,290.8691,210.8977,292.6831 M,0,58582,58632,210.8977,292.6831,220.8223,293.7351 M,0,58632,58683,220.8223,293.7351,230.7963,294.0192 M,0,58683,58734,230.7963,294.0192,240.7614,293.5339 M,0,58734,58784,240.7614,293.5339,250.6958,292.5222 M,0,58784,58835,250.6958,292.5222,260.4608,290.4203
Sprite,Background,Centre,"sb\flame.png",350,257 S,0,59241,,1.6 M,0,59241,59291,350,257,359.6691,254.4827 F,2,59241,60251,1,0 M,0,59291,59342,359.6691,254.4827,369.4916,252.6772 M,0,59342,59393,369.4916,252.6772,379.4163,251.5924 M,0,59393,59443,379.4163,251.5924,389.3915,251.2336 M,0,59443,59494,389.3915,251.2336,399.3826,251.3586 M,0,59494,59545,399.3826,251.3586,409.3009,252.5594 M,0,59545,59595,409.3009,252.5594,419.1013,254.4786 M,0,59595,59646,419.1013,254.4786,428.7328,257.1059 M,0,59646,59697,428.7328,257.1059,419.1013,254.4786 M,0,59697,59747,419.1013,254.4786,409.3009,252.5594 M,0,59747,59798,409.3009,252.5594,399.3826,251.3586 M,0,59798,59849,399.3826,251.3586,389.3915,251.2336 M,0,59849,59899,389.3915,251.2336,379.4163,251.5924 M,0,59899,59950,379.4163,251.5924,369.4916,252.6772 M,0,59950,60001,369.4916,252.6772,359.6691,254.4827 M,0,60001,60051,359.6691,254.4827,350,257
Sprite,Background,Centre,"sb\flame.png",333,351 S,0,60457,,1.6 F,2,60457,60657,1,0
Sprite,Background,Centre,"sb\flame.png",260,290 S,0,60862,,1.6 M,0,60862,60914,260,290,255.8335,280.9094 F,2,60862,61481,1,0 M,0,60914,60966,255.8335,280.9094,251.6669,271.8187 M,0,60966,61019,251.6669,271.8187,248.6517,262.4177 M,0,61019,61071,248.6517,262.4177,247.6841,252.4646 M,0,61071,61124,247.6841,252.4646,246.7164,242.5115 M,0,61124,61176,246.7164,242.5115,245.7487,232.5584 M,0,61176,61229,245.7487,232.5584,244.7811,222.6054 M,0,61229,61281,244.7811,222.6054,243.8134,212.6523
Sprite,Background,Centre,"sb\flame.png",238,128 S,0,61701,,1.6 F,2,61701,61901,1,0
Sprite,Background,Centre,"sb\flame.png",169,281 S,0,62589,,1.6 M,0,62589,62646,169,281,169.3426,290.9815 F,2,62589,63250,1,0 M,0,62646,62704,169.3426,290.9815,170.5844,300.8848 M,0,62704,62762,170.5844,300.8848,172.7144,310.6305 M,0,62762,62819,172.7144,310.6305,175.7148,320.1405 M,0,62819,62877,175.7148,320.1405,179.5612,329.3384 M,0,62877,62935,179.5612,329.3384,183.9739,338.293 M,0,62935,62992,183.9739,338.293,189.5192,346.5962 M,0,62992,63050,189.5192,346.5962,195.7879,354.36
Sprite,Background,Centre,"sb\flame.png",279,381 S,0,63550,,1.6 M,0,63550,63618,279,381,288.9514,380.0147 F,2,63550,64295,1,0 M,0,63618,63686,288.9514,380.0147,298.9027,379.0294 M,0,63686,63754,298.9027,379.0294,308.854,378.0442 M,0,63754,63822,308.854,378.0442,318.8054,377.0589 M,0,63822,63890,318.8054,377.0589,328.7567,376.0736 M,0,63890,63959,328.7567,376.0736,338.7081,375.0883 M,0,63959,64027,338.7081,375.0883,348.6594,374.103 M,0,64027,64095,348.6594,374.103,358.6107,373.1177
Sprite,Background,Centre,"sb\flame.png",423,314 S,0,64640,,1.6 F,2,64640,64840,1,0
Sprite,Background,Centre,"sb\btrfl1.png",124,267 S,0,52,,0.355 R,0,52,,-3.105746 P,0,52,133,V M,1,52,660,178.9662,268.9274,203.9509,269.8035 P,0,52,660,H P,0,214,295,V F,0,356,660,1,0 P,0,376,660,V
Sprite,Background,Centre,"sb\btrfl1.png",294,367 S,0,863,,0.355 R,0,863,,-3.160395 P,0,863,944,V M,1,863,1471,348.9894,365.9221,373.9846,365.4322 P,0,863,1471,H P,0,1025,1106,V F,0,1167,1471,1,0 P,0,1187,1471,V
Sprite,Background,Centre,"sb\btrfl1.png",457,316 S,0,1673,,0.355 R,0,1673,,-3.130814 P,0,1673,1754,V M,1,1673,2281,511.9973,316.549,536.996,316.7986 P,0,1673,2281,H P,0,1835,1916,V F,0,1977,2281,1,0 P,0,1997,2281,V
Sprite,Background,Centre,"sb\btrfl1.png",372,266 S,0,2079,,0.355 R,0,2079,,-3.004897 P,0,2079,2160,V M,1,2079,2687,426.4929,273.4515,451.2624,276.8385 P,0,2079,2687,H P,0,2241,2322,V F,0,2383,2687,1,0 P,0,2403,2687,V
Sprite,Background,Centre,"sb\btrfl1.png",455,217 S,0,3295,,0.355 R,0,3295,,-2.79362 P,0,3295,3376,V M,1,3295,3903,506.7185,235.7134,530.227,244.2195 P,0,3295,3903,H P,0,3457,3538,V F,0,3599,3903,1,0 P,0,3619,3903,V
Sprite,Background,Centre,"sb\btrfl1.png",298,110 S,0,4106,,0.355 R,0,4106,,-3.005331 P,0,4106,4187,V M,1,4106,4714,352.4961,117.4278,377.2671,120.8041 P,0,4106,4714,H P,0,4268,4349,V F,0,4410,4714,1,0 P,0,4430,4714,V
Sprite,Background,Centre,"sb\btrfl1.png",317,282 S,0,4917,,0.355 R,0,4917,,-3.213616 P,0,4917,4998,V M,1,4917,5525,371.8542,277.9984,396.788,276.1796 P,0,4917,5525,H P,0,5079,5160,V F,0,5221,5525,1,0 P,0,5241,5525,V
Sprite,Background,Centre,"sb\btrfl1.png",254,430 S,0,5727,,0.355 R,0,5727,,-2.935307 P,0,5727,5808,V M,1,5727,6335,307.8429,441.2226,332.3169,446.3237 P,0,5727,6335,H P,0,5889,5970,V F,0,6031,6335,1,0 P,0,6051,6335,V
Sprite,Background,Centre,"sb\btrfl1.png",86,368 S,0,6538,,0.355 R,0,6538,,-3.25653 P,0,6538,6619,V M,1,6538,7146,140.6321,361.6489,165.4648,358.762 P,0,6538,7146,H P,0,6700,6781,V F,0,6842,7146,1,0 P,0,6862,7146,V
Sprite,Background,Centre,"sb\btrfl1.png",176,198 S,0,7349,,0.355 R,0,7349,,-2.834223 P,0,7349,7430,V M,1,7349,7957,228.4355,214.5987,252.2699,222.1435 P,0,7349,7957,H P,0,7511,7592,V F,0,7653,7957,1,0 P,0,7673,7957,V
Sprite,Background,Centre,"sb\btrfl1.png",281,105 S,0,8160,,0.355 R,0,8160,,-2.845144 P,0,8160,8241,V M,1,8160,8768,333.6137,121.025,357.529,128.3091 P,0,8160,8768,H P,0,8322,8403,V F,0,8464,8768,1,0 P,0,8484,8768,V
Sprite,Background,Centre,"sb\btrfl1.png",385,203 S,0,8971,,0.355 R,0,8971,,-2.950389 P,0,8971,9052,V M,1,8971,9579,439.006,213.4092,463.5542,218.1407 P,0,8971,9579,H P,0,9133,9214,V F,0,9275,9579,1,0 P,0,9295,9579,V
Sprite,Background,Centre,"sb\btrfl1.png",488,101 S,0,9781,,0.355 R,0,9781,,-3.049595 P,0,9781,9862,V M,1,9781,10389,542.7714,106.0091,567.6675,108.286 P,0,9781,10389,H P,0,9943,10024,V F,0,10085,10389,1,0 P,0,10105,10389,V
Sprite,Background,Centre,"sb\btrfl1.png",557,255 S,0,10592,,0.355 R,0,10592,,-2.951707 P,0,10592,10673,V M,1,10592,11200,611.0197,265.338,635.5741,270.0371 P,0,10592,11200,H P,0,10754,10835,V F,0,10896,11200,1,0 P,0,10916,11200,V
Sprite,Background,Centre,"sb\btrfl1.png",571,350 S,0,10998,,0.355 R,0,10998,,-3.259291 P,0,10998,11079,V M,1,10998,11606,625.6143,343.498,650.439,340.5426 P,0,10998,11606,H P,0,11160,11241,V F,0,11302,11606,1,0 P,0,11322,11606,V
Sprite,Background,Centre,"sb\btrfl1.png",484,391 S,0,11403,,0.355 R,0,11403,,-2.68822 P,0,11403,11484,V M,1,11403,12011,533.4628,415.0506,555.9459,425.9827 P,0,11403,12011,H P,0,11565,11646,V F,0,11707,12011,1,0 P,0,11727,12011,V
Sprite,Background,Centre,"sb\btrfl1.png",311,213 S,0,13025,,0.355 R,0,13025,,-3.187422 P,0,13025,13106,V M,1,13025,13633,365.9402,210.4365,390.9131,209.2713 P,0,13025,13633,H P,0,13187,13268,V F,0,13329,13633,1,0 P,0,13349,13633,V
Sprite,Background,Centre,"sb\btrfl1.png",140,301 S,0,13836,,0.355 R,0,13836,,-3.267208 P,0,13836,13917,V M,1,13836,14444,194.5611,294.0659,219.3616,290.914 P,0,13836,14444,H P,0,13998,14079,V F,0,14140,14444,1,0 P,0,14160,14444,V
Sprite,Background,Centre,"sb\btrfl1.png",179,213 S,0,14646,,0.355 R,0,14646,,-3.076309 P,0,14646,14727,V M,1,14646,15254,233.8857,216.5444,258.8337,218.1554 P,0,14646,15254,H P,0,14808,14889,V F,0,14950,15254,1,0 P,0,14970,15254,V
Sprite,Background,Centre,"sb\btrfl1.png",217,124 S,0,15052,,0.355 R,0,15052,,-2.858755 P,0,15052,15133,V M,1,15052,15660,269.8269,139.3074,293.8391,146.2654 P,0,15052,15660,H P,0,15214,15295,V F,0,15356,15660,1,0 P,0,15376,15660,V
Sprite,Background,Centre,"sb\btrfl1.png",123,136 S,0,16268,,0.355 R,0,16268,,-3.160145 P,0,16268,16349,V M,1,16268,16876,177.9897,134.9359,202.985,134.4522 P,0,16268,16876,H P,0,16430,16511,V F,0,16572,16876,1,0 P,0,16592,16876,V
Sprite,Background,Centre,"sb\btrfl1.png",252,278 S,0,17079,,0.355 R,0,17079,,-3.178831 P,0,17079,17160,V M,1,17079,17687,306.9602,275.9086,331.9421,274.9579 P,0,17079,17687,H P,0,17241,17322,V F,0,17383,17687,1,0 P,0,17403,17687,V
Sprite,Background,Centre,"sb\btrfl1.png",268,181 S,0,17484,,0.355 R,0,17484,,-3.265141 P,0,17484,17565,V M,1,17484,18092,322.5753,174.1786,347.3823,171.078 P,0,17484,18092,H P,0,17646,17727,V F,0,17788,18092,1,0 P,0,17808,18092,V
Sprite,Background,Centre,"sb\btrfl1.png",415,113 S,0,18295,,0.355 R,0,18295,,-2.689575 P,0,18295,18376,V M,1,18295,18903,464.4953,136.9836,486.9932,147.8852 P,0,18295,18903,H P,0,18457,18538,V F,0,18599,18903,1,0 P,0,18619,18903,V
Sprite,Background,Centre,"sb\btrfl1.png",431,208 S,0,18700,,0.355 R,0,18700,,-3.089965 P,0,18700,18781,V M,1,18700,19308,485.929,210.7945,510.8967,212.0647 P,0,18700,19308,H P,0,18862,18943,V F,0,19004,19308,1,0 P,0,19024,19308,V
Sprite,Background,Centre,"sb\btrfl1.png",252,426 S,0,20322,,0.355 R,0,20322,,-2.98577 P,0,20322,20403,V M,1,20322,20930,306.3404,434.4923,331.0406,438.3524 P,0,20322,20930,H P,0,20484,20565,V F,0,20626,20930,1,0 P,0,20646,20930,V
Sprite,Background,Centre,"sb\btrfl1.png",156,324 S,0,21133,,0.355 R,0,21133,,-3.230411 P,0,21133,21214,V M,1,21133,21741,210.7793,319.0778,235.679,316.8404 P,0,21133,21741,H P,0,21295,21376,V F,0,21437,21741,1,0 P,0,21457,21741,V
Sprite,Background,Centre,"sb\btrfl1.png",270,227 S,0,21944,,0.355 R,0,21944,,-3.082572 P,0,21944,22025,V M,1,21944,22552,324.9068,230.2005,349.8644,231.6553 P,0,21944,22552,H P,0,22106,22187,V F,0,22248,22552,1,0 P,0,22268,22552,V
Sprite,Background,Centre,"sb\btrfl1.png",174,125 S,0,22754,,0.355 R,0,22754,,-2.998089 P,0,22754,22835,V M,1,22754,23362,228.4409,132.8223,253.1868,136.3779 P,0,22754,23362,H P,0,22916,22997,V F,0,23058,23362,1,0 P,0,23078,23362,V
Sprite,Background,Centre,"sb\btrfl1.png",348,134 S,0,23565,,0.355 R,0,23565,,-2.718666 P,0,23565,23646,V M,1,23565,24173,398.172,156.5338,420.9774,166.7764 P,0,23565,24173,H P,0,23727,23808,V F,0,23869,24173,1,0 P,0,23889,24173,V
Sprite,Background,Centre,"sb\btrfl1.png",442,117 S,0,23971,,0.355 R,0,23971,,-2.782275 P,0,23971,24052,V M,1,23971,24579,493.5029,136.299,516.9133,145.0712 P,0,23971,24579,H P,0,24133,24214,V F,0,24275,24579,1,0 P,0,24295,24579,V
Sprite,Background,Centre,"sb\btrfl1.png",410,207 S,0,25187,,0.355 R,0,25187,,-2.941996 P,0,25187,25268,V M,1,25187,25795,463.9167,217.8621,488.4243,222.7995 P,0,25187,25795,H P,0,25349,25430,V F,0,25491,25795,1,0 P,0,25511,25795,V
Sprite,Background,Centre,"sb\btrfl1.png",466,390 S,0,25998,,0.355 R,0,25998,,-2.848303 P,0,25998,26079,V M,1,25998,26606,518.6641,405.8587,542.6022,413.0672 P,0,25998,26606,H P,0,26160,26241,V F,0,26302,26606,1,0 P,0,26322,26606,V
Sprite,Background,Centre,"sb\btrfl1.png",349,309 S,0,26808,,0.355 R,0,26808,,-3.263126 P,0,26808,26889,V M,1,26808,27416,403.589,302.2886,428.4022,299.238 P,0,26808,27416,H P,0,26970,27051,V F,0,27112,27416,1,0 P,0,27132,27416,V
Sprite,Background,Centre,"sb\btrfl1.png",433,263 S,0,28025,,0.355 R,0,28025,,-3.055619 P,0,28025,28106,V M,1,28025,28633,487.8006,267.6791,512.71,269.806 P,0,28025,28633,H P,0,28187,28268,V F,0,28329,28633,1,0 P,0,28349,28633,V
Sprite,Background,Centre,"sb\btrfl1.png",455,175 S,0,28430,,0.355 R,0,28430,,-3.127778 P,0,28430,28511,V M,1,28430,29038,509.9953,175.716,534.9932,176.0414 P,0,28430,29038,H P,0,28592,28673,V F,0,28734,29038,1,0 P,0,28754,29038,V
Sprite,Background,Centre,"sb\btrfl1.png",106,219 S,0,30052,,0.355 R,0,30052,,-2.688236 P,0,30052,30133,V M,1,30052,30660,155.4632,243.0498,177.9465,253.9815 P,0,30052,30660,H P,0,30214,30295,V F,0,30356,30660,1,0 P,0,30376,30660,V
Sprite,Background,Centre,"sb\btrfl1.png",188,268 S,0,31268,,0.355 R,0,31268,,-2.898603 P,0,31268,31349,V M,1,31268,31876,241.3948,281.1908,265.6651,287.1866 P,0,31268,31876,H P,0,31430,31511,V F,0,31572,31876,1,0 P,0,31592,31876,V
Sprite,Background,Centre,"sb\btrfl1.png",182,155 S,0,32484,,0.355 R,0,32484,,-2.875885 P,0,32484,32565,V M,1,32484,33092,235.0814,169.4003,259.2093,175.9459 P,0,32484,33092,H P,0,32646,32727,V F,0,32788,33092,1,0 P,0,32808,33092,V
Sprite,Background,Centre,"sb\btrfl1.png",368,109 S,0,33295,,0.355 R,0,33295,,-3.244473 P,0,33295,33376,V M,1,33295,33903,422.7047,103.308,447.5704,100.7207 P,0,33295,33903,H P,0,33457,33538,V F,0,33599,33903,1,0 P,0,33619,33903,V
Sprite,Background,Centre,"sb\btrfl1.png",425,185 S,0,33700,,0.355 R,0,33700,,-2.973078 P,0,33700,33781,V M,1,33700,34308,479.2282,194.1814,503.8774,198.3547 P,0,33700,34308,H P,0,33862,33943,V F,0,34004,34308,1,0 P,0,34024,34308,V
Sprite,Background,Centre,"sb\btrfl1.png",445,357 S,0,34511,,0.355 R,0,34511,,-3.099584 P,0,34511,34592,V M,1,34511,35119,499.9533,359.2661,524.9321,360.2961 P,0,34511,35119,H P,0,34673,34754,V F,0,34815,35119,1,0 P,0,34835,35119,V
Sprite,Background,Centre,"sb\btrfl1.png",539,374 S,0,34917,,0.355 R,0,34917,,-2.741375 P,0,34917,34998,V M,1,34917,35525,589.6707,395.3887,612.7029,405.1108 P,0,34917,35525,H P,0,35079,35160,V F,0,35221,35525,1,0 P,0,35241,35525,V
Sprite,Background,Centre,"sb\btrfl1.png",554,200 S,0,35727,,0.355 R,0,35727,,-2.834071 P,0,35727,35808,V M,1,35727,36335,606.433,216.6066,630.2662,224.1551 P,0,35727,36335,H P,0,35889,35970,V F,0,36031,36335,1,0 P,0,36051,36335,V
Sprite,Background,Centre,"sb\btrfl1.png",445,100 S,0,36538,,0.355 R,0,36538,,-3.214259 P,0,36538,36619,V M,1,36538,37146,499.8517,95.9632,524.7842,94.12829 P,0,36538,37146,H P,0,36700,36781,V F,0,36842,37146,1,0 P,0,36862,37146,V
Sprite,Background,Centre,"sb\btrfl1.png",268,94 S,0,37349,,0.355 R,0,37349,,-3.146859 P,0,37349,37430,V M,1,37349,37957,322.999,93.66653,347.9985,93.51496 P,0,37349,37957,H P,0,37511,37592,V F,0,37653,37957,1,0 P,0,37673,37957,V
Sprite,Background,Centre,"sb\btrfl1.png",372,215 S,0,38160,,0.355 R,0,38160,,-2.872296 P,0,38160,38241,V M,1,38160,38768,425.0294,229.5907,449.1336,236.2229 P,0,38160,38768,H P,0,38322,38403,V F,0,38464,38768,1,0 P,0,38484,38768,V
Sprite,Background,Centre,"sb\btrfl1.png",552,149 S,0,38971,,0.355 R,0,38971,,-2.944325 P,0,38971,39052,V M,1,38971,39579,605.9419,159.7365,630.4609,164.6168 P,0,38971,39579,H P,0,39133,39214,V F,0,39275,39579,1,0 P,0,39295,39579,V
Sprite,Background,Centre,"sb\btrfl1.png",495,329 S,0,39781,,0.355 R,0,39781,,-2.758095 P,0,39781,39862,V M,1,39781,40389,546.0212,349.5385,569.2128,358.8742 P,0,39781,40389,H P,0,39943,40024,V F,0,40085,40389,1,0 P,0,40105,40389,V
Sprite,Background,Centre,"sb\btrfl1.png",391,222 S,0,40592,,0.355 R,0,40592,,-2.802789 P,0,40592,40673,V M,1,40592,41200,442.8879,240.2384,466.4734,248.5286 P,0,40592,41200,H P,0,40754,40835,V F,0,40896,41200,1,0 P,0,40916,41200,V
Sprite,Background,Centre,"sb\btrfl1.png",286,327 S,0,41403,,0.355 R,0,41403,,-2.916044 P,0,41403,41484,V M,1,41403,42011,339.6167,339.2576,363.9879,344.8292 P,0,41403,42011,H P,0,41565,41646,V F,0,41707,42011,1,0 P,0,41727,42011,V
Sprite,Background,Centre,"sb\btrfl1.png",184,213 S,0,42214,,0.355 R,0,42214,,-3.101236 P,0,42214,42295,V M,1,42214,42822,238.957,215.1752,263.9374,216.164 P,0,42214,42822,H P,0,42376,42457,V F,0,42518,42822,1,0 P,0,42538,42822,V
Sprite,Background,Centre,"sb\btrfl1.png",104,361 S,0,43025,,0.355 R,0,43025,,-3.041898 P,0,43025,43106,V M,1,43025,43633,158.7312,366.4305,183.6091,368.899 P,0,43025,43633,H P,0,43187,43268,V F,0,43329,43633,1,0 P,0,43349,43633,V
Sprite,Background,Centre,"sb\btrfl1.png",67,269 S,0,43430,,0.355 R,0,43430,,-2.962781 P,0,43430,43511,V M,1,43430,44038,121.1308,278.7392,145.7358,283.1661 P,0,43430,44038,H P,0,43592,43673,V F,0,43734,44038,1,0 P,0,43754,44038,V
Sprite,Background,Centre,"sb\btrfl1.png",80,174 S,0,43835,,0.355 R,0,43835,,-2.786948 P,0,43835,43916,V M,1,43835,44443,131.5925,193.0581,155.0437,201.7208 P,0,43835,44443,H P,0,43997,44078,V F,0,44139,44443,1,0 P,0,44159,44443,V
Sprite,Background,Centre,"sb\btrfl1.png",398,107 S,0,45457,,0.355 R,0,45457,,-3.196915 P,0,45457,45538,V M,1,45457,46065,452.9134,103.9151,477.8741,102.5129 P,0,45457,46065,H P,0,45619,45700,V F,0,45761,46065,1,0 P,0,45781,46065,V
Sprite,Background,Centre,"sb\btrfl1.png",252,232 S,0,46268,,0.355 R,0,46268,,-3.165254 P,0,46268,46349,V M,1,46268,46876,306.9836,230.655,331.9761,230.0436 P,0,46268,46876,H P,0,46430,46511,V F,0,46572,46876,1,0 P,0,46592,46876,V
Sprite,Background,Centre,"sb\btrfl1.png",164,265 S,0,47079,,0.355 R,0,47079,,-3.111238 P,0,47079,47160,V M,1,47079,47687,218.976,266.6255,243.9651,267.3643 P,0,47079,47687,H P,0,47241,47322,V F,0,47383,47687,1,0 P,0,47403,47687,V
Sprite,Background,Centre,"sb\btrfl1.png",86,321 S,0,47484,,0.355 R,0,47484,,-3.184932 P,0,47484,47565,V M,1,47484,48092,140.9464,318.5734,165.9221,317.4703 P,0,47484,48092,H P,0,47646,47727,V F,0,47788,48092,1,0 P,0,47808,48092,V
Sprite,Background,Centre,"sb\btrfl1.png",76,225 S,0,48700,,0.355 R,0,48700,,-3.077849 P,0,48700,48781,V M,1,48700,49308,130.8911,228.4598,155.8416,230.0324 P,0,48700,49308,H P,0,48862,48943,V F,0,49004,49308,1,0 P,0,49024,49308,V
Sprite,Background,Centre,"sb\btrfl1.png",227,107 S,0,49511,,0.355 R,0,49511,,-3.04492 P,0,49511,49592,V M,1,49511,50119,281.7474,112.2651,306.6326,114.6584 P,0,49511,50119,H P,0,49673,49754,V F,0,49815,50119,1,0 P,0,49835,50119,V
Sprite,Background,Centre,"sb\btrfl1.png",274,189 S,0,49917,,0.355 R,0,49917,,-2.801044 P,0,49917,49998,V M,1,49917,50525,325.856,207.3289,349.427,215.6603 P,0,49917,50525,H P,0,50079,50160,V F,0,50221,50525,1,0 P,0,50241,50525,V
Sprite,Background,Centre,"sb\btrfl1.png",339,329 S,0,50727,,0.355 R,0,50727,,-3.207217 P,0,50727,50808,V M,1,50727,51335,393.8787,325.3495,418.8236,323.6902 P,0,50727,51335,H P,0,50889,50970,V F,0,51031,51335,1,0 P,0,51051,51335,V
Sprite,Background,Centre,"sb\btrfl1.png",361,241 S,0,51133,,0.355 R,0,51133,,-3.207864 P,0,51133,51214,V M,1,51133,51741,415.8763,237.3141,440.8202,235.6386 P,0,51133,51741,H P,0,51295,51376,V F,0,51437,51741,1,0 P,0,51457,51741,V
Sprite,Background,Centre,"sb\btrfl1.png",442,275 S,0,52754,,0.355 R,0,52754,,-2.721948 P,0,52754,52835,V M,1,52754,53362,492.2457,297.369,515.0847,307.5367 P,0,52754,53362,H P,0,52916,52997,V F,0,53058,53362,1,0 P,0,53078,53362,V
Sprite,Background,Centre,"sb\btrfl1.png",342,381 S,0,53565,,0.355 R,0,53565,,-3.173147 P,0,53565,53646,V M,1,53565,54173,396.9712,379.221,421.9581,378.4124 P,0,53565,54173,H P,0,53727,53808,V F,0,53869,54173,1,0 P,0,53889,54173,V
Sprite,Background,Centre,"sb\btrfl1.png",243,271 S,0,54376,,0.355 R,0,54376,,-2.772086 P,0,54376,54457,V M,1,54376,54984,294.3036,290.8227,317.6234,299.833 P,0,54376,54984,H P,0,54538,54619,V F,0,54680,54984,1,0 P,0,54700,54984,V
Sprite,Background,Centre,"sb\btrfl1.png",143,377 S,0,55187,,0.355 R,0,55187,,-3.056469 P,0,55187,55268,V M,1,55187,55795,197.8046,381.6325,222.7157,383.7382 P,0,55187,55795,H P,0,55349,55430,V F,0,55491,55795,1,0 P,0,55511,55795,V
Sprite,Background,Centre,"sb\btrfl1.png",131,201 S,0,55998,,0.355 R,0,55998,,-3.166089 P,0,55998,56079,V M,1,55998,56606,185.9824,199.6091,210.9744,198.9768 P,0,55998,56606,H P,0,56160,56241,V F,0,56302,56606,1,0 P,0,56322,56606,V
Sprite,Background,Centre,"sb\btrfl1.png",197,132 S,0,56403,,0.355 R,0,56403,,-2.801512 P,0,56403,56484,V M,1,56403,57011,248.8646,150.3046,272.4395,158.6249 P,0,56403,57011,H P,0,56565,56646,V F,0,56707,57011,1,0 P,0,56727,57011,V
Sprite,Background,Centre,"sb\btrfl1.png",107,110 S,0,57619,,0.355 R,0,57619,,-3.269984 P,0,57619,57700,V M,1,57619,58227,161.5417,102.9144,186.3334,99.69374 P,0,57619,58227,H P,0,57781,57862,V F,0,57923,58227,1,0 P,0,57943,58227,V
Sprite,Background,Centre,"sb\btrfl1.png",182,285 S,0,58430,,0.355 R,0,58430,,-2.958819 P,0,58430,58511,V M,1,58430,59038,236.0918,294.9536,260.679,299.4779 P,0,58430,59038,H P,0,58592,58673,V F,0,58734,59038,1,0 P,0,58754,59038,V
Sprite,Background,Centre,"sb\btrfl1.png",350,257 S,0,59241,,0.355 R,0,59241,,-3.061323 P,0,59241,59322,V M,1,59241,59849,404.8264,261.3664,429.7475,263.3512 P,0,59241,59849,H P,0,59403,59484,V F,0,59545,59849,1,0 P,0,59565,59849,V
Sprite,Background,Centre,"sb\btrfl1.png",333,351 S,0,60457,,0.355 R,0,60457,,-3.101835 P,0,60457,60538,V M,1,60457,61065,387.9583,353.1423,412.9393,354.1161 P,0,60457,61065,H P,0,60619,60700,V F,0,60761,61065,1,0 P,0,60781,61065,V
Sprite,Background,Centre,"sb\btrfl1.png",260,290 S,0,60862,,0.355 R,0,60862,,-3.155678 P,0,60862,60943,V M,1,60862,61470,314.9939,289.1815,339.9911,288.8095 P,0,60862,61470,H P,0,61024,61105,V F,0,61166,61470,1,0 P,0,61186,61470,V
Sprite,Background,Centre,"sb\btrfl1.png",238,128 S,0,61701,,0.355 R,0,61701,,-2.730561 P,0,61701,61782,V M,1,61701,62309,288.4365,149.9354,311.3622,159.906 P,0,61701,62309,H P,0,61863,61944,V F,0,62005,62309,1,0 P,0,62025,62309,V
Sprite,Background,Centre,"sb\btrfl1.png",169,281 S,0,62589,,0.355 R,0,62589,,-3.107456 P,0,62589,62670,V M,1,62589,63197,223.9694,282.8333,248.9555,283.6667 P,0,62589,63197,H P,0,62751,62832,V F,0,62893,63197,1,0 P,0,62913,63197,V
Sprite,Background,Centre,"sb\btrfl1.png",279,381 S,0,63550,,0.355 R,0,63550,,-3.10107 P,0,63550,63631,V M,1,63550,64158,333.9566,383.1844,358.9369,384.1772 P,0,63550,64158,H P,0,63712,63793,V F,0,63854,64158,1,0 P,0,63874,64158,V
Sprite,Background,Centre,"sb\btrfl1.png",423,314 S,0,64640,,0.355 R,0,64640,,-2.745316 P,0,64640,64721,V M,1,64640,65248,473.7546,335.1888,496.825,344.8201 P,0,64640,65248,H P,0,64802,64883,V F,0,64944,65248,1,0 P,0,64964,65248,V
//Storyboard Layer 1 (Fail)
//Storyboard Layer 2 (Pass)
//Storyboard Layer 3 (Foreground)
//Storyboard Sound Samples

[TimingPoints]
863,405.405405405405,4,2,1,20,1,0
863,-100,4,2,1,20,0,1
964,-100,4,2,1,20,0,0
1268,-100,4,2,1,15,0,0
1673,-100,4,2,1,20,0,0
2079,-100,4,2,1,25,0,0
2890,-100,4,2,1,15,0,0
3295,-100,4,2,1,25,0,0
4511,-100,4,2,1,15,0,0
4917,-100,4,2,1,20,0,0
7349,-100,4,2,1,20,0,0
7754,-100,4,2,1,15,0,0
8160,-100,4,2,1,20,0,0
8565,-100,4,2,1,15,0,0
8971,-100,4,2,1,20,0,0
9376,-100,4,2,1,15,0,0
9781,-100,4,2,1,20,0,0
13835,-100,4,2,1,25,0,1
13937,-100,4,2,1,25,0,0
14241,-100,4,2,1,15,0,0
14646,-100,4,2,1,20,0,0
15052,-100,4,2,1,25,0,0
15862,-100,4,2,1,15,0,0
16268,-100,4,2,1,25,0,0
17484,-100,4,2,1,15,0,0
18295,-100,4,2,1,20,0,0
19106,-100,4,2,1,15,0,0
19511,-100,4,2,1,25,0,0
20322,-100,4,2,1,20,0,0
20727,-100,4,2,1,15,0,0
21133,-100,4,2,1,20,0,0
21538,-100,4,2,1,15,0,0
21944,-100,4,2,1,20,0,0
22349,-100,4,2,1,15,0,0
22754,-100,4,2,1,20,0,0
23160,-100,4,2,1,15,0,0
23565,-100,4,2,1,20,0,0
25998,-100,4,2,1,25,0,0
28430,-100,4,2,1,20,0,0
31268,-100,4,2,1,15,0,0
32484,-100,4,2,1,25,0,0
33295,-100,4,2,1,25,0,1
33396,-100,4,2,1,25,0,0
33700,-100,4,2,1,20,0,0
34106,-100,4,2,1,15,0,0
34511,-100,4,2,1,25,0,0
35322,-100,4,2,1,15,0,0
35727,-100,4,2,1,20,0,0
36133,-100,4,2,1,15,0,0
36538,-100,4,2,1,25,0,0
36944,-100,4,2,1,15,0,0
37349,-100,4,2,1,20,0,0
39781,-100,4,2,1,20,0,0
40187,-100,4,2,1,15,0,0
40592,-100,4,2,1,20,0,0
40998,-100,4,2,1,15,0,0
41403,-100,4,2,1,20,0,0
41808,-100,4,2,1,15,0,0
42214,-100,4,2,1,20,0,0
46268,-100,4,2,1,25,0,1
46369,-100,4,2,1,25,0,0
46673,-100,4,2,1,15,0,0
47078,-100,4,2,1,20,0,0
47484,-100,4,2,1,25,0,0
48295,-100,4,2,1,15,0,0
48700,-100,4,2,1,25,0,0
49917,-100,4,2,1,15,0,0
50727,-100,4,2,1,20,0,0
52754,-100,4,2,1,25,0,0
53160,-100,4,2,1,15,0,0
53565,-100,4,2,1,20,0,0
53971,-100,4,2,1,15,0,0
54376,-100,4,2,1,20,0,0
54781,-100,4,2,1,15,0,0
55187,-100,4,2,1,20,0,0
55592,-100,4,2,1,15,0,0
55998,-100,4,2,1,20,0,0
58430,-100,4,2,1,15,0,0
58835,-100,4,2,1,15,0,0
59241,-100,4,2,1,25,0,0
59646,-100,4,2,1,15,0,0
60457,-100,4,2,1,20,0,0
60862,419.58041958042,4,2,1,20,1,0
61281,-100,4,2,1,15,0,0
61701,444.444444444444,4,2,1,20,1,0
62589,461.538461538462,4,2,1,20,1,0
63050,500,4,2,1,15,1,0
63550,545.454545454546,4,2,1,15,1,0
64095,-100,4,2,1,10,0,0
64640,-100,4,2,1,7,0,0

[Colours]
Combo1 : 255,128,64
Combo2 : 0,128,192
Combo3 : 255,128,128

[HitObjects]
60,211,52,5,0,0:0:0:0:
230,311,863,6,0,L|317:308,1,80,6|0,0:0|0:0,0:0:0:0:
393,260,1673,1,0,0:0:0:0:
308,210,2079,2,0,L|228:212,2,80,2|2|0,0:0|0:0|0:0,0:0:0:0:
391,161,3295,1,2,0:0:0:0:
234,54,4106,6,0,B|227:93|227:93|231:141,1,80,2|0,0:0|0:0,0:0:0:0:
253,226,4917,2,0,B|260:265|260:265|256:313,1,80,0|2,0:0|0:0,0:0:0:0:
190,374,5727,1,2,0:0:0:0:
22,312,6538,1,2,0:0:0:0:
112,142,7349,6,0,L|124:52,1,80,2|0,0:0|0:0,0:0:0:0:
217,49,8160,2,0,L|227:128,1,80,2|0,0:0|0:0,0:0:0:0:
321,147,8971,2,0,L|333:57,1,80,2|0,0:0|0:0,0:0:0:0:
424,45,9781,2,0,L|434:124,1,80,2|2,0:0|0:0,0:0:0:0:
493,199,10592,5,2,0:0:0:0:
507,294,10998,1,2,0:0:0:0:
420,335,11403,2,0,B|342:353|342:353|231:343,1,160,2|2,0:0|0:0,0:0:0:0:
247,157,13025,1,2,0:0:0:0:
76,245,13836,6,0,P|46:224|23:184,1,80,6|0,0:0|0:0,0:0:0:0:
115,157,14646,1,0,0:0:0:0:
153,68,15052,2,0,P|183:89|206:129,2,80,2|2|0,0:0|0:0|0:0,0:0:0:0:
59,80,16268,1,2,0:0:0:0:
188,222,17079,5,2,0:0:0:0:
204,125,17484,2,0,P|223:90|256:67,1,80
351,57,18295,1,2,0:0:0:0:
367,152,18700,2,0,B|369:204|369:204|378:242|378:242|380:329,1,160,2|0,0:0|0:0,0:0:0:0:
188,370,20322,6,0,L|89:361,1,80,2|0,0:0|0:0,0:0:0:0:
92,268,21133,2,0,L|191:259,1,80,2|0,0:0|0:0,0:0:0:0:
206,171,21944,2,0,L|107:162,1,80,2|0,0:0|0:0,0:0:0:0:
110,69,22754,2,0,L|209:60,1,80,2|0,0:0|0:0,0:0:0:0:
284,78,23565,5,2,0:0:0:0:
378,61,23971,2,0,L|458:69,2,80,2|2|2,0:0|0:0|0:0,0:0:0:0:
346,151,25187,1,2,0:0:0:0:
402,334,25998,2,0,L|322:342,1,80,2|0,0:0|0:0,0:0:0:0:
285,253,26808,6,0,L|205:245,2,80,2|0|0,0:0|0:0|0:0,0:0:0:0:
369,207,28025,1,2,0:0:0:0:
391,119,28430,2,0,L|222:126,1,160,2|2,0:0|0:0,0:0:0:0:
42,163,30052,6,0,L|34:260,2,80,2|2|2,0:0|0:0|0:0,0:0:0:0:
124,212,31268,2,0,L|132:309,1,80,2|0,0:0|0:0,0:0:0:0:
118,99,32484,1,2,0:0:0:0:
304,53,33295,5,6,0:0:0:0:
361,129,33700,2,0,L|355:220,1,80
381,301,34511,1,2,0:0:0:0:
475,318,34917,2,0,P|487:275|490:232,1,80,2|0,0:0|0:0,0:0:0:0:
490,144,35727,2,0,P|486:104|475:66,1,80,2|0,0:0|0:0,0:0:0:0:
381,44,36538,6,0,L|287:42,1,80,2|0,0:0|0:0,0:0:0:0:
204,38,37349,2,0,P|211:81|235:116,1,80,0|2,0:0|0:0,0:0:0:0:
308,159,38160,1,2,0:0:0:0:
488,93,38971,1,2,0:0:0:0:
431,273,39781,6,0,L|419:193,1,80,2|0,0:0|0:0,0:0:0:0:
327,166,40592,2,0,L|315:245,1,80,2|0,0:0|0:0,0:0:0:0:
222,271,41403,2,0,L|210:191,1,80,2|0,0:0|0:0,0:0:0:0:
120,157,42214,2,0,B|106:236,1,80,2|2,0:0|0:0,0:0:0:0:
40,305,43025,5,2,0:0:0:0:
3,213,43430,1,2,0:0:0:0:
16,118,43835,2,0,P|58:62|177:57,1,160,2|2,0:0|0:0,0:0:0:0:
334,51,45457,1,2,0:0:0:0:
188,176,46268,6,0,P|186:249|167:279,1,80,6|0,0:0|0:0,0:0:0:0:
100,209,47079,1,0,0:0:0:0:
22,265,47484,2,0,P|24:338|43:368,2,80,2|2|0,0:0|0:0|0:0,0:0:0:0:
12,169,48700,1,2,0:0:0:0:
163,51,49511,5,2,0:0:0:0:
210,133,49917,2,0,B|201:212,1,80
275,273,50727,1,2,0:0:0:0:
297,185,51133,2,0,B|303:126|303:126|316:80|316:80|321:24,1,160,2|0,0:0|0:0,0:0:0:0:
378,219,52754,6,0,L|369:321,1,80,2|0,0:0|0:0,0:0:0:0:
278,325,53565,2,0,L|270:245,1,80,2|0,0:0|0:0,0:0:0:0:
179,215,54376,2,0,L|170:317,1,80,2|0,0:0|0:0,0:0:0:0:
79,321,55187,2,0,L|71:241,1,80,2|0,0:0|0:0,0:0:0:0:
67,145,55998,5,2,0:0:0:0:
133,76,56403,2,0,P|156:110|160:161,2,80,2|2|2,0:0|0:0|0:0,0:0:0:0:
43,54,57619,1,2,0:0:0:0:
118,229,58430,2,0,P|157:238|211:230,1,80,2|0,0:0|0:0,0:0:0:0:
286,201,59241,6,0,P|342:196|383:208,2,80,2|0|0,0:0|0:0|0:0,0:0:0:0:
269,295,60457,1,2,0:0:0:0:
196,234,60862,2,0,B|185:210|185:210|178:138,1,80,2|0,0:0|0:0,0:0:0:0:
174,72,61701,1,2,0:0:0:0:
105,225,62589,6,0,P|117:277|141:308,1,80,2|2,0:0|0:0,0:0:0:0:
215,325,63550,2,0,L|316:315,1,80,2|2,0:0|0:0,0:0:0:0:
359,258,64640,5,6,0:0:0:0:
