osu file format v14

[General]
AudioFilename: audio.mp3
AudioLeadIn: 0
PreviewTime: 0
Countdown: 0
SampleSet: None
StackLeniency: 0.7
Mode: 0
LetterboxInBreaks: 0
WidescreenStoryboard: 1

[Editor]
DistanceSpacing: 1
BeatDivisor: 4
GridSize: 4
TimelineZoom: 1

[Metadata]
Title:Bulls in the Bronx
TitleUnicode:Bulls in the Bronx
Artist:R3 Music Box
ArtistUnicode:R3 Music Box
Creator:phoneetic
Version:Infinitesimal
Source:
Tags:pierce the veil r3 music box bulls in the bronx
BeatmapID:1953983
BeatmapSetID:935243

[Difficulty]
HPDrainRate:6
CircleSize:10
OverallDifficulty:6
ApproachRate:9
SliderMultiplier:1
SliderTickRate:1

[Events]
//Background and Video events
0,0,"TRAINGRAVEYARDRENDER1+23+(2)flatIMAF.jpg",0,0
//Break Periods
//Storyboard Layer 0 (Background)
//Storyboard Layer 1 (Fail)
//Storyboard Layer 2 (Pass)
//Storyboard Layer 3 (Foreground)
//Storyboard Sound Samples

[TimingPoints]
48,526.315789473684,4,2,1,100,1,0
311,-71.4285714285714,4,2,1,100,0,0
574,-55.5555555555556,4,2,1,100,0,0
837,-45.4545454545455,4,2,1,100,0,0
1363,-55.5555555555556,4,2,1,100,0,0
1626,-71.4285714285714,4,2,1,100,0,0
1890,-100,4,2,1,100,0,0
2153,-66.6666666666667,4,2,1,100,0,0
2416,-50,4,2,1,100,0,0
2679,-40,4,2,1,100,0,0
2942,-50,4,2,1,100,0,0
3205,-66.6666666666667,4,2,1,100,0,0
3469,-100,4,2,1,100,0,0
3732,-200,4,2,1,100,0,0
3995,-500,4,2,1,100,0,0
4258,-200,4,2,1,100,0,0
4521,-100,4,2,1,100,0,0
4784,-66.6666666666667,4,2,1,100,0,0
5047,-50,4,2,1,100,0,0
5311,-40,4,2,1,100,0,0
5574,-33.3333333333333,4,2,1,100,0,0
5837,-50,4,2,1,100,0,0
6100,-100,4,2,1,100,0,0
6363,-50,4,2,1,100,0,0
8469,-43.4782608695652,4,2,1,100,0,0
8732,-38.4615384615385,4,2,1,100,0,0
8995,-34.4827586206897,4,2,1,100,0,0
9258,-31.25,4,2,1,100,0,0
9521,-28.5714285714286,4,2,1,100,0,0
9784,-33.3333333333333,4,2,1,100,0,0
10047,-40,4,2,1,100,0,0
10311,-50,4,2,1,100,0,0
10574,-100,4,2,1,100,0,0
10837,-83.3333333333333,4,2,1,100,0,0
11100,-71.4285714285714,4,2,1,100,0,0
11363,-62.5,4,2,1,100,0,0
11626,-55.5555555555556,4,2,1,100,0,0
11890,-50,4,2,1,100,0,0
12153,-45.4545454545455,4,2,1,100,0,0
12416,-41.6666666666667,4,2,1,100,0,0
12679,-47.6190476190476,4,2,1,100,0,0
12942,-55.5555555555556,4,2,1,100,0,0
13205,-66.6666666666667,4,2,1,100,0,0
13469,-83.3333333333333,4,2,1,100,0,0
13732,-100,4,2,1,100,0,0
14784,-90.9090909090909,4,2,1,100,0,0
15047,-83.3333333333333,4,2,1,100,0,0
15311,-76.9230769230769,4,2,1,100,0,0
15574,-71.4285714285714,4,2,1,100,0,0
15837,-66.6666666666667,4,2,1,100,0,0
16100,-62.5,4,2,1,100,0,0
16363,-55.5555555555556,4,2,1,100,0,0
16626,-47.6190476190476,4,2,1,100,0,0
16890,-58.8235294117647,4,2,1,100,0,0
17153,-62.5,4,2,1,100,0,0
17416,-71.4285714285714,4,2,1,100,0,0
17679,-83.3333333333333,4,2,1,100,0,0
17942,-100,4,2,1,100,0,0
18205,-200,4,2,1,100,0,0
21100,-100,4,2,1,100,0,0
21363,-83.3333333333333,4,2,1,100,0,0
21626,-71.4285714285714,4,2,1,100,0,0
21890,-62.5,4,2,1,100,0,0
22153,-52.6315789473684,4,2,1,100,0,0
22416,-45.4545454545455,4,2,1,100,0,0
22679,-40,4,2,1,100,0,0
22942,-34.4827586206897,4,2,1,100,0,0
23205,-37.037037037037,4,2,1,100,0,0
23469,-40,4,2,1,100,0,0
23732,-45.4545454545455,4,2,1,100,0,0
23995,-52.6315789473684,4,2,1,100,0,0
24258,-62.5,4,2,1,100,0,0
24521,-76.9230769230769,4,2,1,100,0,0
24784,-83.3333333333333,4,2,1,100,0,0
25047,-90.9090909090909,4,2,1,100,0,0
25311,-45.4545454545455,4,2,1,100,0,0
29521,-50,4,2,1,100,0,1
29784,-55.5555555555556,4,2,1,100,0,1
30047,-58.8235294117647,4,2,1,100,0,1
30311,-62.5,4,2,1,100,0,1
30574,-66.6666666666667,4,2,1,100,0,1
30837,-71.4285714285714,4,2,1,100,0,1
31100,-76.9230769230769,4,2,1,100,0,1
31363,-83.3333333333333,4,2,1,100,0,1
31626,-100,4,2,1,100,0,1
31890,-83.3333333333333,4,2,1,100,0,1
32153,-71.4285714285714,4,2,1,100,0,1
32416,-62.5,4,2,1,100,0,1
32679,-55.5555555555556,4,2,1,100,0,1
32942,-47.6190476190476,4,2,1,100,0,1
33205,-45.4545454545455,4,2,1,100,0,1
33469,-43.4782608695652,4,2,1,100,0,1
33732,-47.6190476190476,4,2,1,100,0,1
33995,-52.6315789473684,4,2,1,100,0,1
34258,-58.8235294117647,4,2,1,100,0,1
34521,-62.5,4,2,1,100,0,1
34784,-66.6666666666667,4,2,1,100,0,1
35047,-71.4285714285714,4,2,1,100,0,1
35311,-76.9230769230769,4,2,1,100,0,1
35574,-83.3333333333333,4,2,1,100,0,1
35837,-100,4,2,1,100,0,1
36100,-83.3333333333333,4,2,1,100,0,1
36363,-66.6666666666667,4,2,1,100,0,1
36626,-52.6315789473684,4,2,1,100,0,1
36890,-41.6666666666667,4,2,1,100,0,1
37153,-33.3333333333333,4,2,1,100,0,1
37416,-29.4117647058824,4,2,1,100,0,1
37679,-28.5714285714286,4,2,1,100,0,1
37942,-35.7142857142857,4,2,1,100,0,1
38205,-43.4782608695652,4,2,1,100,0,1
38469,-52.6315789473684,4,2,1,100,0,1
38732,-62.5,4,2,1,100,0,1
38995,-76.9230769230769,4,2,1,100,0,1
39258,-100,4,2,1,100,0,1
39521,-100,4,2,1,100,0,0
40047,545.454545454546,4,2,1,100,1,0
42228,652.173913043478,4,2,1,100,1,0
42880,705.882352941176,4,2,1,100,1,0
43594,779.220779220779,4,2,1,100,1,0
44383,882.352941176471,4,2,1,100,1,0

[HitObjects]
90,62,48,5,4,2:2:0:0:
98,131,311,1,8,2:2:0:0:
141,186,574,5,8,2:2:0:0:
220,227,837,1,8,2:2:0:0:
329,218,1100,5,2,2:2:0:0:
266,127,1363,1,8,2:2:0:0:
199,106,1626,5,8,2:2:0:0:
149,111,1890,1,8,2:2:0:0:
178,151,2153,5,4,2:2:0:0:
248,222,2416,1,8,2:2:0:0:
353,289,2679,5,8,2:2:0:0:
477,293,2942,1,8,2:2:0:0:
430,234,3205,5,2,2:2:0:0:
388,206,3469,1,8,2:2:0:0:
364,197,3732,5,8,2:2:0:0:
354,195,3995,1,8,2:2:0:0:
329,197,4258,5,4,2:2:0:0:
283,216,4521,1,8,2:2:0:0:
212,242,4784,5,8,2:2:0:0:
112,239,5047,1,8,2:2:0:0:
36,139,5311,5,2,2:2:0:0:
166,64,5574,1,8,2:2:0:0:
265,76,5837,5,8,2:2:0:0:
311,94,6100,1,8,2:2:0:0:
352,121,6363,5,4,2:2:0:0:
318,215,6626,1,8,2:2:0:0:
379,135,6890,5,8,2:2:0:0:
353,231,7153,1,8,2:2:0:0:
351,131,7416,5,2,2:2:0:0:
386,224,7679,1,8,2:2:0:0:
316,151,7942,5,8,2:2:0:0:
406,193,8205,1,8,2:2:0:0:
305,186,8469,5,4,2:2:0:0:
176,169,8732,1,8,2:2:0:0:
64,261,8995,5,8,2:2:0:0:
109,107,9258,1,8,2:2:0:0:
270,40,9521,5,2,2:2:0:0:
405,104,9784,1,8,2:2:0:0:
459,216,10047,5,8,2:2:0:0:
445,315,10311,1,8,2:2:0:0:
401,339,10574,5,4,2:2:0:0:
341,341,10837,1,8,2:2:0:0:
271,341,11100,5,8,2:2:0:0:
191,341,11363,1,8,2:2:0:0:
103,320,11626,5,2,2:2:0:0:
46,236,11890,1,8,2:2:0:0:
75,129,12153,5,8,2:2:0:0:
153,38,12416,1,8,2:2:0:0:
257,25,12679,5,4,2:2:0:0:
324,84,12942,1,8,2:2:0:0:
337,157,13205,5,8,2:2:0:0:
308,210,13469,1,8,2:2:0:0:
318,258,13732,5,2,2:2:0:0:
312,307,13995,1,8,2:2:0:0:
271,336,14258,5,8,2:2:0:0:
221,339,14521,1,8,2:2:0:0:
187,295,14784,5,4,2:2:0:0:
129,312,15047,1,8,2:2:0:0:
107,250,15311,5,8,2:2:0:0:
46,285,15574,1,8,2:2:0:0:
34,210,15837,5,2,2:2:0:0:
70,139,16100,1,8,2:2:0:0:
155,112,16363,5,8,2:2:0:0:
259,112,16626,1,8,2:2:0:0:
326,163,16890,5,4,2:2:0:0:
405,171,17153,1,8,2:2:0:0:
467,202,17416,5,8,2:2:0:0:
458,261,17679,1,8,2:2:0:0:
416,288,17942,5,2,2:2:0:0:
391,290,18205,1,8,2:2:0:0:
366,292,18469,5,8,2:2:0:0:
341,293,18732,1,8,2:2:0:0:
316,287,18995,5,8,2:2:0:0:
293,275,19258,1,8,2:2:0:0:
273,259,19521,5,8,2:2:0:0:
261,236,19784,1,8,2:2:0:0:
256,211,20047,5,10,2:2:0:0:
259,186,20311,1,8,2:2:0:0:
268,163,20574,5,8,2:2:0:0:
281,141,20837,1,8,2:2:0:0:
330,135,21100,5,4,2:2:0:0:
353,190,21363,1,8,2:2:0:0:
309,244,21626,5,8,2:2:0:0:
233,271,21890,1,8,2:2:0:0:
141,247,22153,5,2,2:2:0:0:
53,181,22416,1,8,2:2:0:0:
177,173,22679,5,8,2:2:0:0:
315,214,22942,1,8,2:2:0:0:
439,160,23205,5,4,2:2:0:0:
452,284,23469,1,8,2:2:0:0:
359,342,23732,5,8,2:2:0:0:
264,329,23995,1,8,2:2:0:0:
190,298,24258,5,2,2:2:0:0:
135,333,24521,1,8,2:2:0:0:
75,324,24784,5,8,2:2:0:0:
53,273,25047,1,8,2:2:0:0:
70,163,25311,5,4,2:2:0:0:
176,136,25574,1,8,2:2:0:0:
109,223,25837,5,8,2:2:0:0:
215,196,26100,1,8,2:2:0:0:
145,281,26363,5,2,2:2:0:0:
252,256,26626,1,8,2:2:0:0:
184,343,26890,5,8,2:2:0:0:
291,321,27153,1,8,2:2:0:0:
285,211,27416,5,4,2:2:0:0:
355,295,27679,1,8,2:2:0:0:
248,269,27942,5,8,2:2:0:0:
351,231,28205,1,8,2:2:0:0:
289,322,28469,5,8,2:2:0:0:
293,212,28732,1,8,2:2:0:0:
364,295,28995,5,8,2:2:0:0:
258,263,29258,1,8,2:2:0:0:
158,250,29521,5,4,2:2:0:0:
68,250,29784,1,8,2:2:0:0:
38,170,30047,5,8,2:2:0:0:
64,94,30311,1,8,2:2:0:0:
129,56,30574,5,2,2:2:0:0:
198,48,30837,1,8,2:2:0:0:
262,55,31100,5,8,2:2:0:0:
306,95,31363,1,8,2:2:0:0:
308,144,31626,5,4,2:2:0:0:
272,192,31890,1,8,2:2:0:0:
263,261,32153,5,8,2:2:0:0:
307,327,32416,1,8,2:2:0:0:
393,351,32679,5,2,2:2:0:0:
477,288,32942,1,8,2:2:0:0:
448,181,33205,5,8,2:2:0:0:
335,155,33469,1,8,2:2:0:0:
231,140,33732,5,4,2:2:0:0:
136,144,33995,1,8,2:2:0:0:
85,212,34258,5,8,2:2:0:0:
88,291,34521,1,8,2:2:0:0:
137,347,34784,5,2,2:2:0:0:
163,282,35047,1,8,2:2:0:0:
204,231,35311,5,8,2:2:0:0:
263,230,35574,1,8,2:2:0:0:
303,259,35837,5,4,2:2:0:0:
359,279,36100,1,8,2:2:0:0:
433,267,36363,5,8,2:2:0:0:
471,180,36626,1,8,2:2:0:0:
401,81,36890,5,2,2:2:0:0:
251,72,37153,1,8,2:2:0:0:
96,142,37416,5,8,2:2:0:0:
269,166,37679,1,8,2:2:0:0:
135,206,37942,5,6,2:2:0:0:
244,241,38205,1,8,2:2:0:0:
155,275,38469,5,8,2:2:0:0:
228,305,38732,1,8,2:2:0:0:
174,342,38995,5,10,2:2:0:0:
124,345,39258,1,8,2:2:0:0:
78,325,39521,5,8,2:2:0:0:
59,278,39784,1,8,2:2:0:0:
69,231,40047,5,2,2:2:0:0:
118,240,40319,1,0,2:2:0:0:
80,207,40592,5,2,2:2:0:0:
129,209,40865,1,0,2:2:0:0:
88,179,41137,5,2,2:2:0:0:
138,179,41410,1,0,2:2:0:0:
187,187,41683,5,2,2:2:0:0:
149,153,41956,1,0,2:2:0:0:
190,159,42228,5,2,2:2:0:0:
152,126,42554,1,0,2:2:0:0:
197,132,42880,5,2,2:2:0:0:
246,133,43232,1,0,2:2:0:0:
294,143,43585,5,2,2:2:0:0:
337,116,43983,1,0,2:2:0:0:
287,113,44373,5,2,2:2:0:0:
323,76,44824,1,2,2:2:0:0:
347,75,45044,1,2,2:2:0:0:
370,67,45265,1,8,2:2:0:0:
