osu file format v14

[General]
AudioFilename: audio.mp3
AudioLeadIn: 0
PreviewTime: 0
Countdown: 0
SampleSet: Soft
StackLeniency: 0.3
Mode: 0
LetterboxInBreaks: 0
WidescreenStoryboard: 0

[Editor]
Bookmarks: 24773,58476,64646
DistanceSpacing: 1.1
BeatDivisor: 12
GridSize: 4
TimelineZoom: 3.1

[Metadata]
Title:Brand New Day
TitleUnicode:Brand New Day
Artist:R3 Music Box
ArtistUnicode:R3 Music Box
Creator:Ataraxia
Version:Bright Future
Source:
Tags:Yasuda Rei 安田レイ Trynna fabiojhon
BeatmapID:1352234
BeatmapSetID:637394

[Difficulty]
HPDrainRate:6
CircleSize:7
OverallDifficulty:6
ApproachRate:7.2
SliderMultiplier:1.15
SliderTickRate:1

[Events]
//Background and Video events
0,0,"ataraxia.jpeg",0,0
//Break Periods
//Storyboard Layer 0 (Background)
//Storyboard Layer 1 (Fail)
//Storyboard Layer 2 (Pass)
//Storyboard Layer 3 (Foreground)
//Storyboard Sound Samples

[TimingPoints]
1090,681.818181818182,4,2,1,30,1,0
42680,705.882352941176,4,2,1,30,1,0
43385,810.810810810811,4,2,1,30,1,0
43385,-117.647058823529,4,2,1,30,0,0
43993,-117.647058823529,4,2,1,20,0,0
44195,-117.647058823529,4,2,1,30,0,0
44601,-117.647058823529,4,2,1,10,0,0
45006,-100,4,2,1,15,0,0
46628,-100,4,2,1,5,0,0

[Colours]
Combo1 : 251,153,106
Combo2 : 247,230,113
Combo3 : 129,248,150
Combo4 : 124,216,250
Combo5 : 227,160,250
SliderTrackOverride : 90,150,195
SliderBorder : 255,255,248

[HitObjects]
27,34,67,5,0,0:0:0:0:
96,32,408,1,0,0:0:0:0:
44,104,749,1,0,0:0:0:0:
164,144,1090,6,0,P|168:172|160:208,1,57.5,2|0,0:0|0:0,0:0:0:0:
141,263,1601,2,0,P|118:246|98:214,1,57.5
45,187,2112,2,0,P|66:168|93:157,1,57.5
224,120,2794,1,0,0:0:0:0:
148,80,3135,1,0,0:0:0:0:
228,40,3476,1,0,0:0:0:0:
273,161,3817,6,0,B|261:225,1,57.5,2|0,0:0|0:0,0:0:0:0:
306,255,4328,2,0,B|317:199,1,57.5
361,230,4840,2,0,B|349:294,1,57.5
328,128,5522,1,0,0:0:0:0:
411,155,5862,2,0,L|417:96,1,57.5
420,36,6374,1,0,0:0:0:0:
476,72,6544,5,2,0:1:0:0:
360,176,6885,1,0,0:0:0:0:
412,209,7226,1,0,0:0:0:0:
444,266,7567,1,0,0:0:0:0:
401,348,7908,1,0,0:0:0:0:
302,343,8249,1,0,0:0:0:0:
352,263,8590,1,0,0:0:0:0:
377,306,8930,1,0,0:0:0:0:
302,343,9272,6,0,L|244:349,1,57.5
177,278,9783,2,0,L|234:281,1,57.5
292,282,10294,5,0,0:0:0:0:
244,348,10635,1,0,0:0:0:0:
156,368,10976,1,0,0:0:0:0:
152,236,11317,1,0,0:0:0:0:
292,332,11658,1,0,0:0:0:0:
400,221,11999,6,0,P|413:195|418:167,1,57.5
396,118,12510,2,0,P|370:103|342:98,1,57.5
295,126,13022,2,0,P|280:150|276:179,1,57.5
324,262,13703,1,0,0:0:0:0:
231,260,14044,1,0,0:0:0:0:
276,178,14386,1,0,0:0:0:0:
257,317,14726,6,0,L|305:354,1,57.5,2|0,0:0|0:0,0:0:0:0:
324,262,15237,2,0,L|347:318,1,57.5
406,239,15749,2,0,L|397:299,1,57.5
271,262,16430,1,0,0:0:0:0:
212,159,16772,2,0,P|240:159|272:167,1,57.5
320,192,17283,1,0,0:0:0:0:
364,152,17453,5,2,0:1:0:0:
440,248,17794,1,0,0:0:0:0:
488,204,18135,1,0,0:0:0:0:
484,140,18476,1,0,0:0:0:0:
364,152,18817,1,0,0:0:0:0:
432,88,19158,1,0,0:0:0:0:
332,64,19499,1,0,0:0:0:0:
392,36,19840,1,0,0:0:0:0:
365,151,20181,6,0,P|336:151|310:140,1,57.5
254,114,20692,2,0,P|225:114|199:125,1,57.5
154,176,21203,1,0,0:0:0:0:
101,299,21544,1,0,0:0:0:0:
15,240,21885,1,0,0:0:0:0:
77,248,22226,1,0,0:0:0:0:
101,299,22567,1,0,0:0:0:0:
163,348,22908,6,0,P|179:340|195:340,1,28.75,4|0,0:0|0:0,0:0:0:0:
229,304,23249,2,0,P|265:328|281:332,1,57.5
331,255,23760,2,0,P|305:267|277:271,1,57.5
378,293,24272,6,0,P|389:266|391:232,1,57.5
422,188,24783,2,0,P|441:210|452:237,1,57.5
359,188,25294,1,0,0:0:0:0:
483,143,25635,6,0,P|493:126|507:116,1,28.75,4|0,0:0|0:0,0:0:0:0:
493,63,25976,2,0,L|461:2,1,57.5
420,55,26487,2,0,L|404:-11,1,57.5
346,27,26999,6,0,L|289:19,1,57.5
218,89,27510,2,0,L|276:84,1,57.5
196,35,28021,1,0,0:0:0:0:
167,160,28363,6,0,P|167:176|159:196,1,28.75,4|0,0:0|0:0,0:0:0:0:
126,242,28703,2,0,L|150:298,1,57.5
204,332,29215,2,0,P|183:351|157:363,1,57.5
264,308,29726,6,0,P|248:284|223:270,1,57.5
126,242,30238,2,0,L|73:264,1,57.5
90,200,30749,2,0,P|82:186|78:166,1,28.75
89,111,31090,5,2,0:0:0:0:
21,46,31430,1,0,0:0:0:0:
166,130,31771,1,0,0:0:0:0:
157,40,32112,1,0,0:0:0:0:
254,103,32453,2,0,P|290:107|314:97,1,57.5,2|0,0:0|0:0,0:0:0:0:
342,63,32965,1,2,0:1:0:0:
376,98,33135,2,0,L|384:158,1,57.5,0|2,0:0|0:1,0:0:0:0:
352,244,33817,6,0,P|364:252|384:256,1,28.75,4|0,0:0|0:0,0:0:0:0:
319,290,34158,2,0,P|287:298|263:326,1,57.5
176,358,34669,2,0,P|203:364|231:356,1,57.5
203,291,35181,6,0,P|174:274|137:276,1,57.5
59,257,35692,2,0,P|74:281|100:294,1,57.5
79,188,36203,1,0,0:0:0:0:
140,92,36544,6,0,P|160:104|164:112,1,28.75,4|0,0:0|0:0,0:0:0:0:
232,129,36885,2,0,L|222:73,1,57.5
294,110,37397,2,0,L|289:174,1,57.5
354,248,37908,6,0,L|349:190,1,57.5
422,151,38419,2,0,L|412:208,1,57.5
368,107,38930,1,0,0:0:0:0:
480,152,39272,6,0,L|484:180,1,28.75,4|0,0:0|0:0,0:0:0:0:
466,241,39612,2,0,P|458:273|466:297,1,57.5
362,331,40124,2,0,L|420:339,1,57.5
289,282,40635,6,0,L|347:276,1,57.5
239,315,41147,2,0,P|247:341|240:376,1,57.5
184,344,41658,1,0,0:0:0:0:
116,208,41999,5,2,0:0:0:0:
62,354,42340,1,0,0:0:0:0:
0,204,42680,5,2,0:0:0:0:
124,116,43032,1,2,0:1:0:0:
216,221,43385,6,0,P|222:254|216:268,1,48.8750009322167,2|0,0:0|0:0,0:0:0:0:
160,296,43993,1,2,0:0:0:0:
204,340,44195,1,2,0:1:0:0:
306,198,44601,6,0,L|308:188,1,8.14583348870278,4|0,0:1|0:0,0:0:0:0:
256,192,44803,12,0,46628,0:0:0:0:
