osu file format v14

[General]
AudioFilename: audio.mp3
AudioLeadIn: 0
PreviewTime: 2469
Countdown: 0
SampleSet: Normal
StackLeniency: 0.7
Mode: 0
LetterboxInBreaks: 0
WidescreenStoryboard: 1

[Editor]
DistanceSpacing: 1
BeatDivisor: 4
GridSize: 4
TimelineZoom: 1

[Metadata]
Title:Bon Appetit*S
TitleUnicode:ぼなぺてぃーと♡S
Artist:R3 Music Box
ArtistUnicode:R3 Music Box
Creator:Rieri
Version:Easy
Source:ブレンド・S
Tags:blend s a op opening anime
BeatmapID:1525895
BeatmapSetID:722839

[Difficulty]
HPDrainRate:2
CircleSize:3
OverallDifficulty:2
ApproachRate:2
SliderMultiplier:0.9
SliderTickRate:1

[Events]
//Background and Video events
0,0,"bg48.jpg",0,0
//Break Periods
//Storyboard Layer 0 (Background)
//Storyboard Layer 1 (Fail)
//Storyboard Layer 2 (Pass)
//Storyboard Layer 3 (Foreground)
//Storyboard Sound Samples

[TimingPoints]
2631,645.161290322581,4,1,1,30,1,0
3276,618.556701030928,4,1,1,30,1,0
4513,618.556701030928,4,1,1,30,1,0
65144,638.297872340426,4,1,1,30,1,0
65782,697.674418604651,4,1,1,30,1,0
66460,740.740740740741,4,1,1,30,1,0
66830,800,4,1,1,30,1,0
67230,821.917808219178,4,1,1,30,1,0
67435,833.333333333333,4,1,1,30,1,0
67643,882.352941176471,4,1,1,30,1,0
68084,923.076923076923,4,1,1,30,1,0

[Colours]
Combo1 : 53,255,108
Combo2 : 255,140,140
Combo3 : 106,215,255
Combo4 : 255,248,106
Combo5 : 216,30,255

[HitObjects]
64,58,2631,6,0,P|111:47|159:60,1,90,2|2,0:2|0:2,0:0:0:0:
235,87,3894,1,2,0:0:0:0:
324,72,4513,6,0,P|395:44|479:107,1,180,4|2,0:3|0:0,0:0:0:0:
391,135,6368,1,0,0:0:0:0:
304,160,6987,2,0,P|334:206|374:224,1,90,4|2,0:0|0:0,0:0:0:0:
450,246,8224,2,0,P|420:292|380:310,1,90,2|2,0:3|0:0,0:0:0:0:
312,354,9461,6,0,P|256:318|151:352,1,180,4|2,0:3|0:0,0:0:0:0:
69,381,11317,1,0,0:0:0:0:
16,308,11935,2,0,P|7:263|24:213,2,90,4|2|2,0:0|0:0|0:2,0:0:0:0:
95,267,13791,1,2,0:0:0:0:
98,177,14409,5,4,0:0:0:0:
158,110,15028,2,0,P|216:135|312:64,1,180,2|2,0:0|0:0,0:0:0:0:
377,20,16884,1,4,0:0:0:0:
450,71,17502,2,0,P|413:156|477:221,1,180,2|2,0:0|0:0,0:0:0:0:
492,301,19358,5,4,0:3:0:0:
413,345,19976,1,4,0:0:0:0:
334,300,20595,1,4,0:3:0:0:
254,342,21214,1,4,0:0:0:0:
174,299,21832,2,0,P|62:254|69:114,1,270,4|2,0:3|0:0,0:0:0:0:
126,55,24306,6,0,P|212:31|278:92,1,180,4|2,0:3|0:0,0:0:0:0:
191,117,26162,1,0,0:0:0:0:
149,197,26781,2,0,P|199:206|237:193,1,90,4|2,0:0|0:0,0:0:0:0:
315,155,28018,2,0,P|365:145|403:158,1,90,2|2,0:3|0:0,0:0:0:0:
462,223,29255,6,0,P|464:324|392:372,1,180,4|2,0:3|0:0,0:0:0:0:
323,341,31110,1,0,0:0:0:0:
280,265,31729,2,0,P|330:254|372:268,2,90,4|2|2,0:0|0:0|0:3,0:0:0:0:
229,339,33585,1,2,0:0:0:0:
140,362,34203,5,4,0:0:0:0:
52,384,34822,2,0,P|8:314|52:226,1,180,2|2,0:0|0:0,0:0:0:0:
132,216,36677,1,4,0:0:0:0:
220,204,37296,2,0,P|256:135|200:53,1,180,2|2,0:0|0:0,0:0:0:0:
120,80,39152,5,4,0:3:0:0:
108,168,39770,1,2,0:0:0:0:
152,248,40389,2,0,P|97:261|32:224,2,135,2|4|2,0:0|0:0|0:0,0:0:0:0:
232,208,42863,1,2,0:3:0:0:
316,236,43482,1,2,0:0:0:0:
392,280,44100,6,0,P|406:241|388:186,1,90,4|2,0:3|0:0,0:0:0:0:
364,112,45337,2,0,P|325:98|270:116,1,90,4|2,0:0|0:0,0:0:0:0:
240,188,46574,2,0,P|195:202|139:187,2,90,4|0|0,0:3|0:0|0:0,0:0:0:0:
191,112,48430,1,0,0:0:0:0:
121,54,49049,6,0,P|77:32|-9:64,2,135,4|2|0,0:3|0:3|0:0,0:0:0:0:
148,139,51523,2,0,P|191:110|206:17,2,135,4|2|2,0:3|0:3|0:0,0:0:0:0:
64,172,53997,6,0,P|40:215|46:263,1,90,4|2,0:3|0:0,0:0:0:0:
107,319,55234,2,0,P|150:343|198:337,1,90,4|2,0:0|0:0,0:0:0:0:
277,321,56471,2,0,P|328:314|369:330,2,90,4|0|2,0:3|0:0|0:0,0:0:0:0:
219,251,58327,1,2,0:0:0:0:
274,180,58945,6,0,P|316:164|373:174,1,90,4|2,0:3|0:0,0:0:0:0:
436,215,60183,1,2,0:3:0:0:
462,300,60801,1,2,0:0:0:0:
395,360,61420,2,0,P|302:378|222:330,1,180,4|2,0:0|0:0,0:0:0:0:
198,255,63275,1,2,0:0:0:0:
152,177,63894,6,0,P|108:169|66:185,1,90,4|2,0:3|0:0,0:0:0:0:
20,258,65144,2,0,P|25:311|54:347,1,90,2|2,0:3|0:0,0:0:0:0:
130,354,66460,5,4,0:0:0:0:
217,326,67230,1,4,0:0:0:0:
300,354,68084,1,4,0:2:0:0:
