osu file format v14

[General]
AudioFilename: audio.mp3
AudioLeadIn: 0
PreviewTime: 2469
Countdown: 0
SampleSet: Normal
StackLeniency: 0.7
Mode: 2
LetterboxInBreaks: 0
WidescreenStoryboard: 1

[Editor]
DistanceSpacing: 1
BeatDivisor: 4
GridSize: 4
TimelineZoom: 1

[Metadata]
Title:Bon Appetit*S
TitleUnicode:ぼなぺてぃーと♡S
Artist:R3 Music Box
ArtistUnicode:R3 Music Box
Creator:Rieri
Version:Cup
Source:ブレンド・S
Tags:blend s a op opening anime
BeatmapID:1639061
BeatmapSetID:722839

[Difficulty]
HPDrainRate:2
CircleSize:3
OverallDifficulty:2
ApproachRate:2
SliderMultiplier:0.9
SliderTickRate:1

[Events]
//Background and Video events
0,0,"bg48.jpg",0,0
//Break Periods
//Storyboard Layer 0 (Background)
//Storyboard Layer 1 (Fail)
//Storyboard Layer 2 (Pass)
//Storyboard Layer 3 (Foreground)
//Storyboard Sound Samples

[TimingPoints]
2631,645.161290322581,4,1,1,30,1,0
3276,618.556701030928,4,1,1,30,1,0
4513,618.556701030928,4,1,1,30,1,0
65144,638.297872340426,4,1,1,30,1,0
65782,697.674418604651,4,1,1,30,1,0
66460,740.740740740741,4,1,1,30,1,0
66830,800,4,1,1,30,1,0
67230,821.917808219178,4,1,1,30,1,0
67435,833.333333333333,4,1,1,30,1,0
67643,882.352941176471,4,1,1,30,1,0
68084,923.076923076923,4,1,1,30,1,0

[Colours]
Combo1 : 53,255,108
Combo2 : 255,140,140
Combo3 : 106,215,255
Combo4 : 255,248,106
Combo5 : 216,30,255

[HitObjects]
416,192,2631,5,2,0:2:0:0:
256,192,3276,1,2,0:2:0:0:
104,192,3894,1,2,0:0:0:0:
256,192,4513,6,0,L|444:192,1,180,4|2,0:3|0:0,0:0:0:0:
328,136,6368,1,0,0:0:0:0:
208,192,6987,2,0,L|116:192,1,90,4|2,0:0|0:0,0:0:0:0:
28,192,8224,2,0,L|120:192,1,90,2|2,0:3|0:0,0:0:0:0:
258,192,9461,6,0,L|442:192,1,180,4|2,0:3|0:0,0:0:0:0:
512,128,11317,1,0,0:0:0:0:
368,192,11935,2,0,L|268:192,1,90,4|2,0:0|0:0,0:0:0:0:
178,192,13172,2,0,L|78:192,1,90,2|2,0:2|0:0,0:0:0:0:
0,192,14409,5,4,0:0:0:0:
100,112,15028,1,2,0:0:0:0:
252,192,15647,2,0,L|157:192,1,90,2|2,0:0|0:0,0:0:0:0:
33,192,16884,5,4,0:0:0:0:
132,111,17502,1,2,0:0:0:0:
285,192,18121,2,0,L|382:192,1,90,2|2,0:0|0:0,0:0:0:0:
187,191,19358,5,4,0:3:0:0:
187,191,19976,1,4,0:0:0:0:
355,192,20595,5,4,0:3:0:0:
355,192,21214,1,4,0:0:0:0:
108,192,21832,6,0,P|48:156|44:88,1,135,4|2,0:3|0:0,0:0:0:0:
108,192,23069,2,0,L|204:192,1,90,2|2,0:3|0:0,0:0:0:0:
308,192,24306,6,0,L|492:192,1,180,4|2,0:3|0:0,0:0:0:0:
384,192,26162,1,0,0:0:0:0:
264,192,26781,2,0,L|168:192,1,90,4|2,0:0|0:0,0:0:0:0:
84,192,28018,2,0,L|180:192,1,90,2|2,0:3|0:0,0:0:0:0:
344,192,29255,6,0,L|156:192,1,180,4|2,0:3|0:0,0:0:0:0:
32,192,31110,1,0,0:0:0:0:
164,192,31729,2,0,L|272:192,1,90,4|2,0:0|0:0,0:0:0:0:
364,192,32966,2,0,L|460:192,1,90,2|2,0:3|0:0,0:0:0:0:
344,136,34203,5,4,0:0:0:0:
212,192,34822,2,0,L|28:192,1,180,2|2,0:0|0:0,0:0:0:0:
160,104,36677,1,4,0:0:0:0:
248,192,37296,2,0,L|352:192,2,90,2|2|2,0:0|0:3|0:0,0:0:0:0:
132,192,39152,6,0,P|112:124|12:120,1,180,4|2,0:3|0:0,0:0:0:0:
104,192,40853,1,0,0:0:0:0:
208,192,41317,6,0,L|356:192,1,135,4|2,0:0|0:0,0:0:0:0:
472,192,42863,2,0,L|364:192,1,90,2|2,0:3|0:0,0:0:0:0:
252,192,44100,6,0,P|200:152|96:200,1,180,4|4,0:3|0:0,0:0:0:0:
0,172,45956,1,2,0:0:0:0:
112,100,46574,2,0,P|188:136|276:100,1,180,4|0,0:3|0:0,0:0:0:0:
400,168,48430,1,0,0:0:0:0:
304,248,49049,6,0,L|456:256,1,135,4|2,0:3|0:3,0:0:0:0:
412,168,50286,2,0,L|316:164,1,90,2|0,0:0|0:0,0:0:0:0:
192,200,51523,6,0,L|44:212,1,135,4|2,0:3|0:3,0:0:0:0:
72,128,52760,2,0,L|168:120,1,90,2|2,0:0|0:0,0:0:0:0:
296,196,53997,6,0,P|388:224|468:184,1,180,4|4,0:3|0:0,0:0:0:0:
368,88,55853,1,2,0:0:0:0:
248,156,56471,6,0,P|192:184|76:144,1,180,4|2,0:3|0:0,0:0:0:0:
184,48,58327,1,2,0:0:0:0:
324,84,58945,6,0,L|424:80,2,90,4|2|2,0:3|0:0|0:3,0:0:0:0:
208,160,60801,1,2,0:0:0:0:
92,212,61420,2,0,L|288:212,1,180,4|2,0:0|0:0,0:0:0:0:
424,256,63275,1,2,0:0:0:0:
304,316,63894,6,0,L|200:320,2,90,4|2|0,0:3|0:0|0:0,0:0:0:0:
424,240,65782,1,2,0:0:0:0:
308,192,66460,5,4,0:0:0:0:
120,120,67230,5,4,0:0:0:0:
352,40,68084,5,4,0:2:0:0:
