osu file format v14

[General]
AudioFilename: audio.mp3
AudioLeadIn: 0
PreviewTime: 21870
Countdown: 0
SampleSet: Soft
StackLeniency: 0.7
Mode: 2
LetterboxInBreaks: 0
WidescreenStoryboard: 0

[Editor]
DistanceSpacing: 0.8
BeatDivisor: 4
GridSize: 32
TimelineZoom: 1

[Metadata]
Title:Blue Zenith
TitleUnicode:Blue Zenith
Artist:R3 Music Box
ArtistUnicode:R3 Music Box
Creator:i Only Azir
Version:Salad
Source:
Tags:xi blue zenith r3musicbox
BeatmapID:1883566
BeatmapSetID:902151

[Difficulty]
HPDrainRate:6
CircleSize:3
OverallDifficulty:6
ApproachRate:6.7
SliderMultiplier:1.2
SliderTickRate:1

[Events]
//Background and Video events
0,0,"bluezenith.jpg",0,0
//Break Periods
//Storyboard Layer 0 (Background)
//Storyboard Layer 1 (Fail)
//Storyboard Layer 2 (Pass)
//Storyboard Layer 3 (Foreground)
//Storyboard Sound Samples

[TimingPoints]
52,-100,4,2,0,30,0,0
734,-100,4,2,0,30,0,0
734.205831031318,681.805798749289,4,2,0,30,1,0
43687,-100,4,2,0,15,0,0
44028,882.352941176471,4,2,0,30,1,0

[HitObjects]
352,192,1416,5,2,0:0:0:0:
256,192,1756,2,0,L|192:192,2,60
96,192,2779,1,2,0:0:0:0:
192,192,3120,2,0,L|256:192,2,60
352,192,4143,5,2,0:0:0:0:
448,192,4484,2,0,L|512:192,2,60
288,192,5506,1,2,0:0:0:0:
192,192,5847,2,0,L|128:192,2,60
352,192,6870,5,2,0:0:0:0:
256,192,7211,2,0,L|192:192,2,60
416,192,8234,5,2,0:0:0:0:
320,192,8574,2,0,L|256:192,2,60
160,192,9597,1,2,0:0:0:0:
64,192,9938,2,0,L|0:192,2,60
320,192,10961,5,2,0:0:0:0:
416,192,11302,2,0,L|480:192,2,60
160,192,12324,1,2,0:0:0:0:
64,192,12665,2,0,L|0:192,2,60
352,192,13688,5,2,0:0:0:0:
448,192,14029,2,0,L|512:192,2,60
192,192,15052,1,2,0:0:0:0:
288,192,15393,2,0,L|352:192,2,60
192,192,16415,1,2,0:0:0:0:
96,192,16756,2,0,L|32:192,2,60
256,192,17779,6,0,L|320:192,1,60
64,192,18461,2,0,L|128:192,1,60,2|0,0:0|0:0,0:0:0:0:
384,192,19142,2,0,L|320:192,1,60,2|0,0:0|0:0,0:0:0:0:
224,192,19824,1,0,0:0:0:0:
128,192,20165,1,0,0:0:0:0:
384,192,20506,5,10,0:0:0:0:
288,192,20847,1,0,0:0:0:0:
32,192,21188,1,8,0:0:0:0:
128,192,21529,1,0,0:0:0:0:
288,192,21870,5,2,0:0:0:0:
384,192,22211,2,0,L|448:192,2,60
128,192,23233,1,2,0:0:0:0:
32,192,23574,2,0,L|96:192,2,60
288,192,24597,5,2,0:0:0:0:
384,192,24938,2,0,L|448:192,2,60
128,192,25961,5,2,0:0:0:0:
224,192,26301,2,0,L|288:192,2,60
480,224,27324,2,0,L|416:224,1,60,2|0,0:0|0:0,0:0:0:0:
256,224,28006,1,0,0:0:0:0:
352,224,28347,1,0,0:0:0:0:
96,224,28688,6,0,L|160:224,1,60,2|0,0:0|0:0,0:0:0:0:
320,224,29370,1,0,0:0:0:0:
224,224,29711,1,0,0:0:0:0:
480,224,30051,2,0,L|416:224,1,60,2|0,0:0|0:0,0:0:0:0:
256,224,30733,1,0,0:0:0:0:
352,224,31074,1,0,0:0:0:0:
192,224,31415,6,0,L|256:224,1,60,2|0,0:0|0:0,0:0:0:0:
416,224,32097,1,0,0:0:0:0:
320,224,32438,1,0,0:0:0:0:
32,224,32779,2,0,L|96:224,1,60,2|0,0:0|0:0,0:0:0:0:
256,224,33461,1,0,0:0:0:0:
160,224,33802,1,0,0:0:0:0:
384,224,34142,6,0,L|320:224,1,60,2|0,0:0|0:0,0:0:0:0:
160,224,34824,1,0,0:0:0:0:
256,224,35165,1,0,0:0:0:0:
0,224,35506,2,0,L|64:224,1,60,2|0,0:0|0:0,0:0:0:0:
224,224,36188,1,0,0:0:0:0:
128,224,36529,1,0,0:0:0:0:
416,224,36869,6,0,L|352:224,1,60,2|0,0:0|0:0,0:0:0:0:
96,224,37551,1,2,0:0:0:0:
192,224,37892,1,0,0:0:0:0:
480,224,38233,6,0,L|352:224,1,120,2|0,0:0|0:0,0:0:0:0:
192,224,39256,1,0,0:0:0:0:
480,224,39597,2,0,L|352:224,1,120,2|0,0:0|0:0,0:0:0:0:
160,192,40619,1,0,0:0:0:0:
480,192,40960,2,0,L|352:192,1,120,2|0,0:0|0:0,0:0:0:0:
160,192,41983,5,0,0:0:0:0:
512,192,42324,2,0,L|448:192,3,60,2|0|0|0,0:0|0:0|0:0|0:0,0:0:0:0:
128,192,43687,5,2,0:0:0:0:
224,192,44101,1,0,0:0:0:0:
320,192,44469,1,0,0:0:0:0:
256,192,44836,1,0,0:0:0:0:
352,192,45204,1,0,0:0:0:0:
192,192,45682,1,0,0:0:0:0:
384,192,46123,1,0,0:0:0:0:
288,192,46601,1,0,0:0:0:0:
352,192,46822,1,0,0:0:0:0:
416,192,47042,1,6,0:0:0:0:
