osu file format v14

[General]
AudioFilename: audio.mp3
AudioLeadIn: 0
PreviewTime: 19964
Countdown: 0
SampleSet: Soft
StackLeniency: 0.7
Mode: 0
LetterboxInBreaks: 0
WidescreenStoryboard: 1

[Editor]
DistanceSpacing: 1.4
BeatDivisor: 4
GridSize: 4
TimelineZoom: 2

[Metadata]
Title:Aozora no Rhapsody
TitleUnicode:青空のラプソディ
Artist:R3 Music Box
ArtistUnicode:R3 Music Box
Creator:ProEzreal
Version:Normal
Source:小林さんちのメイドラゴン
Tags:kobayashi-san chi no maid dragon op opening fhana fhána
BeatmapID:1285690
BeatmapSetID:608797

[Difficulty]
HPDrainRate:4
CircleSize:4
OverallDifficulty:4
ApproachRate:4
SliderMultiplier:1.2
SliderTickRate:2

[Events]
//Background and Video events
0,0,"bg36.jpg",0,0
//Break Periods
//Storyboard Layer 0 (Background)
//Storyboard Layer 1 (Fail)
//Storyboard Layer 2 (Pass)
//Storyboard Layer 3 (Foreground)
//Storyboard Sound Samples

[TimingPoints]
69.8025053806962,631.578947368421,4,2,1,20,1,0
52520,652.173913043478,4,2,1,20,1,0
53197,689.655172413792,4,2,1,20,1,0
53886,759.493670886076,4,2,1,18,1,0
54636,869.565217391304,4,2,1,16,1,0
55505,952.380952380952,4,2,1,14,1,0
55969,666.666666666667,4,2,1,12,1,0
56302,1818.18181818182,4,2,1,10,1,0

[Colours]
Combo1 : 255,140,221
Combo2 : 68,255,175
Combo3 : 96,148,255
Combo4 : 193,117,255

[HitObjects]
115,343,69,6,0,L|5:353,2,90,4|0|2,0:3|0:0|0:0,0:0:0:0:
185,297,1332,2,0,L|295:307,2,90,0|0|2,0:0|0:0|0:0,0:0:0:0:
124,237,2596,2,0,L|14:247,2,90,4|0|2,0:0|0:0|0:0,0:0:0:0:
202,205,3859,2,0,P|231:154|211:86,1,120,0|2,0:0|0:0,0:0:0:0:
148,49,4806,1,0,0:0:0:0:
148,49,5122,6,0,P|89:39|46:58,2,90,4|0|2,0:3|0:0|0:0,0:0:0:0:
218,96,6385,2,0,P|277:86|320:105,2,90,0|0|2,0:0|0:0|0:0,0:0:0:0:
175,168,7648,2,0,L|180:308,1,120,4|0,0:0|0:0,0:0:0:0:
249,335,8596,1,0,0:0:0:0:
327,304,8911,2,0,L|324:227,1,60
395,197,9543,1,2,0:0:0:0:
354,124,9859,1,0,0:0:0:0:
354,124,10175,6,0,L|362:12,2,90,4|0|2,0:3|0:0|0:0,0:0:0:0:
395,197,11438,2,0,L|403:309,2,90,0|0|2,0:0|0:0|0:0,0:0:0:0:
442,127,12701,2,0,L|450:15,2,90,4|0|2,0:0|0:0|0:0,0:0:0:0:
491,194,13964,2,0,P|504:253|471:322,1,120,0|2,0:0|0:0,0:0:0:0:
414,354,14911,1,0,0:0:0:0:
414,354,15227,6,0,P|362:370|311:356,2,90,4|0|2,0:3|0:0|0:0,0:0:0:0:
362,287,16490,2,0,P|308:274|271:237,2,90,0|0|2,0:0|0:0|0:0,0:0:0:0:
351,203,17754,2,0,P|334:146|351:77,1,120,4|0,0:0|0:0,0:0:0:0:
289,25,18701,1,0,0:0:0:0:
210,57,19017,2,0,P|222:91|213:131,1,60,0|0,0:0|0:0,0:0:0:0:
209,197,19648,1,2,0:0:0:0:
209,197,19964,1,0,0:0:0:0:
151,258,20280,6,0,L|160:370,2,90,4|0|2,0:3|0:0|0:0,0:0:0:0:
209,197,21543,2,0,L|218:85,2,90,0|0|2,0:0|0:0|0:0,0:0:0:0:
274,249,22806,2,0,L|283:361,2,90,4|0|2,0:0|0:0|0:0,0:0:0:0:
335,191,24069,2,0,P|321:142|343:72,1,120,0|2,0:0|0:0,0:0:0:0:
411,33,25017,1,0,0:0:0:0:
411,33,25332,6,0,P|473:24|505:37,2,90,4|0|2,0:3|0:0|0:0,0:0:0:0:
339,77,26596,2,0,P|277:68|245:81,2,90,0|0|2,0:0|0:0|0:0,0:0:0:0:
379,150,27859,2,0,L|384:290,1,120,4|0,0:0|0:0,0:0:0:0:
321,327,28806,1,0,0:0:0:0:
241,300,29122,2,0,L|237:216,1,60,0|0,0:0|0:0,0:0:0:0:
182,176,29754,1,2,0:0:0:0:
227,105,30069,1,0,0:0:0:0:
227,105,30385,6,0,B|165:92|165:92|105:132,1,120,4|0,0:3|0:0,0:0:0:0:
102,206,31332,1,2,0:0:0:0:
145,277,31648,2,0,B|207:290|207:290|267:250,1,120,4|0,0:3|0:0,0:0:0:0:
281,179,32596,1,2,0:0:0:0:
328,110,32911,6,0,B|359:105|359:105|406:115,1,60,4|0,0:3|0:0,0:0:0:0:
444,169,33543,2,0,B|450:199|450:199|439:247,1,60
386,288,34175,2,0,B|355:295|355:295|308:283,2,60,2|0|0,0:0|0:0|0:0,0:0:0:0:
456,333,35122,1,0,0:0:0:0:
498,260,35438,6,0,L|495:180,1,60,4|0,0:0|0:0,0:0:0:0:
498,116,36069,2,0,P|470:111|425:117,1,60,2|0,0:0|0:0,0:0:0:0:
396,119,36543,2,0,P|342:128|286:115,1,90,2|0,0:0|0:0,0:0:0:0:
228,93,37332,1,0,0:0:0:0:
228,93,37648,1,0,0:0:0:0:
155,136,37964,6,0,L|156:210,1,60,4|0,0:0|0:0,0:0:0:0:
142,279,38596,2,0,P|183:270|215:273,1,60,2|0,0:0|0:0,0:0:0:0:
241,279,39069,2,0,P|296:290|346:278,1,90,2|0,0:0|0:0,0:0:0:0:
400,240,39859,1,0,0:0:0:0:
400,240,40175,1,0,0:0:0:0:
485,252,40490,6,0,L|487:311,1,60,4|0,0:0|0:0,0:0:0:0:
430,373,41122,2,0,P|390:378|357:373,1,60,2|0,0:0|0:0,0:0:0:0:
329,364,41596,2,0,P|270:353|226:363,1,90,2|0,0:0|0:0,0:0:0:0:
158,374,42385,1,0,0:0:0:0:
158,374,42701,1,0,0:0:0:0:
84,333,43017,6,0,L|80:195,1,120,4|2,0:3|0:0,0:0:0:0:
198,93,44280,2,0,L|194:231,1,120,0|2,0:0|0:0,0:0:0:0:
201,296,45227,1,0,0:0:0:0:
201,296,45543,6,0,P|265:316|330:290,1,120,4|2,0:0|0:0,0:0:0:0:
429,179,46806,2,0,P|365:159|300:185,1,120,0|2,0:0|0:0,0:0:0:0:
231,177,47754,1,0,0:0:0:0:
231,177,48069,6,0,L|102:182,1,120,4|2,0:3|0:0,0:0:0:0:
25,326,49332,2,0,L|154:331,1,120,0|2,0:0|0:0,0:0:0:0:
228,337,50280,1,0,0:0:0:0:
228,337,50596,6,0,P|286:355|347:328,1,120,4|2,0:0|0:0,0:0:0:0:
439,199,51859,1,0,0:0:0:0:
334,64,52520,1,2,0:0:0:0:
171,91,53197,6,0,L|176:221,1,120,2|0,0:0|0:0,0:0:0:0:
228,345,54636,2,0,P|293:314|359:326,1,120,2|0,0:0|0:0,0:0:0:0:
436,252,55969,6,0,L|441:194,2,30,4|0|0,0:1|0:0|0:1,0:0:0:0:
