osu file format v14

[General]
AudioFilename: audio.mp3
AudioLeadIn: 0
PreviewTime: 19964
Countdown: 0
SampleSet: Soft
StackLeniency: 0.7
Mode: 0
LetterboxInBreaks: 0
WidescreenStoryboard: 1

[Editor]
DistanceSpacing: 1.2
BeatDivisor: 8
GridSize: 4
TimelineZoom: 1.3

[Metadata]
Title:Aozora no Rhapsody
TitleUnicode:青空のラプソディ
Artist:R3 Music Box
ArtistUnicode:R3 Music Box
Creator:ProEzreal
Version:Aozora
Source:小林さんちのメイドラゴン
Tags:kobayashi-san chi no maid dragon op opening fhana fhána
BeatmapID:1285691
BeatmapSetID:608797

[Difficulty]
HPDrainRate:6
CircleSize:5
OverallDifficulty:6
ApproachRate:6
SliderMultiplier:1.4
SliderTickRate:2

[Events]
//Background and Video events
0,0,"bg36.jpg",0,0
//Break Periods
//Storyboard Layer 0 (Background)
//Storyboard Layer 1 (Fail)
//Storyboard Layer 2 (Pass)
//Storyboard Layer 3 (Foreground)
//Storyboard Sound Samples

[TimingPoints]
69.8025053806962,631.578947368421,4,2,1,20,1,0
52520,652.173913043478,4,2,1,20,1,0
53197,689.655172413792,4,2,1,20,1,0
53886,759.493670886076,4,2,1,18,1,0
54636,869.565217391304,4,2,1,16,1,0
55505,952.380952380952,4,2,1,14,1,0
55969,666.666666666667,4,2,1,12,1,0
56302,1818.18181818182,4,2,1,10,1,0

[Colours]
Combo1 : 255,140,221
Combo2 : 68,255,175
Combo3 : 96,148,255
Combo4 : 193,117,255

[HitObjects]
176,297,69,6,0,P|125:315|67:281,2,105,4|0|2,0:3|0:0|0:0,0:0:0:0:
128,227,1332,2,0,P|79:203|62:138,2,105,0|0|2,0:0|0:0|0:0,0:0:0:0:
142,143,2596,1,4,0:0:0:0:
115,19,3069,1,0,0:0:0:0:
142,143,3543,1,2,0:0:0:0:
209,93,3859,2,0,L|285:93,1,70,0|0,0:0|0:0,0:0:0:0:
363,92,4490,1,2,0:0:0:0:
405,164,4806,1,0,0:0:0:0:
405,164,4964,1,0,0:0:0:0:
405,164,5122,6,0,L|519:164,2,105,4|0|2,0:3|0:0|0:0,0:0:0:0:
422,246,6385,2,0,L|502:326,2,105,0|0|2,0:0|0:0|0:0,0:0:0:0:
370,312,7648,2,0,L|370:392,1,70,4|0,0:0|0:0,0:0:0:0:
298,337,8280,2,0,L|298:257,1,70,2|0,0:0|0:0,0:0:0:0:
214,267,8911,2,0,L|214:337,1,70,0|0,0:0|0:0,0:0:0:0:
142,382,9543,1,2,0:0:0:0:
142,297,9859,1,0,0:0:0:0:
142,297,10017,1,0,0:0:0:0:
142,297,10175,6,0,P|93:312|59:381,2,105,4|0|2,0:3|0:0|0:0,0:0:0:0:
201,238,11438,2,0,P|155:213|82:238,2,105,0|0|2,0:0|0:0|0:0,0:0:0:0:
285,238,12701,1,4,0:0:0:0:
239,120,13175,1,0,0:0:0:0:
285,238,13648,1,2,0:0:0:0:
330,307,13964,2,0,P|355:282|368:250,1,70,0|0,0:0|0:0,0:0:0:0:
368,164,14596,1,2,0:0:0:0:
324,92,14911,1,0,0:0:0:0:
324,92,15069,1,0,0:0:0:0:
324,92,15227,6,0,L|456:92,2,105,4|0|2,0:3|0:0|0:0,0:0:0:0:
240,76,16490,2,0,L|333:-17,2,105,0|0|2,0:0|0:0|0:0,0:0:0:0:
164,108,17754,2,0,L|164:10,1,70,4|0,0:0|0:0,0:0:0:0:
80,37,18385,1,2,0:0:0:0:
80,37,18701,1,0,0:0:0:0:
79,121,19017,2,0,L|79:219,1,70,0|0,0:0|0:0,0:0:0:0:
123,262,19648,1,2,0:0:0:0:
123,262,19964,1,0,0:0:0:0:
172,330,20280,6,0,P|222:346|281:316,2,105,4|0|2,0:3|0:0|0:0,0:0:0:0:
219,260,21543,2,0,P|265:236|286:173,2,105,0|0|2,0:0|0:0|0:0,0:0:0:0:
203,177,22806,1,4,0:0:0:0:
235,55,23280,1,0,0:0:0:0:
203,177,23754,1,2,0:0:0:0:
133,130,24069,2,0,P|119:97|66:66,1,70,0|0,0:0|0:0,0:0:0:0:
9,75,24701,1,2,0:0:0:0:
11,159,25017,1,0,0:0:0:0:
11,159,25175,1,0,0:0:0:0:
11,159,25332,6,0,L|11:292,2,105,4|0|2,0:3|0:0|0:0,0:0:0:0:
77,210,26596,2,0,L|171:304,2,105,0|0|2,0:0|0:0|0:0,0:0:0:0:
144,159,27859,2,0,L|230:158,1,70,4|0,0:0|0:0,0:0:0:0:
215,74,28490,2,0,L|215:-11,1,70,2|0,0:0|0:0,0:0:0:0:
298,3,29122,2,0,L|298:75,1,70
299,157,29754,1,2,0:0:0:0:
382,157,30069,1,0,0:0:0:0:
382,157,30227,1,0,0:0:0:0:
382,157,30385,6,0,B|401:108|401:108|376:45,2,105,4|0|2,0:3|0:0|0:0,0:0:0:0:
299,157,31648,2,0,B|265:169|265:169|219:155,1,70,4|0,0:3|0:0,0:0:0:0:
191,147,32122,2,0,B|173:196|173:196|185:261,1,105,0|2,0:0|0:0,0:0:0:0:
266,258,32911,6,0,B|300:267|300:267|349:255,1,70,4|0,0:3|0:0,0:0:0:0:
375,255,33385,2,0,B|395:304|395:304|367:363,1,105,2|0,0:0|0:0,0:0:0:0:
288,353,34175,2,0,B|254:360|254:360|206:348,1,70,2|0,0:0|0:0,0:0:0:0:
190,272,34806,2,0,B|156:264|156:264|106:272,1,70
36,268,35438,6,0,L|36:192,1,70,4|0,0:0|0:0,0:0:0:0:
36,112,36069,2,0,L|-8:112,2,35,2|0|0,0:0|0:0|0:0,0:0:0:0:
80,112,36543,2,0,P|116:120|157:106,1,70,2|0,0:0|0:0,0:0:0:0:
188,108,37017,1,0,0:0:0:0:
256,59,37332,1,2,0:0:0:0:
256,59,37648,1,0,0:0:0:0:
256,212,37964,6,0,L|256:288,1,70,4|0,0:0|0:0,0:0:0:0:
256,368,38595,2,0,L|212:368,2,35,2|0|0,0:0|0:0|0:0,0:0:0:0:
300,368,39069,2,0,P|336:360|377:374,1,70,2|0,0:0|0:0,0:0:0:0:
408,372,39543,1,0,0:0:0:0:
483,335,39859,1,2,0:0:0:0:
483,335,40175,1,0,0:0:0:0:
484,192,40490,6,0,L|384:192,1,70,4|0,0:0|0:0,0:0:0:0:
328,192,41122,2,0,L|328:152,2,35,2|0|0,0:0|0:0|0:0,0:0:0:0:
328,236,41596,2,0,P|272:248|208:232,1,105,2|0,0:0|0:0,0:0:0:0:
156,192,42385,1,2,0:0:0:0:
156,192,42701,1,0,0:0:0:0:
156,348,43017,6,0,L|308:348,1,140,4|2,0:3|0:0,0:0:0:0:
464,348,44280,2,0,P|488:280|460:220,1,140,0|2,0:0|0:0,0:0:0:0:
380,192,45227,1,0,0:0:0:0:
380,192,45385,1,0,0:0:0:0:
380,192,45543,6,0,L|304:192,1,70,4|0,0:0|0:0,0:0:0:0:
332,112,46175,2,0,L|408:112,1,70,2|0,0:0|0:0,0:0:0:0:
376,32,46806,2,0,L|306:32,1,70,0|0,0:0|0:0,0:0:0:0:
256,100,47438,1,2,0:0:0:0:
208,32,47754,1,0,0:0:0:0:
208,32,47911,1,0,0:0:0:0:
208,32,48069,6,0,P|140:16|68:40,1,140,4|2,0:3|0:0,0:0:0:0:
12,192,49332,2,0,L|12:340,1,140,0|2,0:0|0:0,0:0:0:0:
96,332,50280,1,0,0:0:0:0:
96,332,50438,1,0,0:0:0:0:
96,332,50596,6,0,L|172:332,1,70,4|0,0:0|0:0,0:0:0:0:
196,252,51227,2,0,L|126:252,1,70,2|0,0:0|0:0,0:0:0:0:
96,172,51859,2,0,L|148:172,1,35,0|0,0:0|0:0,0:0:0:0:
196,128,52175,2,0,L|248:128,1,35,0|0,0:0|0:0,0:0:0:0:
312,168,52520,5,2,0:0:0:0:
312,168,52683,1,0,0:0:0:0:
292,344,53197,6,0,P|252:352|220:344,1,70,2|0,0:0|0:0,0:0:0:0:
176,256,53886,2,0,P|140:248|100:256,1,70
12,324,54636,6,0,L|12:244,1,70,2|0,0:0|0:0,0:0:0:0:
72,160,55505,1,0,0:0:0:0:
212,160,55969,6,0,L|212:116,1,35,4|0,0:1|0:0,0:0:0:0:
212,48,56302,1,0,0:1:0:0:
