osu file format v14

[General]
AudioFilename: audio.mp3
AudioLeadIn: 0
PreviewTime: 10355
Countdown: 0
SampleSet: Soft
StackLeniency: 0.7
Mode: 0
LetterboxInBreaks: 0
WidescreenStoryboard: 0

[Editor]
Bookmarks: 20939
DistanceSpacing: 1.4
BeatDivisor: 4
GridSize: 8
TimelineZoom: 1.7

[Metadata]
Title:All Star
TitleUnicode:All Star
Artist:R3 Music Box
ArtistUnicode:R3 Music Box
Creator:InternalLight
Version:CookieBite's Normal
Source:
Tags:shrek smash mouth cookiebite
BeatmapID:1356810
BeatmapSetID:639740

[Difficulty]
HPDrainRate:3
CircleSize:3.6
OverallDifficulty:3
ApproachRate:3.5
SliderMultiplier:1.2
SliderTickRate:1

[Events]
//Background and Video events
0,0,"im sorry for this map.png",0,0
0,0,"im sorry for this map.png",0,0
//Break Periods
//Storyboard Layer 0 (Background)
//Storyboard Layer 1 (Fail)
//Storyboard Layer 2 (Pass)
//Storyboard Layer 3 (Foreground)
//Storyboard Sound Samples

[TimingPoints]
80,652.173913043478,4,2,1,40,1,0
10514,-100,4,2,1,60,0,1
18340,-100,4,2,1,40,0,0
31384,-100,4,2,1,60,0,1
39210,-100,4,2,1,40,0,0
40504,697.674418604651,4,2,1,30,1,0
41201,659.340659340659,4,2,1,25,1,0
41530,705.882352941176,4,2,1,20,1,0
41882,714.285714285714,4,2,1,15,1,0
42624,722.89156626506,4,2,1,15,1,0
43402,722.89156626506,4,2,1,15,1,0
43853,926.076923076923,4,2,1,15,1,0
44804,926.076923076923,4,2,1,15,1,0
45109,926.076923076923,4,2,1,15,1,0

[Colours]
Combo1 : 149,74,74
Combo2 : 0,202,0

[HitObjects]
80,71,80,6,0,P|145:55|189:86,1,120,4|2,0:0|0:0,0:0:0:0:
233,151,1058,1,0,0:0:0:0:
168,205,1384,2,0,P|162:266|164:335,1,120,4|2,0:0|0:0,0:0:0:0:
236,364,2362,1,0,0:0:0:0:
267,285,2688,6,0,P|339:262|388:276,1,120,4|2,0:0|0:0,0:0:0:0:
446,219,3666,2,0,P|445:188|441:156,1,60,0|4,0:0|0:0,0:0:0:0:
364,125,4319,2,0,P|365:94|369:62,1,60,0|2,0:0|0:0,0:0:0:0:
202,37,5297,6,0,P|154:63|87:49,1,120,4|2,0:0|0:0,0:0:0:0:
25,103,6275,1,0,0:0:0:0:
79,167,6601,2,0,P|67:237|69:303,1,120,4|2,0:0|0:0,0:0:0:0:
127,344,7579,1,0,0:0:0:0:
173,274,7906,6,0,P|237:270|298:267,1,120,4|2,0:0|0:0,0:0:0:0:
368,304,8884,2,0,P|369:333|371:368,1,60,0|4,0:0|0:0,0:0:0:0:
289,383,9536,2,0,P|259:381|229:380,1,60,0|2,0:0|0:0,0:0:0:0:
125,247,10514,6,0,P|120:188|118:119,1,120,4|2,0:0|0:0,0:0:0:0:
175,66,11493,1,0,0:0:0:0:
249,105,11819,2,0,P|284:103|311:101,1,60,4|0,0:0|0:0,0:0:0:0:
385,66,12471,2,0,P|420:68|447:70,1,60,2|0,0:0|0:0,0:0:0:0:
497,135,13123,6,0,P|501:211|502:273,1,120,4|2,0:0|0:0,0:0:0:0:
444,316,14101,1,0,0:0:0:0:
373,269,14427,2,0,P|342:266|309:265,1,60,4|0,0:0|0:0,0:0:0:0:
260,330,15079,2,0,P|229:333|196:334,1,60,2|0,0:0|0:0,0:0:0:0:
129,288,15732,6,0,P|126:214|129:159,1,120,4|2,0:0|0:0,0:0:0:0:
172,96,16710,1,0,0:0:0:0:
226,159,17036,2,0,P|259:157|291:153,2,60,4|0|2,0:0|0:0|0:0,0:0:0:0:
172,96,18014,1,0,0:0:0:0:
128,168,18340,6,0,P|129:204|132:240,2,60,4|0|2,0:0|0:0|0:0,0:0:0:0:
172,96,19319,1,0,0:0:0:0:
226,159,19645,2,0,P|262:158|298:155,1,60,0|0,0:0|0:0,0:0:0:0:
348,212,20297,2,0,P|347:248|344:284,1,60,2|0,0:0|0:0,0:0:0:0:
298,341,20949,6,0,P|357:356|410:324,1,120,4|2,0:0|0:0,0:0:0:0:
447,255,21927,1,0,0:0:0:0:
435,171,22253,2,0,P|383:143|326:158,1,120,4|2,0:0|0:0,0:0:0:0:
273,223,23232,1,0,0:0:0:0:
219,157,23558,6,0,P|162:141|110:169,1,120,4|2,0:0|0:0,0:0:0:0:
56,233,24536,2,0,P|55:262|58:292,1,60,0|4,0:0|0:0,0:0:0:0:
137,318,25188,2,0,P|140:359|139:384,1,60,0|2,0:0|0:0,0:0:0:0:
305,355,26166,6,0,P|359:326|424:343,1,120,4|2,0:0|0:0,0:0:0:0:
477,280,27145,1,0,0:0:0:0:
426,213,27471,2,0,P|406:155|423:95,1,120,4|0,0:0|0:0,0:0:0:0:
377,27,28449,1,0,0:0:0:0:
315,83,28775,6,0,P|264:96|199:66,1,120,4|2,0:0|0:0,0:0:0:0:
132,115,29753,2,0,P|131:144|137:174,1,60,0|4,0:0|0:0,0:0:0:0:
203,226,30406,2,0,P|203:255|197:285,1,60,0|2,0:0|0:0,0:0:0:0:
356,337,31384,6,0,P|424:347|471:313,1,120,4|2,0:0|0:0,0:0:0:0:
488,240,32362,1,0,0:0:0:0:
450,165,32688,2,0,P|421:165|391:171,1,60,4|0,0:0|0:0,0:0:0:0:
314,206,33340,2,0,P|284:204|254:198,1,60,2|0,0:0|0:0,0:0:0:0:
183,153,33993,6,0,P|178:87|187:23,1,120,4|2,0:0|0:0,0:0:0:0:
266,14,34971,1,0,0:0:0:0:
321,76,35297,2,0,P|350:78|380:76,1,60,4|0,0:0|0:0,0:0:0:0:
442,18,35949,2,0,P|472:14|502:17,1,60,2|0,0:0|0:0,0:0:0:0:
480,98,36601,6,0,P|494:150|476:217,1,120,4|2,0:0|0:0,0:0:0:0:
406,256,37579,1,0,0:0:0:0:
337,207,37906,2,0,P|299:208|260:215,2,60,4|0|2,0:0|0:0|0:0,0:0:0:0:
406,256,38884,1,0,0:0:0:0:
357,324,39210,6,0,P|324:331|291:326,1,60,4|0,0:0|0:0,0:0:0:0:
227,282,39862,2,0,P|197:279|168:286,1,60,2|0,0:0|0:0,0:0:0:0:
89,246,40504,6,0,P|85:224|83:179,1,60
151,129,41201,2,0,P|155:107|156:63,1,60,2|0,0:0|0:0,0:0:0:0:
256,192,41882,12,0,45109,0:0:0:0:
