osu file format v14

[General]
AudioFilename: audio.mp3
AudioLeadIn: 0
PreviewTime: 10355
Countdown: 0
SampleSet: Soft
StackLeniency: 0.7
Mode: 0
LetterboxInBreaks: 0
WidescreenStoryboard: 0

[Editor]
DistanceSpacing: 2.1
BeatDivisor: 4
GridSize: 8
TimelineZoom: 2.399999

[Metadata]
Title:All Star
TitleUnicode:All Star
Artist:R3 Music Box
ArtistUnicode:R3 Music Box
Creator:InternalLight
Version:Hard
Source:
Tags:shrek smash mouth cookiebite
BeatmapID:1356755
BeatmapSetID:639740

[Difficulty]
HPDrainRate:4
CircleSize:4
OverallDifficulty:5
ApproachRate:7.5
SliderMultiplier:1.6
SliderTickRate:1

[Events]
//Background and Video events
0,0,"im sorry for this map.png",0,0
//Break Periods
//Storyboard Layer 0 (Background)
//Storyboard Layer 1 (Fail)
//Storyboard Layer 2 (Pass)
//Storyboard Layer 3 (Foreground)
//Storyboard Sound Samples

[TimingPoints]
80,652.173913043478,4,2,1,40,1,0
10514,-100,4,2,1,60,0,1
18340,-100,4,2,1,40,0,0
31384,-100,4,2,1,60,0,1
39210,-100,4,2,1,40,0,0
40504,697.674418604651,4,2,1,30,1,0
41201,659.340659340659,4,2,1,25,1,0
41530,705.882352941176,4,2,1,20,1,0
41882,714.285714285714,4,2,1,15,1,0
42624,722.89156626506,4,2,1,15,1,0
43402,722.89156626506,4,2,1,15,1,0
43853,926.076923076923,4,2,1,15,1,0
44804,926.076923076923,4,2,1,15,1,0
45109,926.076923076923,4,2,1,15,1,0

[Colours]
Combo1 : 149,74,74
Combo2 : 0,202,0

[HitObjects]
63,327,80,5,4,0:0:0:0:
152,264,406,2,0,P|155:224|148:184,1,80,0|2,0:0|0:0,0:0:0:0:
130,74,1058,5,0,0:0:0:0:
130,74,1221,1,0,0:0:0:0:
130,74,1384,1,4,0:0:0:0:
237,106,1710,2,0,P|286:97|325:94,1,80,0|2,0:0|0:0,0:0:0:0:
395,173,2362,5,0,0:0:0:0:
395,173,2525,1,0,0:0:0:0:
395,173,2688,1,4,0:0:0:0:
315,251,3014,2,0,P|266:242|227:239,1,80,0|2,0:0|0:0,0:0:0:0:
142,324,3666,5,0,0:0:0:0:
235,239,3993,1,4,0:0:0:0:
63,273,4319,1,0,0:0:0:0:
153,345,4645,2,0,P|196:335|243:335,1,80,2|0,0:0|0:0,0:0:0:0:
308,252,5297,5,4,0:0:0:0:
229,172,5623,2,0,P|217:123|221:82,1,80,0|2,0:0|0:0,0:0:0:0:
315,37,6275,5,0,0:0:0:0:
315,37,6438,1,0,0:0:0:0:
315,37,6601,1,4,0:0:0:0:
403,105,6927,2,0,P|448:92|493:88,1,80,0|2,0:0|0:0,0:0:0:0:
492,199,7579,5,0,0:0:0:0:
492,199,7743,1,0,0:0:0:0:
492,199,7906,1,4,0:0:0:0:
415,280,8232,2,0,P|371:275|324:279,1,80,0|2,0:0|0:0,0:0:0:0:
203,245,8884,5,0,0:0:0:0:
286,177,9210,1,4,0:0:0:0:
211,352,9536,1,0,0:0:0:0:
314,263,9862,1,2,0:0:0:0:
460,306,10188,1,0,0:0:0:0:
512,163,10514,6,0,P|462:185|433:228,1,80,4|0,0:0|0:0,0:0:0:0:
342,332,11166,2,0,P|292:322|257:299,1,80,2|0,0:0|0:0,0:0:0:0:
230,276,11656,1,0,0:0:0:0:
230,276,11819,1,4,0:0:0:0:
132,365,12145,1,0,0:0:0:0:
76,249,12471,1,2,0:0:0:0:
159,176,12797,1,0,0:0:0:0:
45,146,13123,6,0,P|45:187|54:234,1,80,4|0,0:0|0:0,0:0:0:0:
180,44,13775,2,0,P|179:83|173:123,1,80,2|0,0:0|0:0,0:0:0:0:
45,146,14427,1,4,0:0:0:0:
146,200,14753,1,0,0:0:0:0:
270,63,15079,1,2,0:0:0:0:
173,123,15406,1,0,0:0:0:0:
274,196,15732,6,0,P|321:175|361:168,1,80,4|0,0:0|0:0,0:0:0:0:
479,302,16384,2,0,P|432:281|392:274,1,80,2|0,0:0|0:0,0:0:0:0:
315,328,17036,1,4,0:0:0:0:
227,271,17362,2,0,P|222:230|221:181,1,80,0|2,0:0|0:0,0:0:0:0:
287,104,18014,1,0,0:0:0:0:
121,146,18340,5,4,0:0:0:0:
282,186,18666,1,0,0:0:0:0:
211,79,18993,2,0,P|204:118|207:157,1,80,2|0,0:0|0:0,0:0:0:0:
352,31,19645,1,0,0:0:0:0:
298,94,19971,1,0,0:0:0:0:
440,166,20297,1,2,0:0:0:0:
377,112,20623,1,0,0:0:0:0:
306,216,20949,5,4,0:0:0:0:
389,290,21275,2,0,P|444:275|477:275,1,80,0|2,0:0|0:0,0:0:0:0:
300,361,21927,5,0,0:0:0:0:
300,361,22090,1,0,0:0:0:0:
300,361,22253,1,4,0:0:0:0:
214,288,22579,2,0,P|196:227|199:186,1,80,0|2,0:0|0:0,0:0:0:0:
223,102,23232,5,0,0:0:0:0:
223,102,23395,1,0,0:0:0:0:
223,102,23558,1,4,0:0:0:0:
317,161,23884,2,0,P|362:147|403:143,1,80,0|2,0:0|0:0,0:0:0:0:
488,18,24536,5,0,0:0:0:0:
355,50,24862,1,4,0:0:0:0:
504,154,25188,1,0,0:0:0:0:
410,213,25514,2,0,P|399:161|382:119,1,80,2|0,0:0|0:0,0:0:0:0:
277,254,26166,5,4,0:0:0:0:
367,319,26493,2,0,P|412:313|460:316,1,80,0|2,0:0|0:0,0:0:0:0:
265,349,27145,5,0,0:0:0:0:
265,349,27308,1,0,0:0:0:0:
265,349,27471,1,4,0:0:0:0:
178,278,27797,2,0,P|181:232|173:179,1,80,0|2,0:0|0:0,0:0:0:0:
124,99,28449,5,0,0:0:0:0:
124,99,28612,1,0,0:0:0:0:
124,99,28775,1,4,0:0:0:0:
233,121,29101,2,0,P|295:108|335:107,1,80,0|2,0:0|0:0,0:0:0:0:
377,213,29753,5,0,0:0:0:0:
443,111,30079,1,4,0:0:0:0:
269,206,30406,1,0,0:0:0:0:
352,73,30732,1,2,0:0:0:0:
488,167,31058,1,0,0:0:0:0:
447,9,31384,6,0,B|436:49|438:94,1,80,4|0,0:0|0:0,0:0:0:0:
485,211,32036,2,0,P|437:204|388:207,1,80,2|0,0:0|0:0,0:0:0:0:
363,227,32525,1,0,0:0:0:0:
363,227,32688,1,4,0:0:0:0:
459,303,33014,1,0,0:0:0:0:
337,342,33340,1,2,0:0:0:0:
381,242,33666,1,0,0:0:0:0:
248,265,33993,6,0,P|251:306|260:351,1,80,4|0,0:0|0:0,0:0:0:0:
72,360,34645,2,0,P|79:320|82:280,1,80,2|0,0:0|0:0,0:0:0:0:
134,140,35297,1,4,0:0:0:0:
235,243,35623,1,0,0:0:0:0:
124,123,35949,1,2,0:0:0:0:
82,280,36275,1,0,0:0:0:0:
246,350,36601,6,0,P|206:337|143:331,1,80,4|0,0:0|0:0,0:0:0:0:
30,247,37253,2,0,P|70:234|133:228,1,80,2|0,0:0|0:0,0:0:0:0:
161,112,37906,1,4,0:0:0:0:
263,189,38232,2,0,P|266:240|280:283,1,80,0|2,0:0|0:0,0:0:0:0:
364,357,38884,1,0,0:0:0:0:
452,236,39210,5,4,0:0:0:0:
458,356,39536,1,0,0:0:0:0:
352,240,39862,2,0,P|342:191|344:147,1,80,2|0,0:0|0:0,0:0:0:0:
233,111,40504,5,0,0:0:0:0:
173,173,40852,1,0,0:0:0:0:
352,240,41201,1,2,0:0:0:0:
290,180,41530,1,0,0:0:0:0:
261,334,41882,5,0,0:0:0:0:
256,192,42060,12,0,45109,0:0:0:0:
