osu file format v14

[General]
AudioFilename: audio.mp3
AudioLeadIn: 0
PreviewTime: 36233
Countdown: 1
SampleSet: Soft
StackLeniency: 0.7
Mode: 2
LetterboxInBreaks: 0
WidescreenStoryboard: 1

[Editor]
DistanceSpacing: 3.8
BeatDivisor: 4
GridSize: 8
TimelineZoom: 1

[Metadata]
Title:Airman ga Taosenai
TitleUnicode:エアーマンが倒せない
Artist:R3 Music Box
ArtistUnicode:R3 Music Box
Creator:Jakkubon
Version:Cup
Source:Team Nekokan
Tags:megaman music box can't defeat airman
BeatmapID:2023200
BeatmapSetID:966603

[Difficulty]
HPDrainRate:3.5
CircleSize:2.5
OverallDifficulty:6
ApproachRate:6
SliderMultiplier:1.4
SliderTickRate:1

[Events]
//Background and Video events
0,0,"Rockman.full.1521546.jpg",0,0
//Break Periods
//Storyboard Layer 0 (Background)
//Storyboard Layer 1 (Fail)
//Storyboard Layer 2 (Pass)
//Storyboard Layer 3 (Foreground)
//Storyboard Sound Samples

[TimingPoints]
70,384.615384615385,4,2,1,23,1,0

[Colours]
Combo1 : 138,37,9
Combo2 : 51,121,159
Combo3 : 218,154,22

[HitObjects]
415,287,70,5,0,0:0:0:0:
319,257,454,1,0,0:0:0:0:
228,224,839,1,0,0:0:0:0:
119,228,1223,6,0,P|20:216|108:131,1,280,2|2,0:0|0:0,0:0:0:0:
190,137,2377,6,0,L|344:137,2,140,0|2|0,0:0|0:0|0:0,0:0:0:0:
53,136,3531,5,2,0:0:0:0:
190,137,3916,1,0,0:0:0:0:
299,131,4300,1,2,0:0:0:0:
176,164,4685,6,0,L|24:175,2,140,0|2|0,0:0|0:0|0:0,0:0:0:0:
318,210,5646,2,0,P|369:113|296:56,1,210,0|8,0:0|0:0,0:0:0:0:
73,194,6608,5,2,0:0:0:0:
150,193,6993,1,0,0:0:0:0:
218,190,7377,6,0,L|298:193,1,70,2|8,0:0|0:0,0:0:0:0:
376,190,7954,5,0,0:0:0:0:
473,190,8339,6,0,L|103:195,1,350
38,194,9685,5,2,0:0:0:0:
104,191,10070,1,0,0:0:0:0:
167,189,10454,1,2,0:0:0:0:
269,259,10839,5,0,0:0:0:0:
191,263,11223,1,2,0:0:0:0:
127,264,11608,1,0,0:0:0:0:
26,263,11993,1,2,0:0:0:0:
120,304,12377,5,0,0:0:0:0:
218,302,12762,1,2,0:0:0:0:
283,301,13146,1,0,0:0:0:0:
341,302,13531,2,0,L|482:302,1,140,2|0,0:0|0:0,0:0:0:0:
397,251,14108,2,0,L|237:249,1,140
177,251,14685,6,0,L|21:251,2,140,0|2|0,0:0|0:0|0:0,0:0:0:0:
257,249,15839,5,2,0:0:0:0:
351,249,16223,1,0,0:0:0:0:
239,251,16608,1,2,0:0:0:0:
197,259,16993,2,0,P|42:268|48:184,2,280
305,259,18916,6,0,L|454:248,1,140,2|0,0:0|0:0,0:0:0:0:
378,186,19685,5,2,0:0:0:0:
262,189,20070,1,0,0:0:0:0:
209,191,20454,5,2,0:0:0:0:
251,191,20839,1,0,0:0:0:0:
356,192,21223,1,2,0:0:0:0:
294,125,21608,5,0,0:0:0:0:
223,123,21993,2,0,L|65:122,1,140,2|8,0:0|0:0,0:0:0:0:
34,190,22762,5,2,0:0:0:0:
116,186,23146,1,0,0:0:0:0:
208,184,23531,1,2,0:0:0:0:
164,135,23916,5,0,0:0:0:0:
28,137,24300,1,2,0:0:0:0:
109,219,24685,5,8,0:0:0:0:
184,220,25070,2,0,L|334:220,3,140,2|0|2|0,0:0|0:0|0:0|0:0,0:0:0:0:
238,132,26608,6,0,L|89:130,1,140,2|0,0:0|0:0,0:0:0:0:
43,211,27185,6,0,L|192:212,1,140
277,217,27762,2,0,L|445:215,1,140,0|2,0:0|0:0,0:0:0:0:
347,316,28339,5,0,0:0:0:0:
261,315,28531,2,0,L|171:315,1,70
114,241,28916,2,0,L|24:236,1,70,2|0,0:0|0:0,0:0:0:0:
185,183,29300,5,0,0:0:0:0:
328,183,29685,1,2,0:0:0:0:
223,185,30070,1,0,0:0:0:0:
128,186,30454,1,2,0:0:0:0:
44,241,30839,5,0,0:0:0:0:
134,246,31223,1,2,0:0:0:0:
217,245,31608,1,0,0:0:0:0:
222,325,31993,5,2,0:0:0:0:
138,330,32185,1,2,0:0:0:0:
59,327,32377,5,8,0:0:0:0:
146,326,32762,1,2,0:0:0:0:
222,325,33146,1,0,0:0:0:0:
137,267,33531,6,0,L|44:268,2,70,2|0|8,0:0|0:0|0:0,0:0:0:0:
254,267,34300,1,2,0:0:0:0:
119,181,34685,5,0,0:0:0:0:
206,175,35070,1,2,0:0:0:0:
90,248,35454,5,0,0:0:0:0:
149,254,35839,1,2,0:0:0:0:
255,249,36223,5,0,0:0:0:0:
171,249,36609,1,2,0:0:0:0:
57,180,36993,6,0,L|205:183,1,140,8|2,0:0|0:0,0:0:0:0:
303,184,37762,6,0,L|474:185,1,140,8|2,0:0|0:0,0:0:0:0:
408,97,38339,2,0,L|185:98,1,210,0|2,0:0|0:0,0:0:0:0:
94,107,39300,6,0,P|19:149|30:218,2,140,8|2|8,0:0|0:0|0:0,0:0:0:0:
191,111,40454,5,2,0:0:0:0:
284,108,40839,1,8,0:0:0:0:
332,161,41223,6,0,L|477:162,2,140,2|8|2,0:0|0:0|0:0,0:0:0:0:
252,163,42185,1,0,0:0:0:0:
203,165,42377,5,8,0:0:0:0:
151,166,42570,2,0,L|72:173,1,70,0|2,0:0|0:0,0:0:0:0:
29,264,42954,2,0,L|108:264,1,70,0|8,0:0|0:0,0:0:0:0:
156,129,43531,5,2,0:0:0:0:
36,215,43916,6,0,L|121:215,1,70,8|0,0:0|0:0,0:0:0:0:
196,218,44300,2,0,L|357:217,1,140,2|8,0:0|0:0,0:0:0:0:
403,221,44877,6,0,L|472:222,2,70,0|2|0,0:0|0:0|0:0,0:0:0:0:
362,226,45454,6,0,L|281:228,1,70,8|0,0:0|0:0,0:0:0:0:
172,231,45839,2,0,L|250:229,1,70,2|0,0:0|0:0,0:0:0:0:
330,230,46223,6,0,L|404:227,2,70,8|0|2,0:0|0:0|0:0,0:0:0:0:
245,236,46800,6,0,L|163:241,1,70,0|8,0:0|0:0,0:0:0:0:
80,238,47185,1,0,0:0:0:0:
175,240,47377,6,0,L|256:236,2,70,2|0|8,0:0|0:0|0:0,0:0:0:0:
29,241,47954,6,0,L|117:237,1,70,0|2,0:0|0:0,0:0:0:0:
174,238,48339,2,0,L|255:236,1,70,0|8,0:0|0:0,0:0:0:0:
74,242,48723,5,0,0:0:0:0:
32,157,48916,2,0,L|134:157,1,70,2|0,0:0|0:0,0:0:0:0:
214,141,49300,1,8,0:0:0:0:
98,218,49685,1,2,0:0:0:0:
194,216,50070,6,0,L|281:217,2,70,8|0|2,0:0|0:0|0:0,0:0:0:0:
108,217,50646,2,0,L|21:216,1,70,0|8,0:0|0:0,0:0:0:0:
182,220,51031,6,0,L|260:217,1,70,0|2,0:0|0:0,0:0:0:0:
330,209,51416,1,0,0:0:0:0:
243,215,51608,6,0,L|156:217,1,70,8|0,0:0|0:0,0:0:0:0:
24,219,51993,2,0,L|124:217,1,70,2|0,0:0|0:0,0:0:0:0:
168,323,52377,6,0,L|249:322,1,70,8|0,0:0|0:0,0:0:0:0:
311,319,52762,2,0,L|394:296,1,70,2|0,0:0|0:0,0:0:0:0:
445,288,53146,1,8,0:0:0:0:
345,311,53531,6,0,L|273:311,1,70,2|0,0:0|0:0,0:0:0:0:
210,317,53916,2,0,L|121:270,1,70,8|0,0:0|0:0,0:0:0:0:
48,224,54300,2,0,L|144:224,1,70,2|0,0:0|0:0,0:0:0:0:
216,218,54685,1,8,0:0:0:0:
323,221,54877,6,0,L|419:221,2,70,0|2|0,0:0|0:0|0:0,0:0:0:0:
241,219,55454,6,0,L|152:220,1,70,8|0,0:0|0:0,0:0:0:0:
92,213,55839,2,0,L|7:216,1,70,2|0,0:0|0:0,0:0:0:0:
84,329,56223,5,8,0:0:0:0:
159,328,56416,6,0,L|228:329,1,70,0|2,0:0|0:0,0:0:0:0:
360,325,56800,1,0,0:0:0:0:
290,261,56993,6,0,L|212:263,1,70,8|0,0:0|0:0,0:0:0:0:
142,264,57377,2,0,L|46:269,1,70,2|0,0:0|0:0,0:0:0:0:
0,210,57762,5,8,0:0:0:0:
75,209,57954,6,0,L|152:207,2,70,0|2|0,0:0|0:0|0:0,0:0:0:0:
185,205,58531,1,8,0:0:0:0:
298,196,58916,5,2,0:0:0:0:
356,202,59300,6,0,L|506:198,2,140,8|2|8,0:0|0:0|0:0,0:0:0:0:
276,201,60262,6,0,L|115:201,1,140
44,204,60839,1,8,0:0:0:0:
168,201,61223,5,2,0:0:0:0:
283,206,61416,1,2,0:0:0:0:
256,192,61608,12,0,65454,0:0:0:0:
