osu file format v14

[General]
AudioFilename: audio.mp3
AudioLeadIn: 0
PreviewTime: 13048
Countdown: 0
SampleSet: Soft
StackLeniency: 0.3
Mode: 0
LetterboxInBreaks: 0
WidescreenStoryboard: 1

[Editor]
DistanceSpacing: 2
BeatDivisor: 8
GridSize: 16
TimelineZoom: 1.7

[Metadata]
Title:Onyvaonvaou
TitleUnicode:Onyvaonvaou
Artist:R.O.K
ArtistUnicode:R.O.K
Creator:SinHay
Version:Le méchant Marsupilami
Source:
Tags:Roknar rok edm electro marsupilami soundcloud
BeatmapID:1743448
BeatmapSetID:832148

[Difficulty]
HPDrainRate:5.5
CircleSize:4
OverallDifficulty:8.8
ApproachRate:9.5
SliderMultiplier:2.2
SliderTickRate:1

[Events]
//Background and Video events
0,0,"marsupilami_bg.jpg",0,0
//Break Periods
//Storyboard Layer 0 (Background)
//Storyboard Layer 1 (Fail)
//Storyboard Layer 2 (Pass)
//Storyboard Layer 3 (Foreground)
//Storyboard Sound Samples

[TimingPoints]
256,637.619553666313,4,2,1,50,1,0
256,-68.9655172413793,4,2,1,50,0,0
893,-68.9655172413793,4,2,1,50,0,1
4998,637.619553666313,4,2,1,50,1,1
4998,-68.9655172413792,4,2,1,50,0,1
9939,-117.647058823529,4,2,1,50,0,0
10098,637.619553666313,4,2,1,50,1,0
10098,-55.5555555555556,4,2,1,50,0,0
10895,-55.5555555555556,4,2,1,50,0,0
14720,-51.2820512820513,4,2,1,50,0,0
14880,-46.5116279069767,4,2,1,50,0,0
15039,-45.4545454545455,4,2,1,50,0,0
15198,637.619553666313,4,2,1,50,1,0
15198,-55.5555555555556,4,2,1,50,0,0
18545,637.619553666313,4,2,1,50,1,0
18545,-55.5555555555556,4,2,1,50,0,0
20617,637.619553666313,4,2,1,50,1,0
20617,-55.5555555555556,4,2,1,50,0,0
23326,637.619553666313,4,2,1,50,1,0
23326,-55.5555555555556,4,2,1,50,0,0
25398,637.619553666313,4,2,1,50,1,0
25398,-55.5555555555556,4,2,1,50,0,0
27629,637.619553666313,4,2,1,50,1,0
27629,-55.5555555555556,4,2,1,50,0,0
30498,637.619553666313,4,2,1,50,1,0
30498,-55.5555555555556,4,2,1,50,0,0
32649,637.619553666313,4,2,1,50,1,0
32649,-55.5555555555556,4,2,1,50,0,0
35837,637.619553666313,4,2,1,50,1,0
35837,-55.5555555555556,4,2,1,50,0,0
39184,637.619553666313,4,2,1,50,1,0
39184,-55.5555555555556,4,2,1,50,0,0
42531,637.619553666313,4,2,1,50,1,0
42531,-55.5555555555556,4,2,1,50,0,0
44922,637.619553666313,4,2,1,50,1,0
44922,-55.5555555555556,4,2,1,50,0,0
47473,637.619553666313,4,2,1,50,1,0
47473,-55.5555555555556,4,2,1,50,0,0
50905,637.619553666313,4,2,1,50,1,1
50905,-68.9655172413793,4,2,1,50,0,1
53375,637.619553666313,4,2,1,50,1,1
53375,-68.9655172413793,4,2,1,50,0,1
56084,637.619553666313,4,2,1,50,1,1
56084,-68.9655172413793,4,2,1,50,0,1
61184,-55.5555555555556,4,2,1,40,0,0
63735,-55.5555555555556,4,2,1,25,0,0
64691,-55.5555555555556,4,2,1,15,0,0
65010,-55.5555555555556,4,2,1,10,0,0

[HitObjects]
177,107,256,6,0,P|238:119|249:221,1,159.500004867554,4|0,0:0|0:0,0:0:0:0:
160,208,734,2,0,B|96:256|96:256,1,79.7500024337769,4|10,0:0|0:0,0:0:0:0:
336,256,1053,1,0,0:0:0:0:
352,240,1132,1,0,0:0:0:0:
368,224,1212,1,4,0:0:0:0:
352,112,1371,5,0,0:0:0:0:
160,208,1531,2,0,B|96:256|96:256,2,79.7500024337769,4|0|0,0:0|0:0|0:0,0:0:0:0:
352,112,2009,1,4,0:0:0:0:
144,336,2168,1,10,0:0:0:0:
368,224,2328,1,0,0:0:0:0:
80,48,2647,5,0,0:0:0:0:
352,112,2806,1,0,0:0:0:0:
352,112,2886,2,0,P|304:144|288:192,2,79.7500024337769,4|10|0,0:0|0:0|0:0,0:0:0:0:
160,176,3365,5,4,0:0:0:0:
144,192,3444,1,0,0:0:0:0:
128,208,3524,1,0,0:0:0:0:
336,256,3683,1,4,0:0:0:0:
352,240,3762,1,0,0:0:0:0:
368,224,3842,1,0,0:0:0:0:
352,112,4002,5,0,0:0:0:0:
160,176,4161,1,4,0:0:0:0:
144,192,4240,1,0,0:0:0:0:
128,208,4320,1,10,0:0:0:0:
144,320,4480,5,0,0:0:0:0:
336,256,4640,1,0,0:0:0:0:
352,240,4719,1,0,0:0:0:0:
368,224,4799,1,0,0:0:0:0:
210,107,4998,6,0,P|282:78|362:126,1,159.500004867554,4|0,0:0|0:0,0:0:0:0:
280,201,5476,2,0,L|280:312,1,79.7500024337769,4|10,0:0|0:0,0:0:0:0:
160,208,5795,1,0,0:0:0:0:
144,192,5874,1,0,0:0:0:0:
128,176,5954,1,4,0:0:0:0:
384,192,6113,5,0,0:0:0:0:
176,320,6273,2,0,P|112:320|80:288,2,79.7500024337769,4|0|0,0:0|0:0|0:0,0:0:0:0:
384,192,6751,1,4,0:0:0:0:
160,208,6910,1,10,0:0:0:0:
384,32,7070,1,0,0:0:0:0:
80,48,7389,5,0,0:0:0:0:
280,201,7548,1,4,0:0:0:0:
100,312,7707,1,0,0:0:0:0:
100,312,7867,6,0,L|100:245,1,39.8750012168885
160,192,8026,1,4,0:0:0:0:
160,176,8106,1,0,0:0:0:0:
160,160,8186,1,10,0:0:0:0:
256,288,8345,5,0,0:0:0:0:
320,64,8504,1,4,0:0:0:0:
304,80,8584,1,0,0:0:0:0:
288,96,8664,1,0,0:0:0:0:
336,224,8823,1,4,0:0:0:0:
352,208,8903,1,0,0:0:0:0:
368,192,8983,1,0,0:0:0:0:
256,288,9142,5,0,0:0:0:0:
160,192,9301,1,4,0:0:0:0:
160,176,9381,1,0,0:0:0:0:
160,160,9461,1,10,0:0:0:0:
256,288,9620,5,0,0:0:0:0:
128,128,9780,1,0,0:0:0:0:
128,112,9860,1,0,0:0:0:0:
128,96,9940,1,0,0:0:0:0:
448,320,10098,6,0,P|400:288|448:176,1,197.99999395752,4|0,0:0|0:0,0:0:0:0:
481,249,10576,2,0,L|352:256,1,98.9999969787599,4|8,0:0|0:0,0:0:0:0:
160,144,10895,6,0,P|224:176|272:160,1,98.9999969787599
256,160,11134,1,0,0:0:0:0:
256,144,11213,1,0,0:0:0:0:
96,288,11373,5,4,0:0:0:0:
160,45,11532,2,0,L|160:157,1,98.9999969787599
160,160,11771,1,0,0:0:0:0:
160,176,11851,1,4,0:0:0:0:
96,288,12010,5,8,0:0:0:0:
240,80,12170,1,0,0:0:0:0:
336,352,12329,1,0,0:0:0:0:
64,288,12648,5,4,0:0:0:0:
256,64,12807,1,0,0:0:0:0:
352,368,12967,1,0,0:0:0:0:
352,368,13126,6,0,P|336:320|304:288,1,49.4999984893799
384,240,13286,2,0,P|338:217|293:217,1,49.4999984893799,8|0,0:0|0:0,0:0:0:0:
336,112,13445,2,0,P|288:128|224:96,1,98.9999969787599,0|4,0:0|0:0,0:0:0:0:
432,48,13764,5,0,0:0:0:0:
432,80,13844,1,0,0:0:0:0:
432,112,13923,1,4,0:0:0:0:
304,256,14083,1,0,0:0:0:0:
288,32,14242,1,0,0:0:0:0:
304,304,14401,5,4,0:0:0:0:
288,32,14561,1,8,0:0:0:0:
128,112,14720,6,0,L|128:192,1,53.6250002045631,8|0,0:0|0:0,0:0:0:0:
128,112,14880,2,0,L|128:224,1,59.1250009021759,8|0,0:0|0:0,0:0:0:0:
128,112,15039,2,0,L|128:224,1,60.5000018463135,8|0,0:0|0:0,0:0:0:0:
64,288,15198,6,0,P|80:336|112:320,1,98.9999969787599,4|0,0:0|0:0,0:0:0:0:
224,272,15516,1,0,0:0:0:0:
240,256,15596,1,0,0:0:0:0:
256,240,15676,2,0,P|288:176|288:128,1,98.9999969787599,4|8,0:0|0:0,0:0:0:0:
368,64,15995,5,0,0:0:0:0:
448,304,16154,1,4,0:0:0:0:
192,160,16313,1,0,0:0:0:0:
416,32,16473,5,4,0:0:0:0:
464,336,16632,1,0,0:0:0:0:
160,128,16792,1,0,0:0:0:0:
160,128,16871,1,0,0:0:0:0:
160,128,16951,2,0,B|160:192|160:192|208:240,1,98.9999969787599,4|8,0:0|0:0,0:0:0:0:
288,304,17270,1,0,0:0:0:0:
288,304,17349,1,0,0:0:0:0:
288,304,17429,1,0,0:0:0:0:
288,64,17748,6,0,P|320:112|384:128,1,98.9999969787599,4|0,0:0|0:0,0:0:0:0:
160,128,18067,1,0,0:0:0:0:
288,304,18226,1,4,0:0:0:0:
368,48,18386,1,8,0:0:0:0:
224,32,18545,5,0,0:0:0:0:
384,224,18704,1,4,0:0:0:0:
224,32,18863,1,0,0:0:0:0:
384,224,19023,1,4,0:0:0:0:
384,224,19102,1,0,0:0:0:0:
384,224,19182,1,0,0:0:0:0:
368,48,19342,6,0,P|320:96|304:144,1,98.9999969787599,0|4,0:0|0:0,0:0:0:0:
128,208,19660,1,8,0:0:0:0:
224,32,19820,1,0,0:0:0:0:
256,304,19979,1,0,0:0:0:0:
256,304,20059,1,0,0:0:0:0:
256,304,20139,1,0,0:0:0:0:
128,208,20298,2,0,P|128:144|112:112,1,98.9999969787599,4|0,0:0|0:0,0:0:0:0:
304,128,20617,6,0,P|303:177|323:221,1,98.9999969787599,0|4,0:0|0:0,0:0:0:0:
368,368,20935,1,8,0:0:0:0:
416,160,21095,1,0,0:0:0:0:
192,320,21254,1,4,0:0:0:0:
208,48,21414,1,0,0:0:0:0:
192,320,21573,6,0,B|224:272|224:272|224:224,1,98.9999969787599,4|0,0:0|0:0,0:0:0:0:
208,48,21892,1,0,0:0:0:0:
368,272,22051,2,0,B|336:224|336:224|336:176,1,98.9999969787599,4|8,0:0|0:0,0:0:0:0:
208,48,22370,1,0,0:0:0:0:
480,80,22529,1,0,0:0:0:0:
480,80,22609,6,0,P|432:64|400:64,2,49.4999984893799
496,112,22848,2,0,P|496:176|400:128,1,197.99999395752,4|0,0:0|0:0,0:0:0:0:
208,48,23326,6,0,L|208:160,1,98.9999969787599,4|8,0:0|0:0,0:0:0:0:
288,240,23644,2,0,P|304:272|352:288,1,49.4999984893799
352,272,23804,2,0,P|432:272|464:320,2,98.9999969787599,4|0|4,0:0|0:0|0:0,0:0:0:0:
288,144,24282,1,0,0:0:0:0:
160,272,24441,5,0,0:0:0:0:
128,288,24521,1,0,0:0:0:0:
96,304,24601,2,0,P|32:288|32:224,1,98.9999969787599,4|2,0:0|0:0,0:0:0:0:
288,144,24920,2,0,L|176:144,1,98.9999969787599,0|8,0:0|0:0,0:0:0:0:
160,144,25159,1,0,0:0:0:0:
128,144,25238,1,8,0:0:0:0:
288,288,25398,6,0,P|320:240|336:176,1,98.9999969787599,4|0,0:0|0:0,0:0:0:0:
416,80,25716,1,0,0:0:0:0:
416,80,25796,1,0,0:0:0:0:
416,80,25876,6,0,P|368:48|320:48,1,98.9999969787599,4|8,0:0|0:0,0:0:0:0:
432,192,26195,1,0,0:0:0:0:
432,192,26354,2,0,P|384:160|320:144,2,98.9999969787599,4|0|4,0:0|0:0|0:0,0:0:0:0:
208,288,26832,1,0,0:0:0:0:
208,288,26992,2,0,L|192:160,1,98.9999969787599,0|4,0:0|0:0,0:0:0:0:
400,320,27310,2,0,P|368:288|352:208,1,98.9999969787599,8|0,0:0|0:0,0:0:0:0:
128,32,27629,6,0,P|96:64|96:96,1,49.4999984893799
195,140,27788,2,0,L|195:204,1,49.4999984893799
316,205,27947,2,0,P|348:237|380:237,1,49.4999984893799,4|0,0:0|0:0,0:0:0:0:
288,96,28107,1,0,0:0:0:0:
288,96,28186,1,0,0:0:0:0:
288,96,28266,6,0,P|336:64|352:16,1,98.9999969787599,0|4,0:0|0:0,0:0:0:0:
96,176,28585,1,0,0:0:0:0:
96,176,28665,1,0,0:0:0:0:
96,176,28744,2,0,P|144:224|144:288,2,98.9999969787599,0|4|0,0:0|0:0|0:0,0:0:0:0:
80,144,29143,5,0,0:0:0:0:
272,176,29302,1,4,0:0:0:0:
272,176,29382,1,0,0:0:0:0:
272,176,29462,1,0,0:0:0:0:
64,256,29621,2,0,P|80:304|112:320,2,49.4999984893799,0|4|0,0:0|0:0|0:0,0:0:0:0:
80,144,29860,1,8,0:0:0:0:
372,55,30498,6,0,P|297:60|249:111,1,148.49999546814,4|0,0:0|0:0,0:0:0:0:
256,144,30816,1,0,0:0:0:0:
256,176,30896,1,0,0:0:0:0:
256,208,30976,2,0,P|192:272|96:256,1,148.49999546814,4|8,0:0|0:0,0:0:0:0:
144,160,31374,5,0,0:0:0:0:
272,320,31534,1,4,0:0:0:0:
336,144,31693,1,0,0:0:0:0:
336,144,31773,6,0,L|400:224,1,98.9999969787599,4|0,0:0|0:0,0:0:0:0:
272,320,32092,2,0,P|240:288|176:272,1,98.9999969787599,0|4,0:0|0:0,0:0:0:0:
256,208,32410,1,8,0:0:0:0:
96,80,32649,6,0,P|48:112|32:160,1,98.9999969787599
64,256,32967,1,0,0:0:0:0:
192,80,33127,1,4,0:0:0:0:
64,304,33446,1,0,0:0:0:0:
256,64,33605,1,4,0:0:0:0:
256,256,33764,1,8,0:0:0:0:
256,256,34083,6,0,P|272:192|320:144,1,98.9999969787599,4|0,0:0|0:0,0:0:0:0:
432,112,34402,2,0,P|405:153|396:201,1,98.9999969787599,4|0,0:0|0:0,0:0:0:0:
304,352,34721,1,0,0:0:0:0:
304,352,34800,1,4,0:0:0:0:
304,352,34880,6,0,L|304:288,3,49.4999984893799,0|0|8|0,0:0|0:0|0:0|0:0,0:0:0:0:
288,272,35199,2,0,P|224:240|160:256,2,98.9999969787599
400,320,35677,1,4,0:0:0:0:
400,320,35837,6,0,P|368:272|352:160,1,148.49999546814
368,160,36155,1,4,0:0:0:0:
208,64,36315,1,8,0:0:0:0:
208,64,36394,1,0,0:0:0:0:
208,64,36474,1,0,0:0:0:0:
240,288,36634,1,4,0:0:0:0:
240,288,36793,5,0,0:0:0:0:
112,208,36952,1,4,0:0:0:0:
320,160,37112,1,0,0:0:0:0:
80,96,37271,6,0,P|128:128|192:144,1,98.9999969787599,0|4,0:0|0:0,0:0:0:0:
368,32,37590,1,8,0:0:0:0:
368,64,37670,1,0,0:0:0:0:
368,96,37749,2,0,P|368:160|384:224,1,98.9999969787599
240,288,38068,2,0,P|232:239|233:189,1,98.9999969787599,0|4,0:0|0:0,0:0:0:0:
144,32,38387,6,0,P|144:64|160:96,1,49.4999984893799
48,160,38546,2,0,P|62:188|90:210,1,49.4999984893799
16,320,38706,2,0,P|96:336|128:320,1,98.9999969787599,4|8,0:0|0:0,0:0:0:0:
240,288,39025,1,0,0:0:0:0:
320,48,39184,6,0,B|320:112|320:112|352:176,1,98.9999969787599,4|0,0:0|0:0,0:0:0:0:
160,144,39502,2,0,P|240:112|240:96,2,98.9999969787599,4|0|0,0:0|0:0|0:0,0:0:0:0:
272,288,39981,1,4,0:0:0:0:
160,48,40140,1,8,0:0:0:0:
160,240,40299,1,0,0:0:0:0:
320,48,40459,1,0,0:0:0:0:
384,240,40618,1,0,0:0:0:0:
384,240,40698,1,0,0:0:0:0:
384,240,40778,2,0,P|352:288|352:352,1,98.9999969787599,4|0,0:0|0:0,0:0:0:0:
160,240,41096,5,0,0:0:0:0:
320,48,41256,1,4,0:0:0:0:
160,48,41415,1,8,0:0:0:0:
272,208,41575,6,0,P|224:176|192:176,1,49.4999984893799
208,192,41734,2,0,P|144:192|96:160,1,98.9999969787599,4|0,0:0|0:0,0:0:0:0:
320,320,42053,2,0,L|256:320,1,49.4999984893799,4|0,0:0|0:0,0:0:0:0:
160,272,42212,2,0,L|209:272,1,49.4999984893799
400,48,42531,6,0,P|352:96|336:160,1,98.9999969787599,4|8,0:0|0:0,0:0:0:0:
256,208,42849,2,0,P|240:161|244:112,1,98.9999969787599
256,96,43088,1,0,0:0:0:0:
272,80,43168,1,0,0:0:0:0:
400,256,43328,5,4,0:0:0:0:
160,176,43487,1,0,0:0:0:0:
448,144,43646,1,0,0:0:0:0:
448,144,43726,1,0,0:0:0:0:
448,144,43806,5,4,0:0:0:0:
160,176,43965,1,8,0:0:0:0:
272,336,44125,1,0,0:0:0:0:
340,123,44284,1,4,0:0:0:0:
179,310,44443,1,0,0:0:0:0:
179,310,44523,1,0,0:0:0:0:
179,310,44603,5,4,0:0:0:0:
220,53,44922,6,0,P|213:106|217:139,1,49.4999984893799
80,144,45081,2,0,P|81:119|87:95,1,49.4999984893799
160,176,45240,2,0,P|208:238|258:245,2,98.9999969787599,8|0|0,0:0|0:0|0:0,0:0:0:0:
432,64,45798,6,0,P|384:96|368:144,1,98.9999969787599,4|0,0:0|0:0,0:0:0:0:
464,160,46037,2,0,P|432:208|384:224,1,98.9999969787599
256,192,46276,12,4,47153,0:0:0:0:
176,288,47473,6,0,L|176:208,1,49.4999984893799
176,160,47632,2,0,L|176:96,1,49.4999984893799,4|0,0:0|0:0,0:0:0:0:
256,208,47791,2,0,P|320:272|320:304,1,98.9999969787599,8|0,0:0|0:0,0:0:0:0:
352,128,48110,1,0,0:0:0:0:
448,320,48270,1,0,0:0:0:0:
240,288,48429,1,4,0:0:0:0:
48,112,48748,6,0,P|64:160|48:224,1,98.9999969787599,0|4,0:0|0:0,0:0:0:0:
128,80,49067,1,8,0:0:0:0:
112,304,49226,2,0,P|134:258|191:224,1,98.9999969787599,0|4,0:0|0:0,0:0:0:0:
128,80,49545,1,0,0:0:0:0:
128,80,49624,1,0,0:0:0:0:
128,80,49704,1,4,0:0:0:0:
368,64,49864,6,0,L|240:80,2,98.9999969787599,0|0|4,0:0|0:0|0:0,0:0:0:0:
128,160,50342,2,0,L|256:144,1,98.9999969787599,8|0,0:0|0:0,0:0:0:0:
464,192,50661,2,0,L|336:208,1,98.9999969787599
208,320,50984,6,0,L|240:288,1,39.8750012168885,4|0,0:0|0:0,0:0:0:0:
272,160,51144,2,0,L|240:192,1,39.8750012168885
112,240,51303,2,0,L|160:224,1,39.8750012168885
112,64,51462,6,0,L|144:112,1,39.8750012168885,4|0,0:0|0:0,0:0:0:0:
288,64,51622,2,0,L|256:112,1,39.8750012168885,10|0,0:0|0:0,0:0:0:0:
112,240,51781,2,0,L|160:224,1,39.8750012168885
272,160,51941,6,0,L|240:192,1,39.8750012168885,4|0,0:0|0:0,0:0:0:0:
208,320,52100,2,0,L|240:288,1,39.8750012168885
368,240,52259,1,4,0:0:0:0:
368,240,52339,1,0,0:0:0:0:
368,240,52419,2,0,P|400:256|416:272,2,39.8750012168885
432,112,52738,2,0,P|384:128|336:112,2,79.7500024337769,0|10|0,0:0|0:0|0:0,0:0:0:0:
256,32,53375,6,0,P|272:80|272:112,1,79.7500024337769,0|4,0:0|0:0,0:0:0:0:
272,128,53614,1,0,0:0:0:0:
272,144,53693,1,0,0:0:0:0:
208,272,53853,1,0,0:0:0:0:
112,208,54012,6,0,P|128:176|128:144,1,39.8750012168885,4|0,0:0|0:0,0:0:0:0:
48,112,54172,2,0,P|79:95|112:96,1,39.8750012168885,10|0,0:0|0:0,0:0:0:0:
224,16,54331,2,0,P|224:80|240:128,2,79.7500024337769,0|4|0,0:0|0:0|0:0,0:0:0:0:
336,192,54810,1,4,0:0:0:0:
336,224,54889,1,0,0:0:0:0:
336,256,54969,1,0,0:0:0:0:
256,368,55128,5,0,0:0:0:0:
176,256,55287,1,4,0:0:0:0:
176,224,55367,1,0,0:0:0:0:
176,192,55446,1,10,0:0:0:0:
256,64,55606,5,0,0:0:0:0:
336,192,55766,1,0,0:0:0:0:
336,224,55845,1,0,0:0:0:0:
336,256,55925,1,0,0:0:0:0:
176,256,56084,6,0,P|128:224|112:176,1,79.7500024337769,4|0,0:0|0:0,0:0:0:0:
160,96,56402,2,0,L|112:64,1,39.8750012168885
96,64,56562,2,0,P|48:96|48:144,1,79.7500024337769,4|10,0:0|0:0,0:0:0:0:
208,160,56881,1,0,0:0:0:0:
208,160,56960,1,0,0:0:0:0:
208,160,57040,1,4,0:0:0:0:
377,126,57359,6,0,P|335:194|334:210,2,79.7500024337769,4|0|0,0:0|0:0|0:0,0:0:0:0:
450,220,57837,1,4,0:0:0:0:
304,64,57996,1,10,0:0:0:0:
304,320,58156,6,0,L|304:258,1,39.8750012168885
128,80,58475,2,0,L|128:119,1,39.8750012168885
144,144,58634,2,0,P|176:208|160:240,1,79.7500024337769,4|0,0:0|0:0,0:0:0:0:
80,320,58953,6,0,P|128:304|144:288,1,39.8750012168885
224,320,59112,2,0,P|245:273|244:251,1,39.8750012168885,4|0,0:0|0:0,0:0:0:0:
304,208,59272,2,0,P|286:160|256:128,1,79.7500024337769,10|0,0:0|0:0,0:0:0:0:
448,240,59590,1,4,0:0:0:0:
448,272,59670,1,0,0:0:0:0:
448,304,59750,5,0,0:0:0:0:
384,144,59909,1,4,0:0:0:0:
384,112,59989,1,0,0:0:0:0:
384,80,60069,1,0,0:0:0:0:
176,64,60228,5,0,0:0:0:0:
448,192,60387,1,4,0:0:0:0:
416,192,60467,1,0,0:0:0:0:
384,192,60547,1,10,0:0:0:0:
176,64,60706,5,0,0:0:0:0:
153,354,60866,1,0,0:0:0:0:
153,322,60945,1,0,0:0:0:0:
153,290,61025,1,0,0:0:0:0:
352,112,61184,6,0,B|256:160|304:336|144:288,1,296.99999093628,4|4,0:0|0:0,0:0:0:0:
192,176,61822,1,8,0:0:0:0:
192,176,61981,1,0,0:0:0:0:
48,64,62141,6,0,B|112:48|112:48|160:80,1,98.9999969787599,4|0,0:0|0:0,0:0:0:0:
256,64,62460,2,0,B|283:45|283:45|347:61,1,98.9999969787599,4|0,0:0|0:0,0:0:0:0:
192,176,62779,2,0,P|192:224|224:272,1,98.9999969787599,0|4,0:0|0:0,0:0:0:0:
320,272,63097,2,0,P|294:230|294:181,1,98.9999969787599,8|0,0:0|0:0,0:0:0:0:
320,160,63336,2,0,P|368:192|432:192,1,98.9999969787599
432,176,63576,2,0,L|432:288,1,98.9999969787599,0|4,0:0|0:0,0:0:0:0:
400,96,63894,5,0,0:0:0:0:
400,96,64054,1,0,0:0:0:0:
224,32,64213,6,0,B|192:80|192:80|192:128,1,98.9999969787599,4|8,0:0|0:0,0:0:0:0:
112,208,64532,1,0,0:0:0:0:
192,288,64691,2,0,B|192:246|192:246|224:198,1,98.9999969787599,4|0,0:0|0:0,0:0:0:0:
384,176,65010,2,0,B|352:144|352:144|272:144,1,98.9999969787599,4|0,0:0|0:0,0:0:0:0:
