osu file format v14

[General]
AudioFilename: audio.mp3
AudioLeadIn: 0
PreviewTime: 13048
Countdown: 0
SampleSet: Soft
StackLeniency: 0.3
Mode: 1
LetterboxInBreaks: 0
WidescreenStoryboard: 1

[Editor]
DistanceSpacing: 0.8
BeatDivisor: 8
GridSize: 16
TimelineZoom: 2.5

[Metadata]
Title:Onyvaonvaou
TitleUnicode:Onyvaonvaou
Artist:R.O.K
ArtistUnicode:R.O.K
Creator:SinHay
Version:AgentYous' Taiko Taiko le Marsupilami
Source:
Tags:Roknar rok edm electro marsupilami soundcloud
BeatmapID:1743449
BeatmapSetID:832148

[Difficulty]
HPDrainRate:4
CircleSize:3.4
OverallDifficulty:7
ApproachRate:9.2
SliderMultiplier:2.9
SliderTickRate:1

[Events]
//Background and Video events
0,0,"marsupilami_bg.jpg",0,0
//Break Periods
//Storyboard Layer 0 (Background)
//Storyboard Layer 1 (Fail)
//Storyboard Layer 2 (Pass)
//Storyboard Layer 3 (Foreground)
//Storyboard Sound Samples

[TimingPoints]
256,637.619553666313,4,2,1,50,1,0
256,-117.647058823529,4,2,1,50,0,0
893,-117.647058823529,4,2,1,50,0,1
4998,637.619553666313,4,2,1,50,1,1
4998,-117.647058823529,4,2,1,50,0,1
9939,-117.647058823529,4,2,1,50,0,0
10098,637.619553666313,4,2,1,50,1,0
10098,-117.647058823529,4,2,1,50,0,0
10895,-95.2380952380952,4,2,1,50,0,0
15198,637.619553666313,4,2,1,50,1,0
15198,-95.2380952380952,4,2,1,50,0,0
18545,637.619553666313,4,2,1,50,1,0
18545,-95.2380952380952,4,2,1,50,0,0
20617,637.619553666313,4,2,1,50,1,0
20617,-95.2380952380952,4,2,1,50,0,0
23247,637.619553666313,4,2,1,50,1,0
23247,-95.2380952380952,4,2,1,50,0,0
25398,637.619553666313,4,2,1,50,1,0
25398,-95.2380952380952,4,2,1,50,0,0
27629,637.619553666313,4,2,1,50,1,0
27629,-95.2380952380952,4,2,1,50,0,0
30498,637.619553666313,4,2,1,50,1,0
30498,-95.2380952380952,4,2,1,50,0,0
32649,637.619553666313,4,2,1,50,1,0
32649,-95.2380952380952,4,2,1,50,0,0
35837,637.619553666313,4,2,1,50,1,0
35837,-95.2380952380952,4,2,1,50,0,0
39184,637.619553666313,4,2,1,50,1,0
39184,-95.2380952380952,4,2,1,50,0,0
42531,637.619553666313,4,2,1,50,1,0
42531,-95.2380952380952,4,2,1,50,0,0
44922,637.619553666313,4,2,1,50,1,0
44922,-95.2380952380952,4,2,1,50,0,0
45798,-64.5161290322581,4,2,1,50,0,0
46037,-48.780487804878,4,2,1,50,0,0
47073,-95.2380952380952,4,2,1,50,0,0
47473,637.619553666313,4,2,1,50,1,0
47473,-95.2380952380952,4,2,1,50,0,0
50905,637.619553666313,4,2,1,50,1,1
50905,-117.647058823529,4,2,1,50,0,1
53375,637.619553666313,4,2,1,50,1,1
53375,-117.647058823529,4,2,1,50,0,1
56084,637.619553666313,4,2,1,50,1,1
56084,-117.647058823529,4,2,1,50,0,1
61186,-95.2380952380952,4,2,1,40,0,0
63735,-95.2380952380952,4,2,1,25,0,0

[HitObjects]
228,228,256,5,0,0:0:0:0:
224,240,415,1,0,0:0:0:0:
243,271,495,1,0,0:0:0:0:
163,180,574,1,0,0:0:0:0:
163,180,734,1,0,0:0:0:0:
335,161,893,1,8,0:0:0:0:
337,121,1053,1,0,0:0:0:0:
417,141,1132,1,8,0:0:0:0:
237,257,1371,1,0,0:0:0:0:
237,257,1531,1,0,0:0:0:0:
121,152,1610,1,8,0:0:0:0:
237,257,1690,1,8,0:0:0:0:
10,138,1770,1,0,0:0:0:0:
237,257,1850,1,0,0:0:0:0:
123,192,2009,1,0,0:0:0:0:
237,257,2168,1,8,0:0:0:0:
303,273,2647,1,0,0:0:0:0:
301,271,2806,1,0,0:0:0:0:
374,198,2886,1,0,0:0:0:0:
123,154,2965,1,8,0:0:0:0:
303,273,3045,1,0,0:0:0:0:
303,273,3204,1,8,0:0:0:0:
303,273,3364,1,0,0:0:0:0:
303,273,3444,1,0,0:0:0:0:
303,273,3523,1,8,0:0:0:0:
303,273,3603,1,8,0:0:0:0:
303,273,3682,1,0,0:0:0:0:
265,170,3762,1,0,0:0:0:0:
303,273,4161,1,8,0:0:0:0:
303,273,4320,1,0,0:0:0:0:
303,273,4639,1,8,0:0:0:0:
303,273,4799,1,0,0:0:0:0:
154,262,4998,1,0,0:0:0:0:
154,262,5157,1,0,0:0:0:0:
156,261,5237,1,0,0:0:0:0:
164,260,5316,1,0,0:0:0:0:
164,259,5476,1,0,0:0:0:0:
163,255,5635,1,8,0:0:0:0:
303,273,5795,1,8,0:0:0:0:
303,273,5874,1,8,0:0:0:0:
303,273,5954,1,0,0:0:0:0:
141,253,6113,1,0,0:0:0:0:
141,253,6273,1,0,0:0:0:0:
303,273,6352,1,0,0:0:0:0:
141,253,6432,1,8,0:0:0:0:
303,273,6512,1,8,0:0:0:0:
141,253,6592,1,0,0:0:0:0:
303,273,6751,1,0,0:0:0:0:
143,252,6910,1,8,0:0:0:0:
303,273,7070,1,0,0:0:0:0:
303,273,7229,1,0,0:0:0:0:
303,273,7389,1,8,0:0:0:0:
143,252,7548,1,0,0:0:0:0:
143,252,7707,1,0,0:0:0:0:
145,257,7787,1,0,0:0:0:0:
148,260,7867,1,0,0:0:0:0:
147,257,8026,1,8,0:0:0:0:
146,256,8186,1,0,0:0:0:0:
146,257,8345,1,0,0:0:0:0:
146,257,8504,1,8,0:0:0:0:
303,273,8584,1,8,0:0:0:0:
146,257,8664,1,0,0:0:0:0:
303,273,8744,1,0,0:0:0:0:
146,257,8823,1,8,0:0:0:0:
148,260,8903,1,8,0:0:0:0:
147,257,8983,1,0,0:0:0:0:
146,256,9142,1,8,0:0:0:0:
148,262,9222,1,8,0:0:0:0:
146,257,9301,1,0,0:0:0:0:
146,257,9461,1,8,0:0:0:0:
148,264,9541,1,8,0:0:0:0:
146,257,9620,1,8,0:0:0:0:
146,257,9780,1,8,0:0:0:0:
148,260,9939,1,8,0:0:0:0:
303,273,10019,1,8,0:0:0:0:
146,256,10098,1,0,0:0:0:0:
366,292,10416,1,0,0:0:0:0:
365,291,10576,1,0,0:0:0:0:
365,291,10735,1,8,0:0:0:0:
363,288,10894,1,0,0:0:0:0:
362,288,10974,1,8,0:0:0:0:
362,288,11054,1,8,0:0:0:0:
363,288,11213,1,8,0:0:0:0:
324,381,11293,1,8,0:0:0:0:
324,381,11373,1,0,0:0:0:0:
359,288,11532,1,0,0:0:0:0:
324,381,11612,1,0,0:0:0:0:
359,288,11692,1,0,0:0:0:0:
324,381,11771,1,8,0:0:0:0:
359,288,11851,1,0,0:0:0:0:
359,288,12010,1,8,0:0:0:0:
347,286,12170,1,8,0:0:0:0:
359,288,12329,1,0,0:0:0:0:
347,286,12648,1,0,0:0:0:0:
347,286,12807,1,0,0:0:0:0:
347,286,12887,1,0,0:0:0:0:
347,286,12967,1,0,0:0:0:0:
347,286,13126,1,0,0:0:0:0:
335,282,13286,1,8,0:0:0:0:
335,282,13365,1,0,0:0:0:0:
335,282,13445,1,8,0:0:0:0:
335,282,13604,1,0,0:0:0:0:
335,282,13764,1,0,0:0:0:0:
335,282,13844,1,0,0:0:0:0:
335,282,13923,1,8,0:0:0:0:
335,282,14083,1,0,0:0:0:0:
325,278,14162,1,8,0:0:0:0:
335,282,14401,1,0,0:0:0:0:
325,278,14481,1,8,0:0:0:0:
335,282,14720,1,8,0:0:0:0:
335,282,14800,1,8,0:0:0:0:
114,126,14880,1,8,0:0:0:0:
114,126,15039,1,8,0:0:0:0:
114,126,15198,1,0,0:0:0:0:
351,350,15357,1,0,0:0:0:0:
351,350,15516,1,0,0:0:0:0:
351,351,15596,1,8,0:0:0:0:
318,287,15676,1,0,0:0:0:0:
311,289,15835,1,0,0:0:0:0:
327,364,15915,1,0,0:0:0:0:
327,363,15995,1,12,0:0:0:0:
327,363,16154,1,12,0:0:0:0:
327,363,16313,1,4,0:0:0:0:
320,381,16473,1,12,0:0:0:0:
320,381,16632,1,12,0:0:0:0:
320,381,16792,1,4,0:0:0:0:
320,381,16951,1,0,0:0:0:0:
320,381,17110,1,8,0:0:0:0:
320,381,17429,1,0,0:0:0:0:
150,144,17748,1,0,0:0:0:0:
150,144,17907,1,0,0:0:0:0:
150,144,17987,1,0,0:0:0:0:
150,144,18067,1,8,0:0:0:0:
150,144,18226,1,8,0:0:0:0:
150,144,18306,1,0,0:0:0:0:
150,144,18545,1,0,0:0:0:0:
150,144,18704,1,8,0:0:0:0:
150,144,18863,1,0,0:0:0:0:
150,144,19023,1,8,0:0:0:0:
150,144,19102,1,8,0:0:0:0:
150,144,19182,1,0,0:0:0:0:
150,144,19342,1,0,0:0:0:0:
150,144,19501,1,0,0:0:0:0:
150,144,19660,1,8,0:0:0:0:
150,144,19820,1,0,0:0:0:0:
150,144,19979,1,8,0:0:0:0:
150,144,20059,1,0,0:0:0:0:
150,144,20298,1,0,0:0:0:0:
150,144,20457,1,8,0:0:0:0:
150,144,20617,1,8,0:0:0:0:
150,144,20696,1,8,0:0:0:0:
150,144,20776,1,0,0:0:0:0:
150,144,20935,1,0,0:0:0:0:
150,144,21095,1,8,0:0:0:0:
150,144,21254,1,0,0:0:0:0:
205,186,21307,1,0,0:0:0:0:
383,174,21414,1,8,0:0:0:0:
393,178,21467,1,8,0:0:0:0:
432,165,21573,1,0,0:0:0:0:
432,165,21626,1,0,0:0:0:0:
275,239,21732,1,0,0:0:0:0:
275,239,21892,1,8,0:0:0:0:
275,239,21971,1,8,0:0:0:0:
275,239,22051,1,0,0:0:0:0:
275,239,22211,1,0,0:0:0:0:
275,239,22370,1,8,0:0:0:0:
275,239,22529,1,0,0:0:0:0:
275,239,22609,1,0,0:0:0:0:
275,239,22689,1,0,0:0:0:0:
275,239,22848,1,8,0:0:0:0:
275,239,23247,1,0,0:0:0:0:
275,239,23486,1,8,0:0:0:0:
275,239,23565,1,0,0:0:0:0:
275,239,23645,1,8,0:0:0:0:
275,239,23804,1,0,0:0:0:0:
275,239,23964,1,8,0:0:0:0:
275,239,24044,1,8,0:0:0:0:
275,239,24123,1,0,0:0:0:0:
275,239,24283,1,0,0:0:0:0:
275,239,24362,1,0,0:0:0:0:
275,239,24442,1,8,0:0:0:0:
275,239,24601,1,0,0:0:0:0:
275,239,24761,1,8,0:0:0:0:
275,239,24920,1,0,0:0:0:0:
299,106,25239,1,8,0:0:0:0:
299,106,25319,1,8,0:0:0:0:
299,106,25398,1,0,0:0:0:0:
276,118,25557,1,0,0:0:0:0:
276,118,25637,1,8,0:0:0:0:
276,118,25716,1,0,0:0:0:0:
276,118,25876,1,0,0:0:0:0:
276,118,26035,1,8,0:0:0:0:
148,137,26088,1,8,0:0:0:0:
377,182,26194,1,0,0:0:0:0:
360,177,26247,1,0,0:0:0:0:
446,153,26354,1,8,0:0:0:0:
309,163,26434,1,8,0:0:0:0:
301,149,26513,1,8,0:0:0:0:
288,142,26593,1,8,0:0:0:0:
411,180,26673,1,0,0:0:0:0:
255,265,26832,1,0,0:0:0:0:
255,265,26912,1,0,0:0:0:0:
255,265,26992,1,0,0:0:0:0:
246,300,27151,1,0,0:0:0:0:
242,294,27310,1,8,0:0:0:0:
229,290,27629,1,0,0:0:0:0:
229,290,27788,1,8,0:0:0:0:
229,290,27868,1,0,0:0:0:0:
229,290,27947,1,8,0:0:0:0:
229,290,28027,1,0,0:0:0:0:
228,290,28107,1,0,0:0:0:0:
228,290,28186,1,8,0:0:0:0:
228,290,28266,1,8,0:0:0:0:
228,290,28426,1,0,0:0:0:0:
228,290,28505,1,8,0:0:0:0:
228,290,28585,1,0,0:0:0:0:
228,290,28744,1,0,0:0:0:0:
228,290,28904,1,8,0:0:0:0:
228,290,29063,1,8,0:0:0:0:
228,290,29223,1,0,0:0:0:0:
228,290,29302,1,0,0:0:0:0:
228,290,29382,1,8,0:0:0:0:
228,290,29541,1,8,0:0:0:0:
228,290,29701,1,0,0:0:0:0:
228,290,29860,1,8,0:0:0:0:
228,290,30020,1,8,0:0:0:0:
228,290,30179,1,8,0:0:0:0:
228,290,30338,1,8,0:0:0:0:
228,290,30418,1,8,0:0:0:0:
228,290,30498,1,0,0:0:0:0:
349,300,30657,1,0,0:0:0:0:
243,245,30816,1,8,0:0:0:0:
243,245,30896,1,0,0:0:0:0:
237,243,30976,1,8,0:0:0:0:
235,242,31135,1,0,0:0:0:0:
232,242,31295,1,0,0:0:0:0:
235,242,31454,1,8,0:0:0:0:
235,242,31533,1,0,0:0:0:0:
235,242,31613,1,8,0:0:0:0:
232,242,31773,1,0,0:0:0:0:
235,242,31932,1,0,0:0:0:0:
235,242,32092,1,8,0:0:0:0:
235,242,32171,1,8,0:0:0:0:
235,242,32251,1,8,0:0:0:0:
235,242,32331,1,8,0:0:0:0:
235,242,32410,1,0,0:0:0:0:
235,242,32570,1,0,0:0:0:0:
235,242,32649,1,0,0:0:0:0:
235,242,32729,1,8,0:0:0:0:
235,242,32888,1,8,0:0:0:0:
235,242,33047,1,0,0:0:0:0:
235,242,33206,1,0,0:0:0:0:
235,242,33366,1,8,0:0:0:0:
235,242,33525,1,8,0:0:0:0:
235,242,33685,1,0,0:0:0:0:
235,242,33844,1,8,0:0:0:0:
235,242,33924,1,8,0:0:0:0:
235,242,34003,1,8,0:0:0:0:
235,242,34163,1,8,0:0:0:0:
235,242,34322,1,0,0:0:0:0:
235,242,34482,1,8,0:0:0:0:
235,242,34681,1,8,0:0:0:0:
235,242,34761,1,0,0:0:0:0:
235,242,34880,1,8,0:0:0:0:
235,242,34920,1,8,0:0:0:0:
235,242,35040,1,8,0:0:0:0:
235,242,35079,1,8,0:0:0:0:
235,242,35159,1,0,0:0:0:0:
235,242,35319,1,8,0:0:0:0:
235,242,35478,1,0,0:0:0:0:
307,121,35637,1,0,0:0:0:0:
291,126,35757,1,0,0:0:0:0:
169,117,35837,1,0,0:0:0:0:
291,126,35916,1,0,0:0:0:0:
291,126,36076,1,0,0:0:0:0:
291,126,36235,1,8,0:0:0:0:
274,123,36395,1,0,0:0:0:0:
263,122,36554,1,8,0:0:0:0:
133,170,36594,1,8,0:0:0:0:
263,122,36713,1,8,0:0:0:0:
182,169,36753,1,8,0:0:0:0:
269,155,36873,1,0,0:0:0:0:
269,155,37032,1,8,0:0:0:0:
266,155,37112,1,0,0:0:0:0:
269,155,37192,1,8,0:0:0:0:
392,295,37351,1,0,0:0:0:0:
392,295,37510,1,8,0:0:0:0:
379,288,37670,1,8,0:0:0:0:
379,288,37749,1,8,0:0:0:0:
379,288,37829,1,0,0:0:0:0:
379,288,37989,1,0,0:0:0:0:
379,288,38148,1,8,0:0:0:0:
379,288,38307,1,8,0:0:0:0:
379,288,38387,1,8,0:0:0:0:
379,288,38467,1,0,0:0:0:0:
379,288,38626,1,0,0:0:0:0:
379,288,38786,1,8,0:0:0:0:
379,288,38945,1,0,0:0:0:0:
379,288,39025,1,0,0:0:0:0:
379,288,39104,1,0,0:0:0:0:
379,288,39264,1,8,0:0:0:0:
379,288,39423,1,0,0:0:0:0:
379,288,39583,1,8,0:0:0:0:
379,288,39742,1,0,0:0:0:0:
379,288,39901,1,0,0:0:0:0:
379,288,40061,1,8,0:0:0:0:
379,288,40141,1,8,0:0:0:0:
379,288,40220,1,0,0:0:0:0:
379,288,40380,1,0,0:0:0:0:
379,288,40459,1,0,0:0:0:0:
379,288,40539,1,8,0:0:0:0:
379,288,40619,1,8,0:0:0:0:
379,288,40698,1,0,0:0:0:0:
137,91,40778,1,0,0:0:0:0:
137,91,40938,1,0,0:0:0:0:
126,90,41017,1,0,0:0:0:0:
137,91,41097,1,0,0:0:0:0:
137,91,41256,1,0,0:0:0:0:
137,91,41416,1,8,0:0:0:0:
126,90,41575,1,0,0:0:0:0:
126,90,41735,1,8,0:0:0:0:
126,90,41814,1,8,0:0:0:0:
126,90,41894,1,0,0:0:0:0:
126,90,42053,1,0,0:0:0:0:
139,153,42107,1,0,0:0:0:0:
237,166,42213,1,0,0:0:0:0:
250,163,42266,1,0,0:0:0:0:
243,190,42532,1,0,0:0:0:0:
204,77,42691,1,8,0:0:0:0:
299,314,42771,1,8,0:0:0:0:
204,77,42850,1,0,0:0:0:0:
204,77,43010,1,8,0:0:0:0:
299,314,43329,1,8,0:0:0:0:
325,161,43382,1,8,0:0:0:0:
221,169,43488,1,0,0:0:0:0:
220,172,43541,1,0,0:0:0:0:
235,197,43647,1,8,0:0:0:0:
250,186,43701,1,8,0:0:0:0:
288,246,43807,1,0,0:0:0:0:
288,246,43966,1,8,0:0:0:0:
288,246,44046,1,8,0:0:0:0:
288,246,44126,1,0,0:0:0:0:
288,246,44285,1,0,0:0:0:0:
288,246,44444,1,8,0:0:0:0:
288,246,44843,1,0,0:0:0:0:
130,164,44870,1,0,0:0:0:0:
208,203,45029,1,0,0:0:0:0:
208,203,45082,1,0,0:0:0:0:
208,203,45241,1,8,0:0:0:0:
208,203,45401,1,0,0:0:0:0:
208,203,45560,1,8,0:0:0:0:
208,203,45826,1,4,0:0:0:0:
208,203,45985,1,4,0:0:0:0:
256,192,46198,12,0,46835,0:0:0:0:
207,165,47420,5,0,0:0:0:0:
131,156,47473,1,0,0:0:0:0:
225,173,47579,1,0,0:0:0:0:
181,175,47633,1,0,0:0:0:0:
225,173,47792,1,8,0:0:0:0:
279,292,47872,1,0,0:0:0:0:
225,173,47951,1,0,0:0:0:0:
279,292,48111,1,0,0:0:0:0:
279,292,48270,1,8,0:0:0:0:
279,292,48430,1,0,0:0:0:0:
279,292,48589,1,0,0:0:0:0:
279,292,48669,1,0,0:0:0:0:
279,292,48748,1,0,0:0:0:0:
279,292,48908,1,0,0:0:0:0:
279,292,49067,1,8,0:0:0:0:
279,292,49227,1,8,0:0:0:0:
279,292,49386,1,0,0:0:0:0:
279,292,49545,1,0,0:0:0:0:
279,292,49625,1,8,0:0:0:0:
279,292,50024,1,0,0:0:0:0:
88,146,50077,1,0,0:0:0:0:
279,292,50183,1,0,0:0:0:0:
113,146,50236,1,0,0:0:0:0:
279,292,50342,1,0,0:0:0:0:
126,133,50396,1,0,0:0:0:0:
376,98,50608,1,8,0:0:0:0:
376,98,50661,1,8,0:0:0:0:
360,106,50958,1,12,0:0:0:0:
360,106,51117,1,4,0:0:0:0:
360,106,51276,1,4,0:0:0:0:
360,106,51436,1,12,0:0:0:0:
360,106,51595,1,4,0:0:0:0:
360,106,51755,1,4,0:0:0:0:
277,231,51941,1,8,0:0:0:0:
264,138,52180,1,0,0:0:0:0:
264,138,52260,1,8,0:0:0:0:
264,138,52339,1,0,0:0:0:0:
335,294,52419,1,0,0:0:0:0:
335,294,52499,1,8,0:0:0:0:
341,348,52578,1,8,0:0:0:0:
261,171,52738,1,0,0:0:0:0:
335,294,52897,1,8,0:0:0:0:
312,162,53056,1,0,0:0:0:0:
312,162,53216,1,0,0:0:0:0:
303,273,53375,1,8,0:0:0:0:
301,271,53454,1,8,0:0:0:0:
374,198,53534,1,0,0:0:0:0:
303,273,53693,1,0,0:0:0:0:
303,273,53852,1,8,0:0:0:0:
303,273,54012,1,0,0:0:0:0:
303,273,54091,1,0,0:0:0:0:
303,273,54171,1,8,0:0:0:0:
303,273,54251,1,8,0:0:0:0:
303,273,54330,1,0,0:0:0:0:
265,170,54410,1,0,0:0:0:0:
441,178,54490,1,8,0:0:0:0:
303,273,54809,1,8,0:0:0:0:
303,273,54889,1,0,0:0:0:0:
303,273,55287,1,8,0:0:0:0:
303,273,55367,1,0,0:0:0:0:
94,164,55766,1,8,0:0:0:0:
70,157,55925,1,8,0:0:0:0:
77,160,56005,1,8,0:0:0:0:
210,122,56084,1,0,0:0:0:0:
210,122,56243,1,0,0:0:0:0:
210,122,56323,1,0,0:0:0:0:
210,122,56402,1,0,0:0:0:0:
210,122,56562,1,0,0:0:0:0:
210,122,56721,1,8,0:0:0:0:
210,122,56801,1,8,0:0:0:0:
210,122,56881,1,0,0:0:0:0:
210,122,56960,1,0,0:0:0:0:
210,122,57040,1,8,0:0:0:0:
210,122,57199,1,0,0:0:0:0:
210,122,57359,1,8,0:0:0:0:
210,122,57438,1,8,0:0:0:0:
210,122,57518,1,0,0:0:0:0:
210,122,57598,1,0,0:0:0:0:
210,122,57678,1,8,0:0:0:0:
210,122,57837,1,0,0:0:0:0:
210,122,57996,1,8,0:0:0:0:
210,122,58156,1,0,0:0:0:0:
210,122,58475,1,0,0:0:0:0:
210,122,58634,1,8,0:0:0:0:
210,122,58714,1,0,0:0:0:0:
210,122,58793,1,8,0:0:0:0:
210,122,58953,1,0,0:0:0:0:
210,122,59112,1,8,0:0:0:0:
210,122,59192,1,0,0:0:0:0:
210,122,59272,1,8,0:0:0:0:
210,122,59431,1,0,0:0:0:0:
210,122,59590,1,8,0:0:0:0:
210,122,59670,1,0,0:0:0:0:
210,122,59750,1,8,0:0:0:0:
210,122,59909,1,8,0:0:0:0:
210,122,59989,1,0,0:0:0:0:
210,122,60387,1,8,0:0:0:0:
210,122,60467,1,0,0:0:0:0:
210,122,60866,1,8,0:0:0:0:
210,122,60945,1,0,0:0:0:0:
210,122,61184,1,4,0:0:0:0:
190,293,61503,1,0,0:0:0:0:
190,293,61663,1,0,0:0:0:0:
199,295,61822,1,8,0:0:0:0:
190,293,61981,1,8,0:0:0:0:
190,293,62061,1,8,0:0:0:0:
190,293,62141,1,0,0:0:0:0:
190,293,62300,1,8,0:0:0:0:
190,293,62380,1,8,0:0:0:0:
190,293,62460,1,0,0:0:0:0:
190,293,62619,1,8,0:0:0:0:
190,293,62699,1,8,0:0:0:0:
190,293,62779,1,0,0:0:0:0:
190,293,62938,1,0,0:0:0:0:
190,293,63097,1,8,0:0:0:0:
190,293,63257,1,0,0:0:0:0:
190,293,63336,1,0,0:0:0:0:
190,293,63416,1,8,0:0:0:0:
190,293,63576,1,8,0:0:0:0:
190,293,63735,1,4,0:0:0:0:
