osu file format v14

[General]
AudioFilename: audio.mp3
AudioLeadIn: 0
PreviewTime: 27210
Countdown: 0
SampleSet: None
StackLeniency: 0.7
Mode: 3
LetterboxInBreaks: 0
SpecialStyle: 0
WidescreenStoryboard: 1

[Editor]
DistanceSpacing: 0.9
BeatDivisor: 1
GridSize: 4
TimelineZoom: 0.8

[Metadata]
Title:Hello, Shooters!
TitleUnicode:Hello, Shooters!
Artist:R.M.
ArtistUnicode:R.M.
Creator:jack5osu
Version:K-Shoot LIGHT
Source:K-Shoot MANIA
Tags:title screen key shooting game input gate
BeatmapID:1225529
BeatmapSetID:578848

[Difficulty]
HPDrainRate:7
CircleSize:10
OverallDifficulty:7
ApproachRate:5
SliderMultiplier:1.4
SliderTickRate:1

[Events]
//Background and Video events
0,0,"bg.png",0,0
//Break Periods
2,56210,64410
//Storyboard Layer 0 (Background)
//Storyboard Layer 1 (Fail)
//Storyboard Layer 2 (Pass)
//Storyboard Layer 3 (Foreground)
//Storyboard Sound Samples

[TimingPoints]
10,400,4,2,1,100,1,0

[HitObjects]
179,192,1610,5,0,0:0:0:0:
332,192,2410,1,0,0:0:0:0:
179,192,3210,1,0,0:0:0:0:
332,192,4010,1,0,0:0:0:0:
179,192,4810,1,0,0:0:0:0:
332,192,5610,1,0,0:0:0:0:
179,192,6410,1,0,0:0:0:0:
213,192,6810,1,0,0:0:0:0:
298,192,7210,1,0,0:0:0:0:
332,192,7610,1,0,0:0:0:0:
179,192,8010,1,0,0:0:0:0:
332,192,8810,1,0,0:0:0:0:
179,192,9610,1,0,0:0:0:0:
332,192,10410,1,0,0:0:0:0:
179,192,11210,1,0,0:0:0:0:
332,192,12010,1,0,0:0:0:0:
179,192,12810,1,0,0:0:0:0:
332,192,13210,1,0,0:0:0:0:
298,192,13610,1,0,0:0:0:0:
213,192,14010,1,0,0:0:0:0:
179,192,14410,1,0,0:0:0:0:
332,192,15210,1,0,0:0:0:0:
179,192,16010,1,0,0:0:0:0:
332,192,16810,1,0,0:0:0:0:
179,192,17610,1,0,0:0:0:0:
332,192,18410,1,0,0:0:0:0:
179,192,19210,1,0,0:0:0:0:
332,192,19610,1,0,0:0:0:0:
213,192,20010,1,0,0:0:0:0:
298,192,20410,1,0,0:0:0:0:
179,192,20810,1,0,0:0:0:0:
332,192,21610,1,0,0:0:0:0:
179,192,22410,1,0,0:0:0:0:
332,192,23210,1,0,0:0:0:0:
179,192,24010,1,0,0:0:0:0:
332,192,24810,1,0,0:0:0:0:
179,192,25610,1,0,0:0:0:0:
332,192,26010,1,0,0:0:0:0:
298,192,26410,1,0,0:0:0:0:
213,192,26810,1,0,0:0:0:0:
128,192,27210,128,2,28410:0:0:0:0:
384,192,28810,128,2,29210:0:0:0:0:
384,192,29610,128,2,30010:0:0:0:0:
128,192,30410,128,2,31610:0:0:0:0:
384,192,32010,128,2,32410:0:0:0:0:
128,192,32810,128,2,33210:0:0:0:0:
384,192,33610,128,2,34810:0:0:0:0:
128,192,35210,128,2,35610:0:0:0:0:
128,192,36010,128,2,36410:0:0:0:0:
384,192,36810,128,2,38010:0:0:0:0:
179,192,38410,1,0,0:0:0:0:
230,192,38810,1,0,0:0:0:0:
298,192,39210,1,0,0:0:0:0:
332,192,39610,1,0,0:0:0:0:
179,192,40010,1,0,0:0:0:0:
332,192,40410,1,0,0:0:0:0:
179,192,40810,1,0,0:0:0:0:
332,192,41210,1,0,0:0:0:0:
179,192,41610,1,0,0:0:0:0:
332,192,42010,1,0,0:0:0:0:
179,192,42410,1,0,0:0:0:0:
332,192,42810,1,0,0:0:0:0:
179,192,43210,1,0,0:0:0:0:
332,192,43610,1,0,0:0:0:0:
179,192,44010,1,0,0:0:0:0:
332,192,44410,1,0,0:0:0:0:
179,192,44810,1,0,0:0:0:0:
179,192,45210,1,0,0:0:0:0:
332,192,45610,1,0,0:0:0:0:
332,192,46010,1,0,0:0:0:0:
179,192,46410,1,0,0:0:0:0:
332,192,46810,1,0,0:0:0:0:
179,192,47210,1,0,0:0:0:0:
332,192,47610,1,0,0:0:0:0:
179,192,48010,1,0,0:0:0:0:
332,192,48410,1,0,0:0:0:0:
179,192,48810,1,0,0:0:0:0:
332,192,49210,1,0,0:0:0:0:
179,192,49610,1,0,0:0:0:0:
213,192,50010,1,0,0:0:0:0:
298,192,50410,1,0,0:0:0:0:
332,192,50810,1,0,0:0:0:0:
230,192,51210,1,0,0:0:0:0:
213,192,51610,1,0,0:0:0:0:
128,192,52010,128,2,52810:0:0:0:0:
435,192,53210,128,0,56010:0:0:0:0:
486,192,53210,1,0,0:0:0:0:
76,192,65610,132,0,67210:0:0:0:0:
25,192,67210,128,0,68410:0:0:0:0:
435,192,68810,128,0,70410:0:0:0:0:
486,192,70410,128,0,71610:0:0:0:0:
76,192,72010,128,0,73610:0:0:0:0:
25,192,73610,128,0,74810:0:0:0:0:
435,192,75210,128,0,76810:0:0:0:0:
486,192,76810,1,0,0:0:0:0:
179,192,78410,1,0,0:0:0:0:
332,192,78810,1,0,0:0:0:0:
179,192,79210,1,0,0:0:0:0:
332,192,79610,1,0,0:0:0:0:
179,192,80010,1,0,0:0:0:0:
332,192,80410,1,0,0:0:0:0:
298,192,80810,1,0,0:0:0:0:
213,192,81210,1,0,0:0:0:0:
332,192,81610,1,0,0:0:0:0:
179,192,82010,1,0,0:0:0:0:
332,192,82410,1,0,0:0:0:0:
179,192,82810,1,0,0:0:0:0:
332,192,83210,1,0,0:0:0:0:
213,192,83610,1,0,0:0:0:0:
298,192,84010,1,0,0:0:0:0:
332,192,84410,1,0,0:0:0:0:
179,192,84810,1,0,0:0:0:0:
332,192,85210,1,0,0:0:0:0:
179,192,85610,1,0,0:0:0:0:
332,192,86010,1,0,0:0:0:0:
179,192,86410,1,0,0:0:0:0:
298,192,86810,1,0,0:0:0:0:
230,192,87210,1,0,0:0:0:0:
298,192,87610,1,0,0:0:0:0:
332,192,88010,1,0,0:0:0:0:
179,192,88410,1,0,0:0:0:0:
332,192,88810,1,0,0:0:0:0:
179,192,89210,1,0,0:0:0:0:
230,192,89610,1,0,0:0:0:0:
298,192,90010,1,0,0:0:0:0:
213,192,90410,1,0,0:0:0:0:
298,192,90810,1,0,0:0:0:0:
179,192,91210,1,0,0:0:0:0:
332,192,91610,1,0,0:0:0:0:
179,192,92010,1,0,0:0:0:0:
332,192,92410,1,0,0:0:0:0:
128,192,92810,128,2,93210:0:0:0:0:
384,192,93610,128,2,94010:0:0:0:0:
179,192,94410,1,0,0:0:0:0:
332,192,94810,1,0,0:0:0:0:
179,192,95210,1,0,0:0:0:0:
332,192,95610,1,0,0:0:0:0:
128,192,96010,128,2,96410:0:0:0:0:
384,192,96810,128,2,97610:0:0:0:0:
179,192,98010,1,0,0:0:0:0:
332,192,98410,1,0,0:0:0:0:
179,192,98810,1,0,0:0:0:0:
384,192,99210,128,2,99610:0:0:0:0:
128,192,100010,128,2,100410:0:0:0:0:
298,192,100810,1,0,0:0:0:0:
192,192,101210,1,0,0:0:0:0:
298,192,101610,1,0,0:0:0:0:
192,192,102010,1,0,0:0:0:0:
76,192,104010,128,0,106410:0:0:0:0:
25,192,104010,1,0,0:0:0:0:
