osu file format v14

[General]
AudioFilename: audio.mp3
AudioLeadIn: 0
PreviewTime: 22899
Countdown: 0
SampleSet: Normal
StackLeniency: 0.7
Mode: 1
LetterboxInBreaks: 0
WidescreenStoryboard: 1

[Editor]
DistanceSpacing: 1
BeatDivisor: 4
GridSize: 32
TimelineZoom: 1.8

[Metadata]
Title:SAS, SSS, ASA, AAS (Mimi Neko J-core remix)
TitleUnicode:SAS, SSS, ASA, AAS (Mimi Neko J-core remix)
Artist:R.H.S.
ArtistUnicode:R.H.S.
Creator:The Law
Version:Kantan
Source:
Tags:全等三角形 congruent triangles 三角形 side right angle 斜邊 hypotenuse 數學 maths mathematics 數理 geometry 證明 proof raymond howard stephen rhs MCKLN Modest Caring and Knowledgeable Leaders of the New era silver convention fly robin fly 循道中學 methodist college campus tv mctv mimiproduction Triangle Boyz Original electronic english novelty Hong Kong 香港
BeatmapID:4403581
BeatmapSetID:2099263

[Difficulty]
HPDrainRate:8
CircleSize:5
OverallDifficulty:3
ApproachRate:5
SliderMultiplier:1.4
SliderTickRate:1

[Events]
//Background and Video events
0,0,"BGH.jpg",0,80
//Break Periods
2,66004,75331
//Storyboard Layer 0 (Background)
//Storyboard Layer 1 (Fail)
//Storyboard Layer 2 (Pass)
//Storyboard Layer 3 (Foreground)
//Storyboard Layer 4 (Overlay)
//Storyboard Sound Samples

[TimingPoints]
108,335.195530726257,4,1,0,10,1,8
1363,-100,4,1,0,50,0,8
1447,335.195530726257,4,1,0,50,1,0
1447,-100,4,1,0,50,0,0
12005,-100,4,1,0,50,0,0
17368,-100,4,1,0,65,0,0
22899,-100,4,1,0,80,0,0
33122,-100,4,1,0,80,0,0
33625,-100,4,1,0,80,0,1
44352,-100,4,1,0,80,0,0
55078,-100,4,1,0,80,0,1
65804,-100,4,1,0,20,0,0
65972,-100,4,1,0,20,0,0
76363,-100,4,1,0,50,0,0
81642,-100,4,1,0,60,0,0
84407,-100,4,1,0,70,0,0
87254,-100,4,1,0,80,0,0
97983,-100,4,1,0,80,0,1
108709,-100,4,1,0,80,0,0
108793,-100,4,1,0,40,0,0
109966,-100,4,1,0,40,0,0

[HitObjects]
256,192,1448,5,4,0:0:0:0:
256,192,2788,1,0,0:0:0:0:
256,192,4129,1,0,0:0:0:0:
256,192,5470,1,0,0:0:0:0:
256,192,6811,1,8,0:0:0:0:
256,192,8151,1,8,0:0:0:0:
256,192,9492,1,8,0:0:0:0:
256,192,10833,1,8,0:0:0:0:
256,192,12174,1,4,0:0:0:0:
256,192,12844,1,0,0:0:0:0:
256,192,13515,1,8,0:0:0:0:
256,192,13850,1,0,0:0:0:0:
256,192,14185,1,8,0:0:0:0:
256,192,14855,1,0,0:0:0:0:
256,192,15526,1,0,0:0:0:0:
256,192,16196,1,8,0:0:0:0:
256,192,16531,1,8,0:0:0:0:
256,192,16866,1,8,0:0:0:0:
256,192,17537,1,4,0:0:0:0:
256,192,18207,1,8,0:0:0:0:
256,192,18878,1,0,0:0:0:0:
256,192,19213,1,8,0:0:0:0:
256,192,19548,1,0,0:0:0:0:
256,192,20218,1,8,0:0:0:0:
256,192,20889,1,8,0:0:0:0:
256,192,21559,1,8,0:0:0:0:
256,192,21894,1,8,0:0:0:0:
256,192,22230,1,8,0:0:0:0:
256,192,22565,1,8,0:0:0:0:
256,192,22900,1,4,0:0:0:0:
256,192,24241,1,0,0:0:0:0:
256,192,24576,1,8,0:0:0:0:
256,192,24911,1,0,0:0:0:0:
256,192,25582,1,8,0:0:0:0:
256,192,26252,1,0,0:0:0:0:
256,192,26922,1,8,0:0:0:0:
256,192,27258,1,8,0:0:0:0:
256,192,27593,1,8,0:0:0:0:
256,192,28263,1,0,0:0:0:0:
256,192,28934,1,8,0:0:0:0:
256,192,29604,1,8,0:0:0:0:
256,192,29939,1,0,0:0:0:0:
256,192,30274,1,8,0:0:0:0:
256,192,30945,1,0,0:0:0:0:
256,192,31615,1,8,0:0:0:0:
256,192,32285,1,0,0:0:0:0:
256,192,32621,1,0,0:0:0:0:
256,192,32956,1,8,0:0:0:0:
256,192,33291,1,8,0:0:0:0:
256,192,33626,1,0,0:0:0:0:
256,192,34632,1,8,0:0:0:0:
256,192,34967,1,0,0:0:0:0:
256,192,35637,1,0,0:0:0:0:
256,192,36308,1,8,0:0:0:0:
256,192,36643,1,0,0:0:0:0:
256,192,36978,1,8,0:0:0:0:
256,192,37649,1,0,0:0:0:0:
256,192,37984,1,8,0:0:0:0:
256,192,38319,1,8,0:0:0:0:
256,192,38989,1,0,0:0:0:0:
256,192,39659,1,0,0:0:0:0:
256,192,39995,1,8,0:0:0:0:
256,192,40330,1,0,0:0:0:0:
256,192,40665,1,0,0:0:0:0:
256,192,41001,1,8,0:0:0:0:
256,192,41671,1,0,0:0:0:0:
256,192,42341,1,8,0:0:0:0:
256,192,43012,1,8,0:0:0:0:
256,192,43347,1,0,0:0:0:0:
256,192,43682,1,8,0:0:0:0:
256,192,44017,1,8,0:0:0:0:
256,192,44353,1,4,0:0:0:0:
256,192,45693,1,0,0:0:0:0:
256,192,46029,1,8,0:0:0:0:
256,192,46364,1,0,0:0:0:0:
256,192,47034,1,8,0:0:0:0:
256,192,47704,1,0,0:0:0:0:
256,192,48375,1,0,0:0:0:0:
256,192,48710,1,0,0:0:0:0:
256,192,49045,1,8,0:0:0:0:
256,192,49716,1,0,0:0:0:0:
256,192,50386,1,8,0:0:0:0:
256,192,51056,1,8,0:0:0:0:
256,192,51392,1,0,0:0:0:0:
256,192,51727,1,8,0:0:0:0:
256,192,52397,1,0,0:0:0:0:
256,192,53068,1,8,0:0:0:0:
256,192,53738,1,8,0:0:0:0:
256,192,54073,1,0,0:0:0:0:
256,192,54408,1,8,0:0:0:0:
256,192,54744,1,8,0:0:0:0:
256,192,55079,1,4,0:0:0:0:
256,192,56084,1,8,0:0:0:0:
256,192,56420,1,0,0:0:0:0:
256,192,57090,1,0,0:0:0:0:
256,192,57425,1,8,0:0:0:0:
256,192,57760,1,0,0:0:0:0:
256,192,58431,1,0,0:0:0:0:
256,192,59101,1,0,0:0:0:0:
256,192,59436,1,8,0:0:0:0:
256,192,59772,1,8,0:0:0:0:
256,192,60442,1,0,0:0:0:0:
256,192,61112,1,8,0:0:0:0:
256,192,61783,1,0,0:0:0:0:
256,192,62118,1,8,0:0:0:0:
256,192,62453,1,0,0:0:0:0:
256,192,63123,1,8,0:0:0:0:
256,192,63459,1,0,0:0:0:0:
256,192,63794,1,8,0:0:0:0:
256,192,64464,8,0,65804,0:0:0:0:
256,192,76531,5,0,0:0:0:0:
256,192,77202,1,0,0:0:0:0:
256,192,77872,1,8,0:0:0:0:
256,192,78542,1,8,0:0:0:0:
256,192,79213,1,0,0:0:0:0:
256,192,79883,1,8,0:0:0:0:
256,192,80554,1,0,0:0:0:0:
256,192,81224,1,8,0:0:0:0:
256,192,81894,1,0,0:0:0:0:
256,192,82230,1,0,0:0:0:0:
256,192,82565,1,8,0:0:0:0:
256,192,83235,1,8,0:0:0:0:
256,192,83570,1,0,0:0:0:0:
256,192,83906,1,8,0:0:0:0:
256,192,84576,1,8,0:0:0:0:
256,192,85246,1,8,0:0:0:0:
256,192,85917,1,0,0:0:0:0:
256,192,86252,1,0,0:0:0:0:
256,192,86587,1,8,0:0:0:0:
256,192,86922,1,8,0:0:0:0:
256,192,87258,1,4,0:0:0:0:
256,192,88263,1,8,0:0:0:0:
256,192,88598,1,0,0:0:0:0:
256,192,89269,1,0,0:0:0:0:
256,192,89939,1,8,0:0:0:0:
256,192,90274,1,0,0:0:0:0:
256,192,90610,1,8,0:0:0:0:
256,192,91280,1,0,0:0:0:0:
256,192,91615,1,0,0:0:0:0:
256,192,91950,1,8,0:0:0:0:
256,192,92621,1,0,0:0:0:0:
256,192,93291,1,8,0:0:0:0:
256,192,93961,1,0,0:0:0:0:
256,192,94297,1,8,0:0:0:0:
256,192,94632,1,0,0:0:0:0:
256,192,95302,1,8,0:0:0:0:
256,192,95973,1,8,0:0:0:0:
256,192,96643,1,8,0:0:0:0:
256,192,97313,1,8,0:0:0:0:
256,192,97649,1,8,0:0:0:0:
256,192,97984,1,0,0:0:0:0:
256,192,98989,1,8,0:0:0:0:
256,192,99325,1,0,0:0:0:0:
256,192,99995,1,0,0:0:0:0:
256,192,100330,1,8,0:0:0:0:
256,192,100665,1,0,0:0:0:0:
256,192,101336,1,0,0:0:0:0:
256,192,102006,1,8,0:0:0:0:
256,192,102341,1,0,0:0:0:0:
256,192,102677,1,8,0:0:0:0:
256,192,103012,1,8,0:0:0:0:
256,192,103347,1,0,0:0:0:0:
256,192,104016,1,0,0:0:0:0:
256,192,104353,1,8,0:0:0:0:
256,192,104688,1,0,0:0:0:0:
256,192,105358,1,8,0:0:0:0:
256,192,105693,1,8,0:0:0:0:
256,192,106029,1,0,0:0:0:0:
256,192,106699,1,0,0:0:0:0:
256,192,107369,1,0,0:0:0:0:
256,192,107704,1,0,0:0:0:0:
256,192,108040,1,8,0:0:0:0:
256,192,108375,1,8,0:0:0:0:
256,192,108710,1,4,0:0:0:0:
256,192,108878,8,0,109967,0:0:0:0:
