osu file format v14

[General]
AudioFilename: audio.mp3
AudioLeadIn: 0
PreviewTime: 22899
Countdown: 0
SampleSet: Normal
StackLeniency: 0.7
Mode: 1
LetterboxInBreaks: 0
WidescreenStoryboard: 1

[Editor]
DistanceSpacing: 1
BeatDivisor: 4
GridSize: 32
TimelineZoom: 2.799999

[Metadata]
Title:SAS, SSS, ASA, AAS (Mimi Neko J-core remix)
TitleUnicode:SAS, SSS, ASA, AAS (Mimi Neko J-core remix)
Artist:R.H.S.
ArtistUnicode:R.H.S.
Creator:The Law
Version:Inner Oni
Source:
Tags:全等三角形 congruent triangles 三角形 side right angle 斜邊 hypotenuse 數學 maths mathematics 數理 geometry 證明 proof raymond howard stephen rhs MCKLN Modest Caring and Knowledgeable Leaders of the New era silver convention fly robin fly 循道中學 methodist college campus tv mctv mimiproduction Triangle Boyz Original electronic english novelty Hong Kong 香港
BeatmapID:4541447
BeatmapSetID:2099263

[Difficulty]
HPDrainRate:6
CircleSize:5
OverallDifficulty:6
ApproachRate:5
SliderMultiplier:1.4
SliderTickRate:1

[Events]
//Background and Video events
0,0,"BGH.jpg",0,80
//Break Periods
2,65836,75330
//Storyboard Layer 0 (Background)
//Storyboard Layer 1 (Fail)
//Storyboard Layer 2 (Pass)
//Storyboard Layer 3 (Foreground)
//Storyboard Layer 4 (Overlay)
//Storyboard Sound Samples

[TimingPoints]
108,335.195530726257,4,1,0,10,1,8
1363,-100,4,1,0,50,0,8
1447,335.195530726257,4,1,0,50,1,0
1447,-117.647058823529,4,1,0,50,0,0
12089,-111.111111111111,4,1,0,65,0,0
17368,-105.263157894737,4,1,0,65,0,0
21723,-103.893085415456,4,1,0,65,0,0
21890,-102.566063711805,4,1,0,65,0,0
22058,-101.264866905796,4,1,0,65,0,0
22226,-99.9962715782409,4,1,0,65,0,0
22393,-98.766341373596,4,1,0,65,0,0
22561,-97.5592011931178,4,1,0,65,0,0
22645,-96.9666293069164,4,1,0,65,0,0
22728,-96.3881401617251,4,1,0,65,0,0
22812,-95.8096667023899,4,1,0,65,0,0
22896,-95.2380952380952,4,1,0,80,0,0
33119,-93.0297139683421,4,1,0,80,0,0
33287,-90.9090909090909,4,1,0,80,0,0
33371,-89.8846257043198,4,1,0,80,0,0
33455,-88.8829928362961,4,1,0,80,0,0
33538,-87.9149717884792,4,1,0,80,0,0
33625,-86.9565217391304,4,1,0,80,0,1
43762,-87.9135276776941,4,1,0,80,0,1
43846,-88.8918328144665,4,1,0,80,0,1
43891,-90.0900900900901,4,1,0,80,0,1
44013,-90.9029330081962,4,1,0,80,0,1
44097,-91.9492977046934,4,1,0,80,0,1
44181,-93.0200318846607,4,1,0,80,0,1
44265,-94.1159969142296,4,1,0,80,0,1
44352,-95.2380952380952,4,1,0,80,0,0
53902,-94.3376316400397,4,1,0,80,0,0
53985,-93.8990147955718,4,1,0,80,0,0
54069,-93.459246611144,4,1,0,80,0,0
54237,-92.5919532690276,4,1,0,80,0,0
54404,-91.7456299387678,4,1,0,80,0,0
54572,-90.9097072043062,4,1,0,80,0,0
54740,-90.0888796329264,4,1,0,80,0,0
54823,-89.6887979293325,4,1,0,80,0,0
54907,-89.2874977528314,4,1,0,80,0,0
54991,-88.8897727046752,4,1,0,80,0,0
55078,-88.495575221239,4,1,0,80,0,1
64796,-95.2380952380952,4,1,0,80,0,1
64963,-97.5538730343623,4,1,0,80,0,1
65131,-100,4,1,0,80,0,1
65299,-102.57195345989,4,1,0,80,0,1
65343,-104.166666666667,4,1,0,80,0,1
65466,-105.263157894737,4,1,0,80,0,1
65553,-107.52688172043,4,1,0,80,0,1
65804,-111.111111111111,4,1,0,80,0,0
65972,-133.333333333333,4,1,0,20,0,0
76363,-111.111111111111,4,1,0,50,0,0
81642,-105.263157894737,4,1,0,60,0,0
84740,-104.232249038125,4,1,0,70,0,0
84907,-103.227296345477,4,1,0,75,0,0
85075,-102.235691005775,4,1,0,75,0,0
85242,-101.268690530131,4,1,0,75,0,0
85410,-100.314183123878,4,1,0,75,0,0
85578,-99.3775011116052,4,1,0,75,0,0
85745,-98.4635717825871,4,1,0,75,0,0
85913,-97.5609756097561,4,1,0,75,0,0
85997,-97.1158546521102,4,1,0,75,0,0
86080,-96.6800043257273,4,1,0,75,0,0
86164,-96.2428679082786,4,1,0,75,0,0
86248,-95.8096667023899,4,1,0,75,0,0
86416,-94.9548592671269,4,1,0,75,0,0
86583,-94.1201242301416,4,1,0,75,0,0
86667,-93.7057806194644,4,1,0,75,0,0
86751,-93.2950691364466,4,1,0,75,0,0
86835,-92.8879422307652,4,1,0,75,0,0
86918,-92.4891371818746,4,1,0,75,0,0
87002,-92.0889987639061,4,1,0,75,0,0
87086,-91.6923076923077,4,1,0,75,0,0
87170,-91.2990196078431,4,1,0,75,0,0
87254,-90.9090909090909,4,1,0,80,0,0
97477,-89.8861352980576,4,1,0,80,0,0
97645,-88.8859451582991,4,1,0,80,0,0
97728,-88.3999736512746,4,1,0,80,0,0
97812,-87.9135276776941,4,1,0,80,0,0
97896,-87.4324060199362,4,1,0,80,0,0
97983,-86.9565217391304,4,1,0,80,0,1
108709,-86.9565217391304,4,1,0,80,0,0
108793,-66.6666666666667,4,1,0,40,0,0
109966,-100,4,1,0,40,0,0

[HitObjects]
256,192,1447,5,4,0:0:0:0:
256,192,1949,1,0,0:0:0:0:
256,192,2620,1,8,0:0:0:0:
256,192,2955,1,8,0:0:0:0:
256,192,3290,1,8,0:0:0:0:
256,192,3625,1,8,0:0:0:0:
256,192,3960,1,8,0:0:0:0:
256,192,4128,1,0,0:0:0:0:
256,192,4631,1,0,0:0:0:0:
256,192,5134,1,8,0:0:0:0:
256,192,5636,1,8,0:0:0:0:
256,192,6139,1,8,0:0:0:0:
256,192,6474,1,8,0:0:0:0:
256,192,6810,1,0,0:0:0:0:
256,192,7312,1,0,0:0:0:0:
256,192,7983,1,8,0:0:0:0:
256,192,8318,1,8,0:0:0:0:
256,192,8653,1,8,0:0:0:0:
256,192,8988,1,8,0:0:0:0:
256,192,9324,1,8,0:0:0:0:
256,192,9491,1,0,0:0:0:0:
256,192,9994,1,0,0:0:0:0:
256,192,10497,1,8,0:0:0:0:
256,192,11000,1,8,0:0:0:0:
256,192,11502,1,8,0:0:0:0:
256,192,11838,1,8,0:0:0:0:
256,192,12173,1,4,0:0:0:0:
256,192,12508,1,8,0:0:0:0:
256,192,12676,1,0,0:0:0:0:
256,192,12843,1,8,0:0:0:0:
256,192,13178,1,8,0:0:0:0:
256,192,13514,1,0,0:0:0:0:
256,192,13849,1,8,0:0:0:0:
256,192,14016,1,8,0:0:0:0:
256,192,14184,1,0,0:0:0:0:
256,192,14519,1,8,0:0:0:0:
256,192,14854,1,0,0:0:0:0:
256,192,15022,1,0,0:0:0:0:
256,192,15190,1,8,0:0:0:0:
256,192,15357,1,0,0:0:0:0:
256,192,15525,1,8,0:0:0:0:
256,192,15860,1,8,0:0:0:0:
256,192,16195,1,8,0:0:0:0:
256,192,16363,1,0,0:0:0:0:
256,192,16530,1,8,0:0:0:0:
256,192,16698,1,0,0:0:0:0:
256,192,16865,1,8,0:0:0:0:
256,192,17201,1,8,0:0:0:0:
256,192,17536,1,4,0:0:0:0:
256,192,17871,1,8,0:0:0:0:
256,192,18039,1,0,0:0:0:0:
256,192,18206,1,8,0:0:0:0:
256,192,18541,1,8,0:0:0:0:
256,192,18877,1,0,0:0:0:0:
256,192,19212,1,8,0:0:0:0:
256,192,19379,1,8,0:0:0:0:
256,192,19547,1,0,0:0:0:0:
256,192,19882,1,8,0:0:0:0:
256,192,20217,1,8,0:0:0:0:
256,192,20385,1,0,0:0:0:0:
256,192,20553,1,8,0:0:0:0:
256,192,20720,1,0,0:0:0:0:
256,192,20888,1,8,0:0:0:0:
256,192,21223,1,0,0:0:0:0:
256,192,21558,1,8,0:0:0:0:
256,192,21726,1,0,0:0:0:0:
256,192,21893,1,8,0:0:0:0:
256,192,22061,1,0,0:0:0:0:
256,192,22229,1,8,0:0:0:0:
256,192,22396,1,8,0:0:0:0:
256,192,22564,1,8,0:0:0:0:
256,192,22648,1,8,0:0:0:0:
256,192,22731,1,8,0:0:0:0:
256,192,22815,1,8,0:0:0:0:
256,192,22899,1,4,0:0:0:0:
256,192,23067,1,0,0:0:0:0:
256,192,23150,1,0,0:0:0:0:
256,192,23234,1,8,0:0:0:0:
256,192,23402,1,0,0:0:0:0:
256,192,23569,1,8,0:0:0:0:
256,192,23653,1,8,0:0:0:0:
256,192,23737,1,0,0:0:0:0:
256,192,23821,1,0,0:0:0:0:
256,192,23905,1,8,0:0:0:0:
256,192,24072,1,0,0:0:0:0:
256,192,24240,1,8,0:0:0:0:
256,192,24324,1,8,0:0:0:0:
256,192,24407,1,0,0:0:0:0:
256,192,24575,1,8,0:0:0:0:
256,192,24659,1,8,0:0:0:0:
256,192,24743,1,0,0:0:0:0:
256,192,24910,1,8,0:0:0:0:
256,192,24994,1,0,0:0:0:0:
256,192,25078,1,0,0:0:0:0:
256,192,25162,1,0,0:0:0:0:
256,192,25245,1,8,0:0:0:0:
256,192,25413,1,8,0:0:0:0:
256,192,25581,1,0,0:0:0:0:
256,192,25748,1,8,0:0:0:0:
256,192,25832,1,0,0:0:0:0:
256,192,25916,1,8,0:0:0:0:
256,192,26083,1,0,0:0:0:0:
256,192,26251,1,8,0:0:0:0:
256,192,26335,1,8,0:0:0:0:
256,192,26419,1,0,0:0:0:0:
256,192,26502,1,0,0:0:0:0:
256,192,26586,1,8,0:0:0:0:
256,192,26754,1,0,0:0:0:0:
256,192,26921,1,8,0:0:0:0:
256,192,27089,1,8,0:0:0:0:
256,192,27173,1,0,0:0:0:0:
256,192,27257,1,8,0:0:0:0:
256,192,27424,1,0,0:0:0:0:
256,192,27592,1,8,0:0:0:0:
256,192,27676,1,8,0:0:0:0:
256,192,27759,1,8,0:0:0:0:
256,192,27843,1,8,0:0:0:0:
256,192,27927,1,0,0:0:0:0:
256,192,28262,1,0,0:0:0:0:
256,192,28430,1,0,0:0:0:0:
256,192,28514,1,0,0:0:0:0:
256,192,28597,1,8,0:0:0:0:
256,192,28765,1,0,0:0:0:0:
256,192,28933,1,8,0:0:0:0:
256,192,29016,1,0,0:0:0:0:
256,192,29100,1,0,0:0:0:0:
256,192,29184,1,0,0:0:0:0:
256,192,29268,1,8,0:0:0:0:
256,192,29435,1,0,0:0:0:0:
256,192,29603,1,8,0:0:0:0:
256,192,29687,1,0,0:0:0:0:
256,192,29771,1,0,0:0:0:0:
256,192,29938,1,8,0:0:0:0:
256,192,30022,1,0,0:0:0:0:
256,192,30106,1,0,0:0:0:0:
256,192,30273,1,8,0:0:0:0:
256,192,30357,1,8,0:0:0:0:
256,192,30441,1,0,0:0:0:0:
256,192,30525,1,0,0:0:0:0:
256,192,30609,1,8,0:0:0:0:
256,192,30776,1,0,0:0:0:0:
256,192,30944,1,8,0:0:0:0:
256,192,31111,1,8,0:0:0:0:
256,192,31195,1,8,0:0:0:0:
256,192,31279,1,0,0:0:0:0:
256,192,31447,1,8,0:0:0:0:
256,192,31614,1,0,0:0:0:0:
256,192,31698,1,0,0:0:0:0:
256,192,31782,1,0,0:0:0:0:
256,192,31865,1,0,0:0:0:0:
256,192,31949,1,8,0:0:0:0:
256,192,32117,1,8,0:0:0:0:
256,192,32284,1,0,0:0:0:0:
256,192,32368,1,0,0:0:0:0:
256,192,32452,1,8,0:0:0:0:
256,192,32536,1,0,0:0:0:0:
256,192,32620,1,8,0:0:0:0:
256,192,32787,1,0,0:0:0:0:
256,192,32955,1,8,0:0:0:0:
256,192,33122,1,8,0:0:0:0:
256,192,33290,1,8,0:0:0:0:
256,192,33374,1,8,0:0:0:0:
256,192,33458,1,8,0:0:0:0:
256,192,33541,1,8,0:0:0:0:
256,192,33625,1,0,0:0:0:0:
256,192,33793,1,0,0:0:0:0:
256,192,33877,1,0,0:0:0:0:
256,192,33960,1,8,0:0:0:0:
256,192,34128,1,0,0:0:0:0:
256,192,34296,1,8,0:0:0:0:
256,192,34379,1,8,0:0:0:0:
256,192,34463,1,0,0:0:0:0:
256,192,34547,1,0,0:0:0:0:
256,192,34631,1,8,0:0:0:0:
256,192,34798,1,8,0:0:0:0:
256,192,34966,1,0,0:0:0:0:
256,192,35134,1,0,0:0:0:0:
256,192,35217,1,0,0:0:0:0:
256,192,35301,1,8,0:0:0:0:
256,192,35469,1,8,0:0:0:0:
256,192,35636,1,0,0:0:0:0:
256,192,35804,1,0,0:0:0:0:
256,192,35888,1,0,0:0:0:0:
256,192,35972,1,8,0:0:0:0:
256,192,36055,1,0,0:0:0:0:
256,192,36139,1,8,0:0:0:0:
256,192,36307,1,0,0:0:0:0:
256,192,36474,1,0,0:0:0:0:
256,192,36558,1,0,0:0:0:0:
256,192,36642,1,8,0:0:0:0:
256,192,36810,1,0,0:0:0:0:
256,192,36977,1,8,0:0:0:0:
256,192,37061,1,8,0:0:0:0:
256,192,37145,1,0,0:0:0:0:
256,192,37229,1,0,0:0:0:0:
256,192,37312,1,8,0:0:0:0:
256,192,37480,1,8,0:0:0:0:
256,192,37648,1,0,0:0:0:0:
256,192,37815,1,0,0:0:0:0:
256,192,37899,1,0,0:0:0:0:
256,192,37983,1,8,0:0:0:0:
256,192,38150,1,0,0:0:0:0:
256,192,38318,1,8,0:0:0:0:
256,192,38402,1,8,0:0:0:0:
256,192,38486,1,0,0:0:0:0:
256,192,38569,1,0,0:0:0:0:
256,192,38653,1,8,0:0:0:0:
256,192,38737,1,0,0:0:0:0:
256,192,38821,1,8,0:0:0:0:
256,192,38988,1,0,0:0:0:0:
256,192,39156,1,0,0:0:0:0:
256,192,39240,1,0,0:0:0:0:
256,192,39323,1,8,0:0:0:0:
256,192,39491,1,0,0:0:0:0:
256,192,39659,1,8,0:0:0:0:
256,192,39742,1,0,0:0:0:0:
256,192,39826,1,0,0:0:0:0:
256,192,39910,1,0,0:0:0:0:
256,192,39994,1,8,0:0:0:0:
256,192,40161,1,8,0:0:0:0:
256,192,40329,1,0,0:0:0:0:
256,192,40497,1,0,0:0:0:0:
256,192,40580,1,0,0:0:0:0:
256,192,40664,1,8,0:0:0:0:
256,192,40832,1,8,0:0:0:0:
256,192,40999,1,0,0:0:0:0:
256,192,41167,1,0,0:0:0:0:
256,192,41251,1,0,0:0:0:0:
256,192,41335,1,8,0:0:0:0:
256,192,41418,1,8,0:0:0:0:
256,192,41502,1,8,0:0:0:0:
256,192,41670,1,0,0:0:0:0:
256,192,41837,1,0,0:0:0:0:
256,192,41921,1,0,0:0:0:0:
256,192,42005,1,8,0:0:0:0:
256,192,42173,1,0,0:0:0:0:
256,192,42340,1,8,0:0:0:0:
256,192,42424,1,8,0:0:0:0:
256,192,42508,1,0,0:0:0:0:
256,192,42592,1,0,0:0:0:0:
256,192,42675,1,8,0:0:0:0:
256,192,42843,1,8,0:0:0:0:
256,192,43011,1,0,0:0:0:0:
256,192,43178,1,0,0:0:0:0:
256,192,43262,1,0,0:0:0:0:
256,192,43346,1,8,0:0:0:0:
256,192,43513,1,0,0:0:0:0:
256,192,43681,1,8,0:0:0:0:
256,192,43765,1,8,0:0:0:0:
256,192,43849,1,0,0:0:0:0:
256,192,43933,1,0,0:0:0:0:
256,192,44016,1,8,0:0:0:0:
256,192,44100,1,8,0:0:0:0:
256,192,44184,1,8,0:0:0:0:
256,192,44268,1,8,0:0:0:0:
256,192,44352,1,4,0:0:0:0:
256,192,44687,1,8,0:0:0:0:
256,192,44854,1,0,0:0:0:0:
256,192,44938,1,0,0:0:0:0:
256,192,45022,1,8,0:0:0:0:
256,192,45190,1,0,0:0:0:0:
256,192,45357,1,8,0:0:0:0:
256,192,45525,1,0,0:0:0:0:
256,192,45692,1,8,0:0:0:0:
256,192,45776,1,8,0:0:0:0:
256,192,45860,1,0,0:0:0:0:
256,192,46028,1,8,0:0:0:0:
256,192,46111,1,8,0:0:0:0:
256,192,46195,1,0,0:0:0:0:
256,192,46363,1,8,0:0:0:0:
256,192,46447,1,0,0:0:0:0:
256,192,46530,1,0,0:0:0:0:
256,192,46614,1,0,0:0:0:0:
256,192,46698,1,8,0:0:0:0:
256,192,46865,1,8,0:0:0:0:
256,192,47033,1,0,0:0:0:0:
256,192,47201,1,0,0:0:0:0:
256,192,47284,1,0,0:0:0:0:
256,192,47368,1,8,0:0:0:0:
256,192,47536,1,0,0:0:0:0:
256,192,47703,1,8,0:0:0:0:
256,192,47787,1,8,0:0:0:0:
256,192,47871,1,0,0:0:0:0:
256,192,48039,1,8,0:0:0:0:
256,192,48122,1,0,0:0:0:0:
256,192,48206,1,8,0:0:0:0:
256,192,48290,1,8,0:0:0:0:
256,192,48374,1,0,0:0:0:0:
256,192,48541,1,0,0:0:0:0:
256,192,48625,1,0,0:0:0:0:
256,192,48709,1,8,0:0:0:0:
256,192,48877,1,0,0:0:0:0:
256,192,49044,1,8,0:0:0:0:
256,192,49128,1,8,0:0:0:0:
256,192,49212,1,8,0:0:0:0:
256,192,49296,1,8,0:0:0:0:
256,192,49379,1,0,0:0:0:0:
256,192,49463,1,0,0:0:0:0:
256,192,49547,1,8,0:0:0:0:
256,192,49715,1,0,0:0:0:0:
256,192,50050,1,8,0:0:0:0:
256,192,50217,1,0,0:0:0:0:
256,192,50385,1,8,0:0:0:0:
256,192,50469,1,8,0:0:0:0:
256,192,50553,1,0,0:0:0:0:
256,192,50636,1,0,0:0:0:0:
256,192,50720,1,8,0:0:0:0:
256,192,50888,1,0,0:0:0:0:
256,192,51055,1,8,0:0:0:0:
256,192,51139,1,0,0:0:0:0:
256,192,51223,1,0,0:0:0:0:
256,192,51391,1,8,0:0:0:0:
256,192,51474,1,0,0:0:0:0:
256,192,51558,1,0,0:0:0:0:
256,192,51726,1,8,0:0:0:0:
256,192,51810,1,8,0:0:0:0:
256,192,51893,1,0,0:0:0:0:
256,192,51977,1,0,0:0:0:0:
256,192,52061,1,8,0:0:0:0:
256,192,52229,1,0,0:0:0:0:
256,192,52396,1,8,0:0:0:0:
256,192,52564,1,0,0:0:0:0:
256,192,52648,1,0,0:0:0:0:
256,192,52731,1,8,0:0:0:0:
256,192,52899,1,0,0:0:0:0:
256,192,53067,1,8,0:0:0:0:
256,192,53150,1,8,0:0:0:0:
256,192,53234,1,0,0:0:0:0:
256,192,53318,1,0,0:0:0:0:
256,192,53402,1,8,0:0:0:0:
256,192,53569,1,8,0:0:0:0:
256,192,53737,1,0,0:0:0:0:
256,192,53905,1,0,0:0:0:0:
256,192,53988,1,0,0:0:0:0:
256,192,54072,1,8,0:0:0:0:
256,192,54240,1,0,0:0:0:0:
256,192,54407,1,8,0:0:0:0:
256,192,54575,1,8,0:0:0:0:
256,192,54743,1,0,0:0:0:0:
256,192,54826,1,0,0:0:0:0:
256,192,54910,1,8,0:0:0:0:
256,192,54994,1,8,0:0:0:0:
256,192,55078,1,4,0:0:0:0:
256,192,55413,1,8,0:0:0:0:
256,192,55581,1,0,0:0:0:0:
256,192,55749,1,8,0:0:0:0:
256,192,55832,1,8,0:0:0:0:
256,192,55916,1,0,0:0:0:0:
256,192,56000,1,0,0:0:0:0:
256,192,56084,1,8,0:0:0:0:
256,192,56167,1,0,0:0:0:0:
256,192,56251,1,8,0:0:0:0:
256,192,56419,1,0,0:0:0:0:
256,192,56587,1,0,0:0:0:0:
256,192,56670,1,0,0:0:0:0:
256,192,56754,1,8,0:0:0:0:
256,192,56922,1,8,0:0:0:0:
256,192,57089,1,0,0:0:0:0:
256,192,57257,1,0,0:0:0:0:
256,192,57341,1,0,0:0:0:0:
256,192,57425,1,8,0:0:0:0:
256,192,57508,1,0,0:0:0:0:
256,192,57592,1,8,0:0:0:0:
256,192,57760,1,0,0:0:0:0:
256,192,57927,1,0,0:0:0:0:
256,192,58011,1,0,0:0:0:0:
256,192,58095,1,8,0:0:0:0:
256,192,58263,1,0,0:0:0:0:
256,192,58430,1,8,0:0:0:0:
256,192,58514,1,8,0:0:0:0:
256,192,58598,1,0,0:0:0:0:
256,192,58682,1,0,0:0:0:0:
256,192,58765,1,8,0:0:0:0:
256,192,58849,1,8,0:0:0:0:
256,192,58933,1,8,0:0:0:0:
256,192,59101,1,0,0:0:0:0:
256,192,59268,1,0,0:0:0:0:
256,192,59352,1,0,0:0:0:0:
256,192,59436,1,8,0:0:0:0:
256,192,59603,1,0,0:0:0:0:
256,192,59771,1,8,0:0:0:0:
256,192,59855,1,8,0:0:0:0:
256,192,59939,1,8,0:0:0:0:
256,192,60022,1,8,0:0:0:0:
256,192,60106,1,0,0:0:0:0:
256,192,60190,1,0,0:0:0:0:
256,192,60274,1,8,0:0:0:0:
256,192,60357,1,8,0:0:0:0:
256,192,60441,1,0,0:0:0:0:
256,192,60776,1,8,0:0:0:0:
256,192,60944,1,0,0:0:0:0:
256,192,61112,1,8,0:0:0:0:
256,192,61195,1,0,0:0:0:0:
256,192,61279,1,0,0:0:0:0:
256,192,61363,1,0,0:0:0:0:
256,192,61447,1,8,0:0:0:0:
256,192,61530,1,8,0:0:0:0:
256,192,61614,1,8,0:0:0:0:
256,192,61782,1,0,0:0:0:0:
256,192,61950,1,0,0:0:0:0:
256,192,62033,1,0,0:0:0:0:
256,192,62117,1,8,0:0:0:0:
256,192,62285,1,8,0:0:0:0:
256,192,62452,1,0,0:0:0:0:
256,192,62620,1,0,0:0:0:0:
256,192,62704,1,0,0:0:0:0:
256,192,62788,1,8,0:0:0:0:
256,192,62871,1,8,0:0:0:0:
256,192,62955,1,8,0:0:0:0:
256,192,63123,1,0,0:0:0:0:
256,192,63290,1,0,0:0:0:0:
256,192,63374,1,0,0:0:0:0:
256,192,63458,1,8,0:0:0:0:
256,192,63626,1,0,0:0:0:0:
256,192,63793,1,8,0:0:0:0:
256,192,63877,1,8,0:0:0:0:
256,192,63961,1,0,0:0:0:0:
256,192,64045,1,0,0:0:0:0:
256,192,64128,1,8,0:0:0:0:
256,192,64296,1,8,0:0:0:0:
256,192,64464,1,0,0:0:0:0:
256,192,64799,1,8,0:0:0:0:
256,192,64966,1,0,0:0:0:0:
256,192,65134,1,8,0:0:0:0:
256,192,65301,1,8,0:0:0:0:
256,192,65385,1,8,0:0:0:0:
256,192,65469,1,0,0:0:0:0:
256,192,65636,1,0,0:0:0:0:
256,192,76530,5,0,0:0:0:0:
256,192,76865,1,0,0:0:0:0:
256,192,77033,1,0,0:0:0:0:
256,192,77201,1,8,0:0:0:0:
256,192,77536,1,0,0:0:0:0:
256,192,77871,1,8,0:0:0:0:
256,192,78206,1,8,0:0:0:0:
256,192,78541,1,0,0:0:0:0:
256,192,78877,1,0,0:0:0:0:
256,192,79212,1,8,0:0:0:0:
256,192,79379,1,8,0:0:0:0:
256,192,79547,1,0,0:0:0:0:
256,192,79715,1,0,0:0:0:0:
256,192,79882,1,8,0:0:0:0:
256,192,80217,1,0,0:0:0:0:
256,192,80553,1,8,0:0:0:0:
256,192,80720,1,0,0:0:0:0:
256,192,80888,1,8,0:0:0:0:
256,192,81055,1,0,0:0:0:0:
256,192,81223,1,8,0:0:0:0:
256,192,81558,1,8,0:0:0:0:
256,192,81893,1,0,0:0:0:0:
256,192,82229,1,8,0:0:0:0:
256,192,82396,1,0,0:0:0:0:
256,192,82564,1,8,0:0:0:0:
256,192,82899,1,8,0:0:0:0:
256,192,83234,1,0,0:0:0:0:
256,192,83569,1,8,0:0:0:0:
256,192,83737,1,0,0:0:0:0:
256,192,83905,1,8,0:0:0:0:
256,192,84240,1,8,0:0:0:0:
256,192,84575,1,0,0:0:0:0:
256,192,84743,1,0,0:0:0:0:
256,192,84910,1,8,0:0:0:0:
256,192,85078,1,0,0:0:0:0:
256,192,85245,1,8,0:0:0:0:
256,192,85413,1,8,0:0:0:0:
256,192,85581,1,0,0:0:0:0:
256,192,85748,1,0,0:0:0:0:
256,192,85916,1,8,0:0:0:0:
256,192,86000,1,8,0:0:0:0:
256,192,86083,1,0,0:0:0:0:
256,192,86167,1,0,0:0:0:0:
256,192,86251,1,8,0:0:0:0:
256,192,86419,1,0,0:0:0:0:
256,192,86586,1,8,0:0:0:0:
256,192,86670,1,8,0:0:0:0:
256,192,86754,1,8,0:0:0:0:
256,192,86838,1,8,0:0:0:0:
256,192,86921,1,0,0:0:0:0:
256,192,87005,1,0,0:0:0:0:
256,192,87089,1,8,0:0:0:0:
256,192,87173,1,8,0:0:0:0:
256,192,87257,1,4,0:0:0:0:
256,192,87592,1,8,0:0:0:0:
256,192,87760,1,0,0:0:0:0:
256,192,87928,1,8,0:0:0:0:
256,192,88011,1,8,0:0:0:0:
256,192,88095,1,0,0:0:0:0:
256,192,88179,1,0,0:0:0:0:
256,192,88263,1,8,0:0:0:0:
256,192,88346,1,0,0:0:0:0:
256,192,88430,1,8,0:0:0:0:
256,192,88598,1,0,0:0:0:0:
256,192,88766,1,0,0:0:0:0:
256,192,88849,1,0,0:0:0:0:
256,192,88933,1,8,0:0:0:0:
256,192,89101,1,8,0:0:0:0:
256,192,89268,1,0,0:0:0:0:
256,192,89436,1,0,0:0:0:0:
256,192,89520,1,0,0:0:0:0:
256,192,89604,1,8,0:0:0:0:
256,192,89687,1,0,0:0:0:0:
256,192,89771,1,8,0:0:0:0:
256,192,89939,1,0,0:0:0:0:
256,192,90106,1,0,0:0:0:0:
256,192,90190,1,0,0:0:0:0:
256,192,90274,1,8,0:0:0:0:
256,192,90442,1,0,0:0:0:0:
256,192,90609,1,0,0:0:0:0:
256,192,90693,1,0,0:0:0:0:
256,192,90777,1,8,0:0:0:0:
256,192,90861,1,8,0:0:0:0:
256,192,90944,1,0,0:0:0:0:
256,192,91028,1,0,0:0:0:0:
256,192,91112,1,8,0:0:0:0:
256,192,91280,1,0,0:0:0:0:
256,192,91447,1,0,0:0:0:0:
256,192,91531,1,0,0:0:0:0:
256,192,91615,1,8,0:0:0:0:
256,192,91782,1,0,0:0:0:0:
256,192,91950,1,8,0:0:0:0:
256,192,92034,1,8,0:0:0:0:
256,192,92118,1,8,0:0:0:0:
256,192,92201,1,8,0:0:0:0:
256,192,92285,1,0,0:0:0:0:
256,192,92369,1,0,0:0:0:0:
256,192,92453,1,8,0:0:0:0:
256,192,92536,1,8,0:0:0:0:
256,192,92620,1,0,0:0:0:0:
256,192,92955,1,8,0:0:0:0:
256,192,93123,1,0,0:0:0:0:
256,192,93291,1,8,0:0:0:0:
256,192,93374,1,0,0:0:0:0:
256,192,93458,1,0,0:0:0:0:
256,192,93542,1,0,0:0:0:0:
256,192,93626,1,8,0:0:0:0:
256,192,93709,1,8,0:0:0:0:
256,192,93793,1,8,0:0:0:0:
256,192,93961,1,0,0:0:0:0:
256,192,94129,1,0,0:0:0:0:
256,192,94212,1,0,0:0:0:0:
256,192,94296,1,8,0:0:0:0:
256,192,94464,1,8,0:0:0:0:
256,192,94631,1,0,0:0:0:0:
256,192,94799,1,0,0:0:0:0:
256,192,94883,1,0,0:0:0:0:
256,192,94967,1,8,0:0:0:0:
256,192,95050,1,8,0:0:0:0:
256,192,95134,1,8,0:0:0:0:
256,192,95302,1,0,0:0:0:0:
256,192,95469,1,0,0:0:0:0:
256,192,95553,1,0,0:0:0:0:
256,192,95637,1,8,0:0:0:0:
256,192,95805,1,0,0:0:0:0:
256,192,95972,1,8,0:0:0:0:
256,192,96056,1,8,0:0:0:0:
256,192,96140,1,0,0:0:0:0:
256,192,96224,1,0,0:0:0:0:
256,192,96307,1,8,0:0:0:0:
256,192,96475,1,8,0:0:0:0:
256,192,96643,1,0,0:0:0:0:
256,192,96810,1,0,0:0:0:0:
256,192,96893,1,0,0:0:0:0:
256,192,96977,1,8,0:0:0:0:
256,192,97145,1,0,0:0:0:0:
256,192,97312,1,8,0:0:0:0:
256,192,97480,1,8,0:0:0:0:
256,192,97648,1,8,0:0:0:0:
256,192,97731,1,0,0:0:0:0:
256,192,97815,1,8,0:0:0:0:
256,192,97899,1,8,0:0:0:0:
256,192,97983,1,0,0:0:0:0:
256,192,98150,1,0,0:0:0:0:
256,192,98234,1,0,0:0:0:0:
256,192,98318,1,8,0:0:0:0:
256,192,98486,1,0,0:0:0:0:
256,192,98654,1,8,0:0:0:0:
256,192,98737,1,8,0:0:0:0:
256,192,98821,1,0,0:0:0:0:
256,192,98905,1,0,0:0:0:0:
256,192,98989,1,8,0:0:0:0:
256,192,99072,1,8,0:0:0:0:
256,192,99156,1,8,0:0:0:0:
256,192,99240,1,8,0:0:0:0:
256,192,99324,1,0,0:0:0:0:
256,192,99492,1,0,0:0:0:0:
256,192,99575,1,0,0:0:0:0:
256,192,99659,1,8,0:0:0:0:
256,192,99827,1,8,0:0:0:0:
256,192,99994,1,0,0:0:0:0:
256,192,100162,1,0,0:0:0:0:
256,192,100245,1,0,0:0:0:0:
256,192,100330,1,8,0:0:0:0:
256,192,100413,1,0,0:0:0:0:
256,192,100497,1,8,0:0:0:0:
256,192,100581,1,8,0:0:0:0:
256,192,100665,1,0,0:0:0:0:
256,192,100832,1,0,0:0:0:0:
256,192,100916,1,0,0:0:0:0:
256,192,101000,1,8,0:0:0:0:
256,192,101083,1,8,0:0:0:0:
256,192,101168,1,0,0:0:0:0:
256,192,101335,1,8,0:0:0:0:
256,192,101503,1,0,0:0:0:0:
256,192,101586,1,8,0:0:0:0:
256,192,101670,1,0,0:0:0:0:
256,192,101754,1,0,0:0:0:0:
256,192,101838,1,8,0:0:0:0:
256,192,101921,1,8,0:0:0:0:
256,192,102006,1,0,0:0:0:0:
256,192,102173,1,0,0:0:0:0:
256,192,102257,1,0,0:0:0:0:
256,192,102340,1,8,0:0:0:0:
256,192,102508,1,0,0:0:0:0:
256,192,102676,1,8,0:0:0:0:
256,192,102760,1,0,0:0:0:0:
256,192,102844,1,8,0:0:0:0:
256,192,102927,1,8,0:0:0:0:
256,192,103011,1,0,0:0:0:0:
256,192,103095,1,0,0:0:0:0:
256,192,103178,1,8,0:0:0:0:
256,192,103262,1,8,0:0:0:0:
256,192,103346,1,0,0:0:0:0:
256,192,103681,1,8,0:0:0:0:
256,192,103849,1,0,0:0:0:0:
256,192,104017,1,8,0:0:0:0:
256,192,104100,1,8,0:0:0:0:
256,192,104184,1,0,0:0:0:0:
256,192,104268,1,0,0:0:0:0:
256,192,104352,1,8,0:0:0:0:
256,192,104435,1,0,0:0:0:0:
256,192,104519,1,8,0:0:0:0:
256,192,104603,1,8,0:0:0:0:
256,192,104687,1,0,0:0:0:0:
256,192,104855,1,0,0:0:0:0:
256,192,104938,1,0,0:0:0:0:
256,192,105022,1,8,0:0:0:0:
256,192,105190,1,8,0:0:0:0:
256,192,105357,1,0,0:0:0:0:
256,192,105525,1,8,0:0:0:0:
256,192,105609,1,0,0:0:0:0:
256,192,105693,1,8,0:0:0:0:
256,192,105776,1,0,0:0:0:0:
256,192,105860,1,8,0:0:0:0:
256,192,105944,1,8,0:0:0:0:
256,192,106028,1,0,0:0:0:0:
256,192,106195,1,0,0:0:0:0:
256,192,106279,1,0,0:0:0:0:
256,192,106363,1,8,0:0:0:0:
256,192,106531,1,0,0:0:0:0:
256,192,106698,1,8,0:0:0:0:
256,192,106782,1,8,0:0:0:0:
256,192,106866,1,0,0:0:0:0:
256,192,106950,1,0,0:0:0:0:
256,192,107033,1,8,0:0:0:0:
256,192,107117,1,8,0:0:0:0:
256,192,107201,1,0,0:0:0:0:
256,192,107284,1,8,0:0:0:0:
256,192,107369,1,0,0:0:0:0:
256,192,107536,1,0,0:0:0:0:
256,192,107620,1,0,0:0:0:0:
256,192,107703,1,8,0:0:0:0:
256,192,107871,1,0,0:0:0:0:
256,192,108039,1,8,0:0:0:0:
256,192,108123,1,8,0:0:0:0:
256,192,108207,1,8,0:0:0:0:
256,192,108290,1,8,0:0:0:0:
256,192,108374,1,0,0:0:0:0:
256,192,108458,1,0,0:0:0:0:
256,192,108542,1,8,0:0:0:0:
256,192,108625,1,8,0:0:0:0:
256,192,108709,1,4,0:0:0:0:
256,192,108877,8,0,109966,0:0:0:0:
