osu file format v14

[General]
AudioFilename: audio.mp3
AudioLeadIn: 0
PreviewTime: 22899
Countdown: 0
SampleSet: Normal
StackLeniency: 0.7
Mode: 1
LetterboxInBreaks: 0
WidescreenStoryboard: 1

[Editor]
DistanceSpacing: 1
BeatDivisor: 4
GridSize: 32
TimelineZoom: 1.6

[Metadata]
Title:SAS, SSS, ASA, AAS (Mimi Neko J-core remix)
TitleUnicode:SAS, SSS, ASA, AAS (Mimi Neko J-core remix)
Artist:R.H.S.
ArtistUnicode:R.H.S.
Creator:The Law
Version:Futsuu
Source:
Tags:全等三角形 congruent triangles 三角形 side right angle 斜邊 hypotenuse 數學 maths mathematics 數理 geometry 證明 proof raymond howard stephen rhs MCKLN Modest Caring and Knowledgeable Leaders of the New era silver convention fly robin fly 循道中學 methodist college campus tv mctv mimiproduction Triangle Boyz Original electronic english novelty Hong Kong 香港
BeatmapID:4541446
BeatmapSetID:2099263

[Difficulty]
HPDrainRate:7
CircleSize:5
OverallDifficulty:4
ApproachRate:5
SliderMultiplier:1.4
SliderTickRate:1

[Events]
//Background and Video events
0,0,"BGH.jpg",0,80
//Break Periods
2,66004,75330
//Storyboard Layer 0 (Background)
//Storyboard Layer 1 (Fail)
//Storyboard Layer 2 (Pass)
//Storyboard Layer 3 (Foreground)
//Storyboard Layer 4 (Overlay)
//Storyboard Sound Samples

[TimingPoints]
108,335.195530726257,4,1,0,10,1,8
1363,-100,4,1,0,50,0,8
1447,335.195530726257,4,1,0,50,1,0
1447,-111.111111111111,4,1,0,50,0,0
12005,-105.263157894737,4,1,0,50,0,0
17368,-102.564102564103,4,1,0,65,0,0
22899,-100,4,1,0,80,0,0
33122,-97.5609756097561,4,1,0,80,0,0
33625,-95.2380952380952,4,1,0,80,0,1
44352,-100,4,1,0,80,0,0
55078,-95.2380952380952,4,1,0,80,0,1
65804,-100,4,1,0,20,0,0
65972,-117.647058823529,4,1,0,20,0,0
76363,-111.111111111111,4,1,0,50,0,0
81642,-105.263157894737,4,1,0,60,0,0
84407,-102.564102564103,4,1,0,70,0,0
87254,-95.2380952380952,4,1,0,80,0,0
97983,-95.2380952380952,4,1,0,80,0,1
108709,-95.2380952380952,4,1,0,80,0,0
108793,-83.3333333333333,4,1,0,40,0,0
109966,-100,4,1,0,40,0,0

[HitObjects]
256,192,1447,5,4,0:0:0:0:
256,192,1949,1,0,0:0:0:0:
256,192,2620,1,8,0:0:0:0:
256,192,2955,1,8,0:0:0:0:
256,192,3290,1,8,0:0:0:0:
256,192,4128,1,0,0:0:0:0:
256,192,4631,1,0,0:0:0:0:
256,192,5134,1,8,0:0:0:0:
256,192,5636,1,8,0:0:0:0:
256,192,6139,1,8,0:0:0:0:
256,192,6474,1,8,0:0:0:0:
256,192,6810,1,0,0:0:0:0:
256,192,7312,1,0,0:0:0:0:
256,192,7983,1,8,0:0:0:0:
256,192,8318,1,8,0:0:0:0:
256,192,8653,1,8,0:0:0:0:
256,192,9491,1,0,0:0:0:0:
256,192,9994,1,0,0:0:0:0:
256,192,10497,1,8,0:0:0:0:
256,192,11000,1,8,0:0:0:0:
256,192,11502,1,8,0:0:0:0:
256,192,11838,1,8,0:0:0:0:
256,192,12173,1,4,0:0:0:0:
256,192,12508,1,0,0:0:0:0:
256,192,12676,1,0,0:0:0:0:
256,192,12843,1,8,0:0:0:0:
256,192,13514,1,8,0:0:0:0:
256,192,13849,1,0,0:0:0:0:
256,192,14184,1,8,0:0:0:0:
256,192,14854,1,8,0:0:0:0:
256,192,15022,1,8,0:0:0:0:
256,192,15190,1,0,0:0:0:0:
256,192,15525,1,8,0:0:0:0:
256,192,15860,1,0,0:0:0:0:
256,192,16195,1,8,0:0:0:0:
256,192,16530,1,0,0:0:0:0:
256,192,16698,1,0,0:0:0:0:
256,192,16865,1,8,0:0:0:0:
256,192,17201,1,8,0:0:0:0:
256,192,17536,1,4,0:0:0:0:
256,192,17871,1,0,0:0:0:0:
256,192,18039,1,0,0:0:0:0:
256,192,18206,1,8,0:0:0:0:
256,192,18877,1,8,0:0:0:0:
256,192,19212,1,0,0:0:0:0:
256,192,19547,1,8,0:0:0:0:
256,192,20217,1,8,0:0:0:0:
256,192,20385,1,8,0:0:0:0:
256,192,20553,1,0,0:0:0:0:
256,192,20888,1,8,0:0:0:0:
256,192,21223,1,0,0:0:0:0:
256,192,21558,1,8,0:0:0:0:
256,192,21726,1,0,0:0:0:0:
256,192,21893,1,8,0:0:0:0:
256,192,22061,1,0,0:0:0:0:
256,192,22229,1,8,0:0:0:0:
256,192,22899,1,12,0:0:0:0:
256,192,23234,1,8,0:0:0:0:
256,192,23402,1,0,0:0:0:0:
256,192,23569,1,8,0:0:0:0:
256,192,23905,1,8,0:0:0:0:
256,192,24240,1,0,0:0:0:0:
256,192,24575,1,8,0:0:0:0:
256,192,24743,1,8,0:0:0:0:
256,192,24910,1,0,0:0:0:0:
256,192,25245,1,8,0:0:0:0:
256,192,25581,1,0,0:0:0:0:
256,192,25748,1,0,0:0:0:0:
256,192,25916,1,8,0:0:0:0:
256,192,26083,1,8,0:0:0:0:
256,192,26251,1,0,0:0:0:0:
256,192,26586,1,8,0:0:0:0:
256,192,26921,1,0,0:0:0:0:
256,192,27089,1,0,0:0:0:0:
256,192,27257,1,8,0:0:0:0:
256,192,27424,1,0,0:0:0:0:
256,192,27592,1,8,0:0:0:0:
256,192,28262,1,0,0:0:0:0:
256,192,28597,1,8,0:0:0:0:
256,192,28765,1,8,0:0:0:0:
256,192,28933,1,0,0:0:0:0:
256,192,29268,1,8,0:0:0:0:
256,192,29603,1,0,0:0:0:0:
256,192,29938,1,8,0:0:0:0:
256,192,30106,1,0,0:0:0:0:
256,192,30273,1,8,0:0:0:0:
256,192,30609,1,8,0:0:0:0:
256,192,30944,1,0,0:0:0:0:
256,192,31111,1,0,0:0:0:0:
256,192,31279,1,8,0:0:0:0:
256,192,31447,1,0,0:0:0:0:
256,192,31614,1,8,0:0:0:0:
256,192,31949,1,0,0:0:0:0:
256,192,32284,1,8,0:0:0:0:
256,192,32452,1,8,0:0:0:0:
256,192,32620,1,0,0:0:0:0:
256,192,32787,1,0,0:0:0:0:
256,192,32955,1,8,0:0:0:0:
256,192,33625,1,8,0:0:0:0:
256,192,33960,1,8,0:0:0:0:
256,192,34128,1,0,0:0:0:0:
256,192,34296,1,8,0:0:0:0:
256,192,34631,1,8,0:0:0:0:
256,192,34966,1,0,0:0:0:0:
256,192,35301,1,0,0:0:0:0:
256,192,35469,1,8,0:0:0:0:
256,192,35636,1,0,0:0:0:0:
256,192,35972,1,0,0:0:0:0:
256,192,36307,1,8,0:0:0:0:
256,192,36474,1,8,0:0:0:0:
256,192,36642,1,0,0:0:0:0:
256,192,36810,1,0,0:0:0:0:
256,192,36977,1,8,0:0:0:0:
256,192,37312,1,8,0:0:0:0:
256,192,37648,1,0,0:0:0:0:
256,192,37815,1,0,0:0:0:0:
256,192,37983,1,8,0:0:0:0:
256,192,38150,1,8,0:0:0:0:
256,192,38318,1,0,0:0:0:0:
256,192,38653,1,8,0:0:0:0:
256,192,38988,1,0,0:0:0:0:
256,192,39324,1,8,0:0:0:0:
256,192,39491,1,8,0:0:0:0:
256,192,39659,1,0,0:0:0:0:
256,192,39994,1,0,0:0:0:0:
256,192,40329,1,8,0:0:0:0:
256,192,40664,1,0,0:0:0:0:
256,192,40832,1,0,0:0:0:0:
256,192,41000,1,8,0:0:0:0:
256,192,41335,1,0,0:0:0:0:
256,192,41670,1,8,0:0:0:0:
256,192,41838,1,8,0:0:0:0:
256,192,42005,1,0,0:0:0:0:
256,192,42173,1,0,0:0:0:0:
256,192,42340,1,8,0:0:0:0:
256,192,42676,1,0,0:0:0:0:
256,192,43011,1,8,0:0:0:0:
256,192,43178,1,8,0:0:0:0:
256,192,43346,1,0,0:0:0:0:
256,192,43514,1,8,0:0:0:0:
256,192,43681,1,8,0:0:0:0:
256,192,44352,1,4,0:0:0:0:
256,192,44687,1,0,0:0:0:0:
256,192,44854,1,0,0:0:0:0:
256,192,45022,1,8,0:0:0:0:
256,192,45692,1,8,0:0:0:0:
256,192,46028,1,8,0:0:0:0:
256,192,46195,1,0,0:0:0:0:
256,192,46363,1,8,0:0:0:0:
256,192,47033,1,8,0:0:0:0:
256,192,47201,1,8,0:0:0:0:
256,192,47368,1,0,0:0:0:0:
256,192,47536,1,0,0:0:0:0:
256,192,47703,1,8,0:0:0:0:
256,192,48374,1,8,0:0:0:0:
256,192,48541,1,0,0:0:0:0:
256,192,48709,1,8,0:0:0:0:
256,192,48877,1,0,0:0:0:0:
256,192,49044,1,8,0:0:0:0:
256,192,49715,1,8,0:0:0:0:
256,192,50050,1,0,0:0:0:0:
256,192,50217,1,0,0:0:0:0:
256,192,50385,1,8,0:0:0:0:
256,192,51055,1,8,0:0:0:0:
256,192,51391,1,8,0:0:0:0:
256,192,51558,1,0,0:0:0:0:
256,192,51726,1,8,0:0:0:0:
256,192,52396,1,8,0:0:0:0:
256,192,52564,1,8,0:0:0:0:
256,192,52731,1,0,0:0:0:0:
256,192,52899,1,0,0:0:0:0:
256,192,53067,1,8,0:0:0:0:
256,192,53402,1,0,0:0:0:0:
256,192,53737,1,8,0:0:0:0:
256,192,53905,1,0,0:0:0:0:
256,192,54072,1,8,0:0:0:0:
256,192,54240,1,0,0:0:0:0:
256,192,54407,1,8,0:0:0:0:
256,192,55078,1,4,0:0:0:0:
256,192,55413,1,8,0:0:0:0:
256,192,55581,1,8,0:0:0:0:
256,192,55916,1,8,0:0:0:0:
256,192,56083,1,8,0:0:0:0:
256,192,56419,1,0,0:0:0:0:
256,192,56754,1,0,0:0:0:0:
256,192,56921,1,0,0:0:0:0:
256,192,57089,1,0,0:0:0:0:
256,192,57424,1,8,0:0:0:0:
256,192,57759,1,8,0:0:0:0:
256,192,57927,1,0,0:0:0:0:
256,192,58095,1,0,0:0:0:0:
256,192,58262,1,8,0:0:0:0:
256,192,58597,1,8,0:0:0:0:
256,192,58765,1,0,0:0:0:0:
256,192,59100,1,8,0:0:0:0:
256,192,59268,1,0,0:0:0:0:
256,192,59435,1,8,0:0:0:0:
256,192,59603,1,8,0:0:0:0:
256,192,59771,1,0,0:0:0:0:
256,192,60441,1,0,0:0:0:0:
256,192,60776,1,8,0:0:0:0:
256,192,60944,1,0,0:0:0:0:
256,192,61279,1,0,0:0:0:0:
256,192,61447,1,8,0:0:0:0:
256,192,61782,1,0,0:0:0:0:
256,192,62117,1,0,0:0:0:0:
256,192,62284,1,8,0:0:0:0:
256,192,62452,1,0,0:0:0:0:
256,192,62787,1,8,0:0:0:0:
256,192,63122,1,8,0:0:0:0:
256,192,63290,1,8,0:0:0:0:
256,192,63458,1,0,0:0:0:0:
256,192,63625,1,8,0:0:0:0:
256,192,63960,1,8,0:0:0:0:
256,192,64128,1,0,0:0:0:0:
256,192,64463,12,0,65804,0:0:0:0:
256,192,76530,5,0,0:0:0:0:
256,192,77201,1,0,0:0:0:0:
256,192,77871,1,8,0:0:0:0:
256,192,78541,1,8,0:0:0:0:
256,192,79212,1,0,0:0:0:0:
256,192,79882,1,0,0:0:0:0:
256,192,80553,1,0,0:0:0:0:
256,192,81223,1,8,0:0:0:0:
256,192,81893,1,0,0:0:0:0:
256,192,82229,1,0,0:0:0:0:
256,192,82564,1,8,0:0:0:0:
256,192,82899,1,0,0:0:0:0:
256,192,83234,1,8,0:0:0:0:
256,192,83569,1,8,0:0:0:0:
256,192,83905,1,0,0:0:0:0:
256,192,84240,1,0,0:0:0:0:
256,192,84575,1,8,0:0:0:0:
256,192,84743,1,8,0:0:0:0:
256,192,84910,1,0,0:0:0:0:
256,192,85078,1,0,0:0:0:0:
256,192,85245,1,8,0:0:0:0:
256,192,85581,1,0,0:0:0:0:
256,192,85916,1,8,0:0:0:0:
256,192,86083,1,0,0:0:0:0:
256,192,86251,1,8,0:0:0:0:
256,192,86419,1,0,0:0:0:0:
256,192,86586,1,8,0:0:0:0:
256,192,87257,1,4,0:0:0:0:
256,192,87592,1,8,0:0:0:0:
256,192,87760,1,8,0:0:0:0:
256,192,88095,1,8,0:0:0:0:
256,192,88262,1,8,0:0:0:0:
256,192,88598,1,0,0:0:0:0:
256,192,88933,1,0,0:0:0:0:
256,192,89100,1,8,0:0:0:0:
256,192,89268,1,0,0:0:0:0:
256,192,89603,1,0,0:0:0:0:
256,192,89938,1,8,0:0:0:0:
256,192,90106,1,8,0:0:0:0:
256,192,90274,1,0,0:0:0:0:
256,192,90441,1,8,0:0:0:0:
256,192,90776,1,0,0:0:0:0:
256,192,90944,1,8,0:0:0:0:
256,192,91279,1,0,0:0:0:0:
256,192,91447,1,0,0:0:0:0:
256,192,91614,1,8,0:0:0:0:
256,192,91782,1,0,0:0:0:0:
256,192,91950,1,8,0:0:0:0:
256,192,92620,1,0,0:0:0:0:
256,192,92955,1,8,0:0:0:0:
256,192,93123,1,8,0:0:0:0:
256,192,93458,1,0,0:0:0:0:
256,192,93626,1,8,0:0:0:0:
256,192,93961,1,0,0:0:0:0:
256,192,94296,1,8,0:0:0:0:
256,192,94463,1,0,0:0:0:0:
256,192,94631,1,8,0:0:0:0:
256,192,94966,1,8,0:0:0:0:
256,192,95301,1,0,0:0:0:0:
256,192,95469,1,8,0:0:0:0:
256,192,95637,1,0,0:0:0:0:
256,192,95804,1,8,0:0:0:0:
256,192,96139,1,8,0:0:0:0:
256,192,96307,1,0,0:0:0:0:
256,192,96642,1,8,0:0:0:0:
256,192,96810,1,0,0:0:0:0:
256,192,96977,1,8,0:0:0:0:
256,192,97145,1,0,0:0:0:0:
256,192,97312,1,8,0:0:0:0:
256,192,97983,1,0,0:0:0:0:
256,192,98318,1,8,0:0:0:0:
256,192,98486,1,0,0:0:0:0:
256,192,98653,1,0,0:0:0:0:
256,192,98821,1,0,0:0:0:0:
256,192,98988,1,8,0:0:0:0:
256,192,99324,1,0,0:0:0:0:
256,192,99659,1,8,0:0:0:0:
256,192,99826,1,8,0:0:0:0:
256,192,99994,1,0,0:0:0:0:
256,192,100329,1,8,0:0:0:0:
256,192,100664,1,8,0:0:0:0:
256,192,100832,1,0,0:0:0:0:
256,192,101000,1,0,0:0:0:0:
256,192,101167,1,8,0:0:0:0:
256,192,101335,1,0,0:0:0:0:
256,192,101670,1,8,0:0:0:0:
256,192,102005,1,0,0:0:0:0:
256,192,102173,1,8,0:0:0:0:
256,192,102340,1,0,0:0:0:0:
256,192,102508,1,0,0:0:0:0:
256,192,102676,1,8,0:0:0:0:
256,192,103011,1,8,0:0:0:0:
256,192,103346,1,0,0:0:0:0:
256,192,103681,1,0,0:0:0:0:
256,192,103849,1,8,0:0:0:0:
256,192,104016,1,0,0:0:0:0:
256,192,104184,1,8,0:0:0:0:
256,192,104352,1,0,0:0:0:0:
256,192,104687,1,8,0:0:0:0:
256,192,105022,1,8,0:0:0:0:
256,192,105190,1,8,0:0:0:0:
256,192,105357,1,0,0:0:0:0:
256,192,105692,1,8,0:0:0:0:
256,192,106028,1,0,0:0:0:0:
256,192,106195,1,8,0:0:0:0:
256,192,106363,1,0,0:0:0:0:
256,192,106530,1,0,0:0:0:0:
256,192,106698,1,8,0:0:0:0:
256,192,107033,1,0,0:0:0:0:
256,192,107368,1,8,0:0:0:0:
256,192,107536,1,8,0:0:0:0:
256,192,107703,1,0,0:0:0:0:
256,192,107871,1,8,0:0:0:0:
256,192,108039,1,8,0:0:0:0:
256,192,108709,1,4,0:0:0:0:
256,192,108877,12,0,109966,0:0:0:0:
