osu file format v14

[General]
AudioFilename: audio.mp3
AudioLeadIn: 0
PreviewTime: 22899
Countdown: 0
SampleSet: Normal
StackLeniency: 0.7
Mode: 1
LetterboxInBreaks: 0
WidescreenStoryboard: 0

[Editor]
DistanceSpacing: 1
BeatDivisor: 4
GridSize: 32
TimelineZoom: 3.699999

[Metadata]
Title:SAS, SSS, ASA, AAS (Mimi Neko J-core remix)
TitleUnicode:SAS, SSS, ASA, AAS (Mimi Neko J-core remix)
Artist:R.H.S.
ArtistUnicode:R.H.S.
Creator:The Law
Version:Congruent Oni
Source:
Tags:全等三角形 congruent triangles 三角形 side right angle 斜邊 hypotenuse 數學 maths mathematics 數理 geometry 證明 proof raymond howard stephen rhs MCKLN Modest Caring and Knowledgeable Leaders of the New era silver convention fly robin fly 循道中學 methodist college campus tv mctv mimiproduction Triangle Boyz Original electronic english novelty Hong Kong 香港
BeatmapID:4403580
BeatmapSetID:2099263

[Difficulty]
HPDrainRate:7
CircleSize:5
OverallDifficulty:6.5
ApproachRate:5
SliderMultiplier:1.4
SliderTickRate:1

[Events]
//Background and Video events
0,0,"BGH.jpg",0,80
//Break Periods
2,65836,75330
//Storyboard Layer 0 (Background)
//Storyboard Layer 1 (Fail)
//Storyboard Layer 2 (Pass)
//Storyboard Layer 3 (Foreground)
//Storyboard Layer 4 (Overlay)
//Storyboard Sound Samples

[TimingPoints]
108,335.195530726257,4,1,0,10,1,8
1363,-100,4,1,0,50,0,8
1447,335.195530726257,4,1,0,50,1,0
1447,-142.857142857143,4,1,0,50,0,0
12089,-125,4,1,0,65,0,0
17368,-111.111111111111,4,1,0,65,0,0
20050,-105.263157894737,4,1,0,65,0,0
21555,-100,4,1,0,65,0,0
21723,-98.7627043747238,4,1,0,65,0,0
21890,-97.5627500909422,4,1,0,65,0,0
22058,-96.3846762021131,4,1,0,65,0,0
22226,-95.2347134436475,4,1,0,65,0,0
22393,-94.1184727681078,4,1,0,65,0,0
22561,-93.0216426193119,4,1,0,65,0,0
22645,-92.4827586206896,4,1,0,65,0,0
22728,-91.9563875745731,4,1,0,65,0,0
22812,-91.4297402331765,4,1,0,65,0,0
22899,-90.9090909090909,4,1,0,80,0,0
33119,-89.4896419078657,4,1,0,80,0,0
33287,-88.1057268722467,4,1,0,80,0,0
33371,-87.4296973888534,4,1,0,80,0,0
33455,-86.7639631706401,4,1,0,80,0,0
33538,-86.1160381481196,4,1,0,80,0,0
33625,-85.4700854700855,4,1,0,80,0,1
43092,-86.2551376801806,4,1,0,80,0,1
43175,-87.0451388438121,4,1,0,80,0,1
43259,-87.8595295813405,4,1,0,80,0,1
43343,-88.6893030515469,4,1,0,80,0,1
43427,-89.5348992482006,4,1,0,80,0,1
43511,-90.3967751068448,4,1,0,80,0,1
43594,-91.2648449994896,4,1,0,80,0,1
43678,-92.1605146144172,4,1,0,80,0,1
43762,-93.0739386031274,4,1,0,80,0,1
43846,-94.005650153171,4,1,0,80,0,1
43930,-94.9562040177591,4,1,0,80,0,1
44013,-95.9145137756416,4,1,0,80,0,1
44097,-96.9042663891779,4,1,0,80,0,1
44181,-97.9146587225094,4,1,0,80,0,1
44265,-98.9463431910749,4,1,0,80,0,1
44352,-100,4,1,0,80,0,0
53818,-98.9463431910749,4,1,0,80,0,0
53902,-97.9146587225094,4,1,0,80,0,0
53985,-96.9161722086914,4,1,0,80,0,0
54069,-95.9261776172252,4,1,0,80,0,0
54153,-94.9562040177591,4,1,0,80,0,0
54237,-94.005650153171,4,1,0,80,0,0
54404,-92.1712832497079,4,1,0,80,0,0
54572,-90.3967751068448,4,1,0,80,0,0
54740,-88.6893030515469,4,1,0,80,0,0
54823,-87.8693165064575,4,1,0,80,0,0
54907,-87.0547451652482,4,1,0,80,0,0
54991,-86.2551376801806,4,1,0,80,0,0
55078,-85.4700854700855,4,1,0,80,0,1
64544,-86.9599050639068,4,1,0,80,0,1
64628,-88.5025838002653,4,1,0,80,0,1
64712,-90.1009856685009,4,1,0,80,0,1
64795,-91.7380983328431,4,1,0,80,0,1
64879,-93.4566412756379,4,1,0,80,0,1
64963,-95.2408008465849,4,1,0,80,0,1
65047,-97.0944082019795,4,1,0,80,0,1
65131,-99.021598670851,4,1,0,80,0,1
65214,-101.002493051842,4,1,0,80,0,1
65298,-103.089613394731,4,1,0,80,0,1
65382,-105.264810468393,4,1,0,80,0,1
65466,-107.53377972014,4,1,0,80,0,1
65550,-109.902718473655,4,1,0,80,0,1
65633,-112.348254454973,4,1,0,80,0,1
65717,-114.936617726466,4,1,0,80,0,1
65804,-117.647058823529,4,1,0,80,0,0
65972,-117.647058823529,4,1,0,20,0,0
67061,-123.456790123457,4,1,0,20,0,0
68318,-129.87012987013,4,1,0,20,0,0
69659,-136.986301369863,4,1,0,20,0,0
71000,-144.927536231884,4,1,0,20,0,0
72340,-153.846153846154,4,1,0,20,0,0
73681,-163.934426229508,4,1,0,20,0,0
75022,-175.438596491228,4,1,0,20,0,0
76510,-125,4,1,0,50,0,0
81726,-111.111111111111,4,1,0,60,0,0
84572,-105.263157894737,4,1,0,70,0,0
84740,-104.232249038125,4,1,0,75,0,0
84907,-103.227296345477,4,1,0,75,0,0
85075,-102.235691005775,4,1,0,75,0,0
85242,-101.268690530131,4,1,0,75,0,0
85410,-100.314183123878,4,1,0,75,0,0
85578,-99.3775011116052,4,1,0,75,0,0
85745,-98.4635717825871,4,1,0,75,0,0
85913,-97.5609756097561,4,1,0,75,0,0
85997,-97.1158546521102,4,1,0,75,0,0
86080,-96.6800043257273,4,1,0,75,0,0
86164,-96.2428679082786,4,1,0,75,0,0
86248,-95.8096667023899,4,1,0,75,0,0
86332,-95.3803478075323,4,1,0,75,0,0
86416,-94.9548592671269,4,1,0,75,0,0
86499,-94.5381483635595,4,1,0,75,0,0
86583,-94.1201242301416,4,1,0,75,0,0
86667,-93.7057806194644,4,1,0,75,0,0
86751,-93.2950691364466,4,1,0,75,0,0
86835,-92.8879422307652,4,1,0,75,0,0
86918,-92.4891371818746,4,1,0,75,0,0
87002,-92.0889987639061,4,1,0,75,0,0
87086,-91.6923076923077,4,1,0,75,0,0
87170,-91.2990196078431,4,1,0,75,0,0
87254,-90.9090909090909,4,1,0,80,0,0
97477,-88.8859451582991,4,1,0,80,0,0
97645,-86.9508876506414,4,1,0,80,0,0
97728,-86.025641025641,4,1,0,80,0,0
97812,-85.1090816844242,4,1,0,80,0,0
97896,-84.2118473895582,4,1,0,80,0,0
97983,-83.3333333333333,4,1,0,80,0,1
108709,-83.3333333333333,4,1,0,80,0,0
108793,-33.3333333333333,4,1,0,40,0,0
109966,-83.3333333333333,4,1,0,40,0,0

[HitObjects]
256,192,1447,5,4,0:0:0:0:
256,192,1949,1,0,0:0:0:0:
256,192,2620,1,8,0:0:0:0:
256,192,2955,1,8,0:0:0:0:
256,192,3290,1,8,0:0:0:0:
256,192,3625,1,8,0:0:0:0:
256,192,3960,1,8,0:0:0:0:
256,192,4128,1,0,0:0:0:0:
256,192,4631,1,0,0:0:0:0:
256,192,5134,1,8,0:0:0:0:
256,192,5636,1,8,0:0:0:0:
256,192,6139,1,8,0:0:0:0:
256,192,6474,1,8,0:0:0:0:
256,192,6810,1,0,0:0:0:0:
256,192,7312,1,0,0:0:0:0:
256,192,7983,1,8,0:0:0:0:
256,192,8318,1,8,0:0:0:0:
256,192,8653,1,8,0:0:0:0:
256,192,8988,1,8,0:0:0:0:
256,192,9324,1,8,0:0:0:0:
256,192,9491,1,0,0:0:0:0:
256,192,9994,1,0,0:0:0:0:
256,192,10497,1,8,0:0:0:0:
256,192,11000,1,8,0:0:0:0:
256,192,11502,1,8,0:0:0:0:
256,192,11838,1,8,0:0:0:0:
256,192,12173,1,4,0:0:0:0:
256,192,12508,1,8,0:0:0:0:
256,192,12676,1,0,0:0:0:0:
256,192,12843,1,8,0:0:0:0:
256,192,13178,1,8,0:0:0:0:
256,192,13514,1,0,0:0:0:0:
256,192,13849,1,8,0:0:0:0:
256,192,14016,1,8,0:0:0:0:
256,192,14184,1,0,0:0:0:0:
256,192,14519,1,8,0:0:0:0:
256,192,14854,1,0,0:0:0:0:
256,192,15022,1,0,0:0:0:0:
256,192,15190,1,8,0:0:0:0:
256,192,15357,1,0,0:0:0:0:
256,192,15525,1,8,0:0:0:0:
256,192,15860,1,8,0:0:0:0:
256,192,16195,1,8,0:0:0:0:
256,192,16363,1,0,0:0:0:0:
256,192,16530,1,8,0:0:0:0:
256,192,16698,1,0,0:0:0:0:
256,192,16865,1,8,0:0:0:0:
256,192,17201,1,8,0:0:0:0:
256,192,17536,1,4,0:0:0:0:
256,192,17871,1,8,0:0:0:0:
256,192,18039,1,0,0:0:0:0:
256,192,18206,1,8,0:0:0:0:
256,192,18541,1,8,0:0:0:0:
256,192,18877,1,0,0:0:0:0:
256,192,19212,1,8,0:0:0:0:
256,192,19379,1,8,0:0:0:0:
256,192,19547,1,0,0:0:0:0:
256,192,19882,1,8,0:0:0:0:
256,192,20217,1,8,0:0:0:0:
256,192,20385,1,0,0:0:0:0:
256,192,20553,1,8,0:0:0:0:
256,192,20720,1,0,0:0:0:0:
256,192,20888,1,8,0:0:0:0:
256,192,21055,1,8,0:0:0:0:
256,192,21223,1,0,0:0:0:0:
256,192,21391,1,0,0:0:0:0:
256,192,21558,1,8,0:0:0:0:
256,192,21726,1,0,0:0:0:0:
256,192,21893,1,8,0:0:0:0:
256,192,22061,1,0,0:0:0:0:
256,192,22229,1,8,0:0:0:0:
256,192,22396,1,8,0:0:0:0:
256,192,22564,1,8,0:0:0:0:
256,192,22648,1,8,0:0:0:0:
256,192,22731,1,8,0:0:0:0:
256,192,22815,1,8,0:0:0:0:
256,192,22899,1,4,0:0:0:0:
256,192,23067,1,0,0:0:0:0:
256,192,23150,1,0,0:0:0:0:
256,192,23234,1,8,0:0:0:0:
256,192,23402,1,0,0:0:0:0:
256,192,23569,1,8,0:0:0:0:
256,192,23653,1,8,0:0:0:0:
256,192,23737,1,0,0:0:0:0:
256,192,23821,1,0,0:0:0:0:
256,192,23905,1,8,0:0:0:0:
256,192,24072,1,0,0:0:0:0:
256,192,24240,1,8,0:0:0:0:
256,192,24324,1,8,0:0:0:0:
256,192,24407,1,0,0:0:0:0:
256,192,24575,1,8,0:0:0:0:
256,192,24659,1,8,0:0:0:0:
256,192,24743,1,0,0:0:0:0:
256,192,24910,1,8,0:0:0:0:
256,192,24994,1,0,0:0:0:0:
256,192,25078,1,0,0:0:0:0:
256,192,25162,1,0,0:0:0:0:
256,192,25245,1,8,0:0:0:0:
256,192,25413,1,8,0:0:0:0:
256,192,25581,1,0,0:0:0:0:
256,192,25664,1,0,0:0:0:0:
256,192,25748,1,8,0:0:0:0:
256,192,25832,1,0,0:0:0:0:
256,192,25916,1,8,0:0:0:0:
256,192,26000,1,8,0:0:0:0:
256,192,26083,1,0,0:0:0:0:
256,192,26167,1,0,0:0:0:0:
256,192,26251,1,8,0:0:0:0:
256,192,26419,1,0,0:0:0:0:
256,192,26502,1,0,0:0:0:0:
256,192,26586,1,8,0:0:0:0:
256,192,26754,1,0,0:0:0:0:
256,192,26921,1,8,0:0:0:0:
256,192,27005,1,0,0:0:0:0:
256,192,27089,1,8,0:0:0:0:
256,192,27173,1,0,0:0:0:0:
256,192,27257,1,8,0:0:0:0:
256,192,27340,1,8,0:0:0:0:
256,192,27424,1,0,0:0:0:0:
256,192,27508,1,0,0:0:0:0:
256,192,27592,1,8,0:0:0:0:
256,192,27676,1,0,0:0:0:0:
256,192,27759,1,0,0:0:0:0:
256,192,27843,1,0,0:0:0:0:
256,192,27927,1,8,0:0:0:0:
256,192,28095,1,8,0:0:0:0:
256,192,28262,1,0,0:0:0:0:
256,192,28430,1,0,0:0:0:0:
256,192,28514,1,0,0:0:0:0:
256,192,28597,1,8,0:0:0:0:
256,192,28765,1,0,0:0:0:0:
256,192,28933,1,8,0:0:0:0:
256,192,29016,1,8,0:0:0:0:
256,192,29100,1,0,0:0:0:0:
256,192,29184,1,0,0:0:0:0:
256,192,29268,1,8,0:0:0:0:
256,192,29435,1,0,0:0:0:0:
256,192,29603,1,8,0:0:0:0:
256,192,29687,1,0,0:0:0:0:
256,192,29771,1,0,0:0:0:0:
256,192,29938,1,8,0:0:0:0:
256,192,30022,1,0,0:0:0:0:
256,192,30106,1,0,0:0:0:0:
256,192,30273,1,8,0:0:0:0:
256,192,30357,1,8,0:0:0:0:
256,192,30441,1,0,0:0:0:0:
256,192,30525,1,0,0:0:0:0:
256,192,30609,1,8,0:0:0:0:
256,192,30776,1,0,0:0:0:0:
256,192,30944,1,8,0:0:0:0:
256,192,31028,1,0,0:0:0:0:
256,192,31111,1,8,0:0:0:0:
256,192,31195,1,8,0:0:0:0:
256,192,31279,1,0,0:0:0:0:
256,192,31363,1,0,0:0:0:0:
256,192,31447,1,8,0:0:0:0:
256,192,31530,1,0,0:0:0:0:
256,192,31614,1,8,0:0:0:0:
256,192,31698,1,8,0:0:0:0:
256,192,31782,1,0,0:0:0:0:
256,192,31949,1,8,0:0:0:0:
256,192,32117,1,8,0:0:0:0:
256,192,32284,1,0,0:0:0:0:
256,192,32368,1,0,0:0:0:0:
256,192,32452,1,8,0:0:0:0:
256,192,32536,1,0,0:0:0:0:
256,192,32620,1,8,0:0:0:0:
256,192,32703,1,8,0:0:0:0:
256,192,32787,1,0,0:0:0:0:
256,192,32871,1,0,0:0:0:0:
256,192,32955,1,8,0:0:0:0:
256,192,33122,1,8,0:0:0:0:
256,192,33290,1,8,0:0:0:0:
256,192,33374,1,8,0:0:0:0:
256,192,33458,1,8,0:0:0:0:
256,192,33541,1,8,0:0:0:0:
256,192,33625,1,0,0:0:0:0:
256,192,33709,1,0,0:0:0:0:
256,192,33793,1,0,0:0:0:0:
256,192,33877,1,0,0:0:0:0:
256,192,33960,1,8,0:0:0:0:
256,192,34044,1,0,0:0:0:0:
256,192,34128,1,8,0:0:0:0:
256,192,34212,1,0,0:0:0:0:
256,192,34296,1,8,0:0:0:0:
256,192,34379,1,8,0:0:0:0:
256,192,34463,1,0,0:0:0:0:
256,192,34547,1,8,0:0:0:0:
256,192,34631,1,0,0:0:0:0:
256,192,34715,1,0,0:0:0:0:
256,192,34798,1,8,0:0:0:0:
256,192,34882,1,8,0:0:0:0:
256,192,34966,1,0,0:0:0:0:
256,192,35050,1,0,0:0:0:0:
256,192,35134,1,0,0:0:0:0:
256,192,35217,1,0,0:0:0:0:
256,192,35301,1,8,0:0:0:0:
256,192,35385,1,0,0:0:0:0:
256,192,35469,1,8,0:0:0:0:
256,192,35553,1,8,0:0:0:0:
256,192,35636,1,0,0:0:0:0:
256,192,35720,1,0,0:0:0:0:
256,192,35804,1,0,0:0:0:0:
256,192,35888,1,0,0:0:0:0:
256,192,35972,1,8,0:0:0:0:
256,192,36055,1,8,0:0:0:0:
256,192,36139,1,0,0:0:0:0:
256,192,36223,1,8,0:0:0:0:
256,192,36307,1,0,0:0:0:0:
256,192,36391,1,0,0:0:0:0:
256,192,36474,1,8,0:0:0:0:
256,192,36558,1,0,0:0:0:0:
256,192,36642,1,8,0:0:0:0:
256,192,36726,1,8,0:0:0:0:
256,192,36810,1,0,0:0:0:0:
256,192,36893,1,0,0:0:0:0:
256,192,36977,1,8,0:0:0:0:
256,192,37061,1,8,0:0:0:0:
256,192,37145,1,8,0:0:0:0:
256,192,37229,1,8,0:0:0:0:
256,192,37312,1,0,0:0:0:0:
256,192,37396,1,0,0:0:0:0:
256,192,37480,1,8,0:0:0:0:
256,192,37564,1,8,0:0:0:0:
256,192,37648,1,0,0:0:0:0:
256,192,37731,1,0,0:0:0:0:
256,192,37815,1,8,0:0:0:0:
256,192,37899,1,0,0:0:0:0:
256,192,37983,1,8,0:0:0:0:
256,192,38067,1,0,0:0:0:0:
256,192,38150,1,8,0:0:0:0:
256,192,38234,1,0,0:0:0:0:
256,192,38318,1,8,0:0:0:0:
256,192,38402,1,8,0:0:0:0:
256,192,38486,1,8,0:0:0:0:
256,192,38569,1,8,0:0:0:0:
256,192,38653,1,0,0:0:0:0:
256,192,38737,1,8,0:0:0:0:
256,192,38821,1,8,0:0:0:0:
256,192,38905,1,8,0:0:0:0:
256,192,38988,1,0,0:0:0:0:
256,192,39072,1,0,0:0:0:0:
256,192,39156,1,0,0:0:0:0:
256,192,39240,1,0,0:0:0:0:
256,192,39324,1,8,0:0:0:0:
256,192,39407,1,0,0:0:0:0:
256,192,39491,1,8,0:0:0:0:
256,192,39575,1,0,0:0:0:0:
256,192,39659,1,8,0:0:0:0:
256,192,39743,1,8,0:0:0:0:
256,192,39826,1,8,0:0:0:0:
256,192,39910,1,8,0:0:0:0:
256,192,39994,1,0,0:0:0:0:
256,192,40078,1,8,0:0:0:0:
256,192,40162,1,0,0:0:0:0:
256,192,40245,1,8,0:0:0:0:
256,192,40329,1,0,0:0:0:0:
256,192,40413,1,0,0:0:0:0:
256,192,40497,1,0,0:0:0:0:
256,192,40581,1,0,0:0:0:0:
256,192,40664,1,8,0:0:0:0:
256,192,40748,1,0,0:0:0:0:
256,192,40832,1,8,0:0:0:0:
256,192,40916,1,8,0:0:0:0:
256,192,41000,1,0,0:0:0:0:
256,192,41083,1,0,0:0:0:0:
256,192,41167,1,8,0:0:0:0:
256,192,41251,1,0,0:0:0:0:
256,192,41335,1,8,0:0:0:0:
256,192,41419,1,8,0:0:0:0:
256,192,41502,1,8,0:0:0:0:
256,192,41586,1,8,0:0:0:0:
256,192,41670,1,0,0:0:0:0:
256,192,41754,1,0,0:0:0:0:
256,192,41838,1,8,0:0:0:0:
256,192,41921,1,0,0:0:0:0:
256,192,42005,1,8,0:0:0:0:
256,192,42089,1,8,0:0:0:0:
256,192,42173,1,0,0:0:0:0:
256,192,42257,1,0,0:0:0:0:
256,192,42340,1,8,0:0:0:0:
256,192,42424,1,8,0:0:0:0:
256,192,42508,1,8,0:0:0:0:
256,192,42592,1,8,0:0:0:0:
256,192,42676,1,0,0:0:0:0:
256,192,42759,1,8,0:0:0:0:
256,192,42843,1,8,0:0:0:0:
256,192,42927,1,8,0:0:0:0:
256,192,43011,1,0,0:0:0:0:
256,192,43095,1,0,0:0:0:0:
256,192,43178,1,8,0:0:0:0:
256,192,43262,1,0,0:0:0:0:
256,192,43346,1,8,0:0:0:0:
256,192,43430,1,0,0:0:0:0:
256,192,43514,1,8,0:0:0:0:
256,192,43597,1,8,0:0:0:0:
256,192,43681,1,0,0:0:0:0:
256,192,43765,1,0,0:0:0:0:
256,192,43849,1,0,0:0:0:0:
256,192,43933,1,0,0:0:0:0:
256,192,44016,1,8,0:0:0:0:
256,192,44100,1,8,0:0:0:0:
256,192,44184,1,8,0:0:0:0:
256,192,44268,1,8,0:0:0:0:
256,192,44352,1,4,0:0:0:0:
256,192,44519,1,0,0:0:0:0:
256,192,44603,1,0,0:0:0:0:
256,192,44687,1,8,0:0:0:0:
256,192,44854,1,0,0:0:0:0:
256,192,45022,1,8,0:0:0:0:
256,192,45106,1,8,0:0:0:0:
256,192,45190,1,0,0:0:0:0:
256,192,45273,1,0,0:0:0:0:
256,192,45357,1,8,0:0:0:0:
256,192,45525,1,0,0:0:0:0:
256,192,45692,1,8,0:0:0:0:
256,192,45776,1,8,0:0:0:0:
256,192,45860,1,0,0:0:0:0:
256,192,46028,1,8,0:0:0:0:
256,192,46111,1,8,0:0:0:0:
256,192,46195,1,0,0:0:0:0:
256,192,46363,1,8,0:0:0:0:
256,192,46447,1,0,0:0:0:0:
256,192,46530,1,0,0:0:0:0:
256,192,46614,1,0,0:0:0:0:
256,192,46698,1,8,0:0:0:0:
256,192,46782,1,0,0:0:0:0:
256,192,46865,1,8,0:0:0:0:
256,192,46949,1,8,0:0:0:0:
256,192,47033,1,0,0:0:0:0:
256,192,47201,1,0,0:0:0:0:
256,192,47284,1,0,0:0:0:0:
256,192,47368,1,8,0:0:0:0:
256,192,47536,1,0,0:0:0:0:
256,192,47703,1,8,0:0:0:0:
256,192,47787,1,8,0:0:0:0:
256,192,47871,1,0,0:0:0:0:
256,192,47955,1,0,0:0:0:0:
256,192,48039,1,8,0:0:0:0:
256,192,48122,1,8,0:0:0:0:
256,192,48206,1,8,0:0:0:0:
256,192,48290,1,8,0:0:0:0:
256,192,48374,1,0,0:0:0:0:
256,192,48541,1,0,0:0:0:0:
256,192,48625,1,0,0:0:0:0:
256,192,48709,1,8,0:0:0:0:
256,192,48877,1,0,0:0:0:0:
256,192,49044,1,8,0:0:0:0:
256,192,49128,1,8,0:0:0:0:
256,192,49212,1,8,0:0:0:0:
256,192,49296,1,8,0:0:0:0:
256,192,49379,1,0,0:0:0:0:
256,192,49463,1,0,0:0:0:0:
256,192,49547,1,8,0:0:0:0:
256,192,49631,1,8,0:0:0:0:
256,192,49715,1,0,0:0:0:0:
256,192,49882,1,0,0:0:0:0:
256,192,49966,1,0,0:0:0:0:
256,192,50050,1,8,0:0:0:0:
256,192,50217,1,0,0:0:0:0:
256,192,50385,1,8,0:0:0:0:
256,192,50469,1,0,0:0:0:0:
256,192,50553,1,8,0:0:0:0:
256,192,50636,1,8,0:0:0:0:
256,192,50720,1,0,0:0:0:0:
256,192,50888,1,8,0:0:0:0:
256,192,51055,1,8,0:0:0:0:
256,192,51139,1,8,0:0:0:0:
256,192,51223,1,0,0:0:0:0:
256,192,51391,1,8,0:0:0:0:
256,192,51474,1,8,0:0:0:0:
256,192,51558,1,0,0:0:0:0:
256,192,51726,1,8,0:0:0:0:
256,192,51810,1,0,0:0:0:0:
256,192,51893,1,0,0:0:0:0:
256,192,51977,1,0,0:0:0:0:
256,192,52061,1,8,0:0:0:0:
256,192,52145,1,8,0:0:0:0:
256,192,52229,1,8,0:0:0:0:
256,192,52312,1,8,0:0:0:0:
256,192,52396,1,0,0:0:0:0:
256,192,52564,1,0,0:0:0:0:
256,192,52648,1,0,0:0:0:0:
256,192,52731,1,8,0:0:0:0:
256,192,52899,1,0,0:0:0:0:
256,192,53067,1,8,0:0:0:0:
256,192,53150,1,8,0:0:0:0:
256,192,53234,1,0,0:0:0:0:
256,192,53318,1,0,0:0:0:0:
256,192,53402,1,8,0:0:0:0:
256,192,53569,1,8,0:0:0:0:
256,192,53737,1,0,0:0:0:0:
256,192,53821,1,0,0:0:0:0:
256,192,53905,1,8,0:0:0:0:
256,192,53988,1,0,0:0:0:0:
256,192,54072,1,8,0:0:0:0:
256,192,54156,1,8,0:0:0:0:
256,192,54240,1,0,0:0:0:0:
256,192,54407,1,8,0:0:0:0:
256,192,54575,1,8,0:0:0:0:
256,192,54743,1,0,0:0:0:0:
256,192,54826,1,0,0:0:0:0:
256,192,54910,1,8,0:0:0:0:
256,192,54994,1,8,0:0:0:0:
256,192,55078,1,0,0:0:0:0:
256,192,55162,1,0,0:0:0:0:
256,192,55245,1,0,0:0:0:0:
256,192,55329,1,0,0:0:0:0:
256,192,55413,1,8,0:0:0:0:
256,192,55497,1,0,0:0:0:0:
256,192,55581,1,8,0:0:0:0:
256,192,55664,1,0,0:0:0:0:
256,192,55748,1,8,0:0:0:0:
256,192,55832,1,8,0:0:0:0:
256,192,55916,1,0,0:0:0:0:
256,192,56000,1,0,0:0:0:0:
256,192,56083,1,8,0:0:0:0:
256,192,56167,1,8,0:0:0:0:
256,192,56251,1,0,0:0:0:0:
256,192,56335,1,8,0:0:0:0:
256,192,56419,1,0,0:0:0:0:
256,192,56502,1,0,0:0:0:0:
256,192,56586,1,0,0:0:0:0:
256,192,56670,1,0,0:0:0:0:
256,192,56754,1,8,0:0:0:0:
256,192,56838,1,0,0:0:0:0:
256,192,56921,1,8,0:0:0:0:
256,192,57005,1,0,0:0:0:0:
256,192,57089,1,8,0:0:0:0:
256,192,57173,1,8,0:0:0:0:
256,192,57257,1,0,0:0:0:0:
256,192,57340,1,0,0:0:0:0:
256,192,57424,1,8,0:0:0:0:
256,192,57508,1,8,0:0:0:0:
256,192,57592,1,8,0:0:0:0:
256,192,57676,1,8,0:0:0:0:
256,192,57759,1,0,0:0:0:0:
256,192,57843,1,0,0:0:0:0:
256,192,57927,1,8,0:0:0:0:
256,192,58011,1,0,0:0:0:0:
256,192,58095,1,8,0:0:0:0:
256,192,58178,1,8,0:0:0:0:
256,192,58262,1,0,0:0:0:0:
256,192,58346,1,0,0:0:0:0:
256,192,58430,1,8,0:0:0:0:
256,192,58514,1,8,0:0:0:0:
256,192,58597,1,8,0:0:0:0:
256,192,58681,1,8,0:0:0:0:
256,192,58765,1,0,0:0:0:0:
256,192,58849,1,0,0:0:0:0:
256,192,58933,1,0,0:0:0:0:
256,192,59016,1,0,0:0:0:0:
256,192,59100,1,8,0:0:0:0:
256,192,59184,1,8,0:0:0:0:
256,192,59268,1,0,0:0:0:0:
256,192,59352,1,0,0:0:0:0:
256,192,59435,1,8,0:0:0:0:
256,192,59519,1,0,0:0:0:0:
256,192,59603,1,8,0:0:0:0:
256,192,59687,1,0,0:0:0:0:
256,192,59771,1,8,0:0:0:0:
256,192,59854,1,8,0:0:0:0:
256,192,59938,1,8,0:0:0:0:
256,192,60022,1,8,0:0:0:0:
256,192,60106,1,0,0:0:0:0:
256,192,60190,1,8,0:0:0:0:
256,192,60273,1,0,0:0:0:0:
256,192,60357,1,8,0:0:0:0:
256,192,60441,1,0,0:0:0:0:
256,192,60525,1,0,0:0:0:0:
256,192,60609,1,0,0:0:0:0:
256,192,60692,1,0,0:0:0:0:
256,192,60776,1,8,0:0:0:0:
256,192,60860,1,0,0:0:0:0:
256,192,60944,1,8,0:0:0:0:
256,192,61028,1,8,0:0:0:0:
256,192,61111,1,0,0:0:0:0:
256,192,61195,1,0,0:0:0:0:
256,192,61279,1,8,0:0:0:0:
256,192,61363,1,0,0:0:0:0:
256,192,61447,1,8,0:0:0:0:
256,192,61530,1,8,0:0:0:0:
256,192,61614,1,0,0:0:0:0:
256,192,61698,1,8,0:0:0:0:
256,192,61782,1,0,0:0:0:0:
256,192,61865,1,0,0:0:0:0:
256,192,61949,1,0,0:0:0:0:
256,192,62033,1,0,0:0:0:0:
256,192,62117,1,8,0:0:0:0:
256,192,62201,1,0,0:0:0:0:
256,192,62284,1,8,0:0:0:0:
256,192,62368,1,8,0:0:0:0:
256,192,62452,1,0,0:0:0:0:
256,192,62536,1,0,0:0:0:0:
256,192,62620,1,8,0:0:0:0:
256,192,62703,1,8,0:0:0:0:
256,192,62787,1,0,0:0:0:0:
256,192,62871,1,8,0:0:0:0:
256,192,62955,1,8,0:0:0:0:
256,192,63039,1,8,0:0:0:0:
256,192,63122,1,0,0:0:0:0:
256,192,63206,1,0,0:0:0:0:
256,192,63290,1,8,0:0:0:0:
256,192,63374,1,0,0:0:0:0:
256,192,63458,1,8,0:0:0:0:
256,192,63541,1,8,0:0:0:0:
256,192,63625,1,0,0:0:0:0:
256,192,63709,1,0,0:0:0:0:
256,192,63793,1,8,0:0:0:0:
256,192,63877,1,8,0:0:0:0:
256,192,63960,1,8,0:0:0:0:
256,192,64044,1,8,0:0:0:0:
256,192,64128,1,0,0:0:0:0:
256,192,64212,1,0,0:0:0:0:
256,192,64296,1,8,0:0:0:0:
256,192,64379,1,8,0:0:0:0:
256,192,64463,1,0,0:0:0:0:
256,192,64547,1,0,0:0:0:0:
256,192,64631,1,0,0:0:0:0:
256,192,64715,1,0,0:0:0:0:
256,192,64798,1,0,0:0:0:0:
256,192,64882,1,0,0:0:0:0:
256,192,64966,1,8,0:0:0:0:
256,192,65050,1,0,0:0:0:0:
256,192,65134,1,8,0:0:0:0:
256,192,65217,1,8,0:0:0:0:
256,192,65301,1,8,0:0:0:0:
256,192,65385,1,8,0:0:0:0:
256,192,65469,1,0,0:0:0:0:
256,192,65553,1,0,0:0:0:0:
256,192,65636,1,0,0:0:0:0:
256,192,76530,5,0,0:0:0:0:
256,192,76865,1,8,0:0:0:0:
256,192,77033,1,0,0:0:0:0:
256,192,77201,1,8,0:0:0:0:
256,192,77536,1,8,0:0:0:0:
256,192,77871,1,0,0:0:0:0:
256,192,78206,1,8,0:0:0:0:
256,192,78374,1,8,0:0:0:0:
256,192,78541,1,0,0:0:0:0:
256,192,78877,1,8,0:0:0:0:
256,192,79212,1,0,0:0:0:0:
256,192,79379,1,0,0:0:0:0:
256,192,79547,1,8,0:0:0:0:
256,192,79715,1,8,0:0:0:0:
256,192,79882,1,0,0:0:0:0:
256,192,80217,1,8,0:0:0:0:
256,192,80553,1,8,0:0:0:0:
256,192,80720,1,0,0:0:0:0:
256,192,80888,1,8,0:0:0:0:
256,192,81055,1,0,0:0:0:0:
256,192,81223,1,8,0:0:0:0:
256,192,81558,1,8,0:0:0:0:
256,192,81893,1,0,0:0:0:0:
256,192,82229,1,8,0:0:0:0:
256,192,82396,1,8,0:0:0:0:
256,192,82564,1,0,0:0:0:0:
256,192,82899,1,8,0:0:0:0:
256,192,83234,1,0,0:0:0:0:
256,192,83569,1,8,0:0:0:0:
256,192,83737,1,0,0:0:0:0:
256,192,83905,1,8,0:0:0:0:
256,192,84240,1,0,0:0:0:0:
256,192,84575,1,8,0:0:0:0:
256,192,84743,1,0,0:0:0:0:
256,192,84910,1,8,0:0:0:0:
256,192,85078,1,0,0:0:0:0:
256,192,85245,1,8,0:0:0:0:
256,192,85413,1,8,0:0:0:0:
256,192,85581,1,0,0:0:0:0:
256,192,85748,1,0,0:0:0:0:
256,192,85916,1,8,0:0:0:0:
256,192,86000,1,8,0:0:0:0:
256,192,86083,1,0,0:0:0:0:
256,192,86167,1,0,0:0:0:0:
256,192,86251,1,8,0:0:0:0:
256,192,86335,1,8,0:0:0:0:
256,192,86419,1,0,0:0:0:0:
256,192,86502,1,0,0:0:0:0:
256,192,86586,1,8,0:0:0:0:
256,192,86670,1,8,0:0:0:0:
256,192,86754,1,8,0:0:0:0:
256,192,86838,1,0,0:0:0:0:
256,192,86921,1,8,0:0:0:0:
256,192,87005,1,8,0:0:0:0:
256,192,87089,1,8,0:0:0:0:
256,192,87173,1,8,0:0:0:0:
256,192,87257,1,0,0:0:0:0:
256,192,87340,1,0,0:0:0:0:
256,192,87424,1,0,0:0:0:0:
256,192,87508,1,0,0:0:0:0:
256,192,87592,1,8,0:0:0:0:
256,192,87676,1,0,0:0:0:0:
256,192,87759,1,8,0:0:0:0:
256,192,87843,1,0,0:0:0:0:
256,192,87927,1,8,0:0:0:0:
256,192,88011,1,8,0:0:0:0:
256,192,88095,1,0,0:0:0:0:
256,192,88178,1,8,0:0:0:0:
256,192,88262,1,0,0:0:0:0:
256,192,88346,1,0,0:0:0:0:
256,192,88430,1,8,0:0:0:0:
256,192,88514,1,8,0:0:0:0:
256,192,88597,1,0,0:0:0:0:
256,192,88681,1,0,0:0:0:0:
256,192,88765,1,0,0:0:0:0:
256,192,88849,1,0,0:0:0:0:
256,192,88933,1,8,0:0:0:0:
256,192,89016,1,0,0:0:0:0:
256,192,89100,1,8,0:0:0:0:
256,192,89184,1,8,0:0:0:0:
256,192,89268,1,0,0:0:0:0:
256,192,89352,1,0,0:0:0:0:
256,192,89435,1,0,0:0:0:0:
256,192,89519,1,0,0:0:0:0:
256,192,89603,1,8,0:0:0:0:
256,192,89687,1,8,0:0:0:0:
256,192,89771,1,8,0:0:0:0:
256,192,89854,1,8,0:0:0:0:
256,192,89938,1,0,0:0:0:0:
256,192,90022,1,0,0:0:0:0:
256,192,90106,1,8,0:0:0:0:
256,192,90190,1,0,0:0:0:0:
256,192,90273,1,8,0:0:0:0:
256,192,90357,1,8,0:0:0:0:
256,192,90441,1,0,0:0:0:0:
256,192,90525,1,0,0:0:0:0:
256,192,90609,1,8,0:0:0:0:
256,192,90692,1,8,0:0:0:0:
256,192,90776,1,8,0:0:0:0:
256,192,90860,1,8,0:0:0:0:
256,192,90944,1,0,0:0:0:0:
256,192,91028,1,8,0:0:0:0:
256,192,91111,1,8,0:0:0:0:
256,192,91195,1,8,0:0:0:0:
256,192,91279,1,0,0:0:0:0:
256,192,91363,1,0,0:0:0:0:
256,192,91447,1,8,0:0:0:0:
256,192,91530,1,0,0:0:0:0:
256,192,91614,1,8,0:0:0:0:
256,192,91698,1,0,0:0:0:0:
256,192,91782,1,8,0:0:0:0:
256,192,91865,1,0,0:0:0:0:
256,192,91949,1,8,0:0:0:0:
256,192,92033,1,8,0:0:0:0:
256,192,92117,1,8,0:0:0:0:
256,192,92201,1,8,0:0:0:0:
256,192,92284,1,0,0:0:0:0:
256,192,92368,1,8,0:0:0:0:
256,192,92452,1,0,0:0:0:0:
256,192,92536,1,8,0:0:0:0:
256,192,92620,1,0,0:0:0:0:
256,192,92703,1,0,0:0:0:0:
256,192,92787,1,0,0:0:0:0:
256,192,92871,1,0,0:0:0:0:
256,192,92955,1,8,0:0:0:0:
256,192,93039,1,0,0:0:0:0:
256,192,93122,1,8,0:0:0:0:
256,192,93206,1,0,0:0:0:0:
256,192,93290,1,8,0:0:0:0:
256,192,93374,1,8,0:0:0:0:
256,192,93458,1,8,0:0:0:0:
256,192,93541,1,0,0:0:0:0:
256,192,93625,1,8,0:0:0:0:
256,192,93709,1,8,0:0:0:0:
256,192,93793,1,0,0:0:0:0:
256,192,93877,1,8,0:0:0:0:
256,192,93960,1,0,0:0:0:0:
256,192,94044,1,0,0:0:0:0:
256,192,94128,1,0,0:0:0:0:
256,192,94212,1,0,0:0:0:0:
256,192,94296,1,8,0:0:0:0:
256,192,94379,1,0,0:0:0:0:
256,192,94463,1,8,0:0:0:0:
256,192,94547,1,0,0:0:0:0:
256,192,94631,1,8,0:0:0:0:
256,192,94715,1,8,0:0:0:0:
256,192,94798,1,0,0:0:0:0:
256,192,94882,1,0,0:0:0:0:
256,192,94966,1,8,0:0:0:0:
256,192,95050,1,8,0:0:0:0:
256,192,95134,1,8,0:0:0:0:
256,192,95217,1,8,0:0:0:0:
256,192,95301,1,0,0:0:0:0:
256,192,95385,1,0,0:0:0:0:
256,192,95469,1,8,0:0:0:0:
256,192,95553,1,0,0:0:0:0:
256,192,95636,1,8,0:0:0:0:
256,192,95720,1,8,0:0:0:0:
256,192,95804,1,0,0:0:0:0:
256,192,95888,1,0,0:0:0:0:
256,192,95972,1,8,0:0:0:0:
256,192,96055,1,8,0:0:0:0:
256,192,96139,1,8,0:0:0:0:
256,192,96223,1,8,0:0:0:0:
256,192,96307,1,0,0:0:0:0:
256,192,96391,1,8,0:0:0:0:
256,192,96474,1,8,0:0:0:0:
256,192,96558,1,8,0:0:0:0:
256,192,96642,1,0,0:0:0:0:
256,192,96726,1,0,0:0:0:0:
256,192,96810,1,8,0:0:0:0:
256,192,96893,1,0,0:0:0:0:
256,192,96977,1,8,0:0:0:0:
256,192,97061,1,8,0:0:0:0:
256,192,97145,1,0,0:0:0:0:
256,192,97229,1,0,0:0:0:0:
256,192,97312,1,8,0:0:0:0:
256,192,97480,1,0,0:0:0:0:
256,192,97648,1,8,0:0:0:0:
256,192,97731,1,8,0:0:0:0:
256,192,97815,1,8,0:0:0:0:
256,192,97899,1,8,0:0:0:0:
256,192,97983,1,0,0:0:0:0:
256,192,98067,1,0,0:0:0:0:
256,192,98150,1,0,0:0:0:0:
256,192,98234,1,8,0:0:0:0:
256,192,98318,1,0,0:0:0:0:
256,192,98402,1,0,0:0:0:0:
256,192,98486,1,8,0:0:0:0:
256,192,98569,1,8,0:0:0:0:
256,192,98653,1,0,0:0:0:0:
256,192,98737,1,8,0:0:0:0:
256,192,98821,1,0,0:0:0:0:
256,192,98905,1,0,0:0:0:0:
256,192,98988,1,8,0:0:0:0:
256,192,99072,1,8,0:0:0:0:
256,192,99156,1,0,0:0:0:0:
256,192,99240,1,8,0:0:0:0:
256,192,99324,1,0,0:0:0:0:
256,192,99407,1,0,0:0:0:0:
256,192,99491,1,8,0:0:0:0:
256,192,99575,1,0,0:0:0:0:
256,192,99659,1,8,0:0:0:0:
256,192,99743,1,8,0:0:0:0:
256,192,99826,1,0,0:0:0:0:
256,192,99910,1,8,0:0:0:0:
256,192,99994,1,0,0:0:0:0:
256,192,100078,1,0,0:0:0:0:
256,192,100162,1,0,0:0:0:0:
256,192,100245,1,8,0:0:0:0:
256,192,100329,1,0,0:0:0:0:
256,192,100413,1,8,0:0:0:0:
256,192,100497,1,8,0:0:0:0:
256,192,100581,1,8,0:0:0:0:
256,192,100664,1,0,0:0:0:0:
256,192,100748,1,0,0:0:0:0:
256,192,100832,1,8,0:0:0:0:
256,192,100916,1,0,0:0:0:0:
256,192,101000,1,8,0:0:0:0:
256,192,101083,1,8,0:0:0:0:
256,192,101167,1,0,0:0:0:0:
256,192,101251,1,0,0:0:0:0:
256,192,101335,1,8,0:0:0:0:
256,192,101419,1,8,0:0:0:0:
256,192,101502,1,0,0:0:0:0:
256,192,101586,1,8,0:0:0:0:
256,192,101670,1,0,0:0:0:0:
256,192,101754,1,8,0:0:0:0:
256,192,101838,1,8,0:0:0:0:
256,192,101921,1,8,0:0:0:0:
256,192,102005,1,0,0:0:0:0:
256,192,102089,1,0,0:0:0:0:
256,192,102173,1,8,0:0:0:0:
256,192,102257,1,0,0:0:0:0:
256,192,102340,1,8,0:0:0:0:
256,192,102424,1,8,0:0:0:0:
256,192,102508,1,0,0:0:0:0:
256,192,102592,1,8,0:0:0:0:
256,192,102676,1,0,0:0:0:0:
256,192,102759,1,0,0:0:0:0:
256,192,102843,1,8,0:0:0:0:
256,192,102927,1,0,0:0:0:0:
256,192,103011,1,8,0:0:0:0:
256,192,103095,1,8,0:0:0:0:
256,192,103178,1,0,0:0:0:0:
256,192,103262,1,8,0:0:0:0:
256,192,103346,1,0,0:0:0:0:
256,192,103430,1,0,0:0:0:0:
256,192,103514,1,0,0:0:0:0:
256,192,103597,1,8,0:0:0:0:
256,192,103681,1,0,0:0:0:0:
256,192,103765,1,0,0:0:0:0:
256,192,103849,1,8,0:0:0:0:
256,192,103933,1,0,0:0:0:0:
256,192,104016,1,8,0:0:0:0:
256,192,104100,1,8,0:0:0:0:
256,192,104184,1,0,0:0:0:0:
256,192,104268,1,8,0:0:0:0:
256,192,104352,1,0,0:0:0:0:
256,192,104435,1,8,0:0:0:0:
256,192,104519,1,8,0:0:0:0:
256,192,104603,1,8,0:0:0:0:
256,192,104687,1,0,0:0:0:0:
256,192,104771,1,0,0:0:0:0:
256,192,104854,1,0,0:0:0:0:
256,192,104938,1,0,0:0:0:0:
256,192,105022,1,8,0:0:0:0:
256,192,105106,1,0,0:0:0:0:
256,192,105190,1,8,0:0:0:0:
256,192,105273,1,8,0:0:0:0:
256,192,105357,1,0,0:0:0:0:
256,192,105441,1,0,0:0:0:0:
256,192,105525,1,8,0:0:0:0:
256,192,105609,1,8,0:0:0:0:
256,192,105692,1,0,0:0:0:0:
256,192,105776,1,8,0:0:0:0:
256,192,105860,1,8,0:0:0:0:
256,192,105944,1,8,0:0:0:0:
256,192,106028,1,0,0:0:0:0:
256,192,106111,1,0,0:0:0:0:
256,192,106195,1,8,0:0:0:0:
256,192,106279,1,0,0:0:0:0:
256,192,106363,1,8,0:0:0:0:
256,192,106447,1,8,0:0:0:0:
256,192,106530,1,0,0:0:0:0:
256,192,106614,1,0,0:0:0:0:
256,192,106698,1,8,0:0:0:0:
256,192,106782,1,8,0:0:0:0:
256,192,106865,1,8,0:0:0:0:
256,192,106949,1,8,0:0:0:0:
256,192,107033,1,0,0:0:0:0:
256,192,107117,1,0,0:0:0:0:
256,192,107201,1,8,0:0:0:0:
256,192,107284,1,8,0:0:0:0:
256,192,107368,1,0,0:0:0:0:
256,192,107452,1,0,0:0:0:0:
256,192,107536,1,8,0:0:0:0:
256,192,107620,1,0,0:0:0:0:
256,192,107703,1,8,0:0:0:0:
256,192,107787,1,8,0:0:0:0:
256,192,107871,1,0,0:0:0:0:
256,192,107955,1,0,0:0:0:0:
256,192,108039,1,8,0:0:0:0:
256,192,108122,1,0,0:0:0:0:
256,192,108206,1,8,0:0:0:0:
256,192,108290,1,0,0:0:0:0:
256,192,108374,1,8,0:0:0:0:
256,192,108458,1,8,0:0:0:0:
256,192,108541,1,8,0:0:0:0:
256,192,108625,1,8,0:0:0:0:
256,192,108709,1,4,0:0:0:0:
256,192,108793,12,0,109966,0:0:0:0:
