osu file format v14

[General]
AudioFilename: audio.mp3
AudioLeadIn: 0
PreviewTime: 80948
Countdown: 1
SampleSet: Normal
StackLeniency: 0.7
Mode: 0
LetterboxInBreaks: 0
WidescreenStoryboard: 0

[Editor]
DistanceSpacing: 2
BeatDivisor: 4
GridSize: 4
TimelineZoom: 4.800001

[Metadata]
Title:Ignition (Giraffage Remix)
TitleUnicode:Ignition (Giraffage Remix)
Artist:R Kelly
ArtistUnicode:R Kelly
Creator:IHaveBadAcc
Version:Epic
Source:
Tags:r-kelly ignition giraffage remix be-with-you
BeatmapID:1967019
BeatmapSetID:941997

[Difficulty]
HPDrainRate:4.7
CircleSize:3.7
OverallDifficulty:8.8
ApproachRate:9.7
SliderMultiplier:1.9
SliderTickRate:1

[Events]
//Background and Video events
0,0,"Wallpaper-Epic-Space-1920x1080.jpg",0,0
//Break Periods
2,108791,122025
//Storyboard Layer 0 (Background)
//Storyboard Layer 1 (Fail)
//Storyboard Layer 2 (Pass)
//Storyboard Layer 3 (Foreground)
//Storyboard Sound Samples

[TimingPoints]
2520.29545322389,428.571428571429,4,1,0,50,1,0
31663,-66.6666666666667,4,1,0,50,0,1
45377,-66.6666666666667,4,1,0,50,0,0
59091,-100,4,1,0,50,0,0
81377,-60.6060606060606,4,1,0,50,0,1
95038,-60.6060606060606,4,1,0,50,0,0
95091,-55.5555555555556,4,1,0,50,0,1
108806,-133.333333333333,4,1,0,50,0,0
136234,-117.647058823529,4,1,0,50,0,0
149948,-100,4,1,0,50,0,0
163663,-133.333333333333,4,1,0,50,0,0
165377,-55.5555555555556,4,1,0,50,0,1
179038,-55.5555555555556,4,1,0,50,0,0
179091,-50,4,1,0,50,0,1
192806,-133.333333333333,4,1,0,50,0,0
206520,-142.857142857143,4,1,0,50,0,0
220020,-200,4,1,0,50,0,0

[Colours]
Combo1 : 255,128,0
Combo2 : 255,0,0
Combo3 : 255,128,0
Combo4 : 255,198,0
Combo5 : 255,255,0
Combo6 : 254,200,14

[HitObjects]
88,184,2520,5,0,0:0:0:0:
260,104,2948,1,0,0:0:0:0:
228,292,3377,2,0,P|276:304|364:264,2,142.5
340,140,4448,1,0,0:0:0:0:
252,104,4663,1,0,0:0:0:0:
72,168,5091,2,0,P|40:116|68:20,2,142.5
164,196,5948,5,0,0:0:0:0:
296,332,6377,1,0,0:0:0:0:
300,140,6806,2,0,P|356:160|400:232,2,142.5
148,252,7877,1,0,0:0:0:0:
72,192,8091,1,0,0:0:0:0:
196,48,8520,1,0,0:0:0:0:
344,172,8841,5,0,0:0:0:0:
344,172,8948,2,0,P|368:224|344:280,1,95
288,324,9377,2,0,P|264:272|288:216,1,95
271,237,9698,1,0,0:0:0:0:
376,140,10020,2,0,P|336:104|280:96,1,95
160,132,10556,5,0,0:0:0:0:
160,132,10663,1,0,0:0:0:0:
108,212,10877,1,0,0:0:0:0:
108,212,10984,1,0,0:0:0:0:
108,212,11091,2,0,P|96:268|128:316,1,95
136,260,11413,2,0,P|162:310|218:326,1,95
200,280,11734,2,0,P|253:301|305:278,1,95
316,152,12270,5,0,0:0:0:0:
316,152,12377,2,0,P|368:124|408:144,1,95
368,224,12806,2,0,P|404:270|391:313,1,95
356,280,13127,2,0,P|354:339|316:363,1,95
308,316,13448,2,0,P|268:360|224:354,1,95
216,216,13984,5,0,0:0:0:0:
216,216,14091,2,0,P|256:172|300:178,1,95
316,212,14413,1,0,0:0:0:0:
316,212,14520,2,0,P|344:152|280:120,1,142.5
196,132,15056,1,0,0:0:0:0:
196,132,15163,2,0,P|144:180|152:240,1,95
280,228,15698,1,0,0:0:0:0:
280,228,15806,2,0,P|319:203|335:159,1,95
348,64,16234,6,0,P|408:92|424:144,1,95
372,120,16556,2,0,P|389:183|359:229,1,95
344,176,16877,2,0,P|306:230|252:236,1,95
120,136,17520,1,0,0:0:0:0:
80,160,17627,1,0,0:0:0:0:
56,200,17734,1,0,0:0:0:0:
48,248,17841,1,0,0:0:0:0:
64,292,17948,6,0,P|100:332|160:336,1,95
188,332,18270,1,0,0:0:0:0:
264,212,18591,2,0,P|308:240|324:300,1,95
152,196,19234,1,0,0:0:0:0:
220,132,19448,1,0,0:0:0:0:
220,132,19556,1,0,0:0:0:0:
220,132,19663,5,0,0:0:0:0:
304,248,19984,2,0,P|360:268|416:220,1,95
432,232,20306,2,0,P|376:212|320:260,1,95
280,292,20734,1,0,0:0:0:0:
216,220,20948,2,0,P|216:148|268:112,1,95
308,184,21377,6,0,P|320:113|275:68,1,95
311,95,21698,1,0,0:0:0:0:
172,56,22020,2,0,B|144:60|156:88|156:88|160:120|128:128,1,95
44,88,22448,1,0,0:0:0:0:
40,136,22556,1,0,0:0:0:0:
52,180,22663,1,0,0:0:0:0:
88,212,22770,1,0,0:0:0:0:
136,220,22877,1,0,0:0:0:0:
220,176,23091,6,0,P|308:152|388:224,1,190
184,340,24056,5,0,0:0:0:0:
161,299,24163,1,0,0:0:0:0:
165,252,24270,1,0,0:0:0:0:
195,216,24377,1,0,0:0:0:0:
240,204,24484,1,0,0:0:0:0:
284,216,24591,1,0,0:0:0:0:
376,236,24806,6,0,P|464:176|448:72,1,190
180,88,25877,6,0,P|140:128|144:168,1,95
212,228,26306,1,0,0:0:0:0:
272,156,26520,2,0,P|304:200|292:264,2,95
320,72,27163,2,0,P|248:60|212:96,1,95
156,244,27806,6,0,P|216:228|240:196,1,95
212,112,28234,2,0,P|260:112|316:144,2,95
128,68,28877,2,0,P|120:136|144:176,1,95
292,260,29520,6,0,P|312:232|308:160,1,95
304,80,29948,2,0,P|368:96|400:144,1,95
404,208,30377,1,0,0:0:0:0:
316,172,30591,2,0,P|308:228|336:272,2,95
448,48,31234,5,0,0:0:0:0:
448,48,31448,1,0,0:0:0:0:
236,92,31663,6,0,P|188:148|184:232,2,142.500005435944
300,296,32306,1,0,0:0:0:0:
388,100,32520,1,0,0:0:0:0:
388,100,32734,1,0,0:0:0:0:
204,80,32948,5,0,0:0:0:0:
144,256,33163,1,0,0:0:0:0:
308,168,33377,2,0,P|296:272|224:288,1,142.500005435944
252,72,33806,1,0,0:0:0:0:
308,168,34020,2,0,P|296:272|224:288,1,142.500005435944
132,288,34448,1,0,0:0:0:0:
88,80,34663,6,0,P|116:148|184:148,1,142.500005435944
356,36,35091,1,0,0:0:0:0:
284,240,35306,1,0,0:0:0:0:
204,40,35520,1,0,0:0:0:0:
384,156,35734,1,0,0:0:0:0:
184,236,35948,5,0,0:0:0:0:
316,64,36163,1,0,0:0:0:0:
364,272,36377,1,0,0:0:0:0:
200,132,36591,1,0,0:0:0:0:
404,196,36806,5,0,0:0:0:0:
236,328,37020,1,0,0:0:0:0:
280,120,37234,1,0,0:0:0:0:
424,276,37448,2,0,P|360:304|296:252,1,142.500005435944
280,120,37877,1,0,0:0:0:0:
144,160,38091,2,0,P|100:228|132:296,1,142.500005435944
252,232,38520,5,0,0:0:0:0:
388,188,38734,2,0,P|403:255|361:309,1,142.500005435944
220,336,39163,2,0,B|196:288|196:288|152:224|193:168|228:160|228:160|180:72,1,285.000010871888
68,268,39806,1,0,0:0:0:0:
280,256,40020,1,0,0:0:0:0:
292,72,40234,5,0,0:0:0:0:
392,228,40448,1,0,0:0:0:0:
220,156,40663,1,0,0:0:0:0:
400,120,40877,2,0,P|472:144|444:328,1,285.000010871888
276,344,41520,1,0,0:0:0:0:
104,272,41734,1,0,0:0:0:0:
232,208,41948,5,0,0:0:0:0:
180,340,42163,1,0,0:0:0:0:
368,240,42377,1,0,0:0:0:0:
196,112,42591,1,0,0:0:0:0:
364,36,42806,1,0,0:0:0:0:
340,116,42913,1,0,0:0:0:0:
296,188,43020,1,0,0:0:0:0:
224,236,43127,1,0,0:0:0:0:
140,244,43234,6,0,B|112:248|76:228|76:228|116:180|72:128,1,142.500005435944
64,16,43663,2,0,P|144:20|196:72,1,142.500005435944
260,184,44091,1,0,0:0:0:0:
168,292,44306,2,0,B|192:344|256:348|256:348|244:276|244:276|296:264|348:336,1,285.000010871888
408,200,45806,6,0,P|352:136|172:176,1,285.000010871888
408,200,46663,2,0,B|376:140|324:128|324:128|296:140|276:120|276:120|224:116|172:176,1,285.000010871888
408,200,47520,2,0,B|376:148|340:132|340:132|296:152|256:120|256:120|212:132|172:176,1,285.000010871888
408,200,48377,1,0,0:0:0:0:
92,120,49234,6,0,P|80:236|220:300,1,285.000010871888
92,120,50091,2,0,B|48:184|72:276|152:268|152:268|208:256|216:304,1,285.000010871888
92,120,50948,2,0,B|56:168|76:220|148:220|148:220|212:216|240:264|212:304,1,285.000010871888
92,120,51806,1,0,0:0:0:0:
232,112,52663,6,0,P|352:104|420:236,1,285.000010871888
232,112,53520,2,0,B|256:120|256:120|328:72|416:112|396:208|396:208|420:236,1,285.000010871888
232,112,54377,2,0,B|280:132|280:132|328:80|408:120|380:192|380:192|420:236,1,285.000010871888
232,112,55234,1,0,0:0:0:0:
304,208,56091,6,0,P|236:272|48:224,1,285.000010871888
304,208,56948,1,0,0:0:0:0:
152,248,58556,5,0,0:0:0:0:
152,248,58663,2,0,P|128:196|164:112,1,142.500005435944
224,60,59092,2,0,P|248:112|224:168,1,95
241,147,59413,1,0,0:0:0:0:
136,244,59735,2,0,P|176:280|232:288,1,95
352,252,60271,5,0,0:0:0:0:
352,252,60378,1,0,0:0:0:0:
404,172,60592,1,0,0:0:0:0:
404,172,60699,1,0,0:0:0:0:
404,172,60806,2,0,P|416:116|384:68,1,95
376,124,61128,2,0,P|350:74|294:58,1,95
312,104,61449,2,0,P|259:83|207:106,1,95
196,232,61985,5,0,0:0:0:0:
196,232,62092,2,0,P|144:260|104:240,1,95
144,160,62521,2,0,P|108:114|121:71,1,95
156,104,62842,2,0,P|158:45|196:21,1,95
204,68,63163,2,0,P|244:24|288:30,1,95
296,168,63699,5,0,0:0:0:0:
296,168,63806,2,0,P|256:212|212:206,1,95
196,172,64128,1,0,0:0:0:0:
196,172,64235,2,0,P|168:232|232:264,1,142.5
316,252,64771,1,0,0:0:0:0:
316,252,64878,2,0,P|368:204|360:144,1,95
232,156,65413,1,0,0:0:0:0:
232,156,65521,2,0,P|193:181|177:225,1,95
164,320,65949,6,0,P|104:292|88:240,1,95
140,264,66271,2,0,P|123:201|153:155,1,95
168,208,66592,2,0,P|206:154|260:148,1,95
392,248,67235,1,0,0:0:0:0:
432,224,67342,1,0,0:0:0:0:
456,184,67449,1,0,0:0:0:0:
464,136,67556,1,0,0:0:0:0:
448,92,67663,6,0,P|412:52|352:48,1,95
324,52,67985,1,0,0:0:0:0:
248,172,68306,2,0,P|204:144|188:84,1,95
360,188,68949,1,0,0:0:0:0:
348,236,69056,1,0,0:0:0:0:
316,272,69163,1,0,0:0:0:0:
268,284,69271,1,0,0:0:0:0:
220,272,69378,5,0,0:0:0:0:
208,132,69699,2,0,P|152:112|96:160,1,95
80,152,70021,2,0,P|136:172|192:124,1,95
232,92,70449,1,0,0:0:0:0:
296,164,70663,2,0,P|296:236|244:272,1,95
204,200,71092,6,0,P|192:271|237:316,1,95
201,289,71413,1,0,0:0:0:0:
340,328,71735,2,0,B|368:324|356:296|356:296|352:264|384:256,1,95
468,296,72163,1,0,0:0:0:0:
460,204,72378,1,0,0:0:0:0:
424,172,72485,1,0,0:0:0:0:
376,164,72592,1,0,0:0:0:0:
292,208,72806,6,0,P|204:232|124:160,1,190
328,44,73771,5,0,0:0:0:0:
351,85,73878,1,0,0:0:0:0:
347,132,73985,1,0,0:0:0:0:
317,168,74092,1,0,0:0:0:0:
272,180,74199,1,0,0:0:0:0:
228,168,74306,1,0,0:0:0:0:
136,148,74521,6,0,P|48:208|64:312,1,190
332,296,75592,6,0,P|372:256|368:216,1,95
300,156,76021,1,0,0:0:0:0:
240,228,76235,2,0,P|208:184|220:120,2,95
192,312,76878,2,0,P|264:324|300:288,1,95
356,140,77521,6,0,P|296:156|272:188,1,95
300,272,77949,2,0,P|252:272|196:240,2,95
384,316,78592,2,0,P|392:248|368:208,1,95
220,124,79235,6,0,P|200:152|204:224,1,95
208,304,79663,2,0,P|144:288|112:240,1,95
108,176,80092,1,0,0:0:0:0:
196,212,80306,2,0,P|204:156|176:112,2,95
64,336,80949,5,0,0:0:0:0:
64,336,81163,1,0,0:0:0:0:
288,268,81377,2,0,P|348:216|356:84,2,156.750001494885
52,248,82020,1,0,0:0:0:0:
224,92,82234,1,0,0:0:0:0:
176,240,82448,1,0,0:0:0:0:
396,160,82663,5,0,0:0:0:0:
240,336,82877,1,0,0:0:0:0:
120,136,83091,2,0,P|132:216|188:296,1,156.750001494885
260,60,83520,1,0,0:0:0:0:
120,136,83734,2,0,P|132:216|188:296,1,156.750001494885
404,316,84163,1,0,0:0:0:0:
224,164,84377,1,0,0:0:0:0:
60,332,84591,1,0,0:0:0:0:
116,104,84806,5,0,0:0:0:0:
276,276,85020,1,0,0:0:0:0:
56,196,85234,1,0,0:0:0:0:
280,124,85448,1,0,0:0:0:0:
152,324,85663,5,0,0:0:0:0:
196,92,85877,1,0,0:0:0:0:
348,272,86091,1,0,0:0:0:0:
112,256,86306,1,0,0:0:0:0:
276,88,86520,5,0,0:0:0:0:
240,320,86734,1,0,0:0:0:0:
124,116,86948,1,0,0:0:0:0:
340,212,87163,2,0,P|281:162|205:166,1,156.750001494885
240,320,87591,1,0,0:0:0:0:
404,148,87806,1,0,0:0:0:0:
404,148,88020,1,0,0:0:0:0:
404,148,88234,5,0,0:0:0:0:
176,84,88448,2,0,P|168:180|204:256,1,156.750001494885
340,52,88877,2,0,B|256:152|340:236|340:236|420:304|312:364,1,313.500002989769
204,300,89520,1,0,0:0:0:0:
204,300,89734,1,0,0:0:0:0:
60,236,89948,6,0,P|104:168|216:160,1,156.750001494885
304,240,90377,1,0,0:0:0:0:
280,84,90591,2,0,B|196:-4|112:44|112:44|192:104|168:192,1,313.500002989769
128,300,91234,1,0,0:0:0:0:
252,204,91448,1,0,0:0:0:0:
452,252,91663,5,0,0:0:0:0:
260,324,91877,1,0,0:0:0:0:
392,128,92091,1,0,0:0:0:0:
156,132,92306,1,0,0:0:0:0:
84,272,92520,5,0,0:0:0:0:
160,284,92627,1,0,0:0:0:0:
234,260,92734,1,0,0:0:0:0:
288,204,92841,1,0,0:0:0:0:
320,132,92948,2,0,P|276:224|212:272,1,156.750001494885
84,272,93377,2,0,P|128:180|192:132,1,156.750001494885
320,132,93806,1,0,0:0:0:0:
200,332,94020,2,0,B|276:216|276:216|356:256|444:184|400:84,1,313.500002989769
288,56,94663,5,0,0:0:0:0:
288,56,94877,1,0,0:0:0:0:
220,304,95091,6,0,P|139:283|92:213,2,170.999994781494
420,140,95734,1,0,0:0:0:0:
164,124,95948,1,0,0:0:0:0:
304,220,96163,1,0,0:0:0:0:
416,28,96377,5,0,0:0:0:0:
240,164,96591,1,0,0:0:0:0:
356,356,96806,2,0,P|420:264|408:192,1,170.999994781494
224,380,97234,1,0,0:0:0:0:
356,356,97448,2,0,P|420:264|408:192,1,170.999994781494
304,80,97877,1,0,0:0:0:0:
148,236,98091,5,0,0:0:0:0:
172,16,98306,1,0,0:0:0:0:
320,224,98520,1,0,0:0:0:0:
72,156,98734,1,0,0:0:0:0:
288,16,98948,1,0,0:0:0:0:
220,264,99163,1,0,0:0:0:0:
152,16,99377,5,0,0:0:0:0:
384,124,99591,1,0,0:0:0:0:
140,208,99806,1,0,0:0:0:0:
336,40,100020,1,0,0:0:0:0:
340,296,100234,5,0,0:0:0:0:
164,108,100448,1,0,0:0:0:0:
408,192,100663,1,0,0:0:0:0:
188,324,100877,2,0,P|220:216|292:196,1,170.999994781494
480,256,101306,1,0,0:0:0:0:
448,88,101520,2,0,P|392:112|412:216,1,170.999994781494
304,348,101948,5,0,0:0:0:0:
156,260,102163,2,0,P|148:180|70:162,1,170.999994781494
304,56,102591,2,0,B|280:128|280:224|280:224|244:132|168:76,1,341.999989562989
84,288,103234,1,0,0:0:0:0:
284,188,103448,1,0,0:0:0:0:
64,160,103663,5,0,0:0:0:0:
236,300,103877,2,0,P|328:300|384:248,1,170.999994781494
244,72,104306,2,0,B|272:160|272:160|188:144|128:204|128:204|100:96,1,341.999989562989
248,284,104948,1,0,0:0:0:0:
360,92,105163,1,0,0:0:0:0:
376,312,105377,5,0,0:0:0:0:
284,168,105591,1,0,0:0:0:0:
100,348,105806,1,0,0:0:0:0:
176,104,106020,1,0,0:0:0:0:
332,308,106234,5,0,0:0:0:0:
404,265,106341,1,0,0:0:0:0:
437,187,106448,1,0,0:0:0:0:
417,106,106555,1,0,0:0:0:0:
356,44,106663,2,0,P|284:16|192:48,1,170.999994781494
104,188,107091,2,0,P|176:216|268:184,1,170.999994781494
376,60,107520,1,0,0:0:0:0:
436,308,107734,2,0,B|360:272|328:336|328:336|240:280|240:280|192:324|120:272,2,341.999989562989
156,188,122520,6,0,B|92:208|116:272|116:272|152:348|56:356,2,213.750008153916
344,292,124234,6,0,P|432:256|392:156,2,213.750008153916
300,84,125948,6,0,B|272:188|272:188|208:84,2,213.750008153916
140,224,127663,6,0,B|148:284|196:300|244:268|244:268|280:332,2,213.750008153916
352,260,129377,6,0,P|328:184|252:172,1,142.500005435944
188,104,130020,2,0,P|178:234|242:261,1,213.750008153916
360,84,131091,6,0,B|252:84|252:84|252:124,1,142.500005435944
148,88,131734,2,0,P|140:148|264:224,1,213.750008153916
444,132,132806,6,0,P|384:180|428:200,1,142.500005435944
504,252,133448,2,0,B|480:292|440:312|380:296|380:296|320:364,1,213.750008153916
152,232,134520,6,0,B|212:272|212:272|216:224|268:232,1,142.500005435944
348,176,135163,2,0,P|264:128|204:148,1,142.500005435944
256,240,135806,5,0,0:0:0:0:
221,249,135913,1,0,0:0:0:0:
186,245,136020,1,0,0:0:0:0:
155,229,136127,1,0,0:0:0:0:
131,203,136234,2,0,P|108:120|288:216,1,484.500009241104
68,144,137948,6,0,B|224:100|224:100|248:160|284:184|348:164|348:164|416:320,1,484.500009241104
116,248,139663,6,0,B|192:224|192:224|224:256|264:260|264:260|296:332|296:332|228:380|136:360|112:232,1,484.500009241104
272,64,141377,6,0,B|212:74|159:116|189:171|189:171|244:137|303:172|298:238|298:238|359:215|370:164,1,403.75000770092
360,108,142663,1,0,0:0:0:0:
200,288,143091,6,0,B|264:316|308:268|272:204|272:204|240:144|304:88|352:144|352:144|412:208|468:136|428:60,1,484.500009241104
204,156,144806,6,0,B|156:236|248:284|328:196|244:148|244:148|156:64|272:-4|356:72|280:136,1,484.500009241104
160,344,146520,6,0,B|99:413|11:362|11:362|77:219|77:219|69:313|160:344,1,484.500009241104
292,140,148234,6,0,B|444:92|444:92|432:-12|316:4,1,323.000006160736
96,60,149520,5,0,0:0:0:0:
60,79,149627,1,0,0:0:0:0:
34,111,149734,1,0,0:0:0:0:
31,150,149841,1,0,0:0:0:0:
52,192,149948,6,0,P|108:232|204:180,1,190
244,92,150591,2,0,P|316:37|396:79,1,190
240,184,151448,1,0,0:0:0:0:
328,224,151663,2,0,P|240:280|160:232,1,190
240,184,152306,2,0,P|154:151|82:206,1,190
52,296,152948,1,0,0:0:0:0:
240,328,153377,5,0,0:0:0:0:
332,308,153591,1,0,0:0:0:0:
364,220,153806,1,0,0:0:0:0:
312,140,154020,2,0,P|236:168|160:96,2,190
252,68,155091,2,0,P|316:48|400:132,1,190
456,200,155734,2,0,P|392:220|308:136,1,190
300,48,156377,1,0,0:0:0:0:
116,96,156806,5,0,0:0:0:0:
60,172,157020,1,0,0:0:0:0:
92,260,157234,1,0,0:0:0:0:
184,284,157448,2,0,B|204:212|152:184|152:184|256:148,1,190
320,160,158091,1,0,0:0:0:0:
400,208,158306,1,0,0:0:0:0:
316,252,158520,2,0,B|260:248|260:312|260:312|260:364|192:360,1,190
172,268,159163,2,0,B|149:216|209:194|209:194|258:177|231:114,1,190
136,124,159806,5,0,0:0:0:0:
72,196,160020,1,0,0:0:0:0:
108,284,160234,2,0,L|216:264,1,95
244,184,160663,2,0,L|136:204,1,95
56,208,161091,2,0,B|76:120|148:112|148:112|224:100,1,190
288,96,161734,1,0,0:0:0:0:
380,108,161948,2,0,P|332:176|232:168,1,190
148,124,162591,2,0,B|108:96|108:96|84:148|128:232,1,190
204,284,163234,1,0,0:0:0:0:
300,284,163448,1,0,0:0:0:0:
384,216,163663,6,0,P|364:148|408:80,1,142.500005435944
80,152,164734,5,0,0:0:0:0:
92,260,164948,2,0,B|96:292|96:292|112:272|112:272|116:296|128:276|128:276|136:288,1,71.2500027179719
372,312,165377,6,0,P|432:244|416:152,1,170.999994781494
248,352,165806,1,0,0:0:0:0:
425,168,166020,2,0,P|368:104|264:120,1,170.999994781494
108,288,166448,1,0,0:0:0:0:
364,272,166663,5,0,0:0:0:0:
128,172,166877,1,0,0:0:0:0:
384,168,167091,2,0,P|312:176|256:284,1,170.999994781494
508,196,167520,1,0,0:0:0:0:
384,168,167734,2,0,P|312:176|256:284,1,170.999994781494
456,348,168163,1,0,0:0:0:0:
236,340,168377,5,0,0:0:0:0:
104,160,168591,1,0,0:0:0:0:
352,224,168806,1,0,0:0:0:0:
104,292,169020,1,0,0:0:0:0:
284,108,169234,1,0,0:0:0:0:
180,340,169448,1,0,0:0:0:0:
124,88,169663,5,0,0:0:0:0:
300,276,169877,1,0,0:0:0:0:
64,180,170091,1,0,0:0:0:0:
320,168,170306,1,0,0:0:0:0:
108,312,170520,5,0,0:0:0:0:
260,104,170734,1,0,0:0:0:0:
296,356,170948,1,0,0:0:0:0:
128,160,171163,2,0,P|188:228|312:232,1,170.999994781494
104,44,171591,1,0,0:0:0:0:
80,300,171806,5,0,0:0:0:0:
244,148,172020,1,0,0:0:0:0:
300,312,172234,1,0,0:0:0:0:
424,196,172448,1,0,0:0:0:0:
444,316,172663,1,0,0:0:0:0:
340,80,172877,2,0,B|292:72|272:100|272:100|304:128|304:128|260:160|212:148|212:148|232:104|232:104|204:84|148:128,1,341.999989562989
44,352,173520,5,0,0:0:0:0:
196,276,173734,1,0,0:0:0:0:
404,352,173948,1,0,0:0:0:0:
436,132,174163,1,0,0:0:0:0:
300,308,174377,1,0,0:0:0:0:
264,88,174591,2,0,B|220:128|192:68|192:68|144:80|152:144|152:144|92:136|76:68|76:68|32:120|60:172,1,341.999989562989
64,324,175234,5,0,0:0:0:0:
208,156,175448,1,0,0:0:0:0:
380,300,175663,1,0,0:0:0:0:
416,132,175877,1,0,0:0:0:0:
236,316,176091,1,0,0:0:0:0:
104,96,176306,1,0,0:0:0:0:
324,108,176520,5,0,0:0:0:0:
272,204,176627,1,0,0:0:0:0:
176,260,176734,1,0,0:0:0:0:
64,252,176841,1,0,0:0:0:0:
124,160,176948,2,0,P|208:152|288:248,1,170.999994781494
232,36,177377,2,0,P|297:87|381:78,1,170.999994781494
424,332,177806,1,0,0:0:0:0:
168,332,178020,2,0,B|220:344|232:312|232:312|200:276|200:276|212:244|272:260,1,170.999994781494
460,252,178448,5,0,0:0:0:0:
460,252,178663,1,0,0:0:0:0:
460,252,178877,1,0,0:0:0:0:
252,60,179091,2,0,P|176:44|104:120,2,190
440,276,179734,1,0,0:0:0:0:
196,296,179948,1,0,0:0:0:0:
400,96,180163,1,0,0:0:0:0:
304,364,180377,5,0,0:0:0:0:
236,88,180591,1,0,0:0:0:0:
76,188,180806,2,0,P|52:236|132:348,1,190
236,88,181234,1,0,0:0:0:0:
76,188,181448,2,0,P|52:236|132:348,1,190
372,220,181877,1,0,0:0:0:0:
156,104,182091,5,0,0:0:0:0:
240,336,182306,1,0,0:0:0:0:
380,88,182520,1,0,0:0:0:0:
148,252,182734,1,0,0:0:0:0:
432,240,182948,1,0,0:0:0:0:
224,44,183163,1,0,0:0:0:0:
220,328,183377,5,0,0:0:0:0:
428,136,183591,1,0,0:0:0:0:
144,112,183806,1,0,0:0:0:0:
324,332,184020,1,0,0:0:0:0:
368,52,184234,5,0,0:0:0:0:
128,208,184448,1,0,0:0:0:0:
408,268,184663,1,0,0:0:0:0:
268,20,184877,2,0,P|272:92|416:128,1,190
88,76,185306,1,0,0:0:0:0:
212,332,185520,5,0,0:0:0:0:
204,144,185734,1,0,0:0:0:0:
420,328,185948,1,0,0:0:0:0:
144,248,186163,1,0,0:0:0:0:
420,184,186377,1,0,0:0:0:0:
264,76,186591,2,0,B|196:72|152:116|144:168|144:168|240:172|260:312|140:332,1,380
28,204,187234,5,0,0:0:0:0:
144,56,187448,1,0,0:0:0:0:
292,300,187663,1,0,0:0:0:0:
436,56,187877,1,0,0:0:0:0:
168,156,188091,1,0,0:0:0:0:
448,212,188306,2,0,B|356:256|356:256|312:192|216:228|216:292|216:292|96:280,1,380
84,40,188948,5,0,0:0:0:0:
320,108,189163,1,0,0:0:0:0:
272,352,189377,1,0,0:0:0:0:
432,252,189591,1,0,0:0:0:0:
152,304,189806,1,0,0:0:0:0:
188,20,190020,1,0,0:0:0:0:
400,148,190234,5,0,0:0:0:0:
304,224,190341,1,0,0:0:0:0:
180,212,190448,1,0,0:0:0:0:
96,120,190556,1,0,0:0:0:0:
56,236,190663,2,0,P|96:304|208:328,1,190
446,318,191091,2,0,P|406:250|294:226,1,190
84,336,191520,1,0,0:0:0:0:
180,68,191734,2,0,B|80:108|288:184|224:80|224:80|176:-20|388:64|264:96,2,380
96,264,193234,5,0,0:0:0:0:
172,188,193448,1,0,0:0:0:0:
196,292,193663,1,0,0:0:0:0:
292,240,193877,1,0,0:0:0:0:
360,320,194091,1,0,0:0:0:0:
464,296,194306,2,0,B|488:280|468:260|468:260|460:240|472:224|472:224|480:208|476:192|476:192|476:176|480:160,1,142.500005435944
412,80,194948,5,0,0:0:0:0:
360,176,195163,1,0,0:0:0:0:
252,180,195377,1,0,0:0:0:0:
324,260,195591,1,0,0:0:0:0:
376,356,195806,1,0,0:0:0:0:
464,296,196020,2,0,B|488:280|468:260|468:260|460:240|472:224|472:224|480:208|476:192|476:192|476:176,1,106.875004076958
476,148,196448,5,0,0:0:0:0:
388,84,196663,1,0,0:0:0:0:
360,188,196877,1,0,0:0:0:0:
260,152,197091,2,0,B|232:156|232:176|232:176|232:196|200:192,1,71.2500027179719
104,176,197520,1,0,0:0:0:0:
80,280,197734,2,0,P|84:324|184:352,1,142.500005435944
260,316,198377,5,0,0:0:0:0:
292,212,198591,1,0,0:0:0:0:
188,240,198806,1,0,0:0:0:0:
196,132,199020,1,0,0:0:0:0:
96,176,199234,1,0,0:0:0:0:
80,280,199448,2,0,P|84:324|184:352,1,142.500005435944
264,320,200091,5,0,0:0:0:0:
332,236,200306,1,0,0:0:0:0:
304,132,200520,1,0,0:0:0:0:
412,144,200734,1,0,0:0:0:0:
452,244,200948,1,0,0:0:0:0:
400,336,201163,2,0,B|368:344|368:344|324:312|260:320,1,142.500005435944
164,356,201806,5,0,0:0:0:0:
180,252,202020,1,0,0:0:0:0:
268,188,202234,1,0,0:0:0:0:
376,180,202448,1,0,0:0:0:0:
460,248,202663,1,0,0:0:0:0:
400,336,202877,2,0,B|368:344|368:344|324:312|260:320,1,142.500005435944
160,348,203520,5,0,0:0:0:0:
124,248,203734,1,0,0:0:0:0:
232,244,203948,1,0,0:0:0:0:
336,216,204163,1,0,0:0:0:0:
404,136,204377,1,0,0:0:0:0:
344,48,204591,2,0,P|284:68|324:84,1,142.500005435944
420,96,205234,5,0,0:0:0:0:
488,176,205448,1,0,0:0:0:0:
456,280,205663,1,0,0:0:0:0:
356,312,205877,1,0,0:0:0:0:
268,252,206091,5,0,0:0:0:0:
220,232,206198,1,0,0:0:0:0:
168,228,206306,1,0,0:0:0:0:
116,244,206413,1,0,0:0:0:0:
80,280,206520,2,0,B|56:324|88:352|124:344|124:344|216:320|232:236|232:236|248:160|316:144|316:144|372:132|416:188|348:208|348:208|308:220|304:256|304:256|300:276,1,598.49998173523
396,296,208663,5,0,0:0:0:0:
372,200,208877,1,0,0:0:0:0:
296,132,209091,1,0,0:0:0:0:
196,128,209306,1,0,0:0:0:0:
116,188,209520,1,0,0:0:0:0:
80,280,209734,2,0,B|56:324|88:352|124:344|124:344|216:320|232:236|232:236|248:160|316:144|316:144|372:132|416:188|348:208|348:208|308:220|304:256|304:256|300:288|344:312,1,664.999979705811
432,280,212091,5,0,0:0:0:0:
380,192,212306,1,0,0:0:0:0:
300,132,212520,1,0,0:0:0:0:
200,128,212734,1,0,0:0:0:0:
120,188,212948,1,0,0:0:0:0:
80,280,213163,2,0,B|56:324|88:352|124:344|124:344|216:320|232:236|232:236|248:160|316:144|316:144|372:132|416:188|348:208|348:208|308:220|304:256|304:256|300:288|344:312,1,664.999979705811
432,280,215520,5,0,0:0:0:0:
380,192,215735,1,0,0:0:0:0:
300,132,215949,1,0,0:0:0:0:
200,128,216163,1,0,0:0:0:0:
120,188,216377,1,0,0:0:0:0:
80,280,216592,2,0,B|56:324|88:352|124:344|124:344|216:320|232:236|232:236|248:160|316:144|316:144|372:132|416:188|348:208|348:208|308:220|304:256|304:256|300:288|344:312,1,664.999979705811
432,280,218948,5,0,0:0:0:0:
380,192,219163,1,0,0:0:0:0:
300,132,219377,1,0,0:0:0:0:
200,128,219591,1,0,0:0:0:0:
120,188,219805,1,0,0:0:0:0:
92,280,220020,2,0,B|96:324|136:340|136:340|168:352|188:332|188:332|208:312|204:284|204:284|200:260|180:252|180:252|160:244|148:264|148:264|140:284|164:292,1,285
