osu file format v14

[General]
AudioFilename: R!OT - Just Do It (Original Mix).mp3
AudioLeadIn: 0
PreviewTime: 48387
Countdown: 0
SampleSet: Soft
StackLeniency: 0.7
Mode: 0
LetterboxInBreaks: 0
WidescreenStoryboard: 1

[Editor]
Bookmarks: 63860
DistanceSpacing: 1
BeatDivisor: 16
GridSize: 4
TimelineZoom: 1

[Metadata]
Title:Just Do It(Original Mix)
TitleUnicode:Just Do It(Original Mix)
Artist:R!OT
ArtistUnicode:R!OT
Creator:SHADIC_
Version:Stop Giving Up
Source:
Tags:
BeatmapID:1358455
BeatmapSetID:640543

[Difficulty]
HPDrainRate:7
CircleSize:4.2
OverallDifficulty:8.6
ApproachRate:9.3
SliderMultiplier:2.4
SliderTickRate:1

[Events]
//Background and Video events
0,0,"JFVIAWu-nike-wallpaper-just-do-it.png",0,0
//Break Periods
//Storyboard Layer 0 (Background)
//Storyboard Layer 1 (Fail)
//Storyboard Layer 2 (Pass)
//Storyboard Layer 3 (Foreground)
//Storyboard Sound Samples

[TimingPoints]
0,483.792936623125,4,1,1,100,1,0
967,-100,4,2,6,100,0,0
1935,-100,4,2,1,50,0,0
8708,-100,4,2,6,50,0,0
9192,-100,4,2,1,50,0,0
13548,-100,4,2,1,55,0,0
14032,-100,4,2,1,60,0,0
14516,-100,4,2,1,65,0,0
14999,-100,4,2,1,70,0,0
15483,-100,4,2,1,75,0,0
15967,-100,4,2,1,80,0,0
16451,-100,4,2,1,85,0,0
16935,-100,4,2,1,90,0,0
17419,-100,4,3,1,75,0,0
30962,-100,4,3,1,65,0,0
31446,-100,4,3,1,55,0,0
31930,-100,4,3,1,45,0,0
32414,-100,4,3,1,35,0,0
32897,-100,4,1,2,75,0,0
48379,-200,4,3,1,75,0,0
52249,-133.333333333333,4,3,1,75,0,0
56119,-100,4,3,1,75,0,0
63860,-200,4,1,1,100,0,1
64344,-66.6666666666667,4,1,1,100,0,1
65070,-100,4,1,1,100,0,1
65553,-133.333333333333,4,1,1,100,0,1
65795,-100,4,1,1,100,0,1
66400,-66.6666666666667,4,1,1,100,0,1
67731,-200,4,1,1,100,0,1
68214,-66.6666666666667,4,1,1,100,0,1
68940,-100,4,1,1,100,0,1
69424,-50,4,1,1,100,0,1
69666,-100,4,1,1,100,0,1
69908,-133.333333333333,4,1,1,100,0,1
70149,-100,4,1,1,100,0,1
71601,-200,4,1,1,100,0,1
72085,-66.6666666666667,4,1,1,100,0,1
72810,-133.333333333333,4,1,1,100,0,1
73294,-66.6666666666667,4,1,1,100,0,1
73415,-66.6666666666667,4,1,1,5,0,1
73536,-100,4,1,1,100,0,1
74020,-50,4,1,1,100,0,1
74504,-100,4,1,1,100,0,1
74866,-66.6666666666667,4,1,1,100,0,1
74987,-100,4,1,1,100,0,1
75471,-133.333333333333,4,1,1,100,0,1
75955,-66.6666666666667,4,1,1,100,0,1
76923,-100,4,1,1,100,0,1
77648,-200,4,1,1,100,0,1
78858,-66.6666666666667,4,1,1,100,0,1
79825,-50,4,1,1,100,0,1
80309,-100,4,1,1,100,0,1
80793,-66.6666666666667,4,1,1,100,0,1
81277,-80,4,1,1,100,0,1
81761,-57.1428571428571,4,1,1,100,0,1
82607,-133.333333333333,4,1,1,100,0,1
82970,-66.6666666666667,4,1,1,100,0,1
83212,-200,4,1,1,100,0,1
83938,-80,4,1,1,100,0,1
84179,-133.333333333333,4,1,1,100,0,1
84663,-100,4,1,1,100,0,1
85147,-200,4,1,1,100,0,1
85631,-100,4,1,1,100,0,1
86115,-66.6666666666667,4,1,1,100,0,1
86357,-133.333333333333,4,1,1,100,0,1
87082,-200,4,1,1,100,0,1
87808,-66.6666666666667,4,1,1,100,0,1
88534,-100,4,1,1,100,0,1
89017,-133.333333333333,4,1,1,100,0,1
89501,-100,4,1,1,100,0,1
89985,-66.6666666666667,4,1,1,100,0,1
90590,-200,4,1,1,100,0,1
90953,-100,4,1,1,100,0,1
91678,-50,4,1,1,100,0,1
92162,-200,4,1,1,100,0,1
92404,-100,4,1,1,100,0,1
92888,-200,4,1,1,100,0,1
93613,-80,4,1,1,100,0,1
94339,-133.333333333333,4,1,1,100,0,1
94823,-100,4,3,1,80,0,0
96758,-100,4,1,2,80,0,0
98209,-50,4,3,1,80,0,0
98693,-100,4,3,1,80,0,0
104499,-100,4,1,2,80,0,0
105950,-50,4,3,1,80,0,0
106434,-100,4,3,1,80,0,0
108369,-133.333333333333,4,3,1,80,0,0
108732,-66.6666666666667,4,3,1,80,0,0
109095,-100,4,3,1,80,0,0
110304,-100,4,2,1,50,0,0
119980,-100,4,2,1,55,0,0
120464,-100,4,2,1,60,0,0
120948,-100,4,2,1,65,0,0
121432,-100,4,2,1,70,0,0
121915,-100,4,2,1,75,0,0
122883,-100,4,2,1,80,0,0
123850,-100,4,2,1,85,0,0
124818,-100,4,2,1,95,0,0
125786,-100,4,2,1,100,0,0
139332,-100,4,2,1,90,0,0
139574,-100,4,2,1,85,0,0
139816,-100,4,2,1,80,0,0
140058,-100,4,2,1,75,0,0
140299,-100,4,2,1,70,0,0
140541,-100,4,2,1,65,0,0
140783,-100,4,2,1,60,0,0
141025,-100,4,2,1,55,0,0
141267,-100,4,2,1,50,0,0
172230,-100,4,1,2,100,0,1
203193,-100,4,3,1,80,0,0
218709,-100,4,2,1,80,0,0

[Colours]
Combo1 : 255,128,0
Combo2 : 255,0,0
Combo3 : 255,0,255
Combo4 : 128,0,255
Combo5 : 0,0,255
Combo6 : 0,255,255
Combo7 : 0,255,64
Combo8 : 255,255,0

[HitObjects]
256,192,0,12,2,967,0:0:0:0:
68,96,1935,6,0,P|128:76|192:80,1,120,2|0,0:0|0:0,0:0:0:0:
196,200,2418,1,4,0:0:0:0:
76,200,2660,1,0,0:0:0:0:
116,312,2902,2,0,P|180:320|248:304,1,120,2|0,0:0|0:0,0:0:0:0:
324,232,3386,1,4,0:0:0:0:
428,172,3628,1,0,0:0:0:0:
364,68,3870,6,0,P|300:76|228:120,1,120,2|0,0:0|0:0,0:0:0:0:
132,120,4354,1,4,0:0:0:0:
72,224,4596,1,0,0:0:0:0:
108,336,4837,2,0,P|168:308|208:248,1,120,2|0,0:0|0:0,0:0:0:0:
212,148,5321,1,4,0:0:0:0:
332,128,5563,1,0,0:0:0:0:
244,44,5805,6,0,P|204:92|200:172,1,120,2|0,0:0|0:0,0:0:0:0:
268,340,6289,2,0,P|308:292|312:212,1,120,4|0,0:0|0:0,0:0:0:0:
192,148,6773,2,0,P|168:220|180:292,1,120,2|0,0:0|0:0,0:0:0:0:
320,236,7256,2,0,P|344:164|332:92,1,120,4|0,0:0|0:0,0:0:0:0:
244,52,7740,5,2,0:0:0:0:
160,136,7982,1,0,0:0:0:0:
280,136,8224,1,4,0:0:0:0:
200,48,8466,1,0,0:0:0:0:
204,168,8708,1,6,0:0:0:0:
284,80,8950,1,0,0:0:0:0:
268,200,9192,2,0,P|328:212|396:192,1,120,4|0,0:0|0:0,0:0:0:0:
396,320,9675,6,0,L|276:256,1,120,2|0,0:0|0:0,0:0:0:0:
116,280,10159,2,0,L|236:216,1,120,4|0,0:0|0:0,0:0:0:0:
396,216,10643,2,0,L|276:152,1,120,2|0,0:0|0:0,0:0:0:0:
116,156,11127,1,4,0:0:0:0:
221,99,11369,1,0,0:0:0:0:
332,52,11611,6,0,B|372:148|372:148|344:132,1,120,2|0,0:0|0:0,0:0:0:0:
180,124,12094,2,0,B|140:220|140:220|168:204,1,120,4|0,0:0|0:0,0:0:0:0:
332,172,12578,2,0,B|372:268|372:268|344:252,1,120,2|0,0:0|0:0,0:0:0:0:
153,328,13062,1,4,0:0:0:0:
200,216,13304,1,0,0:0:0:0:
132,116,13546,5,2,0:0:0:0:
388,84,13788,1,0,0:0:0:0:
124,300,14029,1,4,0:0:0:0:
380,268,14271,1,0,0:0:0:0:
56,52,14513,1,2,0:0:0:0:
480,32,14755,1,0,0:0:0:0:
32,352,14997,1,4,0:0:0:0:
456,332,15239,1,0,0:0:0:0:
356,268,15481,5,2,0:0:0:0:
156,116,15723,1,0,0:0:0:0:
332,292,15965,1,4,0:0:0:0:
180,92,16207,1,0,0:0:0:0:
308,316,16448,1,2,0:0:0:0:
204,68,16690,1,0,0:0:0:0:
284,340,16932,1,4,0:0:0:0:
228,44,17174,1,0,0:0:0:0:
128,108,17416,6,0,P|96:168|96:236,2,120,2|0|4,0:0|0:0|0:0,0:0:0:0:
248,108,18142,1,0,0:0:0:0:
304,216,18384,1,2,0:0:0:0:
304,96,18626,1,0,0:0:0:0:
424,100,18867,2,0,P|476:136|496:204,1,120,4|0,0:0|0:0,0:0:0:0:
396,252,19351,5,2,0:0:0:0:
300,328,19593,2,0,B|192:316|192:316|216:264,1,120,0|4,0:0|0:0,0:0:0:0:
120,212,20077,1,0,0:0:0:0:
56,312,20319,1,2,0:0:0:0:
168,264,20561,2,0,P|192:204|252:164,1,120,0|4,0:0|0:0,0:0:0:0:
352,188,21044,1,0,0:0:0:0:
336,68,21286,6,0,P|400:72|456:128,1,120,2|0,0:0|0:0,0:0:0:0:
442,279,21770,2,0,P|395:313|336:316,1,120,4|0,0:0|0:0,0:0:0:0:
248,216,22254,2,0,P|228:154|261:82,1,120,2|0,0:0|0:0,0:0:0:0:
248,216,22738,2,4,P|216:256|144:272,1,120,4|0,0:0|0:0,0:0:0:0:
152,156,23222,5,2,0:0:0:0:
272,156,23463,1,0,0:0:0:0:
152,156,23705,1,4,0:0:0:0:
312,112,23947,1,0,0:0:0:0:
152,156,24189,1,2,0:0:0:0:
348,68,24431,1,0,0:0:0:0:
152,156,24673,1,4,0:0:0:0:
388,28,24915,1,0,0:0:0:0:
136,284,25157,6,0,P|192:303|252:309,1,120,2|0,0:0|0:0,0:0:0:0:
364,264,25641,1,4,0:0:0:0:
408,152,25882,2,0,P|368:108|312:88,1,120,0|2,0:0|0:0,0:0:0:0:
264,200,26366,1,0,0:0:0:0:
364,268,26608,2,0,P|288:272|228:232,1,120,4|0,0:0|0:0,0:0:0:0:
168,164,27092,6,0,P|220:132|292:124,2,120,2|0|4,0:0|0:0|0:0,0:0:0:0:
48,144,27818,1,0,0:0:0:0:
36,264,28059,2,0,P|92:288|156:264,1,120,2|0,0:0|0:0,0:0:0:0:
96,188,28543,1,4,0:0:0:0:
212,244,28785,1,0,0:0:0:0:
312,292,29027,6,0,L|416:232,1,120,2|0,0:0|0:0,0:0:0:0:
200,228,29511,2,0,L|96:168,1,120,4|0,0:0|0:0,0:0:0:0:
312,156,29995,2,0,L|416:96,1,120,2|0,0:0|0:0,0:0:0:0:
200,88,30478,2,0,L|96:28,1,120,4|0,0:0|0:0,0:0:0:0:
216,36,30962,5,2,0:0:0:0:
204,56,31204,1,0,0:0:0:0:
296,132,31446,5,4,0:0:0:0:
308,152,31688,1,0,0:0:0:0:
216,252,31930,5,2,0:0:0:0:
200,272,32172,1,0,0:0:0:0:
296,332,32414,5,4,0:0:0:0:
312,352,32656,1,0,0:0:0:0:
396,268,32897,6,0,P|416:228|332:64,1,240,2|4,0:0|0:0,0:0:0:0:
220,48,33623,1,0,0:0:0:0:
128,124,33865,1,2,0:0:0:0:
228,192,34107,1,0,0:0:0:0:
120,244,34349,1,4,0:0:0:0:
240,260,34591,1,0,0:0:0:0:
300,252,34712,1,0,0:0:0:0:
356,232,34833,6,0,P|384:204|376:20,1,240,2|4,0:0|0:0,0:0:0:0:
276,84,35558,2,0,P|280:124|216:180,1,120,0|2,0:0|0:0,0:0:0:0:
132,104,36042,1,0,0:0:0:0:
56,200,36284,2,0,P|140:208|180:172,1,120,4|0,0:0|0:0,0:0:0:0:
212,152,36647,1,0,0:0:0:0:
232,96,36768,6,0,P|272:80|428:172,1,240,2|4,0:0|0:0,0:0:0:0:
356,268,37493,1,0,0:0:0:0:
248,212,37735,2,0,P|316:192|348:156,1,120,2|0,0:0|0:0,0:0:0:0:
244,96,38219,1,4,0:0:0:0:
132,140,38461,2,0,P|104:184|100:204,1,60
124,248,38703,6,0,P|176:196|248:28,1,240,2|4,0:0|0:0,0:0:0:0:
352,104,39429,1,0,0:0:0:0:
252,172,39671,1,2,0:0:0:0:
372,188,39912,1,0,0:0:0:0:
256,220,40154,1,4,0:0:0:0:
148,272,40396,2,0,P|140:232|148:208,1,60
204,204,40638,6,0,P|236:160|416:112,1,240,2|4,0:0|0:0,0:0:0:0:
472,212,41364,2,0,P|432:252|360:264,1,120,0|2,0:0|0:0,0:0:0:0:
296,172,41848,2,0,P|336:132|408:120,1,120,0|4,0:0|0:0,0:0:0:0:
344,228,42331,2,0,L|272:248,1,60
228,264,42573,6,0,B|192:60|192:60|168:96,1,240,2|4,0:0|0:0,0:0:0:0:
72,148,43299,2,0,B|80:232|80:232|108:204,1,120,0|2,0:0|0:0,0:0:0:0:
220,176,43783,2,0,B|212:92|212:92|186:117,1,120,0|4,0:0|0:0,0:0:0:0:
156,232,44267,2,0,L|128:168,1,60
176,136,44508,6,0,B|200:196|268:296|268:296|288:228,1,240,2|4,0:0|0:0,0:0:0:0:
340,136,45234,1,0,0:0:0:0:
416,44,45476,2,0,L|440:172,1,120,2|0,0:0|0:0,0:0:0:0:
340,92,45960,1,4,0:0:0:0:
224,60,46202,1,0,0:0:0:0:
244,116,46323,1,0,0:0:0:0:
272,168,46444,6,0,B|264:352|264:352|312:320,1,240,2|4,0:0|0:0,0:0:0:0:
332,204,47169,2,0,P|348:156|344:84,2,120,0|2|0,0:0|0:0|0:0,0:0:0:0:
384,312,47895,1,4,0:0:0:0:
284,248,48137,1,0,0:0:0:0:
240,208,48258,1,0,0:0:0:0:
204,168,48379,6,0,B|124:128|124:128|160:116,1,120,2|4,0:0|0:0,0:0:0:0:
204,216,49346,2,0,B|124:256|124:256|160:268,1,120,2|4,0:0|0:0,0:0:0:0:
308,168,50314,6,0,B|388:128|388:128|352:116,1,120,2|4,0:0|0:0,0:0:0:0:
308,216,51281,2,0,B|388:256|388:256|352:268,1,120,2|4,0:0|0:0,0:0:0:0:
88,68,52249,6,0,B|220:84|220:84|204:36,1,180.000006866455,2|4,0:0|0:0,0:0:0:0:
424,68,53217,2,0,B|292:84|292:84|308:36,1,180.000006866455,2|4,0:0|0:0,0:0:0:0:
88,316,54184,6,0,B|220:300|220:300|204:348,1,180.000006866455,2|4,0:0|0:0,0:0:0:0:
424,316,55152,2,0,B|292:300|292:300|308:348,1,180.000006866455,2|4,0:0|0:0,0:0:0:0:
160,68,56119,6,0,P|232:48|384:100,1,240,2|4,0:0|0:0,0:0:0:0:
348,336,57087,2,0,P|256:344|108:280,1,240,2|4,0:0|0:0,0:0:0:0:
360,288,58055,6,0,P|368:244|320:56,1,240,2|4,0:0|0:0,0:0:0:0:
188,260,59022,2,0,P|152:224|144:40,1,240,2|4,0:0|0:0,0:0:0:0:
380,56,59990,6,0,P|408:92|412:168,1,120,2|0,0:0|0:0,0:0:0:0:
336,260,60474,1,4,0:0:0:0:
224,308,60716,1,0,0:0:0:0:
120,248,60957,2,0,P|112:192|152:128,1,120,2|0,0:0|0:0,0:0:0:0:
252,96,61441,1,4,0:0:0:0:
248,216,61683,1,0,0:0:0:0:
340,136,61925,6,0,L|376:64,1,60,2|0,0:0|0:0,0:0:0:0:
224,60,62167,2,0,L|192:116,1,60
308,188,62409,6,0,L|344:116,1,60,4|0,0:0|0:0,0:0:0:0:
192,112,62651,2,0,L|160:168,1,60
276,240,62893,6,0,L|312:168,1,60,2|0,0:0|0:0,0:0:0:0:
160,164,63135,2,0,L|128:220,1,60
104,108,63860,6,0,B|184:88|184:88|152:64,1,120,2|4,0:2|0:2,0:0:0:0:
128,192,64586,6,0,B|128:264|128:264|104:244,1,90.0000034332277
192,192,64828,2,0,B|192:264|192:264|216:244,1,90.0000034332277,2|0,0:2|0:0,0:0:0:0:
256,192,65070,6,0,L|360:104,1,120,0|4,0:0|0:2,0:0:0:0:
404,96,65432,1,0,0:0:0:0:
464,108,65553,6,0,B|496:152|496:152|464:192,1,90.0000034332277,0|2,0:0|0:2,0:0:0:0:
388,264,66037,1,0,0:0:0:0:
268,280,66279,1,4,0:2:0:0:
208,280,66400,6,0,B|236:136|236:136|208:156,1,180.000006866455
156,160,66763,1,2,0:2:0:0:
112,128,66884,1,0,0:0:0:0:
84,84,67005,1,0,0:0:0:0:
124,48,67126,2,0,B|192:68|192:68|224:36|224:36|240:72|240:72|352:92,1,270.000010299683
300,200,67731,6,0,L|168:208,1,120,2|4,0:2|0:2,0:0:0:0:
88,52,68456,6,0,L|36:128,1,90.0000034332277
120,56,68698,2,0,L|168:132,1,90.0000034332277,2|0,0:2|0:0,0:0:0:0:
228,144,68940,6,0,L|372:132,1,120,0|4,0:0|0:2,0:0:0:0:
400,164,69303,1,0,0:0:0:0:
332,264,69424,6,0,B|280:296|272:344|272:344|240:292|240:292|200:340|200:340|180:336,1,240,0|2,0:0|0:2,0:0:0:0:
136,308,69787,1,0,0:0:0:0:
104,276,69908,6,0,L|60:264,2,45.0000017166138,0|0|4,0:0|0:0|0:2,0:0:0:0:
160,256,70270,1,0,0:0:0:0:
200,208,70391,6,0,P|228:176|256:96,1,120,0|2,0:0|0:2,0:0:0:0:
236,48,70754,1,0,0:0:0:0:
180,24,70875,1,0,0:0:0:0:
120,28,70996,1,0,0:0:0:0:
56,144,71117,1,4,0:2:0:0:
92,192,71238,1,0,0:0:0:0:
144,220,71359,1,0,0:0:0:0:
144,160,71601,6,0,B|168:160|168:160|176:136|176:136|192:164|192:164|208:144|208:144|232:140,1,120,2|4,0:2|0:2,0:0:0:0:
388,76,72327,6,0,L|479:67,1,90.0000034332277
480,164,72568,2,0,L|384:172,1,90.0000034332277,2|0,0:2|0:0,0:0:0:0:
344,180,72810,6,0,P|324:204|316:260,1,90.0000034332277,0|4,0:0|0:2,0:0:0:0:
328,288,73173,1,0,0:0:0:0:
372,300,73294,6,0,P|400:284|432:228,1,90.0000034332277
428,176,73536,6,0,P|408:132|344:88,1,120,2|0,0:2|0:0,0:0:0:0:
292,80,73899,1,0,0:0:0:0:
172,76,74020,6,0,B|136:128|136:128|176:132|176:132|136:184|136:184|188:188|236:216|288:312,1,360,4|0,0:2|0:0,0:0:0:0:
332,324,74504,1,2,0:2:0:0:
388,304,74625,1,0,0:0:0:0:
424,256,74746,1,0,0:0:0:0:
432,48,74866,6,0,P|392:76|356:112,1,90.0000034332277,0|4,0:0|0:2,0:0:0:0:
332,156,75108,1,0,0:0:0:0:
312,212,75229,1,0,0:0:0:0:
248,272,75471,6,0,B|204:272|204:272|204:292|204:292|180:276,2,90.0000034332277,2|0|4,0:2|0:0|0:2,0:0:0:0:
308,96,76197,6,0,P|300:51|291:62,1,90.0000034332277
205,87,76439,2,0,P|220:44|227:57,1,90.0000034332277,2|0,0:2|0:0,0:0:0:0:
254,119,76681,2,0,L|262:24,1,90.0000034332277
316,28,76923,6,0,P|324:56|268:124,1,120,4|0,0:2|0:0,0:0:0:0:
184,48,77406,5,2,0:2:0:0:
120,132,77648,6,0,L|80:192,3,60
76,212,78495,1,0,0:0:0:0:
68,240,78616,1,0,0:0:0:0:
240,292,78858,6,0,B|292:248|292:248|356:220|356:220|308:180|308:180|376:184|316:48,1,360.000013732911,4|2,0:2|0:2,0:0:0:0:
140,88,79583,1,0,0:0:0:0:
312,324,79825,6,0,L|420:268,1,120,4|0,0:2|0:0,0:0:0:0:
456,164,80067,2,0,L|349:219,1,120
300,256,80309,6,0,B|272:240|268:208|268:208|240:216|228:160|240:160|240:160|224:128|264:92,1,180,2|0,0:2|0:0,0:0:0:0:
324,68,80793,6,0,B|376:64|400:56|400:56|400:84|400:84|472:116,1,180.000006866455,4|0,0:2|0:0,0:0:0:0:
448,204,81156,1,0,0:0:0:0:
384,244,81277,6,0,B|344:244|328:256|328:256|320:228|320:228|292:216|248:224,2,150,2|0|4,0:2|0:0|0:2,0:0:0:0:
316,324,81881,6,0,P|264:304|228:268,2,105.000001001358
464,288,82244,1,2,0:2:0:0:
472,120,82365,1,0,0:0:0:0:
304,248,82486,1,0,0:0:0:0:
232,120,82607,6,0,P|204:92|184:84,2,45.0000017166138,0|4|0,0:0|0:2|0:0,0:0:0:0:
92,136,82970,6,0,L|176:196,1,90.0000034332277
264,236,83212,6,0,B|296:224|296:224|320:232|320:232|320:192|356:176,1,120,2|4,0:2|0:2,0:0:0:0:
228,88,83938,6,0,L|156:128,1,75
4,224,84179,6,0,B|32:228|44:244|44:244|64:224|64:224|88:248|140:248,1,135.000005149841,2|0,0:2|0:0,0:0:0:0:
288,248,84663,6,0,P|256:256|228:256,1,60,4|0,0:2|0:0,0:0:0:0:
72,148,84905,1,0,0:0:0:0:
248,40,85147,6,0,P|276:52|348:120,1,120,2|4,0:2|0:2,0:0:0:0:
344,172,85752,5,0,0:0:0:0:
308,220,85873,1,0,0:0:0:0:
132,268,86115,6,0,P|84:240|60:208,1,90.0000034332277,2|0,0:2|0:0,0:0:0:0:
128,36,86357,6,0,P|164:52|180:68,1,45.0000017166138
204,84,86598,1,4,0:2:0:0:
228,124,86719,1,0,0:0:0:0:
240,168,86840,1,0,0:0:0:0:
236,368,87082,6,0,B|264:336|264:336|284:332|284:332|280:316|280:316|312:276,1,120,2|4,0:2|0:2,0:0:0:0:
448,184,87808,6,0,B|512:152|512:152|488:128,1,90.0000034332277
380,48,88050,2,0,B|288:16|316:108|316:108|240:64|200:124|200:124|176:172|112:176,1,360.000013732911,2|4,0:2|0:2,0:0:0:0:
88,180,88655,1,0,0:0:0:0:
56,176,88776,1,0,0:0:0:0:
260,156,89017,6,0,B|266:187|250:217|250:217|297:244|230:337,1,180.000006866455,2|4,0:2|0:2,0:0:0:0:
184,344,89622,1,0,0:0:0:0:
128,328,89743,6,0,P|84:296|60:228,1,120,0|2,0:0|0:2,0:0:0:0:
84,49,90106,6,0,P|32:33|0:5,2,90.0000034332277
332,104,90469,1,4,0:2:0:0:
376,188,90590,6,0,L|360:224,1,30
264,280,90953,6,0,B|216:288|204:248|204:248|152:256|136:208|136:208|92:212|80:168,1,240,2|4,0:2|0:2,0:0:0:0:
108,80,91678,6,0,B|188:44|188:44|168:88,1,120
296,88,91920,2,0,B|216:124|216:124|236:80,1,120,2|0,0:2|0:0,0:0:0:0:
180,184,92162,6,0,P|184:216|208:248,1,60,0|4,0:0|0:2,0:0:0:0:
240,284,92525,1,0,0:0:0:0:
300,300,92646,1,0,0:0:0:0:
412,260,92888,6,0,P|424:232|432:200,1,60,2|0,0:2|0:0,0:0:0:0:
432,172,93251,2,0,L|396:180,1,30,0|4,0:0|0:2,0:0:0:0:
252,168,93613,6,0,B|212:152|220:108|220:108|220:40|96:84,1,225
44,140,94097,2,0,P|32:176|36:216,1,75
64,248,94339,6,0,B|88:240|108:252|108:252|120:280|148:284,1,90.0000034332277,4|0,0:2|0:0,0:0:0:0:
344,56,94823,6,0,P|300:56|228:88,1,120,2|0,0:0|0:0,0:0:0:0:
44,216,95307,1,4,0:0:0:0:
231,85,95549,2,0,P|295:93|343:133,1,120,0|2,0:0|0:0,0:0:0:0:
256,288,96032,1,0,0:0:0:0:
448,268,96274,2,0,P|464:236|456:136,1,120,4|0,0:0|0:0,0:0:0:0:
384,64,96758,5,2,0:0:0:0:
360,92,96879,1,0,0:0:0:0:
356,220,97121,5,0,0:0:0:0:
380,196,97242,1,4,0:0:0:0:
212,168,97484,5,0,0:0:0:0:
188,140,97605,1,0,0:0:0:0:
256,276,97847,5,0,0:0:0:0:
256,312,97968,1,0,0:0:0:0:
230,73,98209,6,0,P|185:120|253:71,1,360,4|0,0:0|0:0,0:0:0:0:
247,134,98693,6,0,L|258:257,1,120,2|0,0:0|0:0,0:0:0:0:
355,180,99177,1,4,0:0:0:0:
366,300,99419,1,0,0:0:0:0:
267,365,99661,2,0,L|251:185,1,180,2|0,0:0|0:0,0:0:0:0:
246,126,100145,1,4,0:0:0:0:
168,293,100387,1,0,0:0:0:0:
88,192,100628,6,0,P|116:124|160:80,1,120,2|0,0:0|0:0,0:0:0:0:
256,36,101112,2,0,L|340:128,1,120,4|0,0:0|0:0,0:0:0:0:
256,216,101596,1,2,0:0:0:0:
256,216,101717,1,0,0:0:0:0:
264,316,102080,2,0,P|208:312|148:280,1,120,4|0,0:0|0:0,0:0:0:0:
151,283,102443,1,0,0:0:0:0:
151,283,102564,6,0,P|128:240|112:156,1,120,2|0,0:0|0:0,0:0:0:0:
208,100,103047,2,0,P|276:80|336:88,2,120,4|0|2,0:0|0:0|0:0,0:0:0:0:
248,212,103773,1,0,0:0:0:0:
348,276,104015,2,0,P|388:264|440:192,1,120,4|0,0:0|0:0,0:0:0:0:
372,104,104499,5,2,0:0:0:0:
384,68,104620,1,0,0:0:0:0:
192,212,104862,5,0,0:0:0:0:
160,224,104983,1,4,0:0:0:0:
396,268,105224,5,0,0:0:0:0:
424,292,105345,1,0,0:0:0:0:
268,112,105587,5,0,0:0:0:0:
244,84,105708,1,0,0:0:0:0:
256,228,105950,6,0,B|216:288|216:288|160:248|160:248|172:324|172:324|124:348|32:320,1,360,4|0,0:0|0:0,0:0:0:0:
32,260,106434,6,0,P|44:200|96:144,1,120,2|0,0:0|0:0,0:0:0:0:
184,96,106918,1,4,0:0:0:0:
304,108,107160,1,0,0:0:0:0:
420,140,107402,2,0,P|356:176|304:280,1,180,2|0,0:0|0:0,0:0:0:0:
300,328,107885,1,4,0:0:0:0:
208,248,108127,1,0,0:0:0:0:
216,160,108369,6,0,P|231:106|260:68,1,90.0000034332277
216,160,108732,6,0,B|275:140|275:140|296:192|363:210,1,180.000006866455
216,160,109095,6,0,P|250:197|255:271,1,120
232,320,109458,1,0,0:0:0:0:
