osu file format v14

[General]
AudioFilename: audio.mp3
AudioLeadIn: 0
PreviewTime: 85792
Countdown: 0
SampleSet: Soft
StackLeniency: 0.2
Mode: 0
LetterboxInBreaks: 0
WidescreenStoryboard: 1

[Editor]
DistanceSpacing: 0.2
BeatDivisor: 4
GridSize: 32
TimelineZoom: 1.5

[Metadata]
Title:Connexion
TitleUnicode:Connexion
Artist:R!N/Gemie
ArtistUnicode:R!N/Gemie
Creator:Skystar
Version:Isomer
Source:少女前线
Tags:G.K darky1 axarious TtmnZk tt mouse girl's doll's frontline shattered ending r!n haloweak mira.z xin vanguard sound The City of Prague Philharmonic Orchestra Adam Klemens Lucie Svehlova english video mobile game
BeatmapID:2261656
BeatmapSetID:1081087

[Difficulty]
HPDrainRate:5
CircleSize:4.1
OverallDifficulty:8
ApproachRate:9.2
SliderMultiplier:1.99999990463257
SliderTickRate:1

[Events]
//Background and Video events
0,0,"75942807_p0.jpg",0,0
//Break Periods
2,67792,69888
2,71657,73888
//Storyboard Layer 0 (Background)
//Storyboard Layer 1 (Fail)
//Storyboard Layer 2 (Pass)
//Storyboard Layer 3 (Foreground)
//Storyboard Layer 4 (Overlay)
//Storyboard Sound Samples

[TimingPoints]
459,333.333333333333,3,2,2,20,1,0
459,-200,3,2,2,20,0,0
19958,-100,3,2,2,20,0,0
27958,-100,3,2,2,20,0,0
30458,-333.333333333333,3,2,2,20,0,0
32292,-1000,3,2,3,20,0,0
33125,-1000,3,2,3,5,0,0
34375,-100,3,2,10,50,0,0
34542,-100,3,2,2,20,0,0
38375,-100,3,2,11,40,0,0
38542,-100,3,2,2,20,0,0
42375,-100,3,2,10,50,0,0
42542,-100,3,2,2,20,0,0
46375,-100,3,2,12,20,0,0
46542,-100,3,2,2,20,0,0
50125,-100,3,2,3,20,0,0
50458,-100,3,2,10,75,0,0
50542,-100,3,2,3,60,0,0
51458,-142.857142857143,3,2,3,60,0,0
52375,-100,3,2,3,48,0,0
52542,-100,3,2,3,60,0,0
53375,-100,3,2,3,35,0,0
53542,-100,3,2,3,60,0,0
58375,-100,3,2,10,75,0,0
58542,-100,3,2,3,60,0,0
59458,-142.857142857143,3,2,3,60,0,0
60375,-100,3,2,3,48,0,0
60542,-100,3,2,3,60,0,0
61375,-100,3,2,3,35,0,0
61542,-100,3,2,3,60,0,0
65792,-100,3,2,3,28,0,0
65958,-100,3,2,3,40,0,0
66125,-100,3,2,3,48,0,0
66292,-100,3,2,3,56,0,0
66375,-100,3,2,4,80,0,0
70458,-1000,3,2,4,60,0,0
74458,-200,3,2,3,60,0,0
78292,-142.857142857143,3,2,3,60,0,0
84542,-1000,3,2,3,60,0,0
84625,-1000,3,2,3,40,0,0
86458,-200,3,2,4,90,0,0
87458,-133.333333333333,3,2,4,90,0,0
87792,-100,3,2,21,90,0,0
87958,-200,3,2,23,90,0,0
88125,-80,3,2,23,90,0,0
88292,-200,3,2,25,90,0,0
88458,-100,3,2,24,90,0,0
88625,-200,3,2,4,90,0,0
89458,-133.333333333333,3,2,4,90,0,0
89792,-100,3,2,4,90,0,0
90125,-80,3,2,4,90,0,0
92458,-200,3,2,22,90,0,0
92625,-200,3,2,22,90,0,0
92792,-200,3,2,26,90,0,0
92958,-200,3,2,22,90,0,0
93125,-200,3,2,22,90,0,0
93292,-200,3,2,25,90,0,0
93458,-200,3,2,4,47,0,0
93792,-200,3,2,4,66,0,0
94125,-200,3,2,4,90,0,0
97458,-200,3,2,26,66,0,0
97625,-200,3,2,22,66,0,0
97792,-200,3,2,20,90,0,0
97958,-200,3,2,26,90,0,0
98125,-200,3,2,22,90,0,0
98292,-200,3,2,23,90,0,0
98458,-200,3,2,4,90,0,0
100458,-200,3,2,26,90,0,0
100625,-200,3,2,23,90,0,0
100792,-200,3,2,23,90,0,0
100958,-200,3,2,26,90,0,0
101125,-200,3,2,25,90,0,0
101292,-200,3,2,26,90,0,0
101458,-200,3,2,4,47,0,0
101792,-200,3,2,4,66,0,0
102125,-200,3,2,4,80,0,0
102375,-200,3,2,30,80,0,0
102542,-200,3,2,4,80,0,0
104375,-200,3,2,31,80,0,0
104542,-200,3,2,4,80,0,0
106375,-200,3,2,32,80,0,0
106542,-200,3,2,4,80,0,0
108375,-200,3,2,33,80,0,0
108542,-200,3,2,4,80,0,0
110375,-200,3,2,31,80,0,0
110542,-200,3,2,4,80,0,0
112375,-200,3,2,32,80,0,0
112542,-200,3,2,4,80,0,0
114375,-200,3,2,34,80,0,0
114542,-200,3,2,4,80,0,0
116375,-200,3,2,34,80,0,0
116542,-200,3,2,4,80,0,0
136375,-200,3,2,10,80,0,0
136542,-200,3,2,3,80,0,0
140375,-200,3,2,11,80,0,0
140542,-200,3,2,3,80,0,0
144375,-200,3,2,10,80,0,0
144542,-200,3,2,3,80,0,0
148375,-200,3,2,12,80,0,0
148542,-200,3,2,3,80,0,0
152458,-200,3,2,4,80,0,0
152792,-200,3,2,3,80,0,0
164458,-142.857142857143,3,2,4,80,0,0
166458,-142.857142857143,3,2,4,60,0,0
167458,-142.857142857143,3,2,4,70,0,0
168458,-142.857142857143,3,2,4,80,0,0
170375,-142.857142857143,3,2,4,10,0,0
172458,-200,3,2,2,40,0,0
188458,-1000,3,2,3,70,0,0
196125,-1000,3,2,3,75,0,0
196292,-1000,3,2,3,80,0,0
196458,-1000,3,2,3,85,0,0
203792,-1000,3,2,3,65,0,0
203958,-1000,3,2,3,60,0,0
204125,-1000,3,2,3,55,0,0
204292,-1000,3,2,3,52,0,0
204458,-1000,3,2,40,52,0,0
204625,-1000,3,2,41,32,0,0
204792,-1000,3,2,40,22,0,0
205625,-1000,3,2,40,25,0,0
205792,-1000,3,2,40,28,0,0
205958,-1000,3,2,40,31,0,0
206125,-1000,3,2,40,34,0,0
206292,-1000,3,2,40,37,0,0
206458,-666.666666666667,3,2,40,52,0,0
206625,-666.666666666667,3,2,41,32,0,0
206792,-666.666666666667,3,2,40,22,0,0
207625,-666.666666666667,3,2,40,25,0,0
207792,-666.666666666667,3,2,40,28,0,0
207958,-666.666666666667,3,2,40,31,0,0
208125,-666.666666666667,3,2,40,34,0,0
208292,-666.666666666667,3,2,40,37,0,0
208458,-500,3,2,40,52,0,0
208625,-500,3,2,41,32,0,0
208792,-500,3,2,40,22,0,0
209625,-500,3,2,40,25,0,0
209792,-500,3,2,40,28,0,0
209958,-500,3,2,40,31,0,0
210125,-500,3,2,40,34,0,0
210292,-500,3,2,40,37,0,0
210458,-400,3,2,40,52,0,0
210625,-400,3,2,41,32,0,0
210792,-400,3,2,40,22,0,0
211458,-400,3,2,40,25,0,0
211625,-400,3,2,41,28,0,0
211792,-400,3,2,40,34,0,0
211958,-400,3,2,41,37,0,0
212125,-400,3,2,42,40,0,0
212292,-400,3,2,41,43,0,0
212458,-333.333333333333,3,2,40,52,0,0
212625,-333.333333333333,3,2,41,32,0,0
212792,-333.333333333333,3,2,40,22,0,0
213458,-333.333333333333,3,2,40,25,0,0
213625,-333.333333333333,3,2,40,28,0,0
213792,-333.333333333333,3,2,40,31,0,0
213958,-333.333333333333,3,2,40,34,0,0
214125,-333.333333333333,3,2,40,37,0,0
214292,-333.333333333333,3,2,40,40,0,0
214458,-285.714285714286,3,2,40,52,0,0
214625,-285.714285714286,3,2,41,32,0,0
214792,-285.714285714286,3,2,40,22,0,0
215458,-285.714285714286,3,2,40,25,0,0
215625,-285.714285714286,3,2,41,28,0,0
215792,-285.714285714286,3,2,40,31,0,0
215958,-285.714285714286,3,2,41,37,0,0
216125,-285.714285714286,3,2,42,40,0,0
216292,-285.714285714286,3,2,41,43,0,0
216458,-250,3,2,40,52,0,0
216625,-250,3,2,41,32,0,0
216792,-250,3,2,40,22,0,0
217458,-250,3,2,40,25,0,0
217625,-250,3,2,40,28,0,0
217792,-250,3,2,40,31,0,0
217958,-250,3,2,40,34,0,0
218125,-250,3,2,40,37,0,0
218292,-250,3,2,40,40,0,0
218458,-250,3,2,40,52,0,0
218625,-250,3,2,41,32,0,0
218792,-250,3,2,40,22,0,0
219458,-250,3,2,40,25,0,0
219625,-250,3,2,41,35,0,0
219792,-250,3,2,40,52,0,0
219958,-250,3,2,41,60,0,0
220125,-250,3,2,42,67,0,0
220292,-250,3,2,41,71,0,0
220458,-100,3,2,4,80,0,0
222958,-100,3,3,3,80,0,0
223292,-100,3,2,4,80,0,0
226458,-100,3,2,50,55,0,0
226958,-100,3,2,51,75,0,0
227458,-100,3,2,52,70,0,0
227625,-100,3,2,20,70,0,0
227958,-100,3,2,54,70,0,0
228125,-100,3,2,4,70,0,0
230458,-100,3,2,55,70,0,0
230958,-100,3,2,56,70,0,0
231458,-100,3,2,57,70,0,0
231792,-100,3,2,58,70,0,0
231958,-100,3,2,52,60,0,0
232125,-100,3,2,26,50,0,0
232292,-100,3,2,22,50,0,0
232458,-100,3,2,61,80,0,0
232958,-100,3,2,64,80,0,0
233458,-100,3,2,51,80,0,0
233792,-100,3,2,58,70,0,0
233958,-100,3,2,52,60,0,0
234125,-100,3,2,26,50,0,0
234292,-100,3,2,22,50,0,0
234458,-100,3,2,56,80,0,0
234792,-100,3,2,20,80,0,0
234958,-100,3,2,62,80,0,0
235292,-100,3,2,4,80,0,0
235458,-100,3,2,20,95,0,0
235625,-100,3,2,52,95,0,0
235792,-100,3,2,20,95,0,0
235958,-100,3,2,23,95,0,0
236125,-100,3,2,26,95,0,0
236292,-100,3,2,20,95,0,0
236458,-76.9230769230769,3,2,4,80,0,1
237458,-76.9230769230769,3,2,21,90,0,1
237624,-76.9230769230769,3,2,23,90,0,1
237792,-100,3,2,23,90,0,1
237958,-100,3,2,25,90,0,1
238124,-100,3,2,64,90,0,1
238458,-76.9230769230769,3,2,56,90,0,1
238958,-76.9230769230769,3,2,55,90,0,1
239458,-76.9230769230769,3,2,22,90,0,1
239792,-100,3,2,52,90,0,1
239958,-100,3,2,20,90,0,1
240125,-100,3,2,22,90,0,1
240458,-76.9230769230769,3,2,23,90,0,1
240792,-76.9230769230769,3,2,22,90,0,1
240958,-76.9230769230769,3,2,23,90,0,1
241292,-76.9230769230769,3,2,22,90,0,1
241458,-76.9230769230769,3,2,26,90,0,1
241708,-100,3,2,26,90,0,1
241792,-100,3,2,56,80,0,1
242458,-100,3,2,64,90,0,1
242542,-100,3,2,4,90,0,1
242625,-90.9090909090909,3,2,4,90,0,1
242958,-83.3333333333333,3,2,64,90,0,1
243042,-83.3333333333333,3,2,4,90,0,1
243125,-76.9230769230769,3,2,4,90,0,1
243292,-76.9230769230769,3,2,64,90,0,1
243458,-76.9230769230769,3,2,57,90,0,1
243542,-76.9230769230769,3,2,4,90,0,1
243792,-76.9230769230769,3,2,22,90,0,1
243875,-76.9230769230769,3,2,4,90,0,1
244125,-76.9230769230769,3,2,20,90,0,1
244208,-76.9230769230769,3,2,4,90,0,1
244375,-100,3,2,4,90,0,1
244458,-100,3,2,57,90,0,1
245458,-83.3333333333333,3,2,57,90,0,1
245792,-111.111111111111,3,2,22,90,0,1
246125,-111.111111111111,3,2,20,90,0,1
246458,-83.3333333333333,3,2,57,90,0,1
247792,-111.111111111111,3,2,23,90,0,1
248125,-111.111111111111,3,2,25,90,0,1
248458,-111.111111111111,3,2,23,90,0,1
248958,-83.3333333333333,3,2,51,90,0,1
249792,-111.111111111111,3,2,61,90,0,1
250458,-99.9999999999999,3,2,61,90,0,1
250625,-90.9090909090909,3,2,61,90,0,1
250958,-83.3333333333333,3,2,65,90,0,1
251292,-76.9230769230769,3,2,65,90,0,1
251458,-76.9230769230769,3,2,21,90,0,1
251792,-76.9230769230769,3,2,66,90,0,1
252375,-76.9230769230769,3,2,66,90,0,0
252458,-66.6666666666667,3,2,30,80,0,1
252625,-66.6666666666667,3,2,4,80,0,1
252958,-66.6666666666667,3,2,21,80,0,1
253125,-66.6666666666667,3,2,67,80,0,1
253292,-66.6666666666667,3,2,25,80,0,1
253458,-66.6666666666667,3,2,21,80,0,1
253625,-66.6666666666667,3,2,67,80,0,1
253792,-66.6666666666667,3,2,25,80,0,1
254458,-66.6666666666667,3,2,31,80,0,1
254625,-66.6666666666667,3,2,4,80,0,1
255458,-66.6666666666667,3,2,21,80,0,1
255625,-66.6666666666667,3,2,25,80,0,1
255792,-66.6666666666667,3,2,21,80,0,1
255958,-66.6666666666667,3,2,67,80,0,1
256125,-66.6666666666667,3,2,68,80,0,1
256292,-66.6666666666667,3,2,69,80,0,1
256458,-66.6666666666667,3,2,32,80,0,1
256625,-66.6666666666667,3,2,4,80,0,1
257458,-66.6666666666667,3,2,21,80,0,1
257625,-66.6666666666667,3,2,25,80,0,1
257792,-66.6666666666667,3,2,68,80,0,1
257958,-66.6666666666667,3,2,67,80,0,1
258125,-66.6666666666667,3,2,68,80,0,1
258292,-66.6666666666667,3,2,69,80,0,1
258458,-66.6666666666667,3,2,33,80,0,1
258625,-66.6666666666667,3,2,4,80,0,1
259458,-66.6666666666667,3,2,68,80,0,1
259625,-66.6666666666667,3,2,69,80,0,1
259792,-66.6666666666667,3,2,68,80,0,1
259958,-66.6666666666667,3,2,21,80,0,1
260125,-66.6666666666667,3,2,25,80,0,1
260292,-66.6666666666667,3,2,21,80,0,1
260458,-66.6666666666667,3,2,31,80,0,1
260625,-66.6666666666667,3,2,4,80,0,1
261792,-66.6666666666667,3,2,69,80,0,1
261958,-66.6666666666667,3,2,68,80,0,1
262125,-66.6666666666667,3,2,21,80,0,1
262292,-66.6666666666667,3,2,69,80,0,1
262458,-66.6666666666667,3,2,32,80,0,1
262625,-66.6666666666667,3,2,4,80,0,1
263792,-66.6666666666667,3,2,21,80,0,1
263958,-66.6666666666667,3,2,68,80,0,1
264125,-66.6666666666667,3,2,69,80,0,1
264292,-66.6666666666667,3,2,25,80,0,1
264458,-66.6666666666667,3,2,34,80,0,1
264625,-66.6666666666667,3,2,4,80,0,1
266458,-66.6666666666667,3,2,30,80,0,1
266625,-66.6666666666667,3,2,4,80,0,1
266792,-66.6666666666667,3,2,21,80,0,1
266958,-66.6666666666667,3,2,25,80,0,1
267125,-66.6666666666667,3,2,21,80,0,1
267458,-66.6666666666667,3,2,25,80,0,1
267625,-66.6666666666667,3,2,67,80,0,1
267792,-66.6666666666667,3,2,68,80,0,1
267958,-66.6666666666667,3,2,69,80,0,1
268125,-66.6666666666667,3,2,51,80,0,1
268292,-66.6666666666667,3,2,21,80,0,1
268375,-66.6666666666667,3,2,34,80,0,1
268458,-100,3,2,34,80,0,0
268542,-100,3,2,4,80,0,0
270375,-100,3,2,33,80,0,0
270542,-100,3,2,4,80,0,0
272375,-100,3,2,35,80,0,0
272542,-76.9230769230769,3,2,4,80,0,0
273792,-100,3,2,4,80,0,0
274375,-100,3,2,36,80,0,0
274542,-100,3,2,4,80,0,0
274625,-90.9090909090909,3,2,4,80,0,0
274958,-83.3333333333333,3,2,4,80,0,0
275292,-76.9230769230769,3,2,4,80,0,0
276375,-100,3,2,33,80,0,0
276542,-100,3,2,4,80,0,0
278375,-100,3,2,32,80,0,0
278542,-100,3,2,4,80,0,0
280375,-100,3,2,36,80,0,0
280458,-76.9230769230769,3,2,36,80,0,0
280542,-76.9230769230769,3,2,4,80,0,0
281792,-100,3,2,4,80,0,0
282375,-100,3,2,32,80,0,0
282542,-100,3,2,4,80,0,0
282625,-90.9090909090909,3,2,4,80,0,0
282958,-83.3333333333333,3,2,4,80,0,0
283292,-76.9230769230769,3,2,4,80,0,0
284375,-76.9230769230769,3,2,34,80,0,0
284458,-100,3,2,34,80,0,0
284542,-100,3,2,4,80,0,0
286375,-100,3,2,33,80,0,0
286542,-100,3,2,4,80,0,0
288375,-100,3,2,36,80,0,0
288542,-100,3,2,4,80,0,0
288792,-76.9230769230769,3,2,4,80,0,0
289792,-100,3,2,4,80,0,0
290375,-100,3,2,33,80,0,0
290542,-100,3,2,4,80,0,0
290625,-90.9090909090909,3,2,4,80,0,0
290958,-83.3333333333333,3,2,4,80,0,0
291292,-76.9230769230769,3,2,4,80,0,0
292375,-76.9230769230769,3,2,36,80,0,0
292458,-100,3,2,36,80,0,0
292542,-100,3,2,4,80,0,0
294375,-100,3,2,33,80,0,0
294542,-100,3,2,4,80,0,0
296375,-100,3,2,32,80,0,0
296542,-100,3,2,4,80,0,0
296875,-76.9230769230769,3,2,4,80,0,0
297792,-100,3,2,4,80,0,0
298375,-100,3,2,34,80,0,0
298542,-100,3,2,4,80,0,0
298625,-90.9090909090909,3,2,4,80,0,0
298958,-83.3333333333333,3,2,4,80,0,0
299292,-76.9230769230769,3,2,4,80,0,0
300458,-243.90243902439,3,2,4,80,0,0
300542,-243.90243902439,3,2,2,30,0,0
301792,-133.333333333333,3,2,2,30,0,0
302125,-66.6666666666667,3,2,2,30,0,0
302458,-232.558139534884,3,2,2,30,0,0
303458,-263.157894736842,3,2,2,30,0,0
303792,-66.6666666666667,3,2,2,30,0,0
304125,-133.333333333333,3,2,2,30,0,0
304458,-500,3,2,2,30,0,0
305458,-133.333333333333,3,2,2,30,0,0
305792,-66.6666666666667,3,2,2,30,0,0
306125,-263.157894736842,3,2,2,30,0,0
306458,-232.558139534884,3,2,2,30,0,0
307458,-66.6666666666667,3,2,2,30,0,0
307792,-133.333333333333,3,2,2,30,0,0

[Colours]
Combo1 : 233,214,235
Combo2 : 192,192,192
Combo3 : 128,128,128
Combo4 : 0,149,149
Combo5 : 128,128,64
Combo6 : 149,0,149
Combo7 : 156,187,209
Combo8 : 203,204,172

[HitObjects]
122,164,459,6,0,P|131:124|108:55,2,99.9999952316285,2|0|0,0:0|0:0|0:0,0:0:0:0:
64,216,1458,1,2,0:0:0:0:
131,172,1792,1,0,0:0:0:0:
207,194,2125,1,0,0:0:0:0:
135,157,2458,6,0,P|137:116|104:51,2,99.9999952316285,2|0|0,0:0|0:0|0:0,0:0:0:0:
64,216,3458,1,2,0:0:0:0:
143,173,3792,1,0,0:0:0:0:
226,206,4125,1,0,0:0:0:0:
147,149,4458,102,0,P|142:108|99:49,2,99.9999952316285,2|0|0,0:0|0:0|0:0,0:0:0:0:
64,216,5458,1,2,0:0:0:0:
150,165,5792,1,0,0:0:0:0:
244,198,6125,1,0,0:0:0:0:
157,139,6458,6,0,P|145:99|93:47,2,99.9999952316285,2|0|0,0:0|0:0|0:0,0:0:0:0:
64,216,7458,1,2,0:0:0:0:
159,160,7792,2,0,P|163:184|161:209,1,49.9999976158143,0|0,0:0|0:0,0:0:0:0:
258,206,8125,2,0,P|253:230|242:252,1,49.9999976158143,0|0,0:0|0:0,0:0:0:0:
296,343,8458,102,0,P|334:373|383:373,1,99.9999952316285,2|0,0:0|0:0,0:0:0:0:
370,278,8958,1,0,0:0:0:0:
299,363,9125,2,0,P|341:386|390:379,1,99.9999952316285,0|2,0:0|0:0,0:0:0:0:
376,266,9625,1,0,0:0:0:0:
286,376,9792,6,0,P|272:349|271:306,1,49.9999976158143,0|0,0:0|0:0,0:0:0:0:
223,247,10125,2,0,P|225:216|248:180,1,49.9999976158143,0|0,0:0|0:0,0:0:0:0:
284,114,10458,102,0,P|322:84|371:84,1,99.9999952316285,2|0,0:0|0:0,0:0:0:0:
358,179,10958,1,0,0:0:0:0:
378,78,11125,2,0,P|329:70|286:93,1,99.9999952316285,0|2,0:0|0:0,0:0:0:0:
364,191,11625,1,0,0:0:0:0:
257,131,11792,6,0,P|262:106|274:84,1,49.9999976158143,0|0,0:0|0:0,0:0:0:0:
220,257,12125,2,0,P|210:233|209:208,1,49.9999976158143,0|0,0:0|0:0,0:0:0:0:
163,356,12458,102,0,P|115:366|71:344,1,99.9999952316285,2|0,0:0|0:0,0:0:0:0:
124,265,12958,1,0,0:0:0:0:
66,357,13125,2,0,P|30:325|19:276,1,99.9999952316285,0|2,0:0|0:0,0:0:0:0:
124,251,13625,1,0,0:0:0:0:
8,282,13792,6,0,P|5:253|27:211,1,49.9999976158143,0|0,0:0|0:0,0:0:0:0:
58,160,14125,2,0,P|76:137|121:123,1,49.9999976158143,0|0,0:0|0:0,0:0:0:0:
174,105,14458,101,2,0:0:0:0:
170,93,14625,1,0,0:0:0:0:
255,109,14792,1,0,0:0:0:0:
333,85,14958,1,0,0:0:0:0:
339,73,15125,1,0,0:0:0:0:
345,60,15292,1,0,0:0:0:0:
405,21,15458,5,2,0:0:0:0:
477,54,15625,1,0,0:0:0:0:
504,132,15792,1,0,0:0:0:0:
451,202,15958,1,0,0:0:0:0:
361,218,16125,1,0,0:0:0:0:
296,289,16292,1,0,0:0:0:0:
460,371,16458,101,4,0:0:0:0:
460,371,16625,1,2,0:3:0:0:
386,337,16958,2,0,P|332:342|294:373,1,99.9999952316285,2|2,0:3|0:3,0:0:0:0:
231,202,17458,5,2,0:0:0:0:
289,137,17625,2,0,B|323:100|341:132|382:83,2,99.9999952316285,2|2|2,0:3|0:3|0:3,0:0:0:0:
58,91,18458,101,2,0:0:0:0:
58,91,18625,1,2,0:3:0:0:
132,57,18958,2,0,P|186:62|224:93,1,99.9999952316285,2|2,0:3|0:3,0:0:0:0:
285,262,19458,5,2,0:0:0:0:
303,183,19625,1,2,0:3:0:0:
453,139,19792,1,2,0:3:0:0:
494,347,19958,2,0,P|379:332|262:349,1,199.999990463257,2|2,0:3|0:3,0:0:0:0:
256,192,20458,12,2,24458,0:0:0:0:
192,240,24792,101,0,0:0:0:0:
480,200,25292,1,2,0:3:0:0:
456,280,25458,5,2,0:0:0:0:
392,64,25791,1,0,0:0:0:0:
392,64,26292,1,2,0:3:0:0:
456,120,26458,101,2,3:2:0:0:
336,168,26625,1,0,3:0:0:0:
240,80,26791,1,0,3:0:0:0:
168,240,26958,1,2,3:3:0:0:
88,248,27292,1,2,0:3:0:0:
8,256,27625,1,2,0:3:0:0:
64,112,27792,1,2,0:3:0:0:
112,320,27958,2,0,P|206:304|320:316,1,199.999990463257,2|2,0:3|0:3,0:0:0:0:
390,346,28458,5,2,3:2:0:0:
112,320,28625,1,0,3:2:0:0:
235,351,28792,101,0,3:2:0:0:
252,273,28958,1,0,3:2:0:0:
179,190,29125,5,0,0:0:0:0:
179,190,29292,1,0,0:0:0:0:
362,248,29458,1,2,0:0:0:0:
352,248,29625,1,0,0:0:0:0:
345,254,29792,1,0,0:0:0:0:
442,215,29958,101,0,0:0:0:0:
379,156,30125,1,0,0:0:0:0:
409,75,30292,1,0,0:0:0:0:
237,88,30458,6,0,L|279:93,1,29.9999976539613,2|0,2:3|0:0,0:0:0:0:
266,91,30792,1,0,0:0:0:0:
233,222,30958,2,0,L|270:203,1,29.9999976539613,2|0,2:3|0:0,0:0:0:0:
259,208,31292,1,0,0:0:0:0:
347,313,31458,101,2,3:2:0:0:
106,266,31625,1,0,3:0:0:0:
169,135,31792,1,0,3:0:0:0:
273,127,31958,1,0,3:0:0:0:
326,185,32125,1,0,0:0:0:0:
326,185,32292,2,0,L|321:235,1,49.9999976158143,8|0,3:1|0:0,0:0:0:0:
48,176,34458,5,6,0:0:0:0:
112,224,34625,1,0,0:0:0:0:
191,240,34792,1,0,0:0:0:0:
270,232,34958,1,0,0:0:0:0:
340,192,35125,1,0,0:0:0:0:
391,130,35292,1,0,0:0:0:0:
504,200,35458,1,2,0:0:0:0:
448,278,38458,101,6,0:0:0:0:
408,208,38625,1,0,0:0:0:0:
336,176,38792,1,0,0:0:0:0:
256,176,38958,1,0,0:0:0:0:
179,152,39125,1,0,0:0:0:0:
131,88,39292,1,0,0:0:0:0:
24,56,39458,1,2,0:0:0:0:
64,160,42458,5,6,0:0:0:0:
64,240,42625,1,0,0:0:0:0:
96,312,42792,1,0,0:0:0:0:
168,344,42958,1,0,0:0:0:0:
216,280,43125,1,0,0:0:0:0:
208,200,43292,1,0,0:0:0:0:
280,88,43458,1,2,0:0:0:0:
432,320,46458,101,6,0:0:0:0:
360,304,46625,1,0,0:0:0:0:
288,288,46791,1,0,0:0:0:0:
216,272,46958,1,0,0:0:0:0:
144,256,47125,1,0,0:0:0:0:
72,240,47291,1,0,0:0:0:0:
0,152,47458,1,2,0:0:0:0:
98,193,50125,86,0,B|60:175|60:175|254:151,1,199.999990463257,0|14,0:0|0:0,0:0:0:0:
217,156,50625,21,2,0:3:0:0:
372,108,50792,2,0,L|266:88,1,99.9999952316285,0|0,0:0|0:0,0:0:0:0:
227,24,51125,1,0,0:0:0:0:
357,264,51292,5,0,0:0:0:0:
432,196,51458,2,0,L|445:114,1,69.9999945259097,8|0,2:1|0:3,0:0:0:0:
279,214,51792,2,0,L|305:45,1,139.999989051819,2|0,2:3|2:3,0:0:0:0:
300,75,52292,1,0,0:0:0:0:
166,138,52458,101,8,2:1:0:0:
154,104,52625,1,0,0:0:0:0:
135,84,52792,1,0,0:0:0:0:
96,214,52958,1,0,0:0:0:0:
57,197,53125,1,0,0:0:0:0:
3,205,53292,1,0,0:0:0:0:
126,314,53458,5,8,2:1:0:0:
92,317,53625,1,0,0:0:0:0:
61,345,53792,1,0,0:0:0:0:
3,205,53958,1,0,3:0:0:0:
57,197,54125,1,0,3:0:0:0:
96,214,54292,1,0,3:0:0:0:
207,279,54458,102,0,P|218:222|216:144,1,99.9999952316285,12|0,0:0|0:0,0:0:0:0:
132,33,54792,5,0,0:0:0:0:
132,33,54958,1,2,0:3:0:0:
151,114,55125,1,0,0:0:0:0:
219,180,55292,1,0,0:0:0:0:
386,103,55458,101,8,0:2:0:0:
311,215,55625,1,0,0:0:0:0:
324,333,55792,1,0,0:0:0:0:
396,249,55958,1,2,2:3:0:0:
478,220,56125,1,0,3:0:0:0:
395,235,56292,1,0,3:0:0:0:
325,192,56458,5,8,2:2:0:0:
454,83,56625,2,0,B|433:126|433:126|483:114,1,99.9999952316285,2|0,0:3|0:0,0:0:0:0:
368,11,56958,101,0,0:0:0:0:
483,114,57125,2,0,P|446:94|377:118,1,99.9999952316285,0|0,0:0|0:0,0:0:0:0:
311,188,57458,5,2,3:3:0:0:
285,56,57625,1,0,3:3:0:0:
266,47,57792,101,0,3:0:0:0:
221,243,57958,1,0,3:3:0:0:
202,252,58125,5,0,3:0:0:0:
134,24,58292,2,0,B|85:12|85:12|115:62,1,99.9999952316285,2|12,3:3|0:0,0:0:0:0:
110,54,58625,101,2,0:0:0:0:
125,231,58792,2,0,L|134:132,1,99.9999952316285,0|0,0:0|0:0,0:0:0:0:
56,277,59125,1,0,0:0:0:0:
251,197,59292,5,0,0:0:0:0:
355,265,59458,2,0,P|334:279|285:278,1,69.9999945259097,8|2,2:1|0:3,0:0:0:0:
109,60,59792,2,0,P|165:52|247:84,1,139.999989051819,0|0,0:0|0:0,0:0:0:0:
241,80,60292,1,0,0:0:0:0:
381,134,60458,101,8,2:1:0:0:
428,108,60625,1,0,0:0:0:0:
380,114,60792,1,0,0:0:0:0:
330,215,60958,1,0,0:0:0:0:
372,255,61125,1,0,0:0:0:0:
348,201,61292,1,0,0:0:0:0:
192,227,61458,5,8,2:1:0:0:
176,282,61625,1,0,0:0:0:0:
213,233,61792,2,0,L|199:116,1,99.9999952316285,0|0,3:0|3:0,0:0:0:0:
348,201,62125,2,0,L|334:318,1,99.9999952316285,0|0,3:0|3:0,0:0:0:0:
472,336,62458,101,8,0:0:0:0:
360,120,62625,1,0,0:0:0:0:
256,384,62792,1,0,0:0:0:0:
496,256,62958,1,2,0:3:0:0:
504,232,63292,1,0,0:0:0:0:
160,136,63458,1,2,0:3:0:0:
504,232,63792,1,0,0:0:0:0:
256,256,63958,1,2,0:3:0:0:
504,232,64292,1,0,0:0:0:0:
400,288,64458,5,8,0:0:0:0:
424,120,64625,1,0,0:0:0:0:
400,288,64792,1,0,0:0:0:0:
360,216,64958,1,8,0:2:0:0:
304,336,65125,101,0,3:0:0:0:
88,288,65292,1,0,3:0:0:0:
344,232,65459,1,8,3:2:0:0:
88,288,65625,1,0,3:0:0:0:
456,368,65792,2,0,P|421:183|236:151,1,399.999980926514,0|4,0:0|0:0,0:0:0:0:
226,194,70458,6,0,L|289:190,1,59.9999971389771
80,192,74458,101,0,0:0:0:0:
168,192,74625,1,2,0:3:0:0:
64,216,74958,1,0,0:0:0:0:
184,168,75125,1,2,2:3:0:0:
264,320,75459,1,0,0:0:0:0:
440,72,75958,1,0,0:0:0:0:
472,168,76292,5,0,0:0:0:0:
456,248,76458,1,0,0:0:0:0:
440,328,76625,1,0,0:0:0:0:
328,224,76958,1,0,0:0:0:0:
344,144,77125,1,0,0:0:0:0:
360,64,77291,1,0,0:0:0:0:
189,129,77625,1,0,2:0:0:0:
205,209,77792,1,0,2:0:0:0:
221,289,77958,1,0,2:0:0:0:
205,209,78125,1,0,3:0:0:0:
189,129,78292,1,0,3:0:0:0:
77,179,78458,54,0,P|57:152|59:111,1,69.9999945259097,8|0,0:0|0:0,0:0:0:0:
130,325,78792,2,0,P|201:325|265:378,1,139.999989051819,2|0,0:0|0:0,0:0:0:0:
296,280,79292,1,0,0:0:0:0:
211,129,79458,6,0,L|135:116,1,69.9999945259097,8|0,0:1|0:0,0:0:0:0:
52,114,79792,1,0,0:0:0:0:
0,255,79958,5,0,0:0:0:0:
75,236,80125,1,0,0:0:0:0:
171,238,80292,1,0,0:0:0:0:
309,296,80458,85,8,2:1:0:0:
360,191,80625,1,0,2:0:0:0:
392,321,80792,1,0,2:0:0:0:
304,135,80958,1,0,2:0:0:0:
412,103,81292,5,0,0:0:0:0:
151,215,81458,1,8,0:1:0:0:
284,212,81625,1,0,0:0:0:0:
64,136,81792,5,0,0:0:0:0:
306,90,81958,1,0,0:0:0:0:
274,311,82125,1,0,0:0:0:0:
71,271,82292,1,0,0:0:0:0:
88,57,82458,86,0,P|132:37|221:47,1,139.999989051819,8|0,0:1|0:0,0:0:0:0:
358,250,82958,2,0,L|264:257,1,69.9999945259097,8|0,0:1|0:0,0:0:0:0:
374,154,83292,1,0,0:0:0:0:
442,208,83458,5,0,0:0:0:0:
444,84,83625,1,0,0:0:0:0:
301,118,83792,1,0,0:0:0:0:
328,272,83958,2,0,P|274:256|172:253,1,139.999989051819,0|0,0:0|0:0,0:0:0:0:
133,161,84458,21,0,0:0:0:0:
117,38,84625,2,0,L|123:91,1,49.9999976158143,2|0,0:0|0:0,0:0:0:0:
122,87,86458,69,4,0:2:0:0:
267,114,86625,1,8,2:1:0:0:
188,225,86792,6,0,L|131:230,1,49.9999976158143,0|8,0:0|2:1,0:0:0:0:
57,235,87125,1,0,0:0:0:0:
318,178,87292,2,0,L|367:173,1,49.9999976158143,0|8,0:0|0:0,0:0:0:0:
101,338,87792,5,10,0:0:0:0:
158,275,87958,1,2,0:0:0:0:
263,292,88125,1,2,0:0:0:0:
101,338,88292,85,2,0:0:0:0:
138,197,88458,1,10,0:0:0:0:
284,167,88625,1,0,0:0:0:0:
381,329,88792,6,0,P|353:335|313:335,1,49.9999976158143,0|8,0:0|2:1,0:0:0:0:
411,242,89125,1,0,0:0:0:0:
234,174,89292,2,0,P|262:168|302:168,1,49.9999976158143,8|8,2:1|0:0,0:0:0:0:
263,381,89792,5,8,2:1:0:0:
366,227,89958,1,0,0:0:0:0:
331,336,90125,1,8,2:1:0:0:
261,118,90292,1,0,0:0:0:0:
124,337,90458,85,0,0:0:0:0:
89,163,90792,1,0,0:0:0:0:
124,337,90958,1,0,0:0:0:0:
177,135,91292,1,0,0:0:0:0:
124,337,91458,1,8,0:0:0:0:
196,275,91792,1,8,2:1:0:0:
297,261,92125,1,0,0:0:0:0:
411,318,92458,6,0,L|475:331,1,49.9999976158143,10|0,0:0|0:0,0:0:0:0:
459,327,92792,1,2,0:0:0:0:
443,160,92958,6,0,L|379:173,1,49.9999976158143,10|0,0:0|0:0,0:0:0:0:
395,170,93292,1,10,2:2:0:0:
317,223,93458,85,8,3:2:0:0:
191,197,93625,1,0,3:2:0:0:
388,182,93792,1,8,3:2:0:0:
118,251,93958,1,0,3:2:0:0:
461,244,94125,1,8,3:2:0:0:
58,175,94292,1,8,3:2:0:0:
304,308,94458,5,4,0:0:0:0:
304,308,94625,2,0,L|199:301,2,99.9999952316285,0|8|0,0:0|2:1|0:0,0:0:0:0:
439,341,95458,6,0,B|424:360|424:360|432:336,1,49.9999976158143,8|0,3:2|3:2,0:0:0:0:
431,159,95792,2,0,B|453:174|453:174|465:250,1,99.9999952316285,8|0,3:2|3:2,0:0:0:0:
253,100,96458,85,8,3:1:0:0:
253,100,96625,2,0,L|358:93,2,99.9999952316285,0|8|0,0:0|2:1|0:0,0:0:0:0:
76,134,97458,5,6,0:0:0:0:
156,150,97625,1,2,0:0:0:0:
212,214,97791,1,10,0:0:0:0:
236,294,97958,1,2,0:0:0:0:
236,102,98125,1,10,0:0:0:0:
140,374,98291,1,2,0:0:0:0:
44,54,98458,5,4,0:0:0:0:
76,214,98792,1,0,0:0:0:0:
60,134,98959,1,8,0:1:0:0:
60,134,99125,1,0,0:0:0:0:
80,336,99458,85,8,3:2:0:0:
200,320,99792,1,8,3:1:0:0:
320,304,100125,1,0,3:0:0:0:
440,288,100458,5,10,0:2:0:0:
352,296,100625,1,2,0:0:0:0:
272,256,100791,1,2,0:0:0:0:
232,176,100958,1,10,0:0:0:0:
248,88,101125,1,2,0:0:0:0:
288,368,101292,1,10,0:0:0:0:
195,223,101458,5,8,3:2:0:0:
321,197,101625,1,0,3:2:0:0:
124,182,101792,1,8,3:2:0:0:
394,251,101958,1,0,3:2:0:0:
51,244,102125,1,8,3:2:0:0:
454,175,102292,1,8,3:2:0:0:
440,288,102458,5,6,0:0:0:0:
464,96,102625,70,0,L|456:152,1,49.9999976158143
440,288,102959,1,8,2:1:0:0:
232,224,103126,1,0,0:0:0:0:
312,208,103293,1,0,0:0:0:0:
392,192,103459,2,0,L|448:184,1,49.9999976158143,8|0,0:0|0:0,0:0:0:0:
352,312,103793,1,8,2:1:0:0:
176,280,103959,1,0,0:0:0:0:
280,64,104126,1,0,0:0:0:0:
232,376,104293,1,0,0:0:0:0:
8,216,104458,53,2,0:0:0:0:
8,216,104625,70,0,L|14:166,1,49.9999976158143
64,88,104959,1,8,2:1:0:0:
136,288,105126,1,0,0:0:0:0:
216,272,105293,1,8,2:1:0:0:
296,256,105459,6,0,L|352:248,1,49.9999976158143,8|0,0:0|0:0,0:0:0:0:
424,240,105793,1,8,2:1:0:0:
272,336,105959,1,0,0:0:0:0:
216,72,106126,1,8,2:1:0:0:
192,152,106293,1,0,0:0:0:0:
472,112,106459,5,2,2:1:0:0:
392,120,106626,70,0,L|336:128,1,49.9999976158143
472,112,106959,1,8,2:1:0:0:
392,120,107126,1,0,0:0:0:0:
344,56,107293,1,0,0:0:0:0:
320,232,107459,2,0,P|328:255|342:275,1,49.9999976158143,8|0,0:0|0:0,0:0:0:0:
240,248,107793,1,8,2:1:0:0:
216,72,107959,1,0,0:0:0:0:
136,344,108126,1,0,0:0:0:0:
80,56,108293,1,0,0:0:0:0:
16,112,108459,53,10,2:1:0:0:
16,112,108626,70,0,L|80:104,1,49.9999976158143
160,40,108959,1,8,2:1:0:0:
144,120,109126,1,0,0:0:0:0:
128,200,109293,1,8,2:1:0:0:
216,336,109459,5,8,3:2:0:0:
48,200,109626,1,0,3:0:0:0:
152,384,109793,1,8,3:2:0:0:
104,144,109959,1,0,3:0:0:0:
72,384,110126,1,8,3:2:0:0:
176,112,110293,1,8,3:2:0:0:
360,344,110458,5,10,2:0:0:0:
296,304,110626,70,0,L|303:254,1,49.9999976158143
336,32,110959,1,8,2:1:0:0:
504,144,111126,1,0,0:0:0:0:
424,136,111293,1,0,0:0:0:0:
344,128,111459,6,0,L|352:184,1,49.9999976158143,8|0,0:0|0:0,0:0:0:0:
432,48,111792,1,8,2:1:0:0:
368,264,111958,1,0,0:0:0:0:
152,288,112126,1,0,0:0:0:0:
96,16,112293,1,0,0:0:0:0:
24,64,112459,37,10,2:1:0:0:
24,64,112626,86,0,L|16:120,1,49.9999976158143
56,184,112958,1,0,0:0:0:0:
136,160,113126,1,0,0:0:0:0:
224,352,113293,1,0,0:0:0:0:
295,88,113459,86,0,P|296:64|288:32,1,49.9999976158143,8|0,0:0|0:0,0:0:0:0:
120,256,113792,1,8,2:1:0:0:
208,248,113959,1,0,0:0:0:0:
296,240,114126,1,8,2:1:0:0:
384,232,114293,1,0,0:0:0:0:
265,139,114458,37,2,0:2:0:0:
472,224,114625,86,0,P|466:248|467:273,1,49.9999976158143
329,342,114958,1,8,0:1:0:0:
310,267,115125,1,0,0:0:0:0:
420,160,115292,1,8,0:1:0:0:
384,288,115458,5,8,0:0:0:0:
196,320,115625,1,0,0:0:0:0:
165,138,115792,2,0,L|158:206,1,49.9999976158143,8|0,0:1|0:0,0:0:0:0:
283,349,116125,2,0,L|276:281,1,49.9999976158143,8|0,0:1|0:0,0:0:0:0:
18,290,116458,21,2,0:0:0:0:
80,233,116625,53,0,0:0:0:0:
188,248,116792,1,0,0:0:0:0:
262,358,116958,1,8,0:1:0:0:
286,204,117125,1,0,0:0:0:0:
433,157,117292,1,8,0:1:0:0:
486,381,117458,6,0,L|421:373,1,49.9999976158143,8|0,0:0|0:0,0:0:0:0:
436,374,117792,1,8,0:1:0:0:
92,275,117958,6,0,L|157:267,1,49.9999976158143,8|0,0:0|0:0,0:0:0:0:
141,268,118292,1,8,0:1:0:0:
382,149,118458,5,4,0:0:0:0:
56,224,120458,69,8,2:1:0:0:
136,224,120625,1,2,2:3:0:0:
216,224,120792,1,0,0:0:0:0:
280,360,120958,1,8,2:1:0:0:
280,360,121292,1,0,0:0:0:0:
344,224,121458,1,8,0:0:0:0:
424,224,121625,1,0,0:0:0:0:
504,223,121792,2,0,P|492:272|492:322,1,99.9999952316285,8|0,2:1|0:0,0:0:0:0:
479,329,122458,6,0,P|478:279|490:230,1,99.9999952316285,8|0,2:1|0:0,0:0:0:0:
471,152,122958,1,2,2:3:0:0:
398,118,123124,1,0,0:0:0:0:
320,139,123291,1,8,2:1:0:0:
231,257,123457,5,8,3:2:0:0:
160,295,123792,1,0,3:0:0:0:
84,267,124125,1,0,3:0:0:0:
51,143,124458,85,8,2:1:0:0:
51,143,124625,1,2,2:3:0:0:
243,199,124958,1,8,2:1:0:0:
243,199,125292,1,0,0:0:0:0:
224,125,125458,5,8,3:2:0:0:
315,142,125625,1,0,3:2:0:0:
351,239,125792,1,8,3:1:0:0:
394,145,125958,1,0,3:2:0:0:
486,135,126125,1,0,3:2:0:0:
394,145,126292,1,0,3:2:0:0:
351,239,126458,5,8,2:1:0:0:
351,239,126625,1,2,2:3:0:0:
271,239,126958,1,8,2:1:0:0:
191,239,127292,1,8,2:1:0:0:
120,184,127458,85,8,3:2:0:0:
200,184,127625,1,8,3:1:0:0:
240,104,127792,1,0,3:2:0:0:
96,184,127958,1,8,3:1:0:0:
272,216,128125,1,0,3:2:0:0:
184,200,128292,1,0,3:2:0:0:
56,224,128458,5,8,2:1:0:0:
136,224,128625,1,2,2:3:0:0:
216,224,128792,1,0,0:0:0:0:
280,360,128958,1,8,2:1:0:0:
280,360,129292,1,0,0:0:0:0:
344,224,129458,1,8,0:0:0:0:
424,224,129625,1,0,0:0:0:0:
504,223,129792,2,0,B|495:178|495:178|503:124,1,99.9999952316285,8|0,2:1|0:0,0:0:0:0:
493,114,130458,5,8,2:1:0:0:
493,114,130625,2,0,B|484:167|484:167|493:212,1,99.9999952316285,2|8,2:3|2:1,0:0:0:0:
418,239,131125,1,0,0:0:0:0:
340,219,131292,1,0,0:0:0:0:
132,249,131458,85,8,0:0:0:0:
204,214,131792,1,8,3:1:0:0:
270,258,132125,1,0,3:0:0:0:
51,241,132458,5,8,2:1:0:0:
51,241,132625,1,2,2:3:0:0:
243,185,132958,1,8,2:1:0:0:
243,185,133292,1,0,2:0:0:0:
224,259,133458,5,8,3:2:0:0:
315,242,133625,1,0,3:0:0:0:
351,145,133792,1,8,3:1:0:0:
394,239,133958,1,0,3:0:0:0:
486,249,134125,1,0,3:0:0:0:
394,239,134292,1,0,3:0:0:0:
351,145,134458,85,8,3:1:0:0:
351,145,134625,1,2,2:3:0:0:
271,145,134958,1,8,2:1:0:0:
191,145,135292,1,8,2:1:0:0:
400,16,135458,5,8,3:2:0:0:
336,88,135624,1,8,3:1:0:0:
336,88,135791,1,0,3:2:0:0:
480,112,135957,1,8,3:1:0:0:
304,16,136124,1,0,3:2:0:0:
256,200,136291,1,0,3:2:0:0:
200,96,136458,5,12,0:0:0:0:
72,128,136625,2,0,L|122:128,2,49.9999976158143,2|0|8,2:3|0:0|2:3,0:0:0:0:
256,200,137125,2,0,P|262:224|262:249,1,49.9999976158143,0|0,0:0|0:0,0:0:0:0:
176,368,137458,85,8,2:1:0:0:
112,136,137625,2,0,L|119:86,1,49.9999976158143,2|8,3:2|2:1,0:0:0:0:
183,158,137958,2,0,L|176:208,1,49.9999976158143,8|0,3:1|0:0,0:0:0:0:
256,136,138292,1,0,0:0:0:0:
192,360,138458,5,8,2:1:0:0:
160,352,138625,1,0,0:0:0:0:
128,344,138792,1,0,0:0:0:0:
96,336,138958,1,8,2:3:0:0:
128,344,139125,1,0,0:0:0:0:
160,352,139292,1,8,2:3:0:0:
344,328,139458,1,8,2:1:0:0:
312,320,139625,1,0,0:0:0:0:
280,312,139791,1,8,2:1:0:0:
248,304,139958,1,0,0:0:0:0:
280,312,140125,1,8,2:3:0:0:
312,320,140291,1,0,0:0:0:0:
448,352,140458,5,12,0:0:0:0:
392,288,140625,2,0,P|392:263|400:239,2,49.9999976158143,2|0|8,2:3|0:0|2:3,0:0:0:0:
456,128,141125,2,0,L|451:79,1,49.9999976158143,0|0,0:0|0:0,0:0:0:0:
472,328,141458,85,8,2:1:0:0:
280,368,141625,2,0,L|230:361,1,49.9999976158143,2|8,3:2|2:1,0:0:0:0:
265,294,141958,2,0,L|215:287,1,49.9999976158143,8|0,3:1|0:0,0:0:0:0:
248,216,142292,1,0,0:0:0:0:
352,312,142458,5,8,2:1:0:0:
384,304,142625,1,0,0:0:0:0:
416,296,142792,1,0,0:0:0:0:
448,288,142958,1,8,2:3:0:0:
416,296,143125,1,0,0:0:0:0:
384,304,143292,1,8,2:3:0:0:
200,280,143458,1,8,2:1:0:0:
232,272,143625,1,8,2:3:0:0:
264,264,143791,1,8,2:1:0:0:
296,256,143958,1,8,2:3:0:0:
264,264,144125,1,0,0:0:0:0:
232,272,144291,1,0,0:0:0:0:
128,344,144458,5,12,0:0:0:0:
8,304,144625,2,0,L|57:311,2,49.9999976158143,2|0|8,2:3|0:0|2:3,0:0:0:0:
112,139,145125,2,0,P|121:115|120:91,1,49.9999976158143,0|0,0:0|0:0,0:0:0:0:
216,352,145458,85,8,2:1:0:0:
344,136,145625,2,0,L|337:86,1,49.9999976158143,2|8,3:2|2:3,0:0:0:0:
272,176,145958,2,0,L|265:126,1,49.9999976158143,0|0,3:0|0:0,0:0:0:0:
192,152,146292,1,0,0:0:0:0:
448,192,146458,5,8,2:1:0:0:
440,160,146625,1,0,0:0:0:0:
432,128,146792,1,0,0:0:0:0:
424,96,146958,1,8,2:3:0:0:
432,128,147125,1,0,0:0:0:0:
440,160,147292,1,0,0:0:0:0:
416,344,147458,1,8,2:1:0:0:
408,312,147625,1,0,0:0:0:0:
400,280,147791,1,8,2:1:0:0:
392,248,147958,1,0,0:0:0:0:
400,280,148125,1,8,2:3:0:0:
408,312,148291,1,0,0:0:0:0:
272,368,148458,5,4,0:0:0:0:
320,256,148625,2,0,P|322:231|315:207,2,49.9999976158143,2|0|8,2:3|0:0|2:3,0:0:0:0:
192,288,149125,2,0,L|142:295,1,49.9999976158143,0|0,0:0|0:0,0:0:0:0:
208,104,149458,85,8,2:1:0:0:
280,184,149625,2,0,L|287:134,1,49.9999976158143,2|8,3:2|2:1,0:0:0:0:
360,160,149958,2,0,L|367:110,1,49.9999976158143,8|0,3:1|0:0,0:0:0:0:
424,216,150291,1,0,0:0:0:0:
112,160,150459,5,8,2:1:0:0:
120,128,150625,1,0,0:0:0:0:
128,96,150792,1,0,0:0:0:0:
136,64,150959,1,8,2:3:0:0:
128,96,151125,1,0,0:0:0:0:
120,128,151292,1,8,2:3:0:0:
144,312,151459,5,8,2:1:0:0:
152,280,151625,1,8,2:3:0:0:
160,248,151792,1,0,0:0:0:0:
168,216,151959,1,8,2:3:0:0:
160,248,152125,1,0,0:0:0:0:
152,280,152292,1,0,0:0:0:0:
256,384,152458,85,4,0:0:0:0:
360,368,152625,1,0,0:0:0:0:
456,352,152792,1,0,0:2:0:0:
344,336,153458,5,8,0:1:0:0:
360,352,154458,5,8,0:1:0:0:
346,272,154625,1,0,0:0:0:0:
454,160,154958,1,0,0:0:0:0:
197,115,155292,1,0,0:0:0:0:
274,135,155458,1,8,0:1:0:0:
325,73,155625,1,0,0:0:0:0:
97,260,155958,1,0,0:0:0:0:
133,29,156292,1,0,0:0:0:0:
211,40,156458,85,8,0:2:0:0:
245,208,156625,1,2,0:3:0:0:
224,284,156959,1,2,0:3:0:0:
302,264,157292,1,0,0:0:0:0:
464,340,157458,5,8,0:1:0:0:
438,193,157625,1,0,0:0:0:0:
505,148,157958,1,0,0:0:0:0:
464,340,158125,1,0,0:0:0:0:
505,148,158292,1,0,0:0:0:0:
275,248,158458,5,8,0:1:0:0:
192,248,158625,1,0,0:0:0:0:
275,248,158792,1,0,0:0:0:0:
358,248,158958,1,0,0:0:0:0:
358,248,159125,1,0,0:0:0:0:
275,248,159292,1,0,0:0:0:0:
192,248,159458,1,8,0:1:0:0:
283,105,159792,1,0,0:0:0:0:
117,48,160125,1,0,0:0:0:0:
61,106,160292,1,0,0:0:0:0:
121,329,160458,85,8,0:2:0:0:
121,329,160625,1,0,0:0:0:0:
121,329,160792,1,0,0:0:0:0:
154,293,160958,1,0,0:0:0:0:
224,270,161125,1,0,0:0:0:0:
311,290,161459,1,8,0:1:0:0:
377,384,161958,1,0,0:0:0:0:
472,168,162292,5,0,0:0:0:0:
428,234,162458,1,8,0:1:0:0:
452,310,162625,1,2,0:3:0:0:
263,94,162958,1,0,0:0:0:0:
332,54,163125,1,0,0:0:0:0:
405,85,163291,1,2,0:3:0:0:
196,324,163625,1,0,3:0:0:0:
240,257,163792,1,0,3:0:0:0:
211,182,163958,1,0,3:0:0:0:
124,157,164125,1,0,3:0:0:0:
97,70,164292,1,0,3:0:0:0:
214,21,164458,6,0,P|194:48|196:89,1,69.9999945259097,8|0,0:1|0:0,0:0:0:0:
255,363,164792,2,0,P|198:324|130:325,1,139.999989051819,0|0,0:1|0:0,0:0:0:0:
296,280,165292,1,0,0:0:0:0:
142,117,165458,86,0,L|211:129,1,69.9999945259097,8|0,0:1|0:0,0:0:0:0:
52,114,165792,1,0,0:0:0:0:
171,238,165958,5,0,0:0:0:0:
75,236,166125,1,0,0:0:0:0:
309,296,166292,1,0,0:0:0:0:
0,255,166458,5,8,3:1:0:0:
75,236,166625,1,0,3:0:0:0:
171,238,166792,85,0,3:0:0:0:
148,144,166958,1,0,3:0:0:0:
309,296,167125,1,0,3:0:0:0:
316,131,167292,1,0,3:0:0:0:
441,365,167458,1,8,3:1:0:0:
484,132,167625,1,0,3:0:0:0:
379,253,167792,5,0,3:0:0:0:
455,241,167958,1,0,3:0:0:0:
260,195,168125,5,0,3:0:0:0:
244,308,168292,1,0,3:0:0:0:
75,243,168458,5,0,3:0:0:0:
256,192,168542,12,0,170458,0:0:0:0:
1,144,172458,6,0,B|42:153|70:125|44:116|77:71|126:83|142:130|115:162|94:167|60:151,1,199.999990463257,2|0,0:2|0:0,0:0:0:0:
73,156,173458,1,0,0:0:0:0:
240,200,173792,2,0,P|198:190|126:189,1,99.9999952316285,0|0,0:0|0:0,0:0:0:0:
333,67,174458,101,2,3:2:0:0:
412,102,175125,1,0,3:3:0:0:
474,201,175792,1,0,3:3:0:0:
350,340,176458,6,0,B|326:284|344:219|388:198|425:221|417:260|369:275,2,199.999990463257,0|0|0,0:0|0:0|0:0,0:0:0:0:
204,188,178458,101,2,3:2:0:0:
314,111,178958,1,0,3:0:0:0:
261,288,179458,1,0,3:0:0:0:
293,204,179792,1,0,3:0:0:0:
222,149,180125,1,0,3:0:0:0:
87,242,180458,6,0,B|73:270|40:277|-4:247|0:177|29:139|69:129,1,199.999990463257,6|0,0:0|0:0,0:0:0:0:
87,242,181458,1,0,0:0:0:0:
142,45,181792,2,0,P|153:88|141:141,1,99.9999952316285,0|0,0:0|0:0,0:0:0:0:
144,316,182458,102,0,B|182:294|227:298|236:318|223:339|264:350|263:325|295:312|345:339,1,199.999990463257
464,363,183458,1,0,0:0:0:0:
413,284,183792,2,0,B|416:232|440:249|444:172,1,99.9999952316285,0|0,0:0|0:0,0:0:0:0:
450,44,184458,6,0,B|464:71|425:97|377:83|382:40|336:19|284:44|307:73,4,199.999990463257,2|0|0|0|0,0:0|0:0|0:0|0:0|0:0,0:0:0:0:
324,233,187458,1,0,0:0:0:0:
356,159,187792,2,0,P|308:150|240:154,1,99.9999952316285,0|0,0:0|0:0,0:0:0:0:
56,338,188458,102,0,L|116:331,1,59.9999971389771,12|8,0:0|0:0,0:0:0:0:
456,338,190458,6,0,L|396:331,1,59.9999971389771,8|8,0:0|0:0,0:0:0:0:
306,48,191792,101,8,3:1:0:0:
386,64,191958,1,0,3:1:0:0:
165,204,192292,1,0,3:0:0:0:
45,223,192458,6,0,L|38:163,1,59.9999971389771,8|8,0:0|0:0,0:0:0:0:
386,64,193792,101,8,3:1:0:0:
306,48,193958,1,0,3:1:0:0:
340,275,194292,1,0,0:0:0:0:
470,234,194458,6,0,L|477:174,1,59.9999971389771,8|8,0:0|0:0,0:0:0:0:
219,210,195792,101,8,3:0:0:0:
199,333,195958,1,0,3:0:0:0:
303,138,196125,1,8,3:0:0:0:
291,61,196291,1,8,3:0:0:0:
117,258,196458,6,0,L|57:251,1,59.9999971389771,8|8,0:0|0:0,0:0:0:0:
30,45,197792,101,8,3:1:0:0:
395,258,198458,6,0,L|455:251,1,59.9999971389771,8|8,0:0|0:0,0:0:0:0:
482,45,199792,101,8,3:1:0:0:
385,16,199958,1,0,3:0:0:0:
18,131,200292,1,0,3:0:0:0:
146,98,200458,6,0,L|153:158,1,59.9999971389771,8|8,0:0|0:0,0:0:0:0:
385,16,201792,101,8,3:1:0:0:
482,45,201958,1,0,3:0:0:0:
195,235,202292,1,0,0:0:0:0:
359,158,202458,6,0,L|366:98,1,59.9999971389771,8|8,0:0|0:0,0:0:0:0:
481,310,203792,101,8,3:0:0:0:
499,229,203958,1,0,3:0:0:0:
244,59,204125,1,8,3:0:0:0:
279,232,204292,1,8,3:0:0:0:
386,90,204458,6,0,L|390:77,11,9.99999952316285,2|2|2|2|2|2|2|2|2|2|2|2,0:0|0:0|0:0|0:0|0:0|0:0|0:0|0:0|0:0|0:0|0:0|0:0,0:0:0:0:
386,90,206458,102,0,L|381:72,11,14.9999988269806,2|2|2|2|2|2|2|2|2|2|2|2,0:0|0:0|0:0|0:0|0:0|0:0|0:0|0:0|0:0|0:0|0:0|0:0,0:0:0:0:
386,90,208458,6,0,L|370:73,11,19.9999990463257,2|2|2|2|2|2|2|2|2|2|2|2,0:0|0:0|0:0|0:0|0:0|0:0|0:0|0:0|0:0|0:0|0:0|0:0,0:0:0:0:
386,90,210458,102,0,L|359:79,7,24.9999988079071,2|2|2|2|2|2|2|2,0:0|0:0|0:0|0:0|0:0|0:0|0:0|0:0,0:0:0:0:
475,155,211792,2,0,L|444:159,1,24.9999988079071,2|2,0:0|0:0,0:0:0:0:
348,245,212125,2,0,L|375:221,1,24.9999988079071,2|2,0:0|0:0,0:0:0:0:
501,320,212458,6,0,P|479:310|469:311,7,29.9999976539613,2|2|2|2|2|2|2|2,0:0|0:0|0:0|0:0|0:0|0:0|0:0|0:0,0:0:0:0:
320,352,213792,2,0,L|290:348,1,29.9999976539613,2|2,0:0|0:0,0:0:0:0:
213,339,214125,2,0,L|183:335,1,29.9999976539613,2|2,0:0|0:0,0:0:0:0:
44,251,214458,102,0,P|43:237|50:202,7,34.9999972629548,2|2|2|2|2|2|2|2,0:0|0:0|0:0|0:0|0:0|0:0|0:0|0:0,0:0:0:0:
178,262,215792,2,0,L|212:258,1,34.9999972629548,2|2,0:0|0:0,0:0:0:0:
300,248,216125,2,0,L|334:243,1,34.9999972629548,2|2,0:0|0:0,0:0:0:0:
472,128,216458,6,0,P|477:148|472:185,7,39.9999980926514,2|2|2|2|2|2|2|2,0:0|0:0|0:0|0:0|0:0|0:0|0:0|0:0,0:0:0:0:
341,169,217792,2,0,L|301:163,1,39.9999980926514,2|2,0:0|0:0,0:0:0:0:
200,151,218125,2,0,L|160:145,1,39.9999980926514,2|2,0:0|0:0,0:0:0:0:
27,22,218458,101,2,0:0:0:0:
21,31,218625,1,2,0:0:0:0:
26,53,218792,1,2,0:0:0:0:
46,31,218958,1,2,0:0:0:0:
71,21,219125,1,2,0:0:0:0:
57,62,219292,1,2,0:0:0:0:
105,44,219458,1,2,0:0:0:0:
168,56,219625,1,2,0:0:0:0:
220,117,219792,1,2,0:0:0:0:
295,172,219958,1,2,0:0:0:0:
392,157,220125,1,2,0:0:0:0:
456,56,220292,1,2,0:0:0:0:
87,128,220458,5,4,0:2:0:0:
225,91,220792,1,0,0:0:0:0:
252,231,221125,1,0,3:0:0:0:
351,252,221292,1,0,3:0:0:0:
387,173,221458,1,8,3:1:0:0:
326,110,221625,101,0,0:0:0:0:
299,128,221792,1,0,0:0:0:0:
289,145,221958,1,0,0:0:0:0:
290,157,222125,1,0,0:0:0:0:
294,164,222292,1,0,0:0:0:0:
387,173,222458,5,8,0:1:0:0:
392,163,222625,1,0,0:0:0:0:
397,153,222792,1,0,0:0:0:0:
447,308,222958,101,0,3:0:0:0:
397,253,223125,1,0,3:0:0:0:
332,285,223292,1,0,3:0:0:0:
214,367,223458,5,8,0:1:0:0:
26,235,223792,1,0,0:1:0:0:
187,295,223958,1,2,0:3:0:0:
159,125,224125,1,0,0:0:0:0:
26,235,224292,1,2,0:3:0:0:
125,216,224458,1,8,0:1:0:0:
457,294,224792,101,0,0:0:0:0:
388,244,224958,1,0,0:0:0:0:
356,171,225125,1,0,0:0:0:0:
359,103,225292,1,0,0:0:0:0:
391,60,225458,1,8,0:1:0:0:
457,294,225792,5,0,0:0:0:0:
447,214,225958,1,2,0:3:0:0:
271,211,226125,101,0,0:0:0:0:
297,121,226292,1,2,0:3:0:0:
286,23,226458,2,0,P|177:35|51:30,1,199.999990463257,10|0,0:2|0:0,0:0:0:0:
312,113,226958,2,0,P|412:112|512:124,1,199.999990463257,10|0,0:2|0:0,0:0:0:0:
430,298,227458,5,10,0:0:0:0:
355,275,227625,1,10,0:2:0:0:
430,298,227792,1,8,0:2:0:0:
314,204,227958,1,2,0:2:0:0:
363,36,228125,1,0,3:0:0:0:
423,163,228292,1,2,3:3:0:0:
362,360,228458,1,12,3:1:0:0:
61,141,228792,101,0,0:0:0:0:
141,112,228958,1,0,0:0:0:0:
134,98,229125,1,0,0:0:0:0:
127,84,229292,1,0,0:0:0:0:
244,61,229458,1,8,3:1:0:0:
239,75,229625,1,0,3:0:0:0:
316,113,229792,1,0,3:0:0:0:
323,126,229958,1,2,3:3:0:0:
409,61,230125,5,0,0:0:0:0:
497,123,230292,1,2,0:3:0:0:
460,223,230458,2,0,L|354:209,1,99.9999952316285,10|0,0:2|0:0,0:0:0:0:
198,185,230792,1,0,0:0:0:0:
298,295,230958,2,0,B|290:254|290:254|287:253|287:253|289:250|289:250|275:176,1,99.9999952316285,10|0,0:2|0:0,0:0:0:0:
239,15,231292,1,0,0:0:0:0:
239,15,231458,2,0,P|286:17|334:74,1,99.9999952316285,10|0,0:0|0:0,0:0:0:0:
405,268,231792,101,10,3:2:0:0:
116,273,231959,1,2,3:2:0:0:
301,350,232126,1,2,3:2:0:0:
187,340,232292,1,2,3:2:0:0:
309,331,232458,6,0,L|295:202,1,99.9999952316285,10|0,0:2|0:0,0:0:0:0:
436,31,232792,1,0,0:0:0:0:
512,215,232958,2,0,L|393:188,1,99.9999952316285,10|0,0:2|0:0,0:0:0:0:
164,128,233292,1,0,0:0:0:0:
164,128,233458,2,0,P|216:139|245:193,1,99.9999952316285,10|0,0:2|0:0,0:0:0:0:
388,375,233792,53,2,3:2:0:0:
319,95,233959,1,2,3:2:0:0:
441,253,234126,1,2,3:2:0:0:
402,145,234292,1,2,3:2:0:0:
278,346,234458,6,0,L|289:247,1,99.9999952316285,10|0,0:2|0:0,0:0:0:0:
318,66,234792,1,2,0:2:0:0:
129,197,234958,2,0,P|168:180|242:210,1,99.9999952316285,10|0,0:2|0:0,0:0:0:0:
421,369,235292,1,8,0:1:0:0:
370,300,235458,5,10,3:2:0:0:
384,184,235625,1,10,3:2:0:0:
470,84,235792,1,10,3:2:0:0:
384,184,235958,1,2,3:2:0:0:
232,213,236125,1,2,3:2:0:0:
64,171,236292,1,2,3:2:0:0:
314,243,236458,37,4,0:0:0:0:
111,58,236625,2,0,B|45:62|7:123|27:199|27:199|41:164|76:149,2,259.99997570038,8|8|8,0:1|0:1|0:1,0:0:0:0:
296,34,237458,2,0,P|333:69|311:153,1,129.99998785019,10|2,0:2|0:0,0:0:0:0:
104,225,237792,6,0,P|153:214|203:209,1,99.9999952316285,2|0,0:0|0:0,0:0:0:0:
474,68,238125,2,0,P|424:72|375:83,1,99.9999952316285,2|0,0:0|0:0,0:0:0:0:
322,142,238375,1,0,0:0:0:0:
336,152,238458,6,0,P|271:178|169:83,1,194.999981775285,10|0,0:0|0:0,0:0:0:0:
156,38,238792,1,0,0:0:0:0:
249,319,238958,2,0,L|473:306,1,194.999981775285,10|0,0:0|0:0,0:0:0:0:
511,258,239292,2,0,P|519:231|491:176,1,64.9999939250949,0|0,0:0|0:0,0:0:0:0:
357,120,239458,2,0,B|340:74|379:19|426:15|426:15|418:85,1,194.999981775285,10|0,0:0|0:0,0:0:0:0:
419,75,239792,85,10,0:0:0:0:
216,198,239958,1,2,0:0:0:0:
371,256,240125,1,10,0:0:0:0:
258,50,240292,2,0,L|228:-5,1,49.9999976158143,2|0,0:0|0:0,0:0:0:0:
371,256,240458,6,0,P|446:247|473:140,1,194.999981775285,10|0,0:0|0:0,0:0:0:0:
469,125,240792,1,2,0:0:0:0:
317,166,240958,2,0,P|289:194|304:294,1,129.99998785019,10|0,0:0|0:0,0:0:0:0:
348,338,241292,1,2,0:0:0:0:
348,338,241458,2,0,P|290:319|184:324,1,129.99998785019,10|0,0:0|0:0,0:0:0:0:
49,165,241792,6,0,P|51:69|130:14,1,199.999990463257,10|0,0:0|0:0,0:0:0:0:
209,110,242292,1,0,0:0:0:0:
209,110,242375,1,0,0:0:0:0:
208,109,242458,86,0,P|211:137|203:163,1,49.9999976158143,10|0,3:2|3:0,0:0:0:0:
147,291,242625,2,0,P|144:263|152:237,1,54.9999990558624,0|0,3:0|3:0,0:0:0:0:
351,111,242792,5,0,3:0:0:0:
351,111,242958,2,0,P|365:137|366:166,1,59.9999953079226,10|0,3:2|3:0,0:0:0:0:
303,357,243125,1,0,3:0:0:0:
303,357,243292,2,0,P|287:329|290:297,1,64.9999939250949,8|0,3:2|3:0,0:0:0:0:
317,223,243458,5,10,3:2:0:0:
191,197,243625,1,0,0:0:0:0:
388,182,243792,1,10,0:0:0:0:
118,251,243958,1,0,0:0:0:0:
461,244,244125,1,10,0:0:0:0:
58,175,244292,1,0,0:0:0:0:
352,280,244458,85,14,0:0:0:0:
352,280,244625,1,0,0:0:0:0:
352,280,244792,2,0,L|369:332,1,49.9999976158143,0|0,0:0|0:0,0:0:0:0:
253,203,244958,1,10,0:0:0:0:
253,203,245125,2,0,L|259:257,1,49.9999976158143,0|0,0:0|0:0,0:0:0:0:
170,109,245292,2,0,L|166:163,1,49.9999976158143,0|0,0:0|0:0,0:0:0:0:
150,368,245458,6,0,P|163:313|177:239,1,119.999990615845,10|0,0:0|0:0,0:0:0:0:
291,68,245792,2,0,P|380:61|469:76,1,179.999985923768,10|10,0:0|0:0,0:0:0:0:
461,275,246292,1,0,0:0:0:0:
461,275,246375,1,0,0:0:0:0:
461,275,246458,6,0,P|403:264|334:369,1,179.999985923768,10|0,0:0|0:0,0:0:0:0:
252,383,246792,2,0,L|245:323,1,59.9999953079226,0|0,0:0|0:0,0:0:0:0:
345,200,246958,1,10,0:0:0:0:
345,200,247125,2,0,L|338:140,1,59.9999953079226,0|0,0:0|0:0,0:0:0:0:
104,170,247292,2,0,L|163:163,1,59.9999953079226,0|0,0:0|0:0,0:0:0:0:
331,347,247458,86,0,L|465:368,1,119.999990615845,10|0,0:0|0:0,0:0:0:0:
338,328,247792,2,0,B|294:332|294:332|280:342|280:342|158:353,1,179.999985923768,10|10,0:0|0:0,0:0:0:0:
15,368,248292,1,0,0:0:0:0:
15,368,248375,1,0,0:0:0:0:
15,368,248458,5,10,0:0:0:0:
155,230,248625,1,0,0:0:0:0:
89,171,248792,1,0,0:0:0:0:
325,47,248958,2,0,B|372:75|372:75|354:222,1,179.999985923768,10|0,0:0|0:0,0:0:0:0:
341,276,249292,1,0,0:0:0:0:
145,225,249458,2,0,B|112:254|112:254|127:341,1,119.999990615845,10|0,0:0|0:0,0:0:0:0:
244,371,249792,6,0,L|250:171,1,179.999985923768,10|0,0:0|0:0,0:0:0:0:
90,84,250292,1,0,0:0:0:0:
90,84,250375,1,0,0:0:0:0:
90,84,250458,86,0,L|78:154,1,49.9999976158143,10|0,0:0|0:0,0:0:0:0:
52,268,250625,2,0,L|-4:306,1,54.9999990558624,0|0,0:0|0:0,0:0:0:0:
209,370,250792,1,0,0:0:0:0:
209,370,250958,2,0,L|195:311,1,59.9999953079226,10|0,0:0|0:0,0:0:0:0:
368,307,251125,1,0,0:0:0:0:
368,307,251292,2,0,L|386:219,1,64.9999939250949,0|0,0:0|0:0,0:0:0:0:
195,223,251458,5,10,0:0:0:0:
321,197,251625,1,0,0:0:0:0:
124,182,251792,1,10,0:0:0:0:
394,251,251958,1,0,0:0:0:0:
51,244,252125,1,0,0:0:0:0:
454,175,252292,1,0,0:0:0:0:
246,339,252458,69,6,0:0:0:0:
393,12,252625,22,0,P|330:35|316:118,1,149.999998569489
372,289,252958,1,10,0:0:0:0:
227,156,253125,5,2,0:0:0:0:
205,241,253292,1,2,0:0:0:0:
39,77,253458,5,2,0:0:0:0:
186,58,253625,1,2,0:0:0:0:
76,299,253792,86,0,B|45:319|45:319|77:179,1,149.999998569489,10|0,0:0|0:0,0:0:0:0:
294,259,254125,2,0,B|182:242|182:242|133:264,1,149.999998569489,0|0,0:0|0:0,0:0:0:0:
113,382,254458,101,14,0:0:0:0:
95,38,254625,22,0,P|169:38|226:96,1,149.999998569489
248,186,254958,2,0,P|250:112|290:50,1,149.999998569489,8|0,0:1|0:0,0:0:0:0:
497,73,255292,5,8,0:1:0:0:
466,211,255458,1,2,0:0:0:0:
317,247,255625,1,2,0:0:0:0:
433,140,255792,1,2,0:0:0:0:
238,101,255958,1,2,0:0:0:0:
361,180,256125,1,2,0:0:0:0:
371,364,256292,1,2,0:0:0:0:
169,242,256458,53,14,0:1:0:0:
136,309,256625,21,8,0:1:0:0:
169,242,256792,2,0,P|240:233|317:292,1,149.999998569489,8|0,0:1|0:0,0:0:0:0:
376,264,257125,2,0,P|313:344|232:284,1,224.999997854233,0|0,0:0|0:0,0:0:0:0:
229,291,257458,5,2,0:0:0:0:
309,195,257625,1,2,0:0:0:0:
304,272,257792,5,2,0:0:0:0:
229,181,257958,1,2,0:0:0:0:
240,65,258125,1,2,0:0:0:0:
309,195,258292,1,2,0:0:0:0:
229,291,258458,69,6,0:1:0:0:
160,332,258625,6,0,P|106:322|-9:252,1,149.999998569489,8|0,0:1|0:0,0:0:0:0:
43,355,258958,2,0,P|93:306|160:332,1,149.999998569489,8|0,0:1|0:0,0:0:0:0:
226,372,259292,1,8,0:1:0:0:
296,336,259458,5,10,0:2:0:0:
464,200,259625,1,2,0:0:0:0:
360,384,259792,1,2,0:0:0:0:
408,144,259958,1,2,0:0:0:0:
440,384,260125,1,2,0:0:0:0:
336,112,260292,1,2,0:0:0:0:
96,284,260458,69,10,0:0:0:0:
204,33,260625,54,0,L|184:198,1,149.999998569489,8|0,0:1|0:0,0:0:0:0:
349,54,260958,2,0,L|369:219,1,149.999998569489,8|0,0:1|0:0,0:0:0:0:
281,12,261292,1,0,0:0:0:0:
268,312,261458,86,0,B|242:339|242:339|256:227,1,149.999998569489
424,93,261792,5,10,0:0:0:0:
388,285,261958,1,2,0:0:0:0:
134,307,262125,1,2,0:0:0:0:
105,87,262292,1,2,0:0:0:0:
170,139,262458,85,10,2:1:0:0:
170,139,262625,38,0,L|-1:122,1,149.999998569489
96,177,262958,2,0,B|83:62|83:62|105:87,1,149.999998569489,8|0,0:1|0:0,0:0:0:0:
166,220,263292,1,0,0:0:0:0:
429,50,263458,86,0,P|488:83|468:169,1,149.999998569489
406,258,263792,5,2,0:0:0:0:
291,247,263958,1,2,0:0:0:0:
176,236,264125,1,2,0:0:0:0:
61,225,264292,1,2,0:0:0:0:
257,111,264458,69,2,0:2:0:0:
164,320,264625,53,0,0:0:0:0:
149,247,264792,1,0,0:0:0:0:
341,187,264958,85,8,0:1:0:0:
320,306,265125,1,0,0:0:0:0:
420,265,265292,1,0,0:1:0:0:
370,51,265458,5,0,0:0:0:0:
386,47,265625,1,0,0:0:0:0:
283,68,265792,5,8,0:1:0:0:
386,47,265958,1,0,0:0:0:0:
320,142,266125,1,0,0:0:0:0:
193,134,266292,1,0,0:0:0:0:
88,14,266458,69,2,0:2:0:0:
46,242,266625,5,0,0:0:0:0:
20,121,266792,1,2,0:0:0:0:
245,76,266958,1,2,0:0:0:0:
197,288,267125,1,2,0:0:0:0:
85,170,267292,1,2,0:0:0:0:
325,125,267458,5,2,3:2:0:0:
273,361,267625,1,2,3:2:0:0:
181,64,267792,1,2,3:2:0:0:
211,303,267958,1,2,3:2:0:0:
348,15,268125,1,2,3:2:0:0:
292,278,268292,1,2,3:2:0:0:
24,155,268458,21,6,3:2:0:0:
24,155,268625,1,0,3:2:0:0:
165,249,268958,2,0,P|180:154|105:97,1,199.999990463257,8|8,0:1|0:1,0:0:0:0:
344,145,269458,2,0,P|272:162|201:141,1,149.999992847443,8|0,0:0|0:0,0:0:0:0:
225,64,269792,2,0,P|286:51|341:72,1,99.9999952316285,8|0,0:1|0:0,0:0:0:0:
451,298,270125,2,0,P|469:237|439:179,1,99.9999952316285,8|0,0:1|0:0,0:0:0:0:
393,166,270458,6,0,P|329:212|311:333,1,199.999990463257,10|0,2:1|0:0,0:0:0:0:
199,237,270958,2,0,P|230:174|224:70,1,149.999992847443,8|0,0:1|0:0,0:0:0:0:
176,42,271292,1,8,0:1:0:0:
3,313,271458,5,8,0:0:0:0:
119,286,271625,1,0,0:0:0:0:
212,360,271792,1,8,0:1:0:0:
233,199,271958,1,0,0:0:0:0:
486,340,272125,1,8,0:1:0:0:
315,299,272292,1,0,0:0:0:0:
443,197,272458,85,10,0:1:0:0:
297,152,272625,1,0,0:0:0:0:
359,84,272792,1,0,0:0:0:0:
130,13,272958,2,0,P|178:59|206:201,1,194.999981775285,8|0,0:1|0:0,0:0:0:0:
194,256,273292,1,8,0:1:0:0:
30,271,273458,2,0,P|11:340|96:313,1,194.999981775285,8|0,0:0|0:0,0:0:0:0:
97,308,273792,5,8,0:1:0:0:
194,256,273958,1,2,0:0:0:0:
283,273,274125,1,0,0:0:0:0:
331,338,274292,1,8,0:1:0:0:
489,321,274458,6,0,L|502:261,1,49.9999976158143,2|0,3:1|3:0,0:0:0:0:
359,267,274625,2,0,L|353:200,1,54.9999990558624,0|0,3:0|3:0,0:0:0:0:
449,47,274792,1,2,3:3:0:0:
377,197,274958,2,0,L|365:263,1,59.9999953079226,0|0,0:0|0:0,0:0:0:0:
252,346,275125,1,2,3:3:0:0:
252,346,275292,2,0,L|169:336,1,64.9999939250949,0|0,0:0|0:0,0:0:0:0:
69,239,275458,85,8,0:0:0:0:
210,198,275625,1,8,0:1:0:0:
267,256,275792,1,8,0:0:0:0:
127,107,275958,1,8,0:1:0:0:
172,333,276125,1,8,0:0:0:0:
203,83,276292,1,8,0:1:0:0:
133,197,276458,5,6,0:1:0:0:
133,197,276625,1,8,0:1:0:0:
495,22,276958,2,0,P|403:33|363:149,1,199.999990463257,8|8,0:1|0:1,0:0:0:0:
420,325,277458,2,0,P|460:239|468:157,1,149.999992847443,8|0,0:0|0:0,0:0:0:0:
363,199,277792,2,0,P|330:197|283:118,1,99.9999952316285,8|0,0:1|0:0,0:0:0:0:
17,24,278125,2,0,P|43:82|51:158,1,99.9999952316285,8|0,0:1|0:0,0:0:0:0:
101,333,278458,6,0,P|108:258|166:131,1,199.999990463257,10|0,0:1|0:0,0:0:0:0:
395,348,278958,2,0,P|318:295|176:309,1,199.999990463257,8|0,0:1|0:0,0:0:0:0:
29,232,279458,85,8,0:0:0:0:
148,157,279625,1,8,0:1:0:0:
167,352,279792,1,8,0:0:0:0:
148,157,279958,1,8,0:1:0:0:
384,189,280125,1,8,0:1:0:0:
279,291,280292,1,8,0:1:0:0:
292,201,280458,5,2,3:1:0:0:
453,335,280625,1,0,3:2:0:0:
403,265,280792,1,0,3:2:0:0:
497,76,280958,2,0,P|407:99|261:89,1,194.999981775285,8|0,0:1|0:0,0:0:0:0:
245,51,281292,1,0,0:0:0:0:
121,6,281458,2,0,P|50:12|59:117,1,194.999981775285,8|0,0:0|0:0,0:0:0:0:
65,114,281792,5,8,0:1:0:0:
177,122,281958,1,2,0:0:0:0:
245,51,282125,1,0,0:0:0:0:
305,98,282292,1,8,0:1:0:0:
394,133,282458,86,0,L|408:55,1,49.9999976158143,2|0,3:1|3:0,0:0:0:0:
417,125,282625,2,0,L|415:45,1,54.9999990558624,0|0,3:0|3:0,0:0:0:0:
499,9,282792,1,2,3:3:0:0:
438,112,282958,2,0,L|421:34,1,59.9999953079226,0|0,3:0|3:0,0:0:0:0:
499,9,283125,1,2,3:3:0:0:
324,188,283292,2,0,P|310:211|329:272,1,64.9999939250949,8|0,3:1|3:0,0:0:0:0:
512,216,283458,5,8,3:2:0:0:
335,183,283625,1,8,0:1:0:0:
227,325,283792,1,8,0:0:0:0:
309,300,283958,1,8,0:1:0:0:
222,177,284125,1,8,0:0:0:0:
96,147,284292,1,8,0:1:0:0:
29,190,284458,21,6,2:2:0:0:
29,190,284625,1,8,0:1:0:0:
3,115,284958,2,0,P|100:110|185:172,1,199.999990463257,8|8,0:1|0:1,0:0:0:0:
344,238,285458,2,0,P|272:221|201:243,1,149.999992847443,8|0,0:0|0:0,0:0:0:0:
225,320,285792,2,0,P|286:333|341:312,1,99.9999952316285,8|0,0:1|0:0,0:0:0:0:
451,86,286125,2,0,P|469:147|439:205,1,99.9999952316285,8|0,0:1|0:0,0:0:0:0:
393,218,286458,6,0,P|329:172|311:51,1,199.999990463257,10|0,0:1|0:0,0:0:0:0:
123,163,286958,2,0,P|186:132|290:138,1,149.999992847443,8|0,0:1|0:0,0:0:0:0:
318,186,287292,1,8,0:1:0:0:
204,350,287458,101,8,0:0:0:0:
226,242,287625,1,8,0:1:0:0:
356,324,287792,1,8,0:0:0:0:
135,282,287958,1,8,0:1:0:0:
265,132,288125,1,8,0:0:0:0:
280,305,288292,1,8,0:1:0:0:
443,187,288458,5,2,3:1:0:0:
226,242,288625,1,0,3:0:0:0:
307,215,288792,1,0,3:0:0:0:
94,109,288958,2,0,P|204:116|320:78,1,194.999981775285,8|0,0:1|0:0,0:0:0:0:
329,29,289292,1,8,0:1:0:0:
99,30,289458,2,0,P|32:29|23:147,1,194.999981775285,8|0,0:0|0:0,0:0:0:0:
21,140,289792,101,8,0:1:0:0:
126,108,289958,1,2,0:0:0:0:
209,144,290125,1,0,0:0:0:0:
242,217,290292,1,8,0:1:0:0:
436,61,290458,6,0,L|449:121,1,49.9999976158143,2|0,3:1|3:0,0:0:0:0:
306,115,290625,2,0,L|300:182,1,54.9999990558624,0|0,3:0|3:0,0:0:0:0:
396,335,290792,1,2,3:3:0:0:
324,185,290958,2,0,L|312:119,1,59.9999953079226,0|0,3:0|3:0,0:0:0:0:
199,36,291125,1,2,3:3:0:0:
199,36,291292,2,0,L|116:46,1,64.9999939250949,0|0,3:0|3:0,0:0:0:0:
16,143,291458,101,8,2:0:0:0:
157,184,291625,1,8,2:1:0:0:
214,126,291792,1,8,0:0:0:0:
74,275,291958,1,8,2:1:0:0:
119,49,292125,1,8,0:0:0:0:
150,299,292292,1,8,2:1:0:0:
80,185,292458,5,6,0:1:0:0:
80,185,292625,1,8,0:1:0:0:
241,378,292958,2,0,B|228:261|286:301|275:176,1,199.999990463257,8|8,0:1|0:1,0:0:0:0:
239,47,293458,2,0,P|290:88|401:81,1,149.999992847443,8|0,0:0|0:0,0:0:0:0:
446,49,293792,2,0,P|410:23|317:35,1,99.9999952316285,8|0,0:1|0:0,0:0:0:0:
275,185,294125,2,0,P|263:233|241:278,1,99.9999952316285,8|0,0:1|0:0,0:0:0:0:
64,376,294458,102,0,P|40:317|47:163,1,199.999990463257,2|0,0:1|0:0,0:0:0:0:
229,39,294958,2,0,P|314:86|367:199,1,199.999990463257,8|0,0:1|0:0,0:0:0:0:
401,347,295458,5,8,0:0:0:0:
426,260,295625,1,8,0:1:0:0:
257,189,295791,1,8,0:0:0:0:
276,294,295958,1,8,0:1:0:0:
85,381,296125,1,8,0:0:0:0:
121,242,296292,1,8,0:1:0:0:
194,337,296458,101,2,3:1:0:0:
50,185,296625,1,0,3:0:0:0:
27,262,296792,1,0,3:0:0:0:
146,50,296958,2,0,P|227:57|272:186,1,194.999981775285,8|0,0:1|0:0,0:0:0:0:
247,217,297292,1,8,0:1:0:0:
133,359,297458,2,0,P|63:361|51:251,1,194.999981775285,8|0,0:0|0:0,0:0:0:0:
54,251,297792,5,8,0:1:0:0:
162,236,297958,1,2,0:0:0:0:
234,302,298125,1,0,0:0:0:0:
247,217,298292,1,8,0:1:0:0:
308,169,298458,102,0,L|376:128,1,49.9999976158143,2|0,3:2|3:0,0:0:0:0:
318,137,298625,2,0,L|394:114,1,54.9999990558624,0|0,3:0|3:0,0:0:0:0:
421,278,298792,1,2,3:3:0:0:
335,108,298958,2,0,L|414:104,1,59.9999953079226,0|0,3:0|0:0,0:0:0:0:
421,278,299125,1,2,3:3:0:0:
269,33,299292,2,0,P|241:26|195:47,1,64.9999939250949,0|0,3:0|3:0,0:0:0:0:
128,142,299458,5,8,3:2:0:0:
278,48,299625,1,8,0:1:0:0:
262,219,299792,1,8,0:0:0:0:
138,153,299958,1,8,0:1:0:0:
160,285,300125,1,8,0:0:0:0:
252,230,300292,1,8,0:1:0:0:
238,142,300458,102,0,B|221:124|221:124|246:91|246:91|256:14|256:14|266:91|266:91|291:124|291:124|274:142,1,286.999990694046,4|0,0:0|0:0,0:0:0:0:
161,84,301792,2,0,L|128:11,1,74.9999964237214,0|0,0:0|0:0,0:0:0:0:
61,93,302125,2,0,B|102:127|102:127|58:141|58:141|4:126,1,149.999998569489
131,212,302458,2,0,B|94:231|94:231|15:216|15:216|128:210,1,214.999993028641,0|0,0:0|0:0,0:0:0:0:
0,302,303458,2,0,L|36:291,1,37.9999977241517,0|0,0:0|0:0,0:0:0:0:
53,368,303792,2,0,L|174:271,1,149.999998569489
155,380,304125,2,0,B|185:353|185:353|171:384,1,74.9999992847443,0|0,0:0|0:0,0:0:0:0:
255,376,304458,2,0,L|255:276,1,99.9999952316285,0|0,0:0|0:0,0:0:0:0:
357,380,305458,2,0,B|327:353|327:353|340:384,1,74.9999992847443,0|0,0:0|0:0,0:0:0:0:
459,368,305792,2,0,L|337:271,1,149.999998569489
512,302,306125,2,0,L|475:291,1,37.9999977241517,0|0,0:0|0:0,0:0:0:0:
381,212,306458,2,0,B|418:231|418:231|497:216|497:216|384:210,1,214.999993028641,0|0,0:0|0:0,0:0:0:0:
451,93,307458,2,0,B|410:127|410:127|454:141|454:141|508:126,1,149.999998569489
351,84,307792,2,0,L|384:11,3,74.9999964237214,0|0|0|0,0:0|0:0|0:0|0:0,0:0:0:0:
