osu file format v14

[General]
AudioFilename: audio.mp3
AudioLeadIn: 0
PreviewTime: 90065
Countdown: 0
SampleSet: Soft
StackLeniency: 0.7
Mode: 0
LetterboxInBreaks: 0
WidescreenStoryboard: 0

[Editor]
Bookmarks: 4731,86732,122732,176065,208565,224732,304732
DistanceSpacing: 1.3
BeatDivisor: 4
GridSize: 4
TimelineZoom: 1.36

[Metadata]
Title:Connexion
TitleUnicode:Connexion
Artist:R!N/Gemie
ArtistUnicode:R!N/Gemie
Creator:Pururut
Version:Extra
Source:少女前线
Tags:girl's frontline ドールズフロントライン 少女前线
BeatmapID:2146727
BeatmapSetID:1026481

[Difficulty]
HPDrainRate:5
CircleSize:4
OverallDifficulty:8
ApproachRate:9
SliderMultiplier:1.8
SliderTickRate:1

[Events]
//Background and Video events
0,0,"bg1.jpg",0,0
Video,3000,"gmv.mp4"
//Break Periods
//Storyboard Layer 0 (Background)
//Storyboard Layer 1 (Fail)
//Storyboard Layer 2 (Pass)
//Storyboard Layer 3 (Foreground)
//Storyboard Layer 4 (Overlay)
//Storyboard Sound Samples

[TimingPoints]
732,333.333333333333,3,1,0,100,1,0
4731,-133.333333333333,4,2,1,20,0,0
20731,-200,4,2,1,30,0,0
33065,-200,4,2,1,20,0,0
33399,-100,4,2,1,30,0,0
38233,-100,4,2,1,30,0,0
38566,-166.666666666667,4,2,1,50,0,0
54732,-125,4,2,1,40,0,0
70732,-166.666666666667,4,2,1,50,0,0
78732,-125,4,2,1,50,0,0
82732,-125,4,2,0,30,0,0
83065,-125,4,2,1,50,0,0
83732,-125,4,2,1,30,0,0
83899,-125,4,2,1,50,0,0
86232,-125,4,2,1,30,0,0
86399,-125,4,2,1,50,0,0
90731,-100,4,2,1,80,0,1
93732,-100,4,2,1,50,0,1
93899,-100,4,2,1,80,0,1
97732,-100,4,2,1,50,0,1
97899,-100,4,2,1,80,0,1
99732,-100,4,2,1,50,0,1
99899,-100,4,2,1,80,0,1
101732,-100,4,2,1,50,0,1
101899,-100,4,2,1,80,0,1
105732,-100,4,2,1,50,0,1
105899,-100,4,2,1,80,0,1
106732,-100,4,2,1,50,0,1
106899,-100,4,2,1,80,0,1
110732,-100,4,2,1,50,0,1
110899,-100,4,2,1,80,0,1
113732,-100,4,2,1,50,0,1
113899,-100,4,2,1,80,0,1
114732,-100,4,2,1,50,0,1
114899,-100,4,2,1,80,0,1
117732,-100,4,2,1,50,0,1
117899,-100,4,2,1,80,0,1
120732,-100,4,2,1,30,0,1
121731,-100,4,2,1,40,0,1
122065,-100,4,2,1,40,0,1
122232,-100,4,2,1,50,0,1
122399,-100,4,2,1,80,0,1
122731,-100,4,2,1,80,0,0
124065,-125,4,2,1,50,0,0
127732,-125,4,2,1,30,0,0
127899,-125,4,2,1,50,0,0
129732,-125,4,2,1,30,0,0
129899,-125,4,2,1,50,0,0
131732,-125,4,2,1,30,0,0
131899,-125,4,2,1,50,0,0
133399,-125,4,2,1,55,0,0
133732,-125,4,2,1,30,0,0
133899,-125,4,2,1,55,0,0
135732,-125,4,2,1,30,0,0
136065,-125,4,2,1,60,0,0
137732,-125,4,2,1,30,0,0
137899,-125,4,2,1,60,0,0
140732,-125,4,2,1,30,0,0
141065,-125,4,2,1,60,0,0
141732,-125,4,2,1,30,0,0
141899,-125,4,2,1,60,0,0
142732,-125,4,2,1,30,0,0
142899,-125,4,2,1,60,0,0
144065,-125,4,2,1,30,0,0
144232,-125,4,2,1,35,0,0
144399,-125,4,2,1,60,0,0
145732,-125,4,2,1,30,0,0
145899,-125,4,2,1,60,0,0
147732,-125,4,2,1,40,0,0
147899,-125,4,2,1,50,0,0
148065,-125,4,2,1,40,0,0
148232,-125,4,2,1,60,0,0
149399,-125,4,2,1,50,0,0
150065,-125,4,2,1,60,0,0
151732,-125,4,2,1,40,0,0
152065,-125,4,2,1,50,0,0
152232,-125,4,2,1,60,0,0
157065,-166.666666666667,4,2,1,40,0,0
160732,-166.666666666667,4,2,1,20,0,0
160899,-166.666666666667,4,2,1,50,0,0
161232,-166.666666666667,4,2,1,20,0,0
161399,-166.666666666667,4,2,1,50,0,0
165732,-166.666666666667,4,2,1,30,0,0
165899,-166.666666666667,4,2,1,50,0,0
170232,-166.666666666667,4,2,1,30,0,0
170399,-166.666666666667,4,2,1,50,0,0
176065,-200,4,2,0,50,0,0
192732,-125,4,2,1,60,0,0
207732,-125,4,2,0,30,0,0
208565,-125,4,2,1,20,0,0
211731,-200,4,2,1,20,0,0
224732,-125,4,2,1,60,0,0
232065,-125,4,2,1,30,0,0
232399,-125,4,2,1,60,0,0
239732,-125,4,2,1,30,0,0
239899,-125,4,2,1,40,0,0
240065,-100,4,2,1,80,0,1
243732,-100,4,2,1,60,0,1
243899,-100,4,2,1,80,0,1
247732,-100,4,2,1,60,0,1
247899,-100,4,2,1,80,0,1
249732,-100,4,2,1,50,0,1
249899,-100,4,2,1,80,0,1
253732,-100,4,2,1,30,0,1
253899,-100,4,2,1,80,0,1
255732,-100,4,2,1,50,0,1
255899,-100,4,2,1,80,0,1
256732,-100,4,2,1,50,0,1
256899,-100,4,2,1,80,0,1
259732,-100,4,2,1,50,0,1
259899,-100,4,2,1,80,0,1
262065,-100,4,2,1,50,0,1
262232,-100,4,2,1,80,0,1
262732,-100,4,2,1,60,0,1
262899,-100,4,2,1,80,0,1
263732,-100,4,2,1,50,0,1
263899,-100,4,2,1,80,0,1
264732,-100,4,2,1,60,0,1
264899,-100,4,2,1,80,0,1
271732,-100,4,2,1,50,0,1
271899,-100,4,2,1,80,0,1
273398,-125,4,2,1,80,0,0
276232,-125,4,2,1,60,0,0
288732,-125,4,2,1,40,0,0
288899,-125,4,2,1,60,0,0
291732,-125,4,2,1,40,0,0
291899,-125,4,2,1,60,0,0
292732,-125,4,2,1,50,0,0
292899,-125,4,2,1,60,0,0
294065,-125,4,2,1,30,0,0
294232,-125,4,2,1,40,0,0
294399,-125,4,2,1,60,0,0
295732,-125,4,2,1,40,0,0
295899,-125,4,2,1,60,0,0
296065,-125,4,2,1,40,0,0
296232,-125,4,2,1,50,0,0
296565,-125,4,2,1,40,0,0
296732,-125,4,2,1,60,0,0
299732,-125,4,2,1,40,0,0
300732,-125,4,2,1,60,0,0
303732,-125,4,2,1,40,0,0
303899,-125,4,2,1,60,0,0

[HitObjects]
125,185,4731,6,0,P|131:246|198:293,2,135.000005149842
125,185,5565,1,0,0:0:0:0:
125,185,5731,2,0,B|142:162|142:162|121:131|121:131|110:87|144:44,1,135.000005149842,2|0,0:0|0:0,0:0:0:0:
130,64,6231,1,0,0:0:0:0:
211,28,6398,1,0,0:0:0:0:
267,92,6565,1,0,0:0:0:0:
267,92,6648,1,0,0:0:0:0:
267,92,6731,6,0,P|318:97|389:39,2,135.000005149842,2|0|2,0:0|0:0|0:0,0:0:0:0:
336,256,7565,1,2,0:0:0:0:
336,256,7731,2,0,B|325:188|325:188|349:121,1,135.000005149842,2|2,0:0|0:0,0:0:0:0:
476,168,8231,2,0,L|453:249,1,67.5000025749208
431,314,8565,1,0,0:0:0:0:
336,256,8731,6,0,P|286:252|207:300,1,135.000005149842,2|2,0:0|0:0,0:0:0:0:
102,333,9231,1,0,0:0:0:0:
57,171,9398,1,2,0:0:0:0:
57,171,9565,1,2,0:0:0:0:
230,80,9731,6,0,L|217:227,2,135.000005149842,2|2|2,0:0|0:0|0:0,0:0:0:0:
446,209,10565,1,0,0:0:0:0:
446,209,10731,6,0,P|376:184|290:197,1,135.000005149842,2|2,0:0|0:0,0:0:0:0:
82,305,11231,2,0,L|163:314,1,67.5000025749208,2|2,0:0|0:0,0:0:0:0:
254,341,11565,1,0,0:0:0:0:
243,113,11731,6,0,B|223:171|223:171|238:262,2,135.000005149842,2|0|2,0:0|0:0|0:0,0:0:0:0:
339,59,12565,1,0,0:0:0:0:
119,52,12731,6,0,L|140:211,2,135.000005149842,2|0|2,0:0|0:0|0:0,0:0:0:0:
150,271,13565,1,2,0:0:0:0:
150,271,13731,2,0,P|103:268|55:186,1,135.000005149842,2|2,0:0|0:0,0:0:0:0:
237,214,14231,2,0,L|236:292,1,67.5000025749208,2|2,0:0|0:0,0:0:0:0:
305,327,14565,1,2,0:0:0:0:
389,307,14731,5,2,0:0:0:0:
477,301,14898,1,0,0:0:0:0:
418,199,15065,1,0,0:0:0:0:
321,183,15231,1,0,0:0:0:0:
411,80,15398,1,2,0:0:0:0:
481,134,15565,1,0,0:0:0:0:
319,149,15731,6,0,B|270:152|229:133|229:133|172:163,1,135.000005149842,0|2,0:0|0:0,0:0:0:0:
92,270,16231,1,2,0:0:0:0:
166,314,16398,2,0,L|183:236,1,67.5000025749208
103,118,16731,2,0,P|103:158|116:196,1,67.5000025749208,2|0,0:0|0:0,0:0:0:0:
379,283,17065,1,2,0:0:0:0:
258,215,17231,1,0,0:0:0:0:
232,357,17398,1,2,0:0:0:0:
379,283,17565,1,0,0:0:0:0:
379,283,17648,1,0,0:0:0:0:
379,283,17731,6,0,P|407:259|425:215,1,67.5000025749208,2|2,0:0|0:0,0:0:0:0:
353,65,18065,2,0,L|353:138,1,67.5000025749208,2|0,0:0|0:0,0:0:0:0:
444,110,18398,1,2,0:0:0:0:
269,18,18565,1,0,0:0:0:0:
243,141,18731,6,0,P|270:102|264:7,1,135.000005149842,2|2,0:0|0:0,0:0:0:0:
47,63,19231,1,0,0:0:0:0:
144,138,19398,2,0,L|146:61,1,67.5000025749208,2|2,0:0|0:0,0:0:0:0:
39,209,19731,6,0,P|64:266|65:363,2,135.000005149842,2|0|0,0:0|0:0|0:0,0:0:0:0:
208,358,20731,5,0,3:0:0:0:
278,34,21065,1,2,0:1:0:0:
169,187,21398,5,2,0:0:0:0:
313,144,21565,1,2,0:0:0:0:
169,187,21731,2,0,L|161:121,1,45,2|0,3:1|0:0,0:0:0:0:
193,62,22065,1,2,0:0:0:0:
347,354,22398,1,2,3:1:0:0:
88,170,22731,5,2,3:1:0:0:
97,61,22898,1,2,3:1:0:0:
111,164,23065,1,2,3:1:0:0:
230,176,23231,1,2,3:1:0:0:
225,292,23398,2,0,L|281:285,1,45,2|0,0:0|0:0,0:0:0:0:
393,209,23731,6,0,L|338:214,1,45,2|0,0:0|0:0,0:0:0:0:
153,339,24065,2,0,P|140:303|141:283,1,45,2|0,0:0|0:0,0:0:0:0:
233,131,24398,2,0,L|229:178,1,45,2|2,0:0|0:0,0:0:0:0:
346,42,24731,6,0,B|384:113|384:113|367:215,1,180,2|2,3:1|0:0,0:0:0:0:
106,166,25731,2,0,B|97:248|97:248|140:344,1,180,2|2,3:1|0:0,0:0:0:0:
136,336,26565,1,2,0:0:0:0:
136,336,26731,6,0,L|82:330,1,45
227,300,27065,2,0,P|210:286|181:269,1,45,2|0,0:0|0:0,0:0:0:0:
316,316,27398,2,0,P|309:293|296:265,1,45,2|0,0:0|0:0,0:0:0:0:
383,214,27731,6,0,L|389:270,1,45,2|2,0:0|0:0,0:0:0:0:
471,345,28065,2,0,P|482:291|471:244,1,90,2|0,3:1|0:0,0:0:0:0:
427,171,28565,1,0,0:0:0:0:
427,171,28648,1,0,0:0:0:0:
427,171,28731,6,0,P|412:129|425:80,1,90,2|2,3:1|0:0,0:0:0:0:
421,85,29231,2,0,L|365:97,1,45,2|2,0:0|0:0,0:0:0:0:
264,144,29565,2,0,L|314:155,1,45,2|0,0:0|0:0,0:0:0:0:
255,32,29898,1,2,3:2:0:0:
163,203,30065,1,2,0:0:0:0:
74,78,30231,1,2,2:1:0:0:
176,105,30398,1,2,2:0:0:0:
176,105,30565,1,0,0:0:0:0:
163,203,30731,6,0,L|168:268,1,45,2|2,0:0|0:0,0:0:0:0:
218,311,31065,2,0,P|151:328|127:317,1,90,2|2,3:1|0:0,0:0:0:0:
252,228,31565,1,0,0:0:0:0:
252,228,31731,2,0,P|301:275|307:297,1,90,2|0,0:0|0:0,0:0:0:0:
280,380,32231,1,2,0:0:0:0:
399,311,32398,1,2,0:0:0:0:
331,174,32565,1,2,3:2:0:0:
443,333,32731,6,0,L|451:230,2,90,2|2|2,3:1|0:0|0:0,0:0:0:0:
256,192,33481,12,0,38231,0:0:0:0:
161,124,38565,5,0,0:1:0:0:
161,124,38649,1,0,0:1:0:0:
161,124,38731,2,0,P|120:145|55:122,1,107.999996704102,2|2,3:2|0:0,0:0:0:0:
321,287,39398,2,0,L|444:289,2,107.999996704102,0|2|2,3:0|0:0|0:2,0:0:0:0:
206,342,40232,2,0,L|194:282,1,53.9999983520508
309,177,40565,1,0,0:1:0:0:
309,177,40649,1,0,0:1:0:0:
309,177,40732,6,0,P|316:128|288:60,2,107.999996704102,2|2|2,0:2|0:0|0:0,0:0:0:0:
66,317,41732,2,0,B|59:266|59:266|122:265,1,107.999996704102,2|0,0:0|0:0,0:0:0:0:
360,218,42399,1,2,0:0:0:0:
379,312,42565,1,0,0:0:0:0:
379,312,42649,1,0,0:0:0:0:
379,312,42732,6,0,P|333:317|280:266,1,107.999996704102,2|0,0:2|3:0,0:0:0:0:
415,37,43399,2,0,P|435:95|415:150,1,107.999996704102,2|2,0:0|0:0,0:0:0:0:
223,94,44065,2,0,L|343:89,1,107.999996704102,2|0,0:0|0:1,0:0:0:0:
255,185,44565,1,0,0:1:0:0:
255,185,44732,6,0,L|366:180,1,107.999996704102,2|0,0:0|0:0,0:0:0:0:
168,307,45398,2,0,L|50:296,2,107.999996704102,2|0|0,0:0|0:0|0:0,0:0:0:0:
401,356,46398,1,0,0:0:0:0:
224,127,46731,6,0,P|203:183|216:247,1,107.999996704102,2|0,0:0|0:0,0:0:0:0:
498,197,47398,2,0,P|440:208|388:187,1,107.999996704102,2|0,0:0|0:0,0:0:0:0:
243,38,48065,1,2,0:0:0:0:
452,128,48398,1,0,0:0:0:0:
308,249,48732,6,0,P|296:309|330:362,2,107.999996704102,2|0|2,0:0|0:0|0:0,0:0:0:0:
84,104,50065,1,2,0:0:0:0:
69,296,50398,1,2,0:0:0:0:
84,104,50732,6,0,B|80:207|80:207|139:222|162:264|158:303,2,215.999993408203,2|0|0,0:2|0:0|0:0,0:0:0:0:
310,148,52398,1,0,0:0:0:0:
201,25,52731,6,0,L|187:157,1,107.999996704102,2|0,0:0|0:0,0:0:0:0:
309,248,53398,2,0,P|292:191|314:142,1,107.999996704102,2|0,0:0|0:0,0:0:0:0:
87,347,54065,2,0,L|81:237,1,107.999996704102,2|0,0:0|0:0,0:0:0:0:
375,104,54732,5,2,0:0:0:0:
392,182,54899,1,0,3:0:0:0:
428,257,55065,2,0,P|372:263|353:253,1,72,2|0,0:0|0:0,0:0:0:0:
297,121,55399,2,0,P|296:77|315:48,1,72
496,186,55732,5,2,0:0:0:0:
495,298,55899,1,0,3:0:0:0:
369,375,56065,2,0,L|278:367,1,72,2|0,0:0|0:0,0:0:0:0:
271,146,56399,1,0,0:0:0:0:
132,303,56565,1,0,0:0:0:0:
132,303,56732,6,0,L|286:288,1,144,0|0,3:0|0:0,0:0:0:0:
367,218,57232,2,0,L|291:192,1,72,0|0,3:0|0:0,0:0:0:0:
81,123,57565,2,0,L|166:113,1,72,0|0,3:0|0:0,0:0:0:0:
271,21,57899,5,0,3:0:0:0:
413,70,58065,2,0,P|417:111|403:156,1,72,0|0,3:0|0:0,0:0:0:0:
328,100,58399,1,0,0:0:0:0:
380,225,58565,1,0,0:0:0:0:
380,225,58649,1,0,0:0:0:0:
380,225,58732,6,0,L|388:309,1,72,2|0,0:0|3:0,0:0:0:0:
98,363,59065,2,0,L|109:270,1,72,2|0,0:0|3:0,0:0:0:0:
282,216,59399,1,0,0:0:0:0:
272,310,59565,1,0,0:0:0:0:
24,235,59732,6,0,P|46:198|90:187,1,72
229,132,60065,2,0,L|142:124,1,72
320,34,60399,1,0,0:0:0:0:
336,167,60565,1,0,0:0:0:0:
358,302,60732,6,0,P|315:302|287:277,2,72,2|0|2,0:0|3:0|0:0,0:0:0:0:
507,221,61232,1,0,3:0:0:0:
340,95,61399,2,0,L|335:182,1,72,0|0,3:0|0:0,0:0:0:0:
185,275,61732,6,0,L|196:358,1,72,0|0,3:0|0:0,0:0:0:0:
301,288,62065,1,0,3:0:0:0:
192,162,62232,1,0,3:0:0:0:
70,248,62399,2,0,L|80:323,1,72,0|0,3:0|0:0,0:0:0:0:
192,162,62732,6,0,P|189:102|117:36,1,144,2|0,3:2|3:0,0:0:0:0:
26,78,63232,1,0,0:0:0:0:
286,140,63399,2,0,P|283:207|196:260,1,144,0|2,3:0|0:0,0:0:0:0:
136,271,63899,1,0,3:0:0:0:
330,320,64065,6,0,P|259:355|175:341,2,144,0|0|0,3:0|0:0|0:0,0:0:0:0:
412,67,65065,2,0,P|382:60|338:87,1,72,0|0,3:0|0:0,0:0:0:0:
391,146,65399,2,0,L|391:230,1,72,0|0,3:0|0:0,0:0:0:0:
450,358,65732,6,0,L|434:286,1,72,0|0,3:0|0:0,0:0:0:0:
300,219,66065,1,0,3:0:0:0:
473,173,66232,1,0,3:0:0:0:
300,219,66399,2,0,P|261:226|220:214,1,72,2|0,0:0|0:0,0:0:0:0:
40,83,66732,6,0,B|75:74|75:74|61:114,1,72,2|0,0:0|3:0,0:0:0:0:
20,189,67065,2,0,L|36:264,1,72,2|0,0:0|0:0,0:0:0:0:
142,324,67399,2,0,B|128:292|128:292|93:324,1,72
259,183,67732,5,0,0:0:0:0:
326,352,67899,1,0,0:0:0:0:
251,195,68065,2,0,P|206:195|167:172,2,72,0|0|0,0:0|3:0|0:0,0:0:0:0:
303,41,68565,1,0,3:0:0:0:
381,137,68732,6,0,L|465:131,2,72,2|0|0,0:0|0:0|3:0,0:0:0:0:
425,222,69232,2,0,L|516:216,1,72,0|0,3:0|0:0,0:0:0:0:
289,311,69565,2,0,L|211:316,1,72,0|0,3:0|0:0,0:0:0:0:
383,361,69899,1,0,3:0:0:0:
275,45,70065,6,0,P|305:119|282:190,1,144
231,237,70482,1,0,0:0:0:0:
231,237,70565,1,0,3:0:0:0:
231,237,70649,1,0,3:0:0:0:
231,237,70732,6,0,L|164:232,1,53.9999983520508
99,287,71065,2,0,L|31:263,1,53.9999983520508,0|0,3:0|0:0,0:0:0:0:
93,31,71399,2,0,L|93:101,1,53.9999983520508,0|0,3:0|0:0,0:0:0:0:
180,84,71732,2,0,L|175:152,1,53.9999983520508,0|0,3:0|0:0,0:0:0:0:
191,328,72065,6,0,P|252:335|292:315,1,107.999996704102,0|0,3:0|0:0,0:0:0:0:
491,172,72732,2,0,P|441:182|385:150,1,107.999996704102,0|0,3:0|0:0,0:0:0:0:
95,63,73399,6,0,L|206:53,2,107.999996704102,0|0|0,3:0|0:0|0:0,0:0:0:0:
42,177,74399,1,0,0:0:0:0:
170,157,74565,1,0,0:0:0:0:
170,157,74649,1,0,0:0:0:0:
170,157,74732,6,0,L|172:221,1,53.9999983520508,0|0,3:0|0:0,0:0:0:0:
258,210,75065,2,0,L|245:282,1,53.9999983520508,0|0,3:0|0:0,0:0:0:0:
333,283,75399,2,0,L|305:340,2,53.9999983520508,0|0|0,3:0|0:0|3:0,0:0:0:0:
422,228,75899,1,0,0:0:0:0:
422,228,75982,1,0,0:0:0:0:
422,228,76065,2,0,P|429:171|401:113,1,107.999996704102
198,183,76732,6,0,P|141:194|88:167,2,107.999996704102,0|0|0,3:0|0:0|3:0,0:0:0:0:
211,93,77732,1,0,0:0:0:0:
189,277,77899,1,0,0:0:0:0:
189,277,77982,1,0,0:0:0:0:
189,277,78065,2,0,L|251:283,1,53.9999983520508,0|0,3:0|0:0,0:0:0:0:
316,352,78399,1,0,3:0:0:0:
419,305,78565,1,0,3:0:0:0:
300,116,78732,5,0,3:0:0:0:
422,167,78899,1,0,3:0:0:0:
300,116,79065,2,0,L|301:32,1,72,4|0,3:0|0:0,0:0:0:0:
189,277,79399,2,0,L|189:360,2,72,0|0|0,3:0|0:0|0:0,0:0:0:0:
412,315,79899,1,0,0:0:0:0:
412,315,79982,1,0,0:0:0:0:
412,315,80065,2,0,P|323:335|258:307,1,144,0|0,3:0|0:0,0:0:0:0:
50,131,80732,6,0,P|128:146|199:124,1,144,0|0,3:0|0:0,0:0:0:0:
447,31,81399,2,0,L|463:186,1,144,0|0,3:0|0:0,0:0:0:0:
204,273,82065,1,0,3:0:0:0:
308,204,82232,1,0,3:0:0:0:
316,322,82399,1,2,0:0:0:0:
204,273,82565,1,0,0:0:0:0:
270,81,82732,6,0,P|315:187|301:213,1,144,8|0,1:2|0:0,0:0:0:0:
204,273,83232,2,0,L|108:264,1,72,0|0,3:0|0:0,0:0:0:0:
44,172,83565,2,0,L|116:182,1,72,0|0,3:0|1:0,0:0:0:0:
319,323,83899,2,0,L|411:310,1,72,0|0,3:0|0:0,0:0:0:0:
464,210,84232,2,0,L|393:217,1,72,0|0,3:0|0:0,0:0:0:0:
190,132,84565,5,0,3:0:0:0:
194,38,84732,1,0,3:0:0:0:
334,107,84899,2,0,P|336:168|316:194,1,72,0|0,3:0|0:0,0:0:0:0:
70,223,85232,1,0,3:0:0:0:
70,126,85399,1,0,3:0:0:0:
245,318,85565,6,0,P|196:340|104:312,1,144,0|0,3:0|0:0,0:0:0:0:
400,281,86065,2,0,L|394:375,1,72,0|0,3:0|1:0,0:0:0:0:
257,142,86399,2,0,L|267:229,1,72,0|0,3:0|3:0,0:0:0:0:
499,234,86732,5,4,0:1:0:0:
256,192,86815,12,0,89732,0:0:0:0:
157,121,90065,5,0,0:0:0:0:
157,121,90732,6,0,P|116:151|67:152,1,90,0|0,0:0|3:0,0:0:0:0:
207,31,91065,1,0,3:0:0:0:
345,169,91232,1,0,0:0:0:0:
176,236,91399,2,0,L|175:335,1,90
232,138,91732,5,0,3:0:0:0:
307,338,91899,1,0,3:0:0:0:
489,215,92065,2,0,P|420:231|392:216,1,90
345,169,92315,1,0,0:0:0:0:
345,169,92399,1,0,0:0:0:0:
453,93,92565,1,0,0:0:0:0:
512,330,92732,6,0,L|417:323,1,90,2|0,0:0|0:0,0:0:0:0:
163,333,93065,2,0,L|268:319,1,90,0|2,0:0|0:0,0:0:0:0:
259,76,93399,2,0,P|264:154|249:178,1,90,0|2,0:0|0:0,0:0:0:0:
18,304,93732,5,2,1:2:0:0:
87,147,93899,1,0,0:0:0:0:
296,243,94065,2,0,L|199:235,1,90,2|0,0:0|0:0,0:0:0:0:
139,67,94399,1,2,0:0:0:0:
360,25,94565,1,0,0:0:0:0:
360,25,94649,1,0,0:0:0:0:
360,25,94731,6,0,P|374:73|353:135,1,90,2|0,0:0|0:0,0:0:0:0:
168,323,95065,2,0,L|278:337,1,90
456,239,95399,1,0,0:0:0:0:
244,228,95565,1,0,0:0:0:0:
254,51,95732,5,0,0:0:0:0:
244,228,95899,1,0,0:0:0:0:
244,228,95982,1,0,0:0:0:0:
244,228,96065,2,0,P|190:238|152:221,1,90,2|0,0:0|0:0,0:0:0:0:
368,59,96399,1,0,0:0:0:0:
379,177,96565,1,0,0:0:0:0:
391,289,96732,5,2,0:0:0:0:
166,177,96899,1,2,0:0:0:0:
166,177,96982,1,2,0:0:0:0:
166,177,97065,1,2,0:0:0:0:
61,269,97232,1,2,0:0:0:0:
0,201,97399,2,0,L|0:90,1,90,0|2,0:0|0:0,0:0:0:0:
235,25,97731,6,0,L|235:124,1,90,2|2,1:2|0:0,0:0:0:0:
238,288,98065,1,2,0:0:0:0:
141,93,98232,1,2,0:0:0:0:
139,318,98399,2,0,P|89:334|39:316,1,90,2|0,0:0|0:0,0:0:0:0:
397,228,98732,6,0,B|387:293|387:293|426:349|509:324,1,180,2|0,3:2|0:0,0:0:0:0:
458,147,99232,1,2,0:0:0:0:
512,233,99399,1,0,0:0:0:0:
316,238,99565,2,0,L|320:145,1,90,2|2,0:0|1:2,0:0:0:0:
394,52,99899,1,0,0:0:0:0:
129,34,100065,2,0,L|132:138,1,90,2|0,0:0|0:0,0:0:0:0:
0,162,100399,1,0,0:0:0:0:
75,283,100565,1,0,0:0:0:0:
75,283,100649,1,0,0:0:0:0:
75,283,100732,6,0,P|125:272|178:276,2,90,2|0|0,0:0|0:0|0:0,0:0:0:0:
326,294,101232,6,0,P|276:305|220:303,2,90,2|0|0,0:0|0:0|0:0,0:0:0:0:
342,112,101732,1,2,1:2:0:0:
404,351,101899,1,0,0:0:0:0:
393,193,102065,2,0,P|340:210|302:198,1,90,2|0,0:0|0:0,0:0:0:0:
412,42,102399,1,2,0:0:0:0:
468,262,102565,1,0,0:0:0:0:
170,194,102732,6,0,P|162:144|193:95,1,90,2|0,0:0|0:0,0:0:0:0:
480,171,103065,1,2,0:0:0:0:
468,262,103232,1,0,0:0:0:0:
237,275,103399,2,0,L|232:384,1,90,2|0,0:0|0:0,0:0:0:0:
354,217,103732,1,0,0:0:0:0:
197,37,103899,1,0,0:0:0:0:
197,37,103982,1,0,0:0:0:0:
197,37,104065,6,0,P|147:40|109:74,1,90,2|0,0:0|0:0,0:0:0:0:
42,206,104399,2,0,P|94:220|139:199,1,90,2|0,0:0|0:0,0:0:0:0:
388,111,104732,2,0,P|338:94|284:113,1,90,0|2,0:0|0:0,0:0:0:0:
91,130,105065,1,2,0:0:0:0:
193,306,105232,1,2,0:0:0:0:
333,182,105399,6,0,P|336:275|336:280,1,90,0|2,0:0|0:2,0:0:0:0:
183,172,105732,1,2,1:2:0:0:
193,306,105899,1,0,3:0:0:0:
193,306,105982,1,0,0:0:0:0:
193,306,106065,1,0,3:0:0:0:
334,268,106232,1,0,3:0:0:0:
193,306,106399,1,0,3:0:0:0:
54,352,106565,1,0,3:0:0:0:
334,268,106731,6,0,L|331:382,2,90,0|0|0,1:0|0:0|0:0,0:0:0:0:
481,209,107232,2,0,P|480:163|456:121,1,90,0|0,3:0|0:0,0:0:0:0:
256,28,107565,1,0,0:0:0:0:
194,244,107732,5,2,0:0:0:0:
339,71,107899,2,0,L|351:161,1,90,0|2,0:0|0:0,0:0:0:0:
111,327,108232,1,0,0:0:0:0:
129,155,108399,1,0,0:0:0:0:
365,243,108565,1,0,0:0:0:0:
365,243,108649,1,0,0:0:0:0:
365,243,108732,6,0,P|314:241|281:207,1,90,2|0,0:2|0:0,0:0:0:0:
453,202,109065,2,0,P|459:270|433:316,1,90,0|2,0:0|0:0,0:0:0:0:
248,332,109399,2,0,L|151:320,1,90,2|0,0:0|0:0,0:0:0:0:
240,44,109732,6,0,L|365:58,1,90
380,107,109982,1,0,0:0:0:0:
380,107,110065,1,0,0:0:0:0:
124,74,110232,1,0,0:0:0:0:
304,151,110399,1,0,0:0:0:0:
51,125,110565,1,0,0:0:0:0:
51,125,110649,1,0,0:0:0:0:
51,125,110732,6,0,P|49:179|82:217,1,90,0|0,1:0|0:0,0:0:0:0:
153,267,111065,2,0,L|272:271,1,90,0|2,0:0|0:0,0:0:0:0:
418,319,111399,2,0,P|374:326|332:313,1,90
383,83,111732,6,0,L|382:172,1,90
156,57,112065,1,2,0:0:0:0:
50,274,112232,1,0,0:0:0:0:
195,180,112399,1,0,0:0:0:0:
29,171,112565,1,0,0:0:0:0:
29,171,112649,1,0,0:0:0:0:
29,171,112732,5,2,0:0:0:0:
127,347,112899,1,0,0:0:0:0:
242,306,113065,1,0,0:0:0:0:
357,269,113232,1,2,0:0:0:0:
127,347,113399,1,2,0:0:0:0:
357,269,113565,1,2,0:0:0:0:
127,347,113732,6,0,P|66:344|31:312,1,90,0|0,1:0|0:0,0:0:0:0:
170,170,114065,2,0,L|172:287,1,90,2|0,0:0|0:0,0:0:0:0:
104,98,114399,1,2,0:0:0:0:
333,67,114565,1,2,0:0:0:0:
368,115,114649,1,2,0:0:0:0:
362,175,114732,6,0,P|325:204|273:201,1,90,6|0,1:2|0:0,0:0:0:0:
210,53,115065,1,0,0:0:0:0:
472,67,115232,1,2,0:0:0:0:
459,295,115399,2,0,L|359:290,1,90
87,251,115732,5,0,0:0:0:0:
411,206,115899,1,0,0:0:0:0:
125,159,116065,1,2,0:0:0:0:
354,129,116232,1,0,0:0:0:0:
143,328,116399,1,0,0:0:0:0:
251,226,116565,1,2,0:0:0:0:
251,226,116649,1,2,0:0:0:0:
251,226,116732,6,0,B|236:127|236:127|205:231,1,180,2|0,1:2|0:0,0:0:0:0:
287,332,117232,1,2,0:0:0:0:
287,332,117315,1,0,0:0:0:0:
287,332,117399,2,0,P|350:340|393:317,1,90
283,58,117732,6,0,P|225:51|170:66,1,90,2|0,1:2|0:0,0:0:0:0:
90,202,118065,1,2,0:0:0:0:
119,31,118232,1,0,0:0:0:0:
402,171,118399,1,2,0:0:0:0:
389,72,118565,1,0,0:0:0:0:
402,171,118732,6,0,P|352:188|310:169,1,90
90,202,119065,1,2,0:0:0:0:
105,117,119232,1,0,0:0:0:0:
90,202,119399,2,0,L|95:311,1,90,2|0,0:0|0:0,0:0:0:0:
279,359,119732,6,0,P|226:368|177:354,1,90
383,295,120065,2,0,B|470:275|470:275|371:236,1,180,2|0,0:0|0:0,0:0:0:0:
310,189,120565,1,0,0:0:0:0:
436,47,120732,2,0,B|399:132|399:132|377:30,1,180,0|2,1:0|0:0,0:0:0:0:
224,117,121232,1,0,0:0:0:0:
138,298,121399,5,0,0:0:0:0:
339,239,121565,1,0,0:0:0:0:
93,196,121732,1,0,1:0:0:0:
143,73,121899,1,2,0:0:0:0:
143,73,121982,1,2,0:0:0:0:
143,73,122065,1,2,1:0:0:0:
42,326,122232,5,0,1:0:0:0:
164,296,122399,1,0,0:0:0:0:
284,261,122565,1,2,0:0:0:0:
405,226,122732,1,2,3:2:0:0:
319,141,124399,6,0,L|238:162,1,72
179,218,124732,1,2,0:0:0:0:
107,171,124899,1,0,3:0:0:0:
134,88,125065,1,2,0:0:0:0:
134,88,125232,1,0,3:0:0:0:
238,298,125399,6,0,P|181:315|104:273,1,144
262,212,125899,1,0,0:0:0:0:
395,310,126065,2,0,B|428:321|428:321|397:215,1,144,0|0,3:0|0:0,0:0:0:0:
453,87,126565,1,0,0:0:0:0:
453,87,126732,6,0,P|406:102|319:68,1,144,0|0,3:0|0:0,0:0:0:0:
35,279,127232,2,0,L|26:191,1,72,2|0,0:0|0:0,0:0:0:0:
101,59,127565,1,2,0:0:0:0:
173,139,127732,5,4,0:3:0:0:
169,235,127899,1,0,0:0:0:0:
260,308,128065,2,0,P|299:314|336:294,1,72,2|0,0:0|0:0,0:0:0:0:
496,275,128399,2,0,L|413:265,1,72,2|0,0:0|0:0,0:0:0:0:
347,123,128732,6,0,L|348:207,2,72,2|0|2,0:0|0:3|0:0,0:0:0:0:
191,33,129232,2,0,P|207:72|189:184,1,144,0|0,3:0|0:0,0:0:0:0:
108,106,129732,1,4,0:3:0:0:
114,262,129899,1,0,0:0:0:0:
114,262,130065,2,0,L|34:254,1,72,2|0,0:0|0:0,0:0:0:0:
225,341,130398,2,0,L|315:334,1,72
398,274,130732,5,2,0:0:0:0:
231,240,130899,1,0,3:0:0:0:
260,80,131065,1,2,0:0:0:0:
240,240,131232,1,0,3:0:0:0:
407,273,131399,1,0,0:0:0:0:
249,239,131565,1,2,0:0:0:0:
249,73,131731,6,0,P|203:75|166:113,1,72,4|2,0:3|0:0,0:0:0:0:
35,297,132065,2,0,P|81:289|100:251,1,72,0|2,0:0|0:0,0:0:0:0:
28,80,132399,2,0,L|42:173,1,72,0|2,0:0|0:0,0:0:0:0:
260,310,132732,6,0,L|248:234,1,72,0|0,3:0|3:0,0:0:0:0:
334,117,133065,1,2,0:0:0:0:
334,117,133232,1,0,3:0:0:0:
197,110,133399,2,0,B|145:119|145:119|54:86,1,144,0|4,0:0|0:3,0:0:0:0:
262,31,133899,1,0,0:0:0:0:
262,31,134065,2,0,P|296:82|290:115,1,72,2|0,0:0|0:0,0:0:0:0:
374,256,134399,2,0,L|346:328,1,72
44,254,134732,6,0,L|114:278,1,72,2|0,0:0|0:0,0:0:0:0:
175,354,135065,1,0,0:0:0:0:
250,209,135232,2,0,P|204:203|170:218,1,72,2|0,0:0|0:0,0:0:0:0:
415,255,135565,1,0,0:0:0:0:
328,56,135732,2,0,P|318:101|335:148,1,72,4|0,0:3|0:0,0:0:0:0:
137,298,136065,6,0,P|105:269|100:162,1,144,2|2,0:0|0:0,0:0:0:0:
414,76,136565,1,0,0:0:0:0:
216,52,136732,2,0,B|209:96|209:96|238:212,1,144,2|0,0:0|0:0,0:0:0:0:
356,220,137232,1,2,0:0:0:0:
245,344,137399,6,0,B|204:343|204:343|320:302,1,144,0|4,0:0|0:3,0:0:0:0:
404,322,137899,1,0,0:0:0:0:
254,204,138065,1,0,0:0:0:0:
417,141,138232,1,0,0:0:0:0:
343,72,138399,1,0,0:0:0:0:
343,72,138565,1,0,0:0:0:0:
339,251,138732,6,0,P|344:185|326:154,1,72,2|0,0:0|3:0,0:0:0:0:
249,93,139065,1,2,0:0:0:0:
145,146,139232,1,0,3:0:0:0:
156,39,139399,1,0,0:0:0:0:
132,253,139565,2,0,L|53:245,1,72,2|2,0:0|0:0,0:0:0:0:
342,181,139898,5,0,0:0:0:0:
340,292,140065,1,2,0:0:0:0:
455,245,140232,2,0,L|456:326,2,72,2|0|0,0:0|0:0|0:0,0:0:0:0:
228,96,140732,6,0,B|257:102|257:102|317:129|377:82,1,144,4|0,1:3|0:0,0:0:0:0:
150,25,141232,1,0,0:0:0:0:
445,48,141399,2,0,P|458:102|439:145,1,72
280,206,141732,2,0,L|351:215,1,72,8|0,0:3|0:0,0:0:0:0:
152,181,142065,1,0,0:3:0:0:
31,163,142232,1,0,0:0:0:0:
126,59,142399,1,0,0:0:0:0:
152,181,142565,1,0,0:0:0:0:
184,309,142732,6,0,L|108:300,2,72,4|0|0,0:3|0:0|0:0,0:0:0:0:
449,189,143232,2,0,P|451:235|465:267,1,72,0|0,3:0|0:0,0:0:0:0:
344,53,143565,2,0,L|345:139,1,72,0|0,3:0|0:0,0:0:0:0:
329,222,143899,1,0,0:0:0:0:
459,75,144065,1,4,0:3:0:0:
329,222,144232,1,4,0:3:0:0:
169,105,144399,2,0,L|178:199,1,72,0|0,3:0|0:0,0:0:0:0:
248,31,144732,5,4,0:3:0:0:
64,40,144899,1,0,0:0:0:0:
109,253,145065,2,0,P|166:280|201:271,1,72,0|0,0:0|3:0,0:0:0:0:
444,328,145399,2,0,L|302:348,1,144,0|4,0:0|0:3,0:0:0:0:
301,348,145899,1,0,0:0:0:0:
373,240,146065,2,0,L|371:162,1,72,4|0,0:3|0:0,0:0:0:0:
203,51,146399,2,0,L|218:130,1,72,0|0,3:0|0:0,0:0:0:0:
41,295,146732,6,0,B|88:304|88:304|189:262,1,144,0|0,3:0|0:0,0:0:0:0:
89,157,147232,1,0,0:0:0:0:
121,31,147399,1,0,0:0:0:0:
231,115,147565,1,0,3:0:0:0:
341,62,147732,5,4,3:3:0:0:
368,140,147899,1,0,3:0:0:0:
439,177,148065,2,0,P|483:182|515:169,1,72,4|4,0:3|0:3,0:0:0:0:
354,50,148399,1,0,0:0:0:0:
286,109,148565,1,0,0:0:0:0:
203,132,148732,5,4,0:3:0:0:
34,105,148899,1,0,0:0:0:0:
221,40,149065,1,0,0:0:0:0:
279,262,149232,1,0,3:0:0:0:
106,207,149399,6,0,L|113:300,1,72
441,271,149732,2,0,L|437:349,1,72,4|0,0:3|0:0,0:0:0:0:
145,360,150065,6,0,P|87:365|22:283,1,144,0|0,3:0|0:0,0:0:0:0:
224,293,150565,1,0,0:0:0:0:
62,211,150732,2,0,L|68:129,1,72
155,30,151065,1,0,0:0:0:0:
155,30,151232,2,0,L|162:119,1,72,0|0,3:0|0:0,0:0:0:0:
365,267,151565,5,0,0:0:0:0:
451,242,151732,1,4,0:3:0:0:
484,165,151899,1,0,0:0:0:0:
263,68,152065,5,4,0:3:0:0:
242,310,152232,1,0,0:0:0:0:
395,167,152399,1,0,3:0:0:0:
150,276,152565,1,0,0:0:0:0:
371,82,152732,2,0,P|413:78|446:93,1,72,4|0,3:3|0:0,0:0:0:0:
120,187,153065,2,0,L|38:174,1,72,2|0,0:0|3:0,0:0:0:0:
253,73,153399,5,0,0:0:0:0:
302,292,153565,1,0,0:0:0:0:
253,73,153732,1,0,3:0:0:0:
232,348,153899,1,4,0:3:0:0:
484,242,154065,2,0,P|489:203|468:170,1,72,4|0,3:3|0:0,0:0:0:0:
159,117,154399,2,0,P|208:163|243:159,1,72
389,199,154732,5,0,0:3:0:0:
340,62,154899,1,0,0:0:0:0:
81,165,155065,2,0,P|84:202|96:258,1,72,0|0,0:0|3:0,0:0:0:0:
362,237,155399,1,0,0:0:0:0:
230,311,155565,1,0,3:0:0:0:
257,205,155732,1,0,0:0:0:0:
332,335,155899,1,0,3:0:0:0:
271,68,156065,5,4,0:3:0:0:
341,123,156232,1,4,3:3:0:0:
428,129,156399,1,0,3:0:0:0:
194,271,156565,5,4,0:3:0:0:
105,293,156732,1,4,0:3:0:0:
25,256,156899,1,0,3:0:0:0:
164,115,157065,6,0,L|174:172,1,53.9999983520508
276,81,157399,2,0,L|274:214,1,107.999996704102,0|0,0:0|3:0,0:0:0:0:
445,233,158065,2,0,L|449:353,1,107.999996704102,0|2,0:0|0:0,0:0:0:0:
221,342,158731,6,0,B|165:348|165:348|114:320,2,107.999996704102,2|0|2,0:0|0:0|0:0,0:0:0:0:
305,155,159732,2,0,L|313:262,1,107.999996704102,0|2,0:0|0:0,0:0:0:0:
218,116,160399,2,0,L|215:172,1,53.9999983520508
143,225,160732,5,4,0:3:0:0:
64,220,160899,1,0,0:0:0:0:
110,148,161065,1,0,3:0:0:0:
64,220,161232,6,0,L|-6:206,1,53.9999983520508,4|0,0:3|0:0,0:0:0:0:
110,148,161565,2,0,L|156:93,1,53.9999983520508
143,225,161899,2,0,L|167:293,1,53.9999983520508
222,345,162232,2,0,P|273:362|323:338,1,107.999996704102
428,255,162732,6,0,L|367:269,1,53.9999983520508,0|0,3:0|0:0,0:0:0:0:
300,222,163065,1,0,0:0:0:0:
335,142,163232,1,0,0:0:0:0:
192,143,163399,2,0,L|190:83,1,53.9999983520508
286,7,163732,6,0,L|278:62,1,53.9999983520508
435,145,164065,2,0,P|379:160|318:124,1,107.999996704102,0|0,0:0|3:0,0:0:0:0:
468,62,164565,1,0,3:0:0:0:
497,207,164732,5,4,0:3:0:0:
334,141,164899,1,0,3:0:0:0:
383,230,165065,1,0,0:0:0:0:
468,62,165232,1,0,0:0:0:0:
383,230,165399,2,0,P|385:268|397:302,1,53.9999983520508
512,273,165732,2,0,P|511:315|501:332,1,53.9999983520508,4|0,0:3|0:0,0:0:0:0:
330,354,166065,2,0,P|379:374|431:365,1,107.999996704102
125,287,166732,6,0,P|77:298|18:277,1,107.999996704102,0|0,3:0|0:0,0:0:0:0:
268,54,167399,2,0,L|265:183,1,107.999996704102,0|0,3:0|0:0,0:0:0:0:
152,114,168065,2,0,L|159:179,1,53.9999983520508,0|0,3:0|0:0,0:0:0:0:
368,210,168399,2,0,L|360:274,1,53.9999983520508
265,353,168732,5,0,3:0:0:0:
268,252,168899,1,0,3:0:0:0:
462,231,169065,1,0,3:0:0:0:
455,137,169232,1,0,3:0:0:0:
195,18,169399,6,0,P|195:60|211:81,1,53.9999983520508,0|0,3:0|0:0,0:0:0:0:
378,106,169732,2,0,L|313:115,1,53.9999983520508,0|0,3:0|0:0,0:0:0:0:
68,264,170065,2,0,L|140:256,1,53.9999983520508,0|4,3:0|0:3,0:0:0:0:
235,196,170399,1,0,0:0:0:0:
129,136,170565,1,0,0:0:0:0:
226,338,170732,5,0,3:0:0:0:
317,310,170899,1,0,0:0:0:0:
404,281,171065,2,0,L|462:261,1,53.9999983520508,0|0,3:0|0:0,0:0:0:0:
331,55,171399,2,0,P|329:90|342:117,1,53.9999983520508,0|0,3:0|0:0,0:0:0:0:
451,77,171732,1,0,3:0:0:0:
324,202,171899,1,0,3:0:0:0:
252,5,172065,5,0,3:0:0:0:
193,167,172232,1,0,3:0:0:0:
72,81,172399,2,0,L|143:78,1,53.9999983520508,0|0,3:0|0:0,0:0:0:0:
223,275,172732,2,0,L|165:266,1,53.9999983520508,0|0,3:0|0:0,0:0:0:0:
256,192,173065,12,0,175899,0:0:0:0:
350,128,176065,5,2,0:0:0:0:
164,269,176732,1,0,0:0:0:0:
164,269,177065,2,0,B|130:258|130:258|220:224|220:224|221:275,1,180,2|0,0:0|0:0,0:0:0:0:
323,343,178065,2,0,P|363:343|398:302,1,90
330,117,178732,6,0,L|322:216,2,90,2|0|2,0:0|0:0|0:0,0:0:0:0:
223,32,179732,1,0,0:0:0:0:
154,129,180065,2,0,L|102:112,1,45,2|0,0:0|0:0,0:0:0:0:
35,149,180399,2,0,B|49:188|49:188|43:251,1,90
0,325,180899,2,0,B|42:313|42:313|97:330,1,90,2|0,0:0|0:0,0:0:0:0:
172,349,181399,6,0,P|233:362|267:347,1,90,2|0,0:0|0:0,0:0:0:0:
425,138,182065,2,0,P|389:140|346:177,1,90,2|0,0:0|0:0,0:0:0:0:
83,79,182732,5,2,0:0:0:0:
232,23,183065,1,0,0:0:0:0:
118,204,183399,1,0,0:0:0:0:
98,79,183732,1,2,0:0:0:0:
248,163,184065,2,0,P|255:218|241:260,1,90,2|0,0:0|0:0,0:0:0:0:
115,291,184732,6,0,P|108:236|122:194,1,90,2|0,0:0|0:0,0:0:0:0:
340,347,185399,2,0,B|362:355|362:355|432:339,1,90
386,124,186065,1,2,0:0:0:0:
484,270,186399,1,0,0:0:0:0:
274,58,186732,6,0,P|258:111|269:163,2,90,2|0|0,0:0|0:0|0:0,0:0:0:0:
411,35,187732,1,2,0:0:0:0:
459,207,188065,1,2,0:0:0:0:
142,142,188399,1,0,0:0:0:0:
138,305,188732,6,0,P|106:307|58:277,1,90,2|0,0:0|0:0,0:0:0:0:
298,213,189399,2,0,L|305:310,1,90,2|0,0:0|0:0,0:0:0:0:
53,141,190065,2,0,L|59:44,1,90,2|0,0:0|0:0,0:0:0:0:
327,95,190732,6,0,P|283:115|239:98,1,90,2|0,0:0|0:0,0:0:0:0:
0,216,191399,2,0,P|44:237|91:228,1,90,2|0,0:0|0:0,0:0:0:0:
353,258,192065,2,0,B|309:285|309:285|327:191,1,135,2|0,0:0|0:0,0:0:0:0:
471,100,192732,6,0,L|455:174,1,72,4|0,0:3|0:0,0:0:0:0:
462,279,193065,1,0,0:0:0:0:
376,115,193232,1,0,0:0:0:0:
263,340,193399,2,0,P|319:357|335:350,1,72
355,237,193732,5,4,0:3:0:0:
219,201,193899,1,0,0:0:0:0:
151,319,194065,2,0,P|110:328|76:318,1,72
105,140,194399,2,0,L|109:219,1,72
229,57,194732,6,0,L|218:208,1,144,2|0,0:0|0:0,0:0:0:0:
367,299,195232,1,0,0:0:0:0:
335,177,195399,1,0,0:0:0:0:
461,207,195565,1,0,0:0:0:0:
456,330,195732,1,0,0:0:0:0:
279,341,195899,1,0,0:0:0:0:
279,341,195982,1,0,0:0:0:0:
279,341,196065,6,0,P|210:368|194:354,1,72,2|0,0:0|0:0,0:0:0:0:
97,291,196399,1,0,0:0:0:0:
280,255,196565,1,0,0:0:0:0:
110,114,196732,2,0,L|106:203,1,72,2|0,0:0|0:0,0:0:0:0:
301,100,197065,2,0,L|297:22,1,72
512,261,197399,6,0,P|458:295|380:278,1,144,2|0,0:0|0:0,0:0:0:0:
360,181,197899,1,0,0:0:0:0:
277,356,198065,2,0,L|362:356,1,72,2|0,0:0|0:0,0:0:0:0:
167,236,198399,1,0,0:0:0:0:
155,354,198565,1,0,0:0:0:0:
24,255,198732,6,0,L|27:340,1,72,2|0,0:0|0:0,0:0:0:0:
305,157,199065,2,0,P|287:115|247:102,1,72,0|2,0:0|0:0,0:0:0:0:
60,163,199399,2,0,L|60:91,1,72
351,72,199732,5,2,0:0:0:0:
171,34,199899,1,0,0:0:0:0:
196,232,200065,1,2,0:0:0:0:
430,159,200232,1,0,0:0:0:0:
430,159,200315,1,0,0:0:0:0:
430,159,200399,2,0,L|430:242,1,72,0|0,0:0|3:0,0:0:0:0:
123,299,200732,6,0,P|171:331|255:308,2,144,2|0|0,3:2|0:0|0:0,0:0:0:0:
368,89,201732,2,0,P|386:139|310:134,1,144,2|0,0:0|0:0,0:0:0:0:
452,40,202232,2,0,L|470:115,1,72
263,214,202565,1,0,0:0:0:0:
234,63,202732,6,0,L|235:150,2,72,2|0|0,0:0|0:0|0:0,0:0:0:0:
154,14,203232,1,0,0:0:0:0:
42,115,203399,2,0,P|79:140|115:134,1,72
344,279,203732,6,0,P|290:319|213:300,1,144,2|0,0:0|0:0,0:0:0:0:
160,371,204232,1,0,0:0:0:0:
221,179,204399,1,0,0:0:0:0:
415,206,204565,1,0,0:0:0:0:
345,77,204732,6,0,L|345:166,1,72,2|0,0:0|0:0,0:0:0:0:
212,35,205065,2,0,L|221:191,2,144
52,255,206065,1,2,0:0:0:0:
67,368,206232,1,0,0:0:0:0:
243,314,206399,2,0,L|160:310,1,72,2|0,0:0|0:0,0:0:0:0:
408,316,206732,6,0,L|318:316,1,72
191,205,207065,1,2,0:0:0:0:
150,117,207232,1,0,0:0:0:0:
379,151,207399,1,2,0:0:0:0:
396,57,207565,1,0,0:0:0:0:
471,191,207732,5,4,3:3:0:0:
252,128,207899,1,0,0:0:0:0:
472,120,208065,2,0,L|471:214,1,72,0|4,3:0|3:3,0:0:0:0:
214,44,208399,1,0,3:0:0:0:
142,323,208565,1,0,1:0:0:0:
256,192,208648,12,0,211731,0:0:0:0:
82,231,212731,6,0,B|154:269|154:269|116:109|198:119|225:146,1,270,2|2,0:1|0:1,0:0:0:0:
257,237,214065,2,0,P|293:251|348:238,1,90,2|0,0:1|0:0,0:0:0:0:
392,149,214731,2,0,P|449:229|425:303,1,180,2|0,0:1|0:0,0:0:0:0:
426,300,215731,6,0,B|371:276|330:289|330:289|298:330|240:314,1,180,2|0,0:1|0:0,0:0:0:0:
258,317,216565,1,0,0:0:0:0:
258,317,216731,2,0,L|200:311,1,45,2|0,0:1|0:0,0:0:0:0:
139,242,217065,2,0,L|84:258,1,45,2|0,0:1|0:0,0:0:0:0:
152,136,217398,2,0,L|200:142,1,45,2|0,0:1|0:0,0:0:0:0:
398,216,217731,6,0,P|419:131|354:51,1,180,2|0,0:1|0:0,0:0:0:0:
369,59,218565,1,0,0:0:0:0:
369,59,218731,2,0,P|326:74|267:69,1,90,2|0,0:1|0:0,0:0:0:0:
185,25,219231,1,0,0:0:0:0:
237,193,219398,1,2,0:1:0:0:
69,237,219565,1,0,0:0:0:0:
133,149,219731,6,0,L|136:94,1,45,2|0,0:1|0:0,0:0:0:0:
404,159,220065,1,2,0:1:0:0:
323,284,220231,1,0,0:0:0:0:
310,151,220398,1,2,0:1:0:0:
415,262,220565,1,0,0:0:0:0:
171,241,220731,6,0,P|172:264|176:286,2,45,2|0|2,0:1|0:0|0:1,0:0:0:0:
234,359,221231,1,0,0:0:0:0:
216,158,221398,1,0,0:0:0:0:
73,257,221565,1,0,0:0:0:0:
286,235,221731,6,0,P|318:193|320:143,1,90,2|0,0:1|0:0,0:0:0:0:
279,77,222231,1,0,0:0:0:0:
129,126,222398,1,2,0:1:0:0:
190,59,222565,1,0,0:0:0:0:
322,157,222731,6,0,L|422:148,1,90,2|0,0:1|0:0,0:0:0:0:
142,297,223398,1,0,0:0:0:0:
142,297,223731,2,0,P|101:303|40:282,2,90,2|0|2,0:1|0:0|0:1,0:0:0:0:
129,118,224732,5,4,0:3:0:0:
105,210,224899,1,0,0:0:0:0:
342,300,225065,2,0,P|299:318|256:313,1,72,0|0,3:0|0:0,0:0:0:0:
413,208,225399,2,0,P|453:266|448:348,1,144,0|4,0:0|0:3,0:0:0:0:
294,156,225899,5,0,0:0:0:0:
297,51,226065,1,0,0:0:0:0:
459,105,226232,2,0,P|389:109|369:98,1,72,0|0,3:0|0:0,0:0:0:0:
178,49,226565,1,0,0:0:0:0:
171,155,226732,6,0,L|177:241,1,72,0|0,3:0|0:0,0:0:0:0:
411,298,227065,2,0,L|404:224,1,72,0|0,3:0|0:0,0:0:0:0:
296,95,227399,1,0,3:0:0:0:
292,203,227565,1,0,0:0:0:0:
286,315,227732,5,0,3:0:0:0:
460,158,227899,1,0,0:0:0:0:
493,355,228065,2,0,P|503:312|503:265,1,72,0|0,3:3|0:0,0:0:0:0:
312,338,228399,1,0,3:0:0:0:
198,326,228565,1,0,0:0:0:0:
82,312,228732,6,0,P|40:296|18:263,1,72,4|0,3:3|0:0,0:0:0:0:
272,164,229065,2,0,L|266:256,1,72,0|0,3:0|0:0,0:0:0:0:
76,107,229399,2,0,B|78:75|78:75|121:34|190:47,1,144
426,209,229899,1,0,0:0:0:0:
222,327,230065,1,4,3:3:0:0:
267,235,230232,1,0,0:0:0:0:
329,316,230399,2,0,P|376:329|407:318,1,72,0|0,3:0|0:0,0:0:0:0:
437,130,230732,5,0,3:0:0:0:
313,51,230899,1,0,0:0:0:0:
224,194,231065,2,0,L|300:180,1,72,0|0,3:0|0:0,0:0:0:0:
23,157,231399,2,0,P|27:223|42:251,1,72,0|0,3:0|0:0,0:0:0:0:
287,362,231732,5,4,3:3:0:0:
275,267,231899,1,0,3:0:0:0:
455,134,232065,1,4,3:3:0:0:
448,243,232232,1,4,3:3:0:0:
275,267,232399,2,0,P|233:271|191:253,1,72,0|0,0:0|3:0,0:0:0:0:
130,111,232732,5,4,3:3:0:0:
370,60,232899,1,0,0:0:0:0:
345,332,233065,2,0,P|366:288|360:236,1,72,0|0,0:0|3:0,0:0:0:0:
239,37,233399,2,0,B|229:78|229:78|244:182,1,144,0|0,3:0|3:0,0:0:0:0:
243,178,233899,1,0,0:0:0:0:
338,98,234065,1,0,3:0:0:0:
130,43,234232,1,0,0:0:0:0:
49,255,234399,2,0,L|43:156,1,72,0|0,3:0|0:0,0:0:0:0:
144,301,234732,6,0,L|154:150,1,144,4|0,3:3|3:0,0:0:0:0:
269,338,235232,1,0,0:0:0:0:
373,321,235399,1,0,3:0:0:0:
475,301,235565,1,0,0:0:0:0:
269,338,235732,6,0,L|271:254,1,72,0|0,3:0|0:0,0:0:0:0:
483,104,236065,2,0,L|479:186,1,72,4|0,3:3|0:0,0:0:0:0:
280,27,236399,1,0,3:0:0:0:
385,67,236565,1,0,0:0:0:0:
183,183,236732,6,0,L|184:92,1,72,4|0,3:3|0:0,0:0:0:0:
268,255,237065,1,0,3:0:0:0:
39,320,237232,2,0,P|17:273|24:224,1,72,0|0,0:0|3:0,0:0:0:0:
101,168,237565,1,0,0:0:0:0:
111,380,237732,5,4,3:3:0:0:
183,215,237899,2,0,L|257:215,1,72,0|0,0:0|3:0,0:0:0:0:
475,299,238232,2,0,P|431:310|390:303,1,72,0|0,0:0|3:0,0:0:0:0:
348,91,238565,1,0,0:0:0:0:
183,215,238732,6,0,B|131:230|131:230|156:162|156:162|218:255,1,216,0|0,3:0|3:0,0:0:0:0:
226,338,239399,1,0,0:0:0:0:
55,269,239565,2,0,P|49:224|65:193,1,72,0|4,3:0|3:3,0:0:0:0:
188,60,239899,1,4,3:3:0:0:
406,172,240065,6,0,B|344:193|290:147|290:147|349:127,1,180
445,340,240565,1,0,0:0:0:0:
445,340,240649,1,0,0:0:0:0:
445,340,240732,2,0,L|459:245,1,90,2|0,0:0|0:0,0:0:0:0:
421,84,241065,1,0,0:0:0:0:
284,240,241232,2,0,P|232:213|213:171,1,90,2|0,0:0|0:0,0:0:0:0:
36,160,241565,1,0,0:0:0:0:
194,305,241732,5,2,3:2:0:0:
309,61,241899,1,0,0:0:0:0:
368,200,242065,2,0,P|379:250|362:291,1,90
298,324,242315,1,0,0:0:0:0:
298,324,242399,1,0,0:0:0:0:
230,152,242565,1,0,0:0:0:0:
43,263,242732,6,0,L|153:258,2,90,2|0|0,0:0|0:0|0:0,0:0:0:0:
225,62,243232,2,0,L|231:173,1,90,2|0,0:0|0:0,0:0:0:0:
241,258,243565,1,2,0:0:0:0:
454,132,243732,5,2,1:2:0:0:
309,35,243899,1,0,0:0:0:0:
497,239,244065,2,0,P|443:249|405:233,1,90,2|0,0:0|0:0,0:0:0:0:
454,132,244399,1,2,0:0:0:0:
392,329,244565,1,0,0:0:0:0:
392,329,244649,1,0,0:0:0:0:
392,329,244732,6,0,P|342:300|322:256,1,90,2|0,0:0|0:0,0:0:0:0:
108,48,245065,1,0,0:0:0:0:
63,243,245232,1,0,0:0:0:0:
248,193,245399,2,0,L|139:194,1,90
333,48,245732,5,0,0:0:0:0:
414,231,245899,1,0,0:0:0:0:
414,231,245982,1,0,0:0:0:0:
414,231,246065,2,0,P|466:243|510:223,1,90,2|0,0:0|0:0,0:0:0:0:
399,113,246399,5,0,0:0:0:0:
284,129,246565,1,0,0:0:0:0:
163,142,246732,1,2,0:0:0:0:
300,46,246899,5,2,0:0:0:0:
300,46,246982,1,2,0:0:0:0:
300,46,247065,1,2,0:0:0:0:
298,174,247232,1,2,0:0:0:0:
295,296,247399,2,0,P|246:300|201:281,1,90,0|2,0:0|0:0,0:0:0:0:
21,205,247732,1,2,1:2:0:0:
57,322,247899,1,0,0:0:0:0:
172,38,248065,5,2,0:0:0:0:
156,156,248232,1,0,0:0:0:0:
156,156,248315,1,0,0:0:0:0:
156,156,248399,2,0,P|212:157|249:132,1,90
500,300,248732,5,2,0:0:0:0:
333,309,248899,1,2,0:0:0:0:
460,181,249065,1,2,0:0:0:0:
354,189,249232,1,2,0:0:0:0:
415,258,249399,1,0,0:0:0:0:
185,231,249565,1,2,0:0:0:0:
215,31,249732,5,2,1:2:0:0:
185,231,249899,1,0,0:0:0:0:
185,231,249982,1,0,0:0:0:0:
185,231,250065,2,0,P|118:230|77:195,1,90
266,132,250399,1,0,0:0:0:0:
275,336,250565,1,0,0:0:0:0:
275,336,250649,1,0,0:0:0:0:
275,336,250732,5,2,0:0:0:0:
391,300,250899,1,0,0:0:0:0:
160,368,251065,1,0,0:0:0:0:
391,300,251232,2,0,L|485:270,1,90,2|0,0:0|0:0,0:0:0:0:
233,84,251565,1,0,0:0:0:0:
252,210,251732,5,0,0:0:0:0:
233,84,251899,1,0,0:0:0:0:
458,98,252065,2,0,L|364:128,1,90,2|0,0:0|0:0,0:0:0:0:
10,260,252399,2,0,L|105:280,1,90,2|0,0:0|0:0,0:0:0:0:
412,224,252732,6,0,P|427:290|415:325,1,90,2|0,0:0|0:0,0:0:0:0:
308,67,253065,1,0,0:0:0:0:
302,281,253232,1,2,0:0:0:0:
70,88,253399,2,0,P|117:115|127:176,1,90
127,224,253649,1,0,0:0:0:0:
127,224,253732,5,4,1:3:0:0:
16,182,253899,1,0,0:0:0:0:
238,136,254065,2,0,L|236:248,1,90,2|0,0:0|0:0,0:0:0:0:
99,345,254399,1,0,0:0:0:0:
313,265,254565,1,0,0:0:0:0:
129,146,254732,6,0,L|130:53,1,90,2|2,0:0|0:0,0:0:0:0:
406,245,255065,1,2,0:0:0:0:
228,103,255232,1,2,0:0:0:0:
374,334,255399,1,0,0:0:0:0:
55,200,255565,1,2,0:0:0:0:
311,148,255732,5,2,1:2:0:0:
55,200,255899,1,0,0:0:0:0:
311,148,256065,2,0,L|314:261,2,90
378,56,256565,1,0,0:0:0:0:
380,321,256731,6,0,P|320:340|262:323,1,90,2|0,1:0|0:0,0:0:0:0:
41,335,257065,1,0,0:0:0:0:
224,248,257232,1,2,0:0:0:0:
60,156,257399,2,0,L|60:245,2,90
329,117,257899,5,0,0:0:0:0:
140,104,258065,2,0,L|141:14,1,90,2|0,0:0|0:0,0:0:0:0:
241,249,258399,1,0,0:0:0:0:
477,155,258565,1,0,0:0:0:0:
477,155,258649,1,0,0:0:0:0:
477,155,258732,6,0,P|494:217|472:257,1,90,2|0,0:0|0:0,0:0:0:0:
375,341,259065,2,0,L|276:329,1,90,0|2,0:0|0:0,0:0:0:0:
323,93,259399,1,0,0:0:0:0:
352,258,259565,1,2,0:0:0:0:
112,342,259732,5,2,1:2:0:0:
122,151,259899,1,0,0:0:0:0:
112,342,260065,2,0,P|176:348|207:328,1,90,2|0,0:0|0:0,0:0:0:0:
393,164,260399,1,2,0:0:0:0:
127,54,260565,1,0,0:0:0:0:
36,314,260732,6,0,B|41:297|41:297|27:218,1,90,2|0,0:0|0:0,0:0:0:0:
223,32,261065,1,2,0:0:0:0:
138,271,261232,1,0,0:0:0:0:
305,95,261399,2,0,L|306:203,1,90,2|0,0:0|0:0,0:0:0:0:
464,320,261732,6,0,P|403:342|374:333,1,90
480,195,262065,1,2,1:2:0:0:
210,126,262232,1,0,0:0:0:0:
398,252,262399,1,0,0:0:0:0:
125,292,262565,1,2,0:0:0:0:
125,292,262649,1,2,0:0:0:0:
125,292,262732,6,0,L|133:397,2,90,4|0|0,1:1|0:0|0:0,0:0:0:0:
292,62,263232,1,2,0:0:0:0:
255,294,263399,1,0,0:0:0:0:
276,177,263565,1,2,0:0:0:0:
105,94,263732,5,2,1:2:0:0:
60,185,263899,1,2,0:0:0:0:
60,185,263982,1,2,0:0:0:0:
60,185,264065,1,2,0:0:0:0:
218,87,264232,1,0,0:0:0:0:
350,252,264399,2,0,P|406:252|437:223,1,90,0|2,0:0|0:0,0:0:0:0:
209,184,264732,5,4,1:3:0:0:
196,288,264899,1,0,0:0:0:0:
369,153,265065,1,0,0:0:0:0:
356,47,265232,1,2,0:0:0:0:
392,261,265399,1,0,0:0:0:0:
209,184,265565,1,2,0:0:0:0:
155,184,265649,1,2,0:0:0:0:
106,215,265732,6,0,P|58:253|15:246,1,90,2|0,1:2|0:0,0:0:0:0:
140,87,266065,1,2,0:0:0:0:
206,310,266232,1,0,0:0:0:0:
25,169,266399,1,0,0:0:0:0:
256,115,266565,1,0,0:0:0:0:
256,115,266649,1,0,0:0:0:0:
256,115,266732,6,0,L|372:112,1,90,4|0,0:3|0:0,0:0:0:0:
495,283,267065,2,0,L|380:285,1,90,2|0,0:0|0:0,0:0:0:0:
219,236,267399,1,0,0:0:0:0:
124,358,267565,1,0,0:0:0:0:
306,291,267732,5,2,0:0:0:0:
48,287,267899,1,0,0:0:0:0:
48,287,267982,1,0,0:0:0:0:
48,287,268065,2,0,L|49:180,1,90,2|0,0:0|0:0,0:0:0:0:
307,162,268399,1,2,0:0:0:0:
63,72,268565,1,0,0:0:0:0:
140,236,268732,5,2,0:0:0:0:
319,72,268899,1,0,0:0:0:0:
354,245,269065,2,0,P|293:255|256:235,1,90,0|2,0:0|0:0,0:0:0:0:
441,208,269399,1,0,0:0:0:0:
229,132,269565,1,0,0:0:0:0:
411,99,269732,5,2,0:0:0:0:
168,49,269899,1,0,0:0:0:0:
127,300,270065,1,2,0:0:0:0:
78,93,270232,1,2,0:0:0:0:
36,342,270399,1,2,0:0:0:0:
268,244,270565,1,0,0:0:0:0:
268,244,270649,1,0,0:0:0:0:
268,244,270732,6,0,L|362:244,1,90,2|0,0:0|0:0,0:0:0:0:
394,357,271065,2,0,P|441:338|472:300,1,90,0|2,0:0|0:0,0:0:0:0:
362,108,271399,1,0,0:0:0:0:
263,81,271565,1,2,0:0:0:0:
192,344,271732,5,4,1:3:0:0:
286,334,271899,1,0,0:0:0:0:
99,355,272065,6,0,L|0:362,1,90,0|0,3:0|0:0,0:0:0:0:
354,134,272399,2,0,L|259:140,1,90,0|0,3:0|0:0,0:0:0:0:
29,51,272732,2,0,L|118:44,1,90,0|0,3:0|0:0,0:0:0:0:
199,275,273065,2,0,L|288:269,1,90,0|0,3:0|3:2,0:0:0:0:
256,192,273399,12,0,276065,0:0:0:0:
388,258,276232,5,0,0:0:0:0:
325,181,276399,2,0,P|257:192|230:184,1,72,2|0,0:0|0:0,0:0:0:0:
92,143,276732,2,0,P|143:151|168:143,1,72,4|0,3:3|3:0,0:0:0:0:
328,89,277065,1,0,3:0:0:0:
224,51,277232,1,4,3:3:0:0:
328,89,277399,1,0,0:0:0:0:
167,305,277565,2,0,L|163:217,2,72
343,340,278065,5,2,0:0:0:0:
434,351,278232,1,0,0:0:0:0:
474,270,278399,1,0,0:0:0:0:
393,119,278565,1,0,0:0:0:0:
331,191,278732,6,0,P|283:196|247:172,1,72,2|2,0:0|0:0,0:0:0:0:
147,126,279065,2,0,L|151:39,1,72,2|2,0:0|0:0,0:0:0:0:
12,174,279399,2,0,P|28:224|65:247,1,72,0|2,0:0|0:0,0:0:0:0:
30,336,279732,1,4,0:3:0:0:
132,220,279899,1,2,0:0:0:0:
223,345,280065,6,0,L|129:337,1,72,2|2,0:0|0:0,0:0:0:0:
281,230,280399,1,0,0:0:0:0:
336,361,280565,1,0,0:0:0:0:
281,230,280732,2,0,L|281:138,1,72,2|2,0:0|0:0,0:0:0:0:
435,62,281065,1,0,0:0:0:0:
451,156,281232,6,0,L|464:238,2,72,2|0|0,0:0|0:0|0:0,0:0:0:0:
329,64,281732,1,4,0:3:0:0:
281,230,281899,1,0,0:0:0:0:
117,229,282065,1,2,0:0:0:0:
193,284,282232,1,0,0:0:0:0:
143,134,282399,1,0,0:0:0:0:
57,91,282565,1,0,0:0:0:0:
223,37,282732,6,0,L|139:26,1,72,2|0,0:0|0:0,0:0:0:0:
241,143,283065,2,0,L|322:135,1,72,0|2,0:0|0:0,0:0:0:0:
188,239,283399,2,0,L|104:227,1,72
364,258,283732,1,0,3:3:0:0:
353,368,283899,1,0,0:0:0:0:
497,251,284065,6,0,L|489:169,1,72,2|0,0:0|0:0,0:0:0:0:
239,143,284399,2,0,L|244:49,1,72,2|0,0:0|0:0,0:0:0:0:
336,181,284732,1,2,0:0:0:0:
351,292,284899,1,2,0:0:0:0:
170,220,285065,1,2,0:0:0:0:
163,337,285232,1,2,0:0:0:0:
6,236,285399,2,0,L|1:323,1,72,0|0,3:0|0:0,0:0:0:0:
92,132,285732,6,0,P|87:77|59:47,1,72,0|0,3:0|0:0,0:0:0:0:
170,220,286065,1,0,3:0:0:0:
283,198,286232,1,0,0:0:0:0:
397,177,286399,2,0,L|473:159,1,72,0|0,3:0|0:0,0:0:0:0:
238,76,286732,5,2,0:0:0:0:
229,191,286899,1,2,0:0:0:0:
220,306,287065,1,2,0:0:0:0:
425,286,287232,2,0,L|347:277,1,72,2|0,0:0|0:0,0:0:0:0:
30,223,287565,2,0,L|110:210,1,72,2|2,0:0|0:0,0:0:0:0:
364,103,287899,5,0,3:0:0:0:
243,79,288065,1,0,3:0:0:0:
298,198,288232,5,2,0:0:0:0:
428,187,288399,1,2,0:0:0:0:
442,313,288565,1,0,0:0:0:0:
306,332,288732,6,0,P|243:343|212:329,1,72,4|0,1:3|0:0,0:0:0:0:
26,128,289065,2,0,P|89:117|120:131,1,72,0|2,0:0|0:0,0:0:0:0:
176,213,289399,2,0,P|246:215|332:170,1,144,0|2,0:0|0:0,0:0:0:0:
387,88,289899,1,0,0:0:0:0:
441,249,290065,2,0,L|442:331,2,72,2|0|0,0:0|0:0|0:0,0:0:0:0:
480,150,290565,1,0,0:0:0:0:
307,330,290732,6,0,L|313:182,1,144,2|0,0:0|0:0,0:0:0:0:
191,54,291232,1,2,0:0:0:0:
95,259,291399,1,0,0:0:0:0:
193,145,291565,1,2,0:0:0:0:
82,157,291732,1,4,1:3:0:0:
152,342,291899,2,0,P|93:363|64:351,1,72
198,246,292232,5,0,0:0:0:0:
376,266,292399,1,2,0:0:0:0:
404,97,292565,1,0,0:0:0:0:
385,265,292732,6,0,L|395:364,1,72,4|0,1:3|0:0,0:0:0:0:
193,174,293065,2,0,L|198:253,1,72,0|2,0:0|0:0,0:0:0:0:
474,166,293399,6,0,P|402:181|323:150,1,144,0|2,0:0|0:0,0:0:0:0:
214,56,293899,1,0,0:0:0:0:
365,59,294065,1,2,0:0:0:0:
225,157,294232,2,0,L|230:236,2,72,4|0|0,1:3|0:0|0:0,0:0:0:0:
88,243,294732,6,0,L|92:327,1,72,2|0,0:0|0:0,0:0:0:0:
173,358,295065,1,0,0:0:0:0:
122,159,295232,1,2,0:0:0:0:
368,270,295399,2,0,P|306:281|285:270,1,72,0|2,0:0|0:0,0:0:0:0:
445,91,295732,1,4,1:3:0:0:
471,227,295899,1,2,0:0:0:0:
273,85,296065,5,0,1:0:0:0:
234,225,296232,1,0,1:0:0:0:
398,166,296399,1,0,1:0:0:0:
157,83,296565,1,0,1:0:0:0:
143,337,296732,6,0,P|182:360|220:358,1,72,4|0,1:3|0:0,0:0:0:0:
400,304,297065,2,0,L|304:304,1,72,0|2,0:0|0:0,0:0:0:0:
23,207,297399,2,0,B|54:189|54:189|102:236|187:222,1,144
152,225,297899,1,0,0:0:0:0:
220,93,298065,1,2,0:0:0:0:
344,173,298232,2,0,L|271:166,1,72
408,94,298565,1,0,0:0:0:0:
441,286,298732,6,0,L|527:280,2,72,2|0|2,0:0|0:0|0:0,0:0:0:0:
167,361,299232,2,0,B|142:322|142:322|152:224,1,144,2|0,0:0|0:0,0:0:0:0:
246,63,299732,2,0,L|254:147,1,72,4|0,1:3|0:0,0:0:0:0:
457,218,300065,5,0,1:0:0:0:
438,122,300232,1,0,1:0:0:0:
457,218,300399,1,2,0:0:0:0:
321,214,300565,5,0,0:0:0:0:
321,322,300732,2,0,L|222:329,1,72,4|0,1:3|0:0,0:0:0:0:
17,206,301065,1,0,0:0:0:0:
81,124,301232,2,0,L|74:42,2,72,2|0|0,0:0|0:0|0:0,0:0:0:0:
97,311,301732,6,0,P|144:312|184:292,1,72,0|0,1:0|0:0,0:0:0:0:
235,210,302065,2,0,L|153:207,1,72,2|0,1:2|0:0,0:0:0:0:
287,108,302399,1,2,2:3:0:0:
315,292,302565,1,0,0:0:0:0:
494,273,302732,6,0,L|489:371,1,72,2|0,0:0|0:0,0:0:0:0:
328,193,303065,1,0,0:0:0:0:
481,118,303232,1,2,0:0:0:0:
299,42,303399,1,0,0:0:0:0:
400,254,303565,1,2,0:0:0:0:
234,118,303732,1,4,1:3:0:0:
171,333,303899,1,2,0:0:0:0:
294,347,304065,5,0,1:0:0:0:
53,254,304232,1,4,1:3:0:0:
252,218,304399,1,2,1:2:0:0:
127,76,304565,1,2,0:0:0:0:
127,76,304731,1,6,0:1:0:0:
