osu file format v14

[General]
AudioFilename: audio.mp3
AudioLeadIn: 0
PreviewTime: 14825
Countdown: 0
SampleSet: Soft
StackLeniency: 0.7
Mode: 0
LetterboxInBreaks: 1
WidescreenStoryboard: 0

[Editor]
Bookmarks: 12300,15716,23919,38919,47919,50919,59919,62919,71919,74919,77919,86919,95919
DistanceSpacing: 1
BeatDivisor: 4
GridSize: 16
TimelineZoom: 1

[Metadata]
Title:Don Coi
TitleUnicode:Đơn Côi
Artist:Quynh Nhu
ArtistUnicode:Quỳnh Như
Creator:Sakurauchi Riko
Version:Normal
Source:
Tags:phyloukz short cut ver version instrumental vietnamese
BeatmapID:1434457
BeatmapSetID:677898

[Difficulty]
HPDrainRate:4
CircleSize:3.5
OverallDifficulty:4
ApproachRate:5
SliderMultiplier:1
SliderTickRate:1

[Events]
//Background and Video events
0,0,"Unbenannt.jpg",0,0
//Break Periods
2,24119,25719
//Storyboard Layer 0 (Background)
//Storyboard Layer 1 (Fail)
//Storyboard Layer 2 (Pass)
//Storyboard Layer 3 (Foreground)
//Storyboard Sound Samples

[TimingPoints]
1419,375,4,2,1,100,1,0
14919,-100,4,2,1,80,0,1
23919,-100,4,2,1,100,0,0
26919,-100,4,2,1,60,0,0
47919,-100,4,2,2,60,0,0
50169,-100,4,2,1,60,0,0
71919,-100,4,2,2,60,0,0
74169,-100,4,2,1,60,0,0
77919,-100,4,2,1,80,0,1
86544,-100,4,2,1,80,0,0
86919,-100,4,2,1,80,0,1
95919,-100,4,2,1,100,0,0
96106,-100,4,2,1,40,0,0
98919,-100,4,2,1,60,0,0

[Colours]
Combo1 : 243,243,243
Combo2 : 253,176,248
Combo3 : 20,146,214
Combo4 : 138,208,242
Combo5 : 176,141,194

[HitObjects]
355,227,2919,5,2,0:0:0:0:
350,127,3294,2,0,P|391:132|440:172,1,100,0|0,0:0|0:0,0:0:0:0:
448,266,4044,2,0,L|434:331,1,50,2|0,0:0|0:0,0:0:0:0:
391,334,4419,2,0,L|283:344,2,100,2|0|2,0:0|0:0|0:0,0:0:0:0:
479,381,5544,1,0,0:0:0:0:
483,281,5919,5,2,0:0:0:0:
487,181,6294,2,0,P|453:198|385:197,1,100,0|0,0:0|0:0,0:0:0:0:
298,164,7044,2,0,L|285:99,1,50,0|2,0:0|0:0,0:0:0:0:
251,81,7419,2,0,P|203:66|145:79,2,100,0|0|0,0:0|0:0|0:0,0:0:0:0:
197,165,8544,1,0,0:0:0:0:
97,159,8919,5,2,0:0:0:0:
63,253,9294,2,0,L|91:352,1,100,0|2,0:0|0:0,0:0:0:0:
189,361,10044,1,0,0:0:0:0:
274,308,10419,2,0,P|319:307|378:338,2,100,2|0|2,0:0|0:0|0:0,0:0:0:0:
183,264,11544,1,0,0:0:0:0:
161,166,11919,2,0,L|187:63,1,100,2|0,0:0|0:0,0:0:0:0:
227,42,12481,1,0,0:0:0:0:
272,21,12669,2,0,P|311:44|372:47,1,100,0|0,0:0|0:0,0:0:0:0:
460,20,13419,5,0,0:0:0:0:
488,61,13606,2,0,L|499:123,1,50,8|0,0:0|0:0,0:0:0:0:
426,182,14169,2,0,L|411:283,1,100,8|8,0:0|0:0,0:0:0:0:
320,324,14919,5,4,1:0:0:0:
229,280,15294,2,0,P|246:254|272:235,2,50,0|0|8,0:0|1:0|0:0,0:0:0:0:
130,261,16044,2,0,L|68:248,1,50,0|0,1:0|0:0,0:0:0:0:
51,209,16419,2,0,L|62:94,1,100,0|0,0:0|1:0,0:0:0:0:
93,72,16981,1,0,0:0:0:0:
133,42,17169,2,0,P|178:63|236:57,1,100,8|0,0:0|0:0,0:0:0:0:
322,27,17919,5,0,1:0:0:0:
308,126,18294,2,0,P|265:158|212:170,1,100,0|8,0:0|0:0,0:0:0:0:
157,247,19044,2,0,L|163:305,1,50,0|2,1:0|0:0,0:0:0:0:
193,335,19419,2,0,L|303:345,1,100,0|0,1:0|0:0,0:0:0:0:
361,271,20169,2,0,L|416:264,2,50,10|0|0,0:0|0:0|1:0,0:0:0:0:
327,233,20731,1,0,0:0:0:0:
321,183,20919,6,0,P|326:136|358:94,1,100,0|0,1:0|0:0,0:0:0:0:
403,76,21481,1,0,1:0:0:0:
451,86,21669,2,0,P|488:115|510:174,1,100,8|0,0:0|1:0,0:0:0:0:
510,264,22419,2,0,L|409:264,1,100,0|0,1:0|0:0,0:0:0:0:
363,282,22981,1,0,1:0:0:0:
339,326,23169,2,0,L|358:384,2,50,10|0|8,0:0|0:0|0:0,0:0:0:0:
305,221,23919,5,4,1:0:0:0:
0,363,26919,5,0,1:0:0:0:
58,281,27294,2,0,L|45:222,1,50,2|2,0:0|0:0,0:0:0:0:
36,183,27669,1,8,0:0:0:0:
72,89,28044,2,0,P|93:100|129:106,1,50,0|0,1:0|0:0,0:0:0:0:
161,80,28419,2,0,P|198:57|263:57,2,100,2|0|10,0:0|0:0|0:0,0:0:0:0:
231,150,29544,1,2,0:0:0:0:
327,122,29919,6,0,L|434:97,1,100,0|2,1:0|0:0,0:0:0:0:
469,121,30481,1,2,0:0:0:0:
509,149,30669,2,0,L|501:203,2,50,8|0|0,0:0|0:0|1:0,0:0:0:0:
507,47,31419,2,0,P|488:27|453:9,1,50,2|2,0:0|0:0,0:0:0:0:
420,15,31794,2,0,P|368:29|329:72,1,100,2|8,0:0|0:0,0:0:0:0:
421,117,32544,2,0,L|414:174,1,50,0|2,1:2|0:0,0:0:0:0:
375,198,32919,6,0,P|332:184|268:187,1,100,0|2,1:0|0:0,0:0:0:0:
196,243,33669,2,0,P|180:198|188:146,1,100,8|0,0:0|1:0,0:0:0:0:
223,112,34231,1,0,0:0:0:0:
268,91,34419,2,0,P|277:45|261:-4,2,100,2|0|10,0:0|0:0|0:0,0:0:0:0:
176,50,35544,1,2,0:0:0:0:
82,14,35919,6,0,L|29:32,2,50,0|0|2,1:0|0:0|0:0,0:0:0:0:
95,113,36669,2,0,L|59:210,1,100,8|0,0:0|1:0,0:0:0:0:
75,254,37231,1,0,0:0:0:0:
93,300,37419,2,0,L|113:355,2,50,2|2|2,0:0|0:0|0:0,0:0:0:0:
176,244,38169,2,0,L|157:191,2,50,8|2|2,1:2|0:0|0:0,0:0:0:0:
217,271,38731,1,2,0:0:0:0:
265,259,38919,6,0,P|304:239|368:237,1,100,4|0,1:0|0:0,0:0:0:0:
390,274,39481,2,0,L|406:329,1,50,2|8,0:0|0:0,0:0:0:0:
475,252,40044,2,0,L|492:200,1,50,0|0,1:0|0:0,0:0:0:0:
508,157,40419,2,0,P|463:161|412:138,1,100,0|0,0:0|0:0,0:0:0:0:
379,103,40981,2,0,L|371:51,1,50,2|8,0:0|0:0,0:0:0:0:
281,9,41544,1,2,0:0:0:0:
208,77,41919,6,0,L|189:183,1,100,0|0,1:0|0:0,0:0:0:0:
222,213,42481,2,0,L|232:277,1,50,2|8,0:0|0:0,0:0:0:0:
251,360,43044,2,0,P|276:358|313:371,1,50,0|0,1:0|0:0,0:0:0:0:
348,352,43419,2,0,P|390:360|452:340,1,100,2|2,0:0|0:0,0:0:0:0:
475,306,43981,1,2,0:0:0:0:
487,257,44169,2,0,P|485:229|472:201,2,50,8|2|2,0:0|0:0|1:2,0:0:0:0:
386,255,44919,6,0,P|335:246|287:266,1,100,0|0,1:0|0:0,0:0:0:0:
242,275,45481,2,0,L|206:232,1,50,2|8,0:0|0:0,0:0:0:0:
142,162,46044,1,0,1:0:0:0:
74,88,46419,2,0,P|48:128|48:193,1,100,0|0,0:0|0:0,0:0:0:0:
67,223,46981,2,0,L|113:256,1,50,2|8,0:0|0:0,0:0:0:0:
209,236,47544,1,2,0:0:0:0:
307,219,47919,5,4,1:0:0:0:
436,371,48669,1,4,1:0:0:0:
502,182,49419,1,4,1:0:0:0:
307,219,50169,2,0,L|252:207,1,50,8|0,1:2|1:0,0:0:0:0:
219,176,50544,2,0,L|173:215,1,50,0|2,1:0|0:0,0:0:0:0:
147,244,50919,6,0,P|108:214|58:211,1,100,4|2,1:0|0:0,0:0:0:0:
18,239,51481,1,0,1:0:0:0:
0,285,51669,2,0,P|3:319|19:349,2,50,8|2|0,0:0|0:0|1:0,0:0:0:0:
79,294,52419,1,2,0:0:0:0:
127,305,52606,2,0,L|188:315,1,50,0|0,0:0|1:0,0:0:0:0:
238,234,53169,1,8,0:0:0:0:
156,176,53544,2,0,P|168:154|193:132,1,50,0|0,0:0|0:0,0:0:0:0:
234,127,53919,6,0,P|279:137|332:125,1,100,0|0,1:0|0:0,0:0:0:0:
357,83,54481,2,0,L|349:32,1,50,0|8,1:0|0:0,0:0:0:0:
446,7,55044,1,0,1:0:0:0:
503,88,55419,1,0,1:0:0:0:
496,137,55606,2,0,L|481:245,1,100,2|2,0:0|0:0,0:0:0:0:
474,285,56169,1,10,0:0:0:0:
378,255,56544,1,0,1:0:0:0:
287,297,56919,6,0,P|246:281|177:284,1,100,0|2,1:0|0:0,0:0:0:0:
148,307,57481,2,0,L|127:360,1,50,0|8,1:0|0:0,0:0:0:0:
79,353,57856,2,0,L|45:251,1,100,2|0,0:0|0:0,0:0:0:0:
62,210,58419,1,0,0:0:0:0:
82,164,58606,2,0,L|102:117,1,50,2|0,0:0|1:0,0:0:0:0:
176,184,59169,2,0,P|219:202|279:194,1,100,10|0,0:0|0:0,0:0:0:0:
325,113,59919,6,0,B|371:94|371:94|425:104,1,100,0|2,1:0|0:0,0:0:0:0:
455,138,60481,1,2,0:0:0:0:
486,176,60669,2,0,L|471:286,1,100,8|0,1:2|0:0,0:0:0:0:
395,339,61419,2,0,L|345:344,1,50,0|0,1:0|0:0,0:0:0:0:
298,325,61794,2,0,P|275:336|245:341,2,50,2|2|10,0:0|0:0|0:0,0:0:0:0:
308,276,62356,1,2,0:0:0:0:
288,229,62544,2,0,L|265:177,1,50,10|10,0:0|0:0,0:0:0:0:
251,135,62919,6,0,P|300:149|363:139,1,100,4|2,1:0|0:0,0:0:0:0:
395,128,63481,1,0,1:0:0:0:
439,150,63669,2,0,L|460:201,1,50,8|2,0:0|0:0,0:0:0:0:
476,242,64044,1,0,1:0:0:0:
411,318,64419,1,0,0:0:0:0:
361,316,64606,2,0,P|341:289|309:274,2,50,2|0|2,0:0|1:0|0:0,0:0:0:0:
336,359,65169,2,0,P|293:360|233:321,1,100,8|0,0:0|0:0,0:0:0:0:
217,236,65919,6,0,B|235:202|235:202|235:124,1,100,0|2,1:0|0:0,0:0:0:0:
204,100,66481,1,0,1:0:0:0:
171,61,66669,2,0,L|104:61,1,50,8|0,0:0|0:0,0:0:0:0:
70,61,67044,1,0,1:0:0:0:
26,150,67419,1,0,1:0:0:0:
62,183,67606,2,0,P|47:204|37:233,2,50,2|2|2,0:0|0:0|0:0,0:0:0:0:
112,181,68169,2,0,P|131:215|134:280,1,100,10|0,0:0|1:0,0:0:0:0:
203,348,68919,6,0,B|239:361|239:361|317:344,1,100,0|2,1:0|0:0,0:0:0:0:
348,356,69481,2,0,L|409:365,1,50,0|8,1:0|0:0,0:0:0:0:
446,372,69856,2,0,P|450:311|430:268,1,100,2|0,0:0|0:0,0:0:0:0:
406,235,70419,1,2,0:0:0:0:
410,185,70606,2,0,P|422:165|445:142,1,50,0|0,0:0|1:0,0:0:0:0:
381,64,71169,2,0,P|339:82|282:80,1,100,10|0,0:0|0:0,0:0:0:0:
203,23,71919,5,4,1:0:0:0:
73,175,72669,1,4,1:0:0:0:
270,203,73419,1,4,1:0:0:0:
108,84,74169,2,0,P|77:77|39:85,2,50,8|0|0,1:2|1:0|1:0,0:0:0:0:
73,175,74919,5,4,1:0:0:0:
108,268,75294,2,0,P|120:290|140:310,1,50,2|2,0:0|1:2,0:0:0:0:
186,300,75669,2,0,P|207:313|234:320,1,50,10|2,0:0|0:0,0:0:0:0:
275,296,76044,2,0,P|300:296|327:289,1,50,2|2,1:2|0:0,0:0:0:0:
354,250,76419,1,6,1:2:0:0:
390,104,76981,2,0,L|321:96,1,50,8|8,0:0|0:0,0:0:0:0:
300,68,77356,1,8,0:0:0:0:
251,80,77544,1,8,0:0:0:0:
151,67,77919,5,4,1:0:0:0:
185,160,78294,2,0,P|157:167|128:164,2,50,0|0|8,0:0|1:0|0:0,0:0:0:0:
283,179,79044,2,0,L|288:243,1,50,0|0,1:0|0:0,0:0:0:0:
315,270,79419,2,0,B|349:256|349:256|428:277,1,100,0|0,0:0|1:0,0:0:0:0:
457,255,79981,1,0,0:0:0:0:
500,230,80169,2,0,L|489:125,1,100,8|0,0:0|0:0,0:0:0:0:
418,58,80919,5,0,1:0:0:0:
318,66,81294,2,0,P|277:84|213:81,1,100,0|8,0:0|0:0,0:0:0:0:
128,48,82044,2,0,L|108:104,1,50,0|0,1:0|0:0,0:0:0:0:
94,142,82419,2,0,P|137:148|184:186,1,100,0|0,1:0|0:0,0:0:0:0:
238,264,83169,2,0,L|226:323,2,50,8|0|0,0:0|0:0|1:0,0:0:0:0:
281,239,83731,1,0,0:0:0:0:
326,216,83919,6,0,P|377:211|426:181,1,100,0|0,1:0|0:0,0:0:0:0:
437,144,84481,1,0,1:0:0:0:
426,94,84669,2,0,P|376:67|315:62,1,100,8|0,0:0|1:0,0:0:0:0:
246,110,85419,2,0,B|199:128|199:128|143:120,1,100,0|0,1:0|0:0,0:0:0:0:
100,114,85981,1,0,0:0:0:0:
50,107,86169,2,0,L|23:41,2,50,10|0|8,0:0|0:0|1:2,0:0:0:0:
87,199,86919,5,4,1:0:0:0:
58,294,87294,2,0,P|28:277|9:256,2,50,0|0|8,0:0|1:0|0:0,0:0:0:0:
157,280,88044,2,0,P|182:270|219:273,1,50,0|0,1:0|0:0,0:0:0:0:
252,286,88419,2,0,P|302:290|359:260,1,100,0|0,0:0|1:0,0:0:0:0:
368,225,88981,1,0,0:0:0:0:
375,175,89169,2,0,P|352:132|304:103,1,100,8|0,0:0|0:0,0:0:0:0:
209,104,89919,5,0,1:0:0:0:
132,39,90294,2,0,P|79:37|33:61,1,100,0|8,0:0|0:0,0:0:0:0:
0,147,91044,2,0,L|16:203,1,50,0|0,1:0|0:0,0:0:0:0:
29,242,91419,2,0,L|139:252,1,100,0|0,1:0|0:0,0:0:0:0:
175,339,92169,2,0,L|151:383,2,50,10|0|0,0:0|0:0|1:0,0:0:0:0:
224,334,92731,1,0,0:0:0:0:
274,330,92919,6,0,L|374:321,1,100,0|0,1:0|0:0,0:0:0:0:
402,280,93481,1,0,1:0:0:0:
424,235,93669,2,0,P|418:191|388:140,1,100,8|0,0:0|1:0,0:0:0:0:
295,112,94419,2,0,P|249:129|192:123,1,100,0|0,1:0|0:0,0:0:0:0:
153,103,94981,1,0,1:0:0:0:
124,61,95169,2,0,L|119:10,2,50,10|0|8,0:0|0:0|0:0,0:0:0:0:
55,133,95919,5,4,1:0:0:0:
256,192,96106,12,0,98919,1:0:0:0:
