osu file format v14

[General]
AudioFilename: audio.mp3
AudioLeadIn: 0
PreviewTime: 14825
Countdown: 0
SampleSet: Soft
StackLeniency: 0.7
Mode: 0
LetterboxInBreaks: 1
WidescreenStoryboard: 0

[Editor]
Bookmarks: 12300,15716,23919,38919,47919,50919,59919,62919,71919,74919,77919,86919,95919
DistanceSpacing: 0.8
BeatDivisor: 4
GridSize: 16
TimelineZoom: 1

[Metadata]
Title:Don Coi
TitleUnicode:Đơn Côi
Artist:Quynh Nhu
ArtistUnicode:Quỳnh Như
Creator:Sakurauchi Riko
Version:Insane
Source:
Tags:phyloukz short cut ver version instrumental vietnamese
BeatmapID:1433516
BeatmapSetID:677898

[Difficulty]
HPDrainRate:8
CircleSize:4.7
OverallDifficulty:8
ApproachRate:8.7
SliderMultiplier:1.5
SliderTickRate:2

[Events]
//Background and Video events
0,0,"Unbenannt.jpg",0,0
//Break Periods
2,24119,26274
//Storyboard Layer 0 (Background)
//Storyboard Layer 1 (Fail)
//Storyboard Layer 2 (Pass)
//Storyboard Layer 3 (Foreground)
//Storyboard Sound Samples

[TimingPoints]
1419,375,4,2,1,100,1,0
2731,-100,4,2,1,5,0,0
2919,-133.333333333333,4,2,1,60,0,0
14919,-100,4,2,1,80,0,1
19512,-100,4,2,1,5,0,1
19794,-100,4,2,1,80,0,1
19887,-100,4,2,1,5,0,1
20169,-100,4,2,1,80,0,1
23919,-133.333333333333,4,2,1,100,0,0
26919,-133.333333333333,4,2,1,60,0,0
47919,-133.333333333333,4,2,2,60,0,0
49606,-133.333333333333,4,2,1,60,0,0
71919,-133.333333333333,4,2,2,60,0,0
73606,-133.333333333333,4,2,1,60,0,0
77919,-100,4,2,1,80,0,1
86544,-100,4,2,1,80,0,0
86919,-100,4,2,1,80,0,1
91512,-100,4,2,1,5,0,1
91794,-100,4,2,1,80,0,1
91887,-100,4,2,1,5,0,1
92169,-100,4,2,1,80,0,1
95919,-133.333333333333,4,2,1,100,0,0
96012,-133.333333333333,4,2,1,40,0,0
98919,-133.333333333333,4,2,1,60,0,0

[Colours]
Combo1 : 243,243,243
Combo2 : 253,176,248
Combo3 : 20,146,214
Combo4 : 138,208,242
Combo5 : 176,141,194

[HitObjects]
256,192,1419,12,0,2731,0:0:0:0:
273,245,2919,5,2,0:0:0:0:
319,341,3106,1,0,0:0:0:0:
167,266,3294,2,0,L|96:280,1,56.2500021457673
256,210,3669,2,0,L|321:198,1,56.2500021457673
106,126,4044,1,2,0:0:0:0:
205,32,4231,1,0,0:0:0:0:
226,37,4325,1,0,0:0:0:0:
248,41,4419,6,0,P|297:17|368:31,2,112.500004291535,2|0|2,0:0|0:0|0:0,0:0:0:0:
473,135,5544,1,0,0:0:0:0:
315,113,5919,5,2,0:0:0:0:
361,213,6106,1,0,0:0:0:0:
209,230,6294,2,0,L|142:240,1,56.2500021457673
30,160,6669,2,0,L|85:168,1,56.2500021457673
174,143,7044,1,0,0:0:0:0:
110,9,7231,1,2,0:0:0:0:
87,13,7325,1,0,0:0:0:0:
64,17,7419,5,0,0:0:0:0:
205,54,7794,1,0,0:0:0:0:
317,87,8169,1,0,0:0:0:0:
382,27,8544,1,0,0:0:0:0:
294,213,8919,5,2,0:0:0:0:
376,240,9106,1,0,0:0:0:0:
245,284,9294,2,0,P|223:261|209:228,1,56.2500021457673
328,168,9669,2,0,P|314:192|295:212,1,56.2500021457673,2|0,0:0|0:0,0:0:0:0:
133,203,10044,1,0,0:0:0:0:
227,75,10231,1,0,0:0:0:0:
221,53,10325,1,0,0:0:0:0:
216,30,10419,6,0,P|165:54|99:45,2,112.500004291535,2|0|2,0:0|0:0|0:0,0:0:0:0:
388,93,11544,1,0,0:0:0:0:
442,251,11919,6,0,L|428:323,1,56.2500021457673,2|0,0:0|0:0,0:0:0:0:
349,359,12294,1,0,0:0:0:0:
303,226,12481,1,0,0:0:0:0:
155,280,12669,1,0,0:0:0:0:
297,259,12856,1,0,0:0:0:0:
107,205,13044,1,0,0:0:0:0:
142,310,13231,1,2,0:0:0:0:
218,138,13419,5,0,0:0:0:0:
124,113,13606,2,0,L|113:174,2,56.2500021457673,8|0|0,0:0|0:0|0:0,0:0:0:0:
194,37,14169,1,8,0:0:0:0:
56,12,14356,1,2,0:0:0:0:
200,67,14544,1,8,0:0:0:0:
0,113,14731,1,8,0:0:0:0:
224,171,14919,6,0,P|251:227|191:217,1,150,4|0,1:0|0:0,0:0:0:0:
209,101,15481,1,0,1:0:0:0:
287,241,15669,2,0,L|274:322,1,75,8|2,0:0|0:0,0:0:0:0:
417,378,16044,1,0,1:0:0:0:
421,293,16231,1,0,0:0:0:0:
391,298,16325,1,0,0:0:0:0:
361,303,16419,5,0,0:0:0:0:
294,204,16606,1,0,0:0:0:0:
275,315,16794,1,0,1:0:0:0:
257,193,16981,1,0,0:0:0:0:
328,384,17169,5,8,0:0:0:0:
134,333,17356,1,0,0:0:0:0:
361,303,17544,1,0,0:0:0:0:
143,248,17731,1,0,1:0:0:0:
404,196,17919,6,0,B|465:152|465:152|388:155,1,150,0|0,1:0|0:0,0:0:0:0:
294,211,18481,1,0,1:0:0:0:
420,375,18669,2,0,B|443:333|443:333|415:231,1,150,8|0,0:0|1:0,0:0:0:0:
379,120,19231,1,2,0:0:0:0:
269,239,19419,6,0,L|227:228,1,37.5,0|0,1:0|0:0,0:0:0:0:
118,377,19794,2,0,L|154:367,1,37.5
203,223,20169,1,10,0:0:0:0:
95,288,20356,1,0,0:0:0:0:
102,316,20450,1,0,0:0:0:0:
109,345,20544,1,0,1:0:0:0:
28,384,20731,1,0,0:0:0:0:
87,259,20919,5,0,1:0:0:0:
80,228,21106,5,0,0:0:0:0:
73,198,21294,5,0,0:0:0:0:
51,111,21481,1,0,1:0:0:0:
160,209,21669,2,0,L|243:190,1,75,8|0,0:0|0:0,0:0:0:0:
341,303,22044,2,0,L|424:322,1,75,0|2,1:0|0:0,0:0:0:0:
359,228,22419,5,0,1:0:0:0:
286,245,22606,2,0,P|265:281|264:322,1,75,8|0,0:0|0:0,0:0:0:0:
433,213,22981,1,0,1:0:0:0:
488,95,23168,2,0,L|472:19,1,75,10|0,0:0|0:0,0:0:0:0:
352,4,23544,1,8,0:0:0:0:
316,0,23731,1,8,0:0:0:0:
223,99,23919,5,4,1:0:0:0:
416,93,26919,6,0,L|354:103,1,56.2500021457673,0|0,1:0|0:0,0:0:0:0:
294,157,27294,1,2,0:0:0:0:
377,182,27481,1,2,0:0:0:0:
443,65,27669,2,0,L|381:75,1,56.2500021457673,8|0,0:0|0:0,0:0:0:0:
267,185,28044,1,0,1:0:0:0:
306,258,28231,1,0,0:0:0:0:
346,334,28419,6,0,B|312:348|312:348|231:332,2,112.500004291535,2|0|10,0:0|0:0|0:0,0:0:0:0:
373,321,29544,1,2,0:0:0:0:
464,131,29919,6,0,L|451:73,1,56.2500021457673,0|0,1:0|0:0,0:0:0:0:
384,40,30294,1,2,0:0:0:0:
362,111,30481,1,2,0:0:0:0:
303,2,30669,1,8,0:0:0:0:
325,104,30856,1,0,0:0:0:0:
220,21,31044,2,0,L|145:37,1,56.2500021457673,0|0,1:0|0:0,0:0:0:0:
82,51,31419,5,2,0:0:0:0:
45,61,31606,1,2,0:0:0:0:
135,113,31794,2,0,L|120:147,2,28.1250010728836,2|2|2,0:0|0:0|0:0,0:0:0:0:
241,117,32169,2,0,L|254:184,1,56.2500021457673,8|2,0:0|0:0,0:0:0:0:
279,295,32544,1,0,1:2:0:0:
362,305,32731,1,2,0:0:0:0:
217,345,32919,6,0,P|190:361|155:365,1,56.2500021457673,0|0,1:0|0:0,0:0:0:0:
92,327,33294,1,2,0:0:0:0:
23,375,33481,1,2,0:0:0:0:
163,286,33669,2,0,P|160:253|143:222,1,56.2500021457673,8|0,0:0|0:0,0:0:0:0:
48,135,34044,1,0,1:0:0:0:
40,214,34231,1,0,0:0:0:0:
163,286,34419,6,0,P|217:268|281:277,2,112.500004291535,2|0|10,0:0|0:0|0:0,0:0:0:0:
139,307,35544,1,2,0:0:0:0:
331,324,35919,5,0,1:0:0:0:
290,182,36106,1,0,0:0:0:0:
271,273,36294,1,2,0:0:0:0:
297,151,36481,1,2,0:0:0:0:
338,352,36669,1,8,0:0:0:0:
400,114,37044,5,0,1:0:0:0:
420,197,37231,1,0,0:0:0:0:
424,219,37325,1,0,0:0:0:0:
428,241,37419,2,0,L|441:298,1,56.2500021457673,2|2,0:0|0:0,0:0:0:0:
338,352,37794,2,0,L|303:358,1,28.1250010728836,2|0,0:0|0:0,0:0:0:0:
287,361,37981,1,0,1:0:0:0:
146,378,38169,5,8,1:2:0:0:
115,294,38356,1,2,0:0:0:0:
142,188,38544,1,2,0:0:0:0:
250,107,38731,1,2,0:0:0:0:
219,267,38919,6,0,P|170:294|115:294,1,112.500004291535,4|0,1:0|0:0,0:0:0:0:
254,258,39481,2,0,P|287:261|320:280,1,56.2500021457673,2|8,0:0|0:0,0:0:0:0:
97,384,40044,1,0,1:0:0:0:
115,294,40231,1,0,0:0:0:0:
15,209,40419,6,0,L|27:332,1,112.500004291535
54,215,40981,2,0,L|62:156,1,56.2500021457673,2|8,0:0|0:0,0:0:0:0:
171,13,41544,1,2,0:0:0:0:
432,67,41919,6,0,L|443:179,1,112.500004291535,0|0,1:0|0:0,0:0:0:0:
398,55,42481,2,0,L|412:-4,1,56.2500021457673,2|8,0:0|0:0,0:0:0:0:
446,216,43044,1,0,1:0:0:0:
367,250,43231,1,0,0:0:0:0:
296,198,43419,6,0,L|225:189,1,56.2500021457673,2|2,0:0|0:0,0:0:0:0:
153,182,43794,1,2,0:0:0:0:
141,201,43887,1,2,0:0:0:0:
138,223,43981,2,0,P|138:250|157:288,1,56.2500021457673,2|8,0:0|0:0,0:0:0:0:
223,344,44356,1,2,0:0:0:0:
240,190,44544,1,2,1:2:0:0:
257,323,44731,1,2,0:0:0:0:
138,223,44919,6,0,B|100:207|100:207|16:228,1,112.500004291535,0|0,1:0|0:0,0:0:0:0:
153,182,45481,2,0,L|174:114,1,56.2500021457673,2|8,0:0|0:0,0:0:0:0:
131,52,45856,1,0,0:0:0:0:
271,23,46044,1,0,1:0:0:0:
399,211,46419,6,0,P|374:222|342:222,2,56.2500021457673,0|2|0,0:0|0:0|0:0,0:0:0:0:
287,159,46981,2,0,P|262:148|230:148,1,56.2500021457673,2|8,0:0|0:0,0:0:0:0:
71,252,47544,1,2,0:0:0:0:
386,322,47919,6,0,L|401:190,1,112.500004291535,4|2,1:0|0:0,0:0:0:0:
416,36,48481,1,2,0:0:0:0:
398,210,48669,2,0,B|361:223|361:223|272:206,1,112.500004291535,4|0,1:0|0:0,0:0:0:0:
35,166,49419,2,0,L|104:155,1,56.2500021457673,4|8,1:0|0:0,0:0:0:0:
177,144,49794,1,2,0:0:0:0:
174,166,49887,1,2,0:0:0:0:
171,188,49981,1,10,0:0:0:0:
210,293,50169,5,8,1:2:0:0:
82,313,50356,1,0,1:0:0:0:
224,332,50544,1,0,1:0:0:0:
68,274,50731,1,2,0:0:0:0:
237,371,50919,6,0,P|288:349|352:359,1,112.500004291535,4|2,1:0|0:0,0:0:0:0:
439,333,51481,1,0,1:0:0:0:
396,183,51669,1,8,0:0:0:0:
507,208,51856,2,0,L|493:276,1,56.2500021457673,2|0,0:0|1:0,0:0:0:0:
282,164,52419,5,2,0:0:0:0:
358,70,52606,2,0,L|345:11,2,56.2500021457673,0|0|0,0:0|1:0|0:0,0:0:0:0:
261,193,53169,1,8,0:0:0:0:
184,166,53356,1,0,0:0:0:0:
336,224,53544,1,0,0:0:0:0:
83,343,53919,6,0,P|57:317|113:311,1,112.500004291535,0|0,1:0|0:0,0:0:0:0:
180,370,54481,1,0,1:0:0:0:
72,257,54669,2,0,L|91:186,1,56.2500021457673,8|0,0:0|0:0,0:0:0:0:
129,71,55044,2,0,P|140:101|172:129,1,56.2500021457673,0|0,1:0|0:0,0:0:0:0:
313,146,55419,6,0,P|302:176|270:204,2,56.2500021457673,0|2|2,1:0|0:0|0:0,0:0:0:0:
234,131,55981,1,2,0:0:0:0:
337,263,56169,2,0,P|369:227|396:166,1,112.500004291535,10|0,0:0|1:0,0:0:0:0:
101,207,56919,6,0,B|137:223|137:223|209:205,1,112.500004291535,0|2,1:0|0:0,0:0:0:0:
150,110,57481,1,0,1:0:0:0:
82,242,57669,1,8,0:0:0:0:
45,160,57856,5,2,0:0:0:0:
169,145,58044,1,0,1:0:0:0:
13,166,58231,1,0,0:0:0:0:
66,276,58419,2,0,P|64:311|43:351,2,56.2500021457673,0|2|0,0:0|0:0|1:0,0:0:0:0:
101,207,58981,1,2,0:0:0:0:
213,295,59169,2,0,P|258:310|333:306,1,112.500004291535,10|0,0:0|0:0,0:0:0:0:
281,87,59919,6,0,B|268:126|268:126|283:203,1,112.500004291535,0|2,1:0|0:0,0:0:0:0:
393,219,60481,1,2,0:0:0:0:
244,188,60669,2,0,L|109:208,1,112.500004291535,8|0,1:2|0:0,0:0:0:0:
87,140,61231,1,2,0:0:0:0:
149,233,61419,6,0,P|147:268|133:299,1,56.2500021457673,0|0,1:0|0:0,0:0:0:0:
44,353,61794,1,2,0:0:0:0:
114,318,61981,1,2,0:0:0:0:
199,345,62169,1,10,0:0:0:0:
298,332,62356,1,2,0:0:0:0:
377,252,62544,1,10,0:0:0:0:
368,130,62731,1,10,0:0:0:0:
235,244,62919,6,0,P|254:296|297:331,1,112.500004291535,4|2,1:0|0:0,0:0:0:0:
346,230,63481,1,0,1:0:0:0:
166,192,63669,2,0,P|152:221|150:260,1,56.2500021457673,8|2,0:0|0:0,0:0:0:0:
315,211,64044,1,0,1:0:0:0:
103,68,64419,5,0,0:0:0:0:
29,158,64606,2,0,L|42:232,1,56.2500021457673,2|0,0:0|1:0,0:0:0:0:
52,288,64981,1,2,0:0:0:0:
191,162,65169,2,0,B|247:150|247:150|309:184,1,112.500004291535,8|0,0:0|0:0,0:0:0:0:
66,365,65919,6,0,L|44:235,1,112.500004291535,0|2,1:0|0:0,0:0:0:0:
22,120,66481,1,0,1:0:0:0:
142,184,66669,2,0,L|131:252,1,56.2500021457673,8|0,0:0|0:0,0:0:0:0:
66,365,67044,2,0,P|88:348|128:338,1,56.2500021457673,0|2,1:0|0:0,0:0:0:0:
248,307,67419,6,0,P|270:324|310:334,2,56.2500021457673,0|2|2,1:0|0:0|0:0,0:0:0:0:
309,248,67981,1,2,0:0:0:0:
430,281,68169,2,0,P|373:296|331:350,1,112.500004291535,10|0,0:0|1:0,0:0:0:0:
483,135,68919,6,0,B|494:98|494:98|468:22,1,112.500004291535,0|2,1:0|0:0,0:0:0:0:
356,0,69481,1,0,1:0:0:0:
332,167,69669,1,8,0:0:0:0:
383,96,69856,5,2,0:0:0:0:
248,90,70044,1,0,1:0:0:0:
417,99,70231,1,0,0:0:0:0:
244,170,70419,2,0,P|250:203|271:232,2,56.2500021457673,2|0|0,0:0|0:0|1:0,0:0:0:0:
332,167,70981,1,2,0:0:0:0:
193,282,71169,2,0,P|165:230|155:167,1,112.500004291535,10|0,0:0|0:0,0:0:0:0:
486,233,71919,6,0,L|360:253,1,112.500004291535,4|2,1:0|0:0,0:0:0:0:
193,282,72481,1,2,0:0:0:0:
375,251,72669,2,0,B|388:209|388:209|367:143,1,112.500004291535,4|2,1:0|0:0,0:0:0:0:
310,69,73231,1,2,0:0:0:0:
110,106,73419,1,4,1:0:0:0:
97,189,73607,2,0,L|161:205,1,56.2500021457673,8|0,0:0|0:0,0:0:0:0:
231,140,73981,1,8,0:0:0:0:
193,282,74169,5,8,1:2:0:0:
356,252,74356,1,0,1:0:0:0:
152,203,74544,1,0,1:0:0:0:
444,352,74919,6,0,B|459:292|427:294|445:239,1,112.500004291535,4|2,1:0|0:0,0:0:0:0:
389,176,75481,1,2,1:2:0:0:
268,215,75669,1,10,0:0:0:0:
403,269,75856,1,2,0:0:0:0:
382,135,76044,1,2,1:2:0:0:
312,300,76231,1,2,0:0:0:0:
375,92,76419,5,6,1:2:0:0:
88,168,76981,2,0,L|48:163,2,28.1250010728836,8|8|8,0:0|0:0|0:0,0:0:0:0:
132,244,77356,1,8,0:0:0:0:
29,268,77544,1,8,0:0:0:0:
399,307,77919,6,0,P|427:295|367:275,1,150,4|0,1:0|0:0,0:0:0:0:
335,367,78481,1,0,1:0:0:0:
464,246,78669,2,0,L|449:170,1,75,8|2,0:0|0:0,0:0:0:0:
341,81,79044,1,0,1:0:0:0:
360,156,79231,1,0,0:0:0:0:
389,161,79325,1,0,0:0:0:0:
419,167,79419,5,0,0:0:0:0:
335,48,79606,1,0,0:0:0:0:
306,214,79794,1,0,1:0:0:0:
389,161,79981,1,0,0:0:0:0:
210,188,80169,5,8,0:0:0:0:
187,37,80356,1,0,0:0:0:0:
122,233,80544,1,0,0:0:0:0:
51,28,80731,1,0,1:0:0:0:
15,291,80919,6,0,B|49:310|50:353|50:353|87:373|131:349,1,150,0|0,1:0|0:0,0:0:0:0:
122,233,81481,1,0,1:0:0:0:
0,100,81669,2,0,L|9:199,1,75,8|0,0:0|0:0,0:0:0:0:
11,256,82044,1,0,1:0:0:0:
140,198,82231,1,0,0:0:0:0:
15,69,82419,6,0,P|50:52|106:56,1,75,0|2,1:0|0:0,0:0:0:0:
273,145,82794,2,0,P|306:161|343:163,1,75,0|2,0:0|0:0,0:0:0:0:
203,60,83169,1,8,0:0:0:0:
140,198,83356,1,0,0:0:0:0:
146,227,83450,1,0,0:0:0:0:
152,256,83544,1,0,1:0:0:0:
92,313,83731,1,0,0:0:0:0:
154,167,83919,5,0,1:0:0:0:
149,138,84106,5,0,0:0:0:0:
143,108,84294,5,0,0:0:0:0:
211,29,84481,1,0,1:0:0:0:
343,163,84669,2,0,P|376:146|413:144,1,75,8|0,0:0|0:0,0:0:0:0:
476,259,85044,2,0,P|438:257|405:240,1,75,0|0,1:0|0:0,0:0:0:0:
250,293,85419,5,0,1:0:0:0:
313,346,85606,2,0,L|392:329,1,75,8|0,0:0|0:0,0:0:0:0:
223,269,85981,1,0,0:0:0:0:
341,375,86169,2,0,L|420:358,1,75,10|0,0:0|0:0,0:0:0:0:
490,226,86544,5,8,1:2:0:0:
504,192,86731,1,8,0:0:0:0:
291,64,86919,6,0,P|271:71|325:107,1,150,4|0,1:0|0:0,0:0:0:0:
331,0,87481,1,0,1:0:0:0:
243,141,87669,2,0,L|264:220,1,75,8|2,0:0|0:0,0:0:0:0:
171,310,88044,1,0,1:0:0:0:
165,220,88231,1,0,0:0:0:0:
194,227,88325,1,0,0:0:0:0:
222,235,88419,5,0,0:0:0:0:
88,269,88606,1,0,0:0:0:0:
270,314,88794,1,0,1:0:0:0:
132,212,88981,1,0,0:0:0:0:
438,172,89169,5,8,0:0:0:0:
289,348,89356,1,0,0:0:0:0:
243,141,89544,1,0,0:0:0:0:
454,246,89731,1,0,1:0:0:0:
132,212,89919,6,0,B|124:159|61:239|120:224|142:254|105:343,1,150,0|0,1:0|0:0,0:0:0:0:
30,282,90481,1,0,1:0:0:0:
209,221,90669,2,0,P|182:147|112:120,1,150,8|0,0:0|1:0,0:0:0:0:
0,179,91231,1,0,0:0:0:0:
165,103,91419,6,0,L|207:111,1,37.5,0|0,1:0|0:0,0:0:0:0:
382,17,91794,2,0,L|424:9,1,37.5
484,157,92169,1,10,0:0:0:0:
354,137,92356,1,0,0:0:0:0:
324,132,92450,1,0,0:0:0:0:
294,127,92544,1,0,1:0:0:0:
215,147,92731,1,0,0:0:0:0:
376,106,92918,5,0,1:0:0:0:
406,101,93106,5,0,0:0:0:0:
436,96,93294,5,0,0:0:0:0:
315,41,93481,1,0,1:0:0:0:
273,208,93669,2,0,L|289:295,1,75,8|0,0:0|0:0,0:0:0:0:
444,384,94044,2,0,L|457:310,1,75,0|0,1:0|0:0,0:0:0:0:
267,175,94419,5,0,1:0:0:0:
191,214,94606,2,0,P|154:218|103:191,1,75,8|0,0:0|0:0,0:0:0:0:
263,143,94981,1,0,1:0:0:0:
145,271,95169,2,0,P|122:241|119:204,1,75,10|0,0:0|0:0,0:0:0:0:
168,121,95544,1,8,0:0:0:0:
188,94,95731,1,8,0:0:0:0:
217,283,95919,5,4,1:0:0:0:
256,192,96012,12,0,98919,1:0:0:0:
