osu file format v14

[General]
AudioFilename: audio.mp3
AudioLeadIn: 0
PreviewTime: 14825
Countdown: 0
SampleSet: Soft
StackLeniency: 0.7
Mode: 0
LetterboxInBreaks: 1
WidescreenStoryboard: 0

[Editor]
Bookmarks: 12300,15716,23919,38919,47919,50919,59919,62919,71919,74919,77919,86919,95919
DistanceSpacing: 1.3
BeatDivisor: 4
GridSize: 16
TimelineZoom: 1

[Metadata]
Title:Don Coi
TitleUnicode:Đơn Côi
Artist:Quynh Nhu
ArtistUnicode:Quỳnh Như
Creator:Sakurauchi Riko
Version:Hard
Source:
Tags:phyloukz short cut ver version instrumental vietnamese
BeatmapID:1439725
BeatmapSetID:677898

[Difficulty]
HPDrainRate:6
CircleSize:4
OverallDifficulty:6
ApproachRate:7.5
SliderMultiplier:1.3
SliderTickRate:1

[Events]
//Background and Video events
0,0,"Unbenannt.jpg",0,0
//Break Periods
2,24119,26094
//Storyboard Layer 0 (Background)
//Storyboard Layer 1 (Fail)
//Storyboard Layer 2 (Pass)
//Storyboard Layer 3 (Foreground)
//Storyboard Sound Samples

[TimingPoints]
1419,375,4,2,1,100,1,0
2919,-111.111111111111,4,2,1,60,0,0
14919,-100,4,2,1,80,0,1
23919,-100,4,2,1,100,0,0
26919,-111.111111111111,4,2,1,60,0,0
47919,-100,4,2,2,60,0,0
49606,-111.111111111111,4,2,1,60,0,0
71919,-100,4,2,2,60,0,0
73606,-100,4,2,1,60,0,0
76981,-111.111111111111,4,2,1,60,0,0
77919,-100,4,2,1,80,0,1
86544,-100,4,2,1,80,0,0
86919,-100,4,2,1,80,0,1
95919,-100,4,2,1,100,0,0
96012,-100,4,2,1,40,0,0
98919,-100,4,2,1,60,0,0

[Colours]
Combo1 : 243,243,243
Combo2 : 253,176,248
Combo3 : 20,146,214
Combo4 : 138,208,242
Combo5 : 176,141,194

[HitObjects]
146,108,2919,6,0,L|138:181,1,58.4999982147217,2|0,0:0|0:0,0:0:0:0:
172,237,3294,1,0,0:0:0:0:
214,174,3481,1,0,0:0:0:0:
95,231,3669,1,0,0:0:0:0:
295,306,4044,1,2,0:0:0:0:
351,255,4231,1,0,0:0:0:0:
347,238,4325,1,0,0:0:0:0:
342,220,4419,2,0,P|356:160|404:114,2,116.999996429443,2|0|2,0:0|0:0|0:0,0:0:0:0:
494,229,5544,1,0,0:0:0:0:
463,48,5919,6,0,L|394:40,1,58.4999982147217,2|0,0:0|0:0,0:0:0:0:
333,69,6294,1,0,0:0:0:0:
263,100,6481,1,0,0:0:0:0:
392,120,6669,1,0,0:0:0:0:
296,284,7044,1,0,0:0:0:0:
235,238,7231,1,2,0:0:0:0:
219,240,7325,1,0,0:0:0:0:
202,243,7419,2,0,B|170:234|170:234|131:156,2,116.999996429443,0|0|0,0:0|0:0|0:0,0:0:0:0:
263,100,8544,1,0,0:0:0:0:
111,87,8919,6,0,P|82:101|59:134,1,58.4999982147217,2|0,0:0|0:0,0:0:0:0:
65,196,9294,1,0,0:0:0:0:
132,159,9481,1,0,0:0:0:0:
95,17,9669,1,2,0:0:0:0:
286,49,10044,1,0,0:0:0:0:
359,66,10231,1,0,0:0:0:0:
377,59,10325,1,0,0:0:0:0:
394,51,10419,2,0,B|416:46|440:54|440:54|451:95|496:113,2,116.999996429443,2|0|2,0:0|0:0|0:0,0:0:0:0:
296,168,11544,1,0,0:0:0:0:
402,274,11919,5,2,0:0:0:0:
402,274,12106,1,0,0:0:0:0:
328,255,12294,1,0,0:0:0:0:
328,255,12481,1,0,0:0:0:0:
274,195,12669,5,0,0:0:0:0:
253,272,12856,1,0,0:0:0:0:
131,268,13044,1,0,0:0:0:0:
192,323,13231,1,2,0:0:0:0:
201,161,13419,5,0,0:0:0:0:
129,186,13606,2,0,L|61:209,1,58.4999982147217,8|0,0:0|0:0,0:0:0:0:
17,47,14169,2,0,L|82:68,1,58.4999982147217,8|2,0:0|0:0,0:0:0:0:
143,37,14544,1,8,0:0:0:0:
213,63,14731,1,8,0:0:0:0:
371,5,14919,6,0,P|316:39|303:102,1,130,4|0,1:0|0:0,0:0:0:0:
385,87,15481,1,0,1:0:0:0:
258,170,15669,2,0,L|175:157,1,65,8|2,0:0|0:0,0:0:0:0:
110,144,16044,1,0,1:0:0:0:
132,225,16231,1,0,0:0:0:0:
138,245,16325,1,0,0:0:0:0:
145,265,16419,6,0,P|174:246|213:241,1,65,0|0,0:0|0:0,0:0:0:0:
290,179,16794,1,0,1:0:0:0:
290,194,16981,1,0,0:0:0:0:
383,251,17169,1,8,0:0:0:0:
362,263,17356,1,0,0:0:0:0:
339,375,17544,1,0,0:0:0:0:
313,345,17731,1,0,1:0:0:0:
205,326,17919,6,0,L|115:317,1,65,0|0,1:0|0:0,0:0:0:0:
56,310,18294,1,0,0:0:0:0:
87,384,18481,1,0,1:0:0:0:
109,242,18669,2,0,L|121:169,2,65,8|0|0,0:0|0:0|1:0,0:0:0:0:
56,310,19231,1,2,0:0:0:0:
30,166,19419,6,0,L|18:95,1,65,0|0,1:0|0:0,0:0:0:0:
128,25,19794,2,0,L|140:96,1,65,0|0,0:0|0:0,0:0:0:0:
197,149,20169,1,10,0:0:0:0:
269,105,20356,1,0,0:0:0:0:
289,106,20450,1,0,0:0:0:0:
310,109,20544,2,0,L|383:118,1,65,0|0,1:0|0:0,0:0:0:0:
458,126,20919,5,0,1:0:0:0:
458,126,21106,1,0,0:0:0:0:
458,126,21294,1,0,0:0:0:0:
409,194,21481,1,0,1:0:0:0:
453,316,21669,2,0,L|525:349,1,65,8|0,0:0|0:0,0:0:0:0:
367,318,22044,2,0,L|295:351,1,65,0|2,1:0|0:0,0:0:0:0:
217,331,22419,5,0,1:0:0:0:
212,218,22606,2,0,P|217:191|252:149,1,65,8|0,0:0|0:0,0:0:0:0:
294,222,22981,1,0,1:0:0:0:
146,279,23169,2,0,P|119:280|74:266,1,65,10|0,0:0|0:0,0:0:0:0:
37,198,23544,1,8,0:0:0:0:
37,198,23731,1,8,0:0:0:0:
78,79,23919,5,4,1:0:0:0:
174,107,26919,6,0,L|186:176,1,58.4999982147217,0|0,1:0|0:0,0:0:0:0:
134,222,27294,2,0,P|172:211|260:249,1,116.999996429443,2|8,0:0|0:0,0:0:0:0:
382,168,28044,1,0,1:0:0:0:
366,93,28231,1,0,0:0:0:0:
438,116,28419,2,0,P|454:146|414:237,2,116.999996429443,2|0|10,0:0|0:0|0:0,0:0:0:0:
290,154,29544,1,2,0:0:0:0:
209,283,29919,6,0,P|175:290|133:282,1,58.4999982147217,0|0,1:0|0:0,0:0:0:0:
97,234,30294,2,0,L|120:355,1,116.999996429443,2|8,0:0|0:0,0:0:0:0:
19,233,31044,1,0,1:0:0:0:
57,167,31231,1,0,0:0:0:0:
99,103,31419,2,0,L|140:40,1,58.4999982147217,2|2,0:0|0:0,0:0:0:0:
206,65,31794,2,0,L|188:96,2,29.2499991073609,2|2|2,0:0|0:0|0:0,0:0:0:0:
321,78,32169,2,0,P|352:75|386:57,1,58.4999982147217,8|2,0:0|0:0,0:0:0:0:
451,47,32544,1,0,1:2:0:0:
455,122,32731,1,2,0:0:0:0:
464,258,32919,6,0,L|396:269,1,58.4999982147217,0|0,1:0|0:0,0:0:0:0:
331,250,33294,2,0,P|366:285|376:355,1,116.999996429443,2|8,0:0|0:0,0:0:0:0:
255,258,34044,1,0,1:0:0:0:
284,188,34231,1,0,0:0:0:0:
208,198,34419,2,0,B|164:202|164:202|93:178,2,116.999996429443,2|0|10,0:0|0:0|0:0,0:0:0:0:
361,180,35544,1,2,0:0:0:0:
264,62,35919,6,0,L|197:40,1,58.4999982147217,0|0,1:0|0:0,0:0:0:0:
136,18,36294,2,0,P|157:46|142:147,1,116.999996429443,2|8,0:0|0:0,0:0:0:0:
2,164,37044,1,0,1:0:0:0:
17,238,37231,1,0,0:0:0:0:
21,256,37325,1,0,0:0:0:0:
25,272,37419,2,0,L|38:332,1,58.4999982147217,2|2,0:0|0:0,0:0:0:0:
111,348,37794,1,2,0:0:0:0:
111,348,37981,1,0,1:0:0:0:
171,301,38169,5,8,1:2:0:0:
253,303,38356,1,2,0:0:0:0:
329,351,38544,1,2,0:0:0:0:
418,326,38731,1,2,0:0:0:0:
467,225,38919,6,0,P|464:181|410:119,1,116.999996429443,4|0,1:0|0:0,0:0:0:0:
345,137,39481,2,0,P|376:129|399:113,1,58.4999982147217,2|8,0:0|0:0,0:0:0:0:
256,55,40044,1,0,1:0:0:0:
203,109,40231,1,0,0:0:0:0:
150,163,40419,2,0,P|92:166|30:131,1,116.999996429443,0|0,0:0|0:0,0:0:0:0:
16,68,40981,2,0,P|31:101|66:124,1,58.4999982147217,2|8,0:0|0:0,0:0:0:0:
158,10,41544,1,2,0:0:0:0:
150,163,41919,6,0,L|142:291,1,116.999996429443,0|0,1:0|0:0,0:0:0:0:
111,348,42481,2,0,L|117:274,1,58.4999982147217,2|8,0:0|0:0,0:0:0:0:
266,263,43044,1,0,1:0:0:0:
341,252,43231,1,0,0:0:0:0:
412,277,43419,2,0,P|436:298|453:336,1,58.4999982147217,2|2,0:0|0:0,0:0:0:0:
506,271,43794,2,0,L|510:236,2,29.2499991073609,2|2|2,0:0|0:0|0:0,0:0:0:0:
426,174,44169,5,8,0:0:0:0:
403,101,44356,1,2,0:0:0:0:
428,28,44544,1,2,1:2:0:0:
353,41,44731,1,2,0:0:0:0:
278,59,44919,6,0,P|211:55|156:19,1,116.999996429443,0|0,1:0|0:0,0:0:0:0:
100,59,45481,2,0,P|132:58|164:72,1,58.4999982147217,2|8,0:0|0:0,0:0:0:0:
112,137,45856,1,0,0:0:0:0:
65,203,46044,1,0,1:0:0:0:
237,262,46419,1,0,0:0:0:0:
297,216,46606,2,0,P|320:206|361:205,1,58.4999982147217,2|0,0:0|0:0,0:0:0:0:
427,218,46981,2,0,P|399:198|380:165,1,58.4999982147217,2|8,0:0|0:0,0:0:0:0:
437,35,47544,1,2,0:0:0:0:
284,108,47919,6,0,B|242:123|242:123|149:106,1,130,4|2,1:0|0:0,0:0:0:0:
74,94,48481,1,2,0:0:0:0:
157,107,48669,2,0,B|172:156|172:156|156:236,1,130,4|0,1:0|0:0,0:0:0:0:
304,315,49419,1,4,1:0:0:0:
367,259,49606,2,0,P|402:260|434:274,1,58.4999982147217,8|2,0:0|0:0,0:0:0:0:
444,184,49981,2,0,P|430:160|426:118,1,58.4999982147217,10|8,0:0|1:2,0:0:0:0:
381,55,50356,1,0,1:0:0:0:
298,59,50544,1,0,1:0:0:0:
284,136,50731,1,2,0:0:0:0:
148,153,50919,6,0,B|70:139|70:139|38:104,1,116.999996429443,4|2,1:0|0:0,0:0:0:0:
105,66,51481,1,0,1:0:0:0:
174,34,51669,1,8,0:0:0:0:
246,66,51856,2,0,L|252:128,1,58.4999982147217,2|0,0:0|1:0,0:0:0:0:
105,66,52419,1,2,0:0:0:0:
44,111,52606,2,0,L|51:182,1,58.4999982147217,0|0,0:0|1:0,0:0:0:0:
24,241,52981,1,0,0:0:0:0:
90,278,53169,1,8,0:0:0:0:
156,314,53356,2,0,P|186:300|223:299,1,58.4999982147217,0|0,0:0|0:0,0:0:0:0:
395,346,53919,6,0,P|356:328|317:249,1,116.999996429443,0|0,1:0|0:0,0:0:0:0:
347,195,54481,1,0,1:0:0:0:
271,204,54669,2,0,P|244:188|225:155,1,58.4999982147217,8|0,0:0|0:0,0:0:0:0:
299,135,55044,1,0,1:0:0:0:
189,240,55419,2,0,P|136:215|61:217,1,116.999996429443,0|2,1:0|0:0,0:0:0:0:
21,264,55981,1,2,0:0:0:0:
80,312,56169,2,0,P|111:323|150:324,1,58.4999982147217,10|0,0:0|0:0,0:0:0:0:
212,313,56544,1,0,1:0:0:0:
274,167,56919,6,0,B|256:133|256:133|277:42,1,116.999996429443,0|2,1:0|0:0,0:0:0:0:
333,9,57481,1,0,1:0:0:0:
405,31,57669,1,8,0:0:0:0:
473,62,57856,2,0,L|456:131,1,58.4999982147217,2|0,0:0|1:0,0:0:0:0:
438,192,58231,1,0,0:0:0:0:
415,264,58419,2,0,P|382:254|345:254,1,58.4999982147217,0|2,0:0|0:0,0:0:0:0:
317,317,58794,1,0,1:0:0:0:
282,249,58981,1,2,0:0:0:0:
237,311,59169,2,0,P|204:321|164:319,1,58.4999982147217,10|0,0:0|0:0,0:0:0:0:
109,291,59544,1,0,0:0:0:0:
73,143,59919,6,0,P|61:167|40:119,1,116.999996429443,0|2,1:0|0:0,0:0:0:0:
97,73,60481,1,2,0:0:0:0:
145,132,60669,2,0,P|179:144|261:134,1,116.999996429443,8|0,1:2|0:0,0:0:0:0:
311,81,61231,1,2,0:0:0:0:
295,201,61419,1,0,1:0:0:0:
359,241,61606,2,0,L|427:227,1,58.4999982147217,0|2,0:0|0:0,0:0:0:0:
491,217,61981,5,2,0:0:0:0:
467,289,62169,1,10,0:0:0:0:
383,312,62356,1,2,0:0:0:0:
292,275,62544,1,10,0:0:0:0:
183,285,62731,1,10,0:0:0:0:
84,363,62919,6,0,P|62:318|67:241,1,116.999996429443,4|2,1:0|0:0,0:0:0:0:
107,190,63481,1,0,1:0:0:0:
174,155,63669,2,0,P|148:126|114:113,1,58.4999982147217,8|2,0:0|0:0,0:0:0:0:
100,47,64044,2,0,L|163:34,1,58.4999982147217,0|0,1:0|0:0,0:0:0:0:
231,19,64419,1,0,0:0:0:0:
305,3,64606,2,0,P|328:21|361:30,1,58.4999982147217,2|0,0:0|1:0,0:0:0:0:
429,10,64981,1,2,0:0:0:0:
512,104,65169,2,0,L|497:232,1,116.999996429443,8|0,0:0|0:0,0:0:0:0:
320,246,65919,6,0,P|375:238|438:269,1,116.999996429443,0|2,1:0|0:0,0:0:0:0:
457,332,66481,1,0,1:0:0:0:
388,366,66669,2,0,P|356:367|321:355,1,58.4999982147217,8|0,0:0|0:0,0:0:0:0:
276,306,67044,1,0,1:0:0:0:
320,246,67231,1,2,0:0:0:0:
213,262,67419,1,0,1:0:0:0:
255,200,67606,2,0,P|226:187|185:192,1,58.4999982147217,2|2,0:0|0:0,0:0:0:0:
125,200,67981,1,2,0:0:0:0:
151,130,68169,2,0,P|186:103|265:89,1,116.999996429443,10|0,0:0|1:0,0:0:0:0:
435,136,68919,6,0,B|452:172|452:172|435:250,1,116.999996429443,0|2,1:0|0:0,0:0:0:0:
418,321,69481,1,0,1:0:0:0:
360,270,69669,2,0,L|288:255,1,58.4999982147217,8|2,0:0|0:0,0:0:0:0:
246,206,70044,1,0,1:0:0:0:
231,280,70231,1,0,0:0:0:0:
128,334,70419,1,2,0:0:0:0:
74,280,70606,2,0,L|61:214,1,58.4999982147217,0|0,0:0|1:0,0:0:0:0:
49,147,70981,1,2,0:0:0:0:
121,171,71169,2,0,P|148:174|194:161,1,58.4999982147217,10|0,0:0|0:0,0:0:0:0:
244,129,71544,1,0,0:0:0:0:
404,182,71919,6,0,P|392:217|421:311,1,130,4|2,1:0|0:0,0:0:0:0:
491,339,72481,1,2,0:0:0:0:
415,305,72669,2,0,B|349:285|354:321|285:302,1,130,4|2,1:0|0:0,0:0:0:0:
146,207,73419,1,4,1:0:0:0:
92,272,73606,2,0,L|83:344,1,65,8|0,0:0|0:0,0:0:0:0:
7,297,73981,2,0,L|-2:225,1,65,8|8,0:0|1:2,0:0:0:0:
17,149,74356,1,0,1:0:0:0:
40,67,74544,1,0,1:0:0:0:
238,31,74919,6,0,B|278:46|278:46|372:23,1,130,4|2,1:0|0:0,0:0:0:0:
443,51,75481,1,2,1:2:0:0:
453,135,75669,1,10,0:0:0:0:
462,218,75856,1,2,0:0:0:0:
512,314,76044,1,2,1:2:0:0:
444,263,76231,1,2,0:0:0:0:
297,290,76419,5,6,1:2:0:0:
67,71,76981,2,0,L|60:104,2,29.2499991073609,8|8|8,0:0|0:0|0:0,0:0:0:0:
140,46,77356,1,8,0:0:0:0:
153,129,77544,1,8,0:0:0:0:
472,283,77919,6,0,B|427:298|427:298|339:279,1,130,4|0,1:0|0:0,0:0:0:0:
264,259,78481,1,0,1:0:0:0:
387,186,78669,2,0,L|455:200,1,65,8|2,0:0|0:0,0:0:0:0:
472,283,79044,1,0,1:0:0:0:
409,340,79231,1,0,0:0:0:0:
388,335,79325,1,0,0:0:0:0:
365,331,79419,6,0,P|348:298|323:277,1,65,0|0,0:0|0:0,0:0:0:0:
247,246,79794,1,0,1:0:0:0:
252,230,79981,1,0,0:0:0:0:
276,146,80169,1,8,0:0:0:0:
251,154,80356,1,0,0:0:0:0:
160,178,80544,1,0,0:0:0:0:
188,193,80731,1,0,1:0:0:0:
204,321,80919,6,0,L|115:344,1,65,0|0,1:0|0:0,0:0:0:0:
56,344,81294,1,0,0:0:0:0:
39,261,81481,1,0,1:0:0:0:
13,131,81669,2,0,L|0:68,2,65,8|0|0,0:0|0:0|1:0,0:0:0:0:
73,188,82231,1,0,0:0:0:0:
197,139,82419,6,0,P|234:138|281:165,1,65,0|2,1:0|0:0,0:0:0:0:
344,251,82794,2,0,P|381:251|428:225,1,65,0|2,0:0|0:0,0:0:0:0:
460,176,83169,1,8,0:0:0:0:
492,253,83356,1,0,0:0:0:0:
488,275,83450,1,0,0:0:0:0:
484,299,83544,2,0,L|474:366,1,65,0|0,1:0|0:0,0:0:0:0:
389,363,83919,5,0,1:0:0:0:
389,363,84106,1,0,0:0:0:0:
389,363,84294,1,0,0:0:0:0:
305,348,84481,1,0,1:0:0:0:
211,268,84669,2,0,L|147:281,1,65,8|0,0:0|0:0,0:0:0:0:
64,180,85044,2,0,L|127:193,1,65,0|0,1:0|0:0,0:0:0:0:
181,128,85419,5,0,1:0:0:0:
60,83,85606,2,0,P|49:113|54:153,1,65,8|0,0:0|0:0,0:0:0:0:
127,193,85981,1,0,0:0:0:0:
236,62,86169,2,0,L|324:74,1,65,10|0,0:0|0:0,0:0:0:0:
371,24,86544,1,8,1:2:0:0:
371,24,86731,1,8,0:0:0:0:
435,161,86919,6,0,P|401:200|393:142,1,130,4|0,1:0|0:0,0:0:0:0:
437,80,87481,1,0,1:0:0:0:
512,204,87669,2,0,L|502:286,1,65,8|2,0:0|0:0,0:0:0:0:
493,352,88044,1,0,1:0:0:0:
424,302,88231,1,0,0:0:0:0:
405,306,88325,1,0,0:0:0:0:
384,311,88419,6,0,P|365:279|328:257,1,65,0|0,0:0|0:0,0:0:0:0:
261,272,88794,1,0,1:0:0:0:
264,285,88981,1,0,0:0:0:0:
292,192,89169,1,8,0:0:0:0:
312,177,89356,1,0,0:0:0:0:
202,203,89544,1,0,0:0:0:0:
172,192,89731,1,0,1:0:0:0:
116,299,89919,6,0,L|24:299,1,65,0|0,1:0|0:0,0:0:0:0:
25,218,90294,1,0,0:0:0:0:
1,137,90481,1,0,1:0:0:0:
87,35,90669,2,0,P|117:21|161:22,2,65,8|0|0,0:0|0:0|1:0,0:0:0:0:
137,103,91231,1,0,0:0:0:0:
280,69,91419,6,0,L|357:83,1,65,0|0,1:0|0:0,0:0:0:0:
449,154,91794,2,0,L|372:168,1,65,0|0,0:0|0:0,0:0:0:0:
301,179,92169,1,10,0:0:0:0:
353,245,92356,1,0,0:0:0:0:
351,266,92450,1,0,0:0:0:0:
349,285,92544,2,0,L|344:354,1,65,0|0,1:0|0:0,0:0:0:0:
261,367,92919,5,0,1:0:0:0:
261,367,93106,1,0,0:0:0:0:
261,367,93294,1,0,0:0:0:0:
199,309,93481,1,0,1:0:0:0:
97,221,93669,2,0,L|9:231,1,65,8|0,0:0|0:0,0:0:0:0:
0,83,94044,2,0,L|64:91,1,65,0|0,1:0|0:0,0:0:0:0:
147,105,94419,5,0,1:0:0:0:
268,93,94606,2,0,P|266:130|253:166,1,65,8|0,0:0|0:0,0:0:0:0:
177,186,94981,1,0,1:0:0:0:
324,217,95169,2,0,P|361:216|406:200,1,65,10|0,0:0|0:0,0:0:0:0:
451,153,95544,1,8,0:0:0:0:
451,153,95731,1,8,0:0:0:0:
470,284,95919,5,4,1:0:0:0:
256,192,96012,12,0,98919,1:0:0:0:
