osu file format v14

[General]
AudioFilename: audio.mp3
AudioLeadIn: 0
PreviewTime: 14825
Countdown: 0
SampleSet: Soft
StackLeniency: 0.7
Mode: 0
LetterboxInBreaks: 1
WidescreenStoryboard: 0

[Editor]
Bookmarks: 12300,15716,23919,38919,47919,50919,59919,62919,71919,74919,77919,86919,95919
DistanceSpacing: 1.2
BeatDivisor: 4
GridSize: 16
TimelineZoom: 1

[Metadata]
Title:Don Coi
TitleUnicode:Đơn Côi
Artist:Quynh Nhu
ArtistUnicode:Quỳnh Như
Creator:Sakurauchi Riko
Version:Easy
Source:
Tags:phyloukz short cut ver version instrumental vietnamese
BeatmapID:1433639
BeatmapSetID:677898

[Difficulty]
HPDrainRate:2
CircleSize:3
OverallDifficulty:2
ApproachRate:3
SliderMultiplier:0.7
SliderTickRate:1

[Events]
//Background and Video events
0,0,"Unbenannt.jpg",0,0
//Break Periods
2,24119,25479
//Storyboard Layer 0 (Background)
//Storyboard Layer 1 (Fail)
//Storyboard Layer 2 (Pass)
//Storyboard Layer 3 (Foreground)
//Storyboard Sound Samples

[TimingPoints]
1419,375,4,2,1,100,1,0
2919,-100,4,2,1,60,0,0
14919,-100,4,2,1,80,0,1
23919,-100,4,2,1,100,0,0
26919,-100,4,2,1,60,0,0
47919,-100,4,2,2,60,0,0
50169,-100,4,2,1,60,0,0
71919,-100,4,2,2,60,0,0
74169,-100,4,2,1,60,0,0
77919,-100,4,2,1,80,0,1
86544,-100,4,2,1,80,0,0
86919,-100,4,2,1,80,0,1
95919,-100,4,2,1,100,0,0
96106,-100,4,2,1,40,0,0
98919,-100,4,2,1,60,0,0

[Colours]
Combo1 : 243,243,243
Combo2 : 253,176,248
Combo3 : 20,146,214
Combo4 : 138,208,242
Combo5 : 176,141,194

[HitObjects]
176,75,2919,6,0,P|212:124|217:206,1,140,2|0,0:0|0:0,0:0:0:0:
165,266,4044,1,2,0:0:0:0:
246,279,4419,2,0,L|332:296,2,70,2|0|2,0:0|0:0|0:0,0:0:0:0:
218,201,5544,1,0,0:0:0:0:
240,120,5919,6,0,B|257:80|257:80|355:58,1,140,2|0,0:0|0:0,0:0:0:0:
433,44,7044,1,0,0:0:0:0:
476,115,7419,2,0,B|517:214|437:208|481:323,1,210,0|0,0:0|0:0,0:0:0:0:
415,374,8919,5,2,0:0:0:0:
301,250,9669,2,0,L|257:316,1,70,2|0,0:0|0:0,0:0:0:0:
186,272,10419,2,0,L|213:178,2,70,2|0|2,0:0|0:0|0:0,0:0:0:0:
123,328,11544,1,0,0:0:0:0:
55,278,11919,2,0,P|16:227|12:142,2,140,2|0|0,0:0|0:0|0:0,0:0:0:0:
205,204,14169,2,0,L|300:217,1,70,8|8,0:0|0:0,0:0:0:0:
356,228,14919,5,4,1:0:0:0:
437,208,15294,2,0,P|438:246|412:291,1,70,0|8,0:0|0:0,0:0:0:0:
350,313,16044,1,0,1:0:0:0:
274,350,16419,2,0,P|190:301|55:314,1,210,0|0,0:0|0:0,0:0:0:0:
14,250,17919,1,0,1:0:0:0:
28,167,18294,2,0,L|45:76,1,70,0|8,0:0|0:0,0:0:0:0:
121,73,19044,1,0,1:0:0:0:
202,51,19419,6,0,P|239:68|296:67,1,70,0|0,1:0|0:0,0:0:0:0:
349,52,20169,1,10,0:0:0:0:
327,133,20544,1,0,1:0:0:0:
245,154,20919,2,0,B|275:299,1,140,0|8,1:0|0:0,0:0:0:0:
293,372,22044,1,0,1:0:0:0:
355,315,22419,2,0,P|390:330|442:332,2,70,0|0|10,1:0|0:0|0:0,0:0:0:0:
273,291,23544,1,8,0:0:0:0:
211,348,23919,5,4,1:0:0:0:
134,99,26919,5,0,1:0:0:0:
194,157,27294,2,0,L|283:151,1,70,2|8,0:0|0:0,0:0:0:0:
347,148,28044,1,0,1:0:0:0:
403,86,28419,2,0,P|431:145|399:214,1,140,2|10,0:0|0:0,0:0:0:0:
260,297,29919,6,0,L|167:282,1,70,0|2,1:0|0:0,0:0:0:0:
122,232,30669,2,0,P|120:195|135:156,1,70,8|0,0:0|1:0,0:0:0:0:
212,140,31419,2,0,P|248:152|291:151,2,70,2|2|8,0:0|0:0|0:0,0:0:0:0:
173,65,32544,1,0,1:2:0:0:
95,32,32919,6,0,P|62:31|22:44,1,70,0|2,1:0|0:0,0:0:0:0:
3,122,33669,2,0,L|12:211,1,70,8|0,0:0|1:0,0:0:0:0:
49,265,34419,2,0,P|115:235|196:239,1,140,2|10,0:0|0:0,0:0:0:0:
318,332,35919,6,0,P|348:349|394:349,2,70,0|2|8,1:0|0:0|0:0,0:0:0:0:
372,267,37044,1,0,1:0:0:0:
429,205,37419,2,0,L|406:118,1,70,2|2,0:0|0:0,0:0:0:0:
356,73,38169,1,8,1:2:0:0:
274,92,38544,1,2,0:0:0:0:
195,121,38919,6,0,P|144:121|92:97,2,105,4|2|0,1:0|0:0|1:0,0:0:0:0:
274,92,40419,2,0,P|299:47|346:14,2,105,0|2|2,0:0|0:0|0:0,0:0:0:0:
261,175,41919,2,0,P|286:219|291:276,2,105,0|2|0,1:0|0:0|1:0,0:0:0:0:
195,121,43419,6,0,P|127:108|46:154,1,140,2|8,0:0|0:0,0:0:0:0:
30,212,44544,1,2,1:2:0:0:
53,292,44919,2,0,L|171:278,2,105,0|2|0,1:0|0:0|1:0,0:0:0:0:
30,212,46419,2,0,L|1:106,2,105,0|2|2,0:0|0:0|0:0,0:0:0:0:
53,292,47919,6,0,B|127:315|124:273|194:299,2,140,4|4|4,1:0|1:0|1:0,0:0:0:0:
101,131,50169,1,8,1:2:0:0:
184,139,50544,1,0,1:0:0:0:
256,97,50919,6,0,P|241:49|192:10,1,105,4|0,1:0|1:0,0:0:0:0:
117,32,51856,2,0,P|95:79|100:130,1,105,2|2,0:0|0:0,0:0:0:0:
72,295,53169,2,0,P|106:298|144:315,1,70,8|0,0:0|0:0,0:0:0:0:
222,306,53919,2,0,B|261:295|261:295|319:315|319:315|358:303,1,140,0|8,1:0|0:0,0:0:0:0:
434,274,55044,1,0,1:0:0:0:
470,198,55419,2,0,P|452:125|392:77,1,140,0|10,1:0|0:0,0:0:0:0:
238,104,56919,6,0,P|186:123|114:115,1,105,0|0,1:0|1:0,0:0:0:0:
62,161,57856,2,0,L|74:273,1,105,2|0,0:0|0:0,0:0:0:0:
223,341,59169,1,10,0:0:0:0:
268,179,59919,2,0,B|256:81|256:81|208:31,1,140,0|8,1:0|1:2,0:0:0:0:
61,75,61419,1,0,1:0:0:0:
62,161,61794,2,0,L|65:241,2,70,2|10|10,0:0|0:0|0:0,0:0:0:0:
135,120,62919,6,0,P|195:148|289:147,1,140,4|8,1:0|0:0,0:0:0:0:
342,112,64044,1,0,1:0:0:0:
422,136,64419,2,0,L|435:227,1,70,0|0,0:0|1:0,0:0:0:0:
373,265,65169,2,0,L|360:356,1,70,8|0,0:0|0:0,0:0:0:0:
282,359,65919,2,0,P|224:331|129:337,1,140,0|8,1:0|0:0,0:0:0:0:
72,297,67044,1,0,1:0:0:0:
30,223,67419,2,0,P|24:176|79:85,1,140,0|10,1:0|0:0,0:0:0:0:
231,74,68919,6,0,B|282:89|282:89|345:69,1,105,0|0,1:0|1:0,0:0:0:0:
409,104,69856,2,0,L|418:226,1,105,2|2,0:0|0:0,0:0:0:0:
329,352,71169,1,10,0:0:0:0:
161,358,71919,2,0,B|119:321|56:334|56:334|34:365,2,140,4|4|4,1:0|1:0|1:0,0:0:0:0:
257,220,74169,2,0,L|305:224,2,35,8|0|0,1:2|1:0|1:0,0:0:0:0:
180,255,74919,5,4,1:0:0:0:
247,304,75294,2,0,L|276:382,2,70,2|10|2,0:0|0:0|1:2,0:0:0:0:
257,220,76419,1,6,1:2:0:0:
481,129,77919,5,4,1:0:0:0:
420,187,78294,2,0,L|340:176,1,70,0|8,0:0|0:0,0:0:0:0:
289,120,79044,1,0,1:0:0:0:
221,70,79419,2,0,B|158:60|128:106|128:106|136:166|85:203,1,210,0|0,0:0|0:0,0:0:0:0:
15,232,80919,1,0,1:0:0:0:
82,281,81294,2,0,L|165:290,1,70,0|8,0:0|0:0,0:0:0:0:
234,298,82044,1,0,1:0:0:0:
318,301,82419,6,0,P|335:264|363:235,1,70,0|0,1:0|0:0,0:0:0:0:
431,208,83169,1,8,0:0:0:0:
463,130,83544,1,0,1:0:0:0:
445,47,83919,2,0,B|374:26|375:66|305:44,1,140,0|8,1:0|0:0,0:0:0:0:
224,58,85044,1,0,1:0:0:0:
184,132,85419,2,0,P|193:168|186:203,2,70,0|0|10,1:0|0:0|0:0,0:0:0:0:
31,62,86919,5,4,1:0:0:0:
41,145,87294,2,0,L|107:170,1,70,0|8,0:0|0:0,0:0:0:0:
187,199,88044,1,0,1:0:0:0:
265,228,88419,2,0,B|292:182|355:186|355:186|376:159|376:159|416:163|446:142,1,210,0|0,0:0|0:0,0:0:0:0:
501,205,89919,1,0,1:0:0:0:
491,288,90294,2,0,L|483:372,1,70,0|8,0:0|0:0,0:0:0:0:
400,361,91044,1,0,1:0:0:0:
316,351,91419,6,0,P|286:337|247:332,1,70,0|0,1:0|0:0,0:0:0:0:
171,363,92169,1,10,0:0:0:0:
91,335,92544,1,0,1:0:0:0:
42,266,92919,2,0,P|32:203|59:129,1,140,0|8,1:0|0:0,0:0:0:0:
134,100,94044,1,0,1:0:0:0:
205,144,94419,2,0,P|240:159|292:161,2,70,0|0|10,1:0|0:0|0:0,0:0:0:0:
209,59,95544,1,8,0:0:0:0:
272,3,95919,5,4,1:0:0:0:
256,192,96106,12,0,98919,1:0:0:0:
