osu file format v14

[General]
AudioFilename: audio.mp3
AudioLeadIn: 0
PreviewTime: 48200
Countdown: 1
SampleSet: Soft
StackLeniency: 0.7
Mode: 0
LetterboxInBreaks: 0
WidescreenStoryboard: 0

[Editor]
Bookmarks: 489,8950,16200,16950,30950,32950,42950,44950,46950,48950,62950,64950,67950,68950,70950,72950,74950,76950,78950,80950,82950,83950,84950
DistanceSpacing: 1
BeatDivisor: 4
GridSize: 4
TimelineZoom: 1

[Metadata]
Title:Daiji na Koto
TitleUnicode:だいじなこと
Artist:Quruli
ArtistUnicode:Quruli
Creator:greenwood0301
Version:Love
Source:3D彼女 リアルガール
Tags:3D Kanojo Real Girl
BeatmapID:1885011
BeatmapSetID:902925

[Difficulty]
HPDrainRate:7
CircleSize:4
OverallDifficulty:8
ApproachRate:9
SliderMultiplier:1.8
SliderTickRate:1

[Events]
//Background and Video events
0,0,"3D-Kanojo-Cover.jpg",0,0
//Break Periods
//Storyboard Layer 0 (Background)
//Storyboard Layer 1 (Fail)
//Storyboard Layer 2 (Pass)
//Storyboard Layer 3 (Foreground)
//Storyboard Sound Samples

[TimingPoints]
950,500,4,2,0,40,1,0
8950,-80,4,2,0,40,0,0
16950,-133.333333333333,4,2,0,40,0,0
32950,-100,4,2,0,40,0,0
48950,-66.6666666666667,4,1,0,40,0,0
68950,-66.6666666666667,4,3,0,40,0,1
82950,-100,4,2,0,40,0,0

[HitObjects]
135,117,700,5,0,0:0:0:0:
135,117,950,2,0,P|166:166|206:178,1,90
380,103,1950,5,0,0:0:0:0:
100,295,2950,5,0,0:0:0:0:
299,92,3950,6,0,L|333:38,1,45
337,172,4200,1,0,0:0:0:0:
197,250,4450,6,0,L|163:304,1,45
159,170,4700,1,0,0:0:0:0:
438,62,4950,5,0,0:0:0:0:
174,289,5700,5,0,0:0:0:0:
76,46,5950,1,0,0:0:0:0:
205,138,6200,6,0,P|236:184|238:227,1,90
84,237,6700,1,0,0:0:0:0:
295,146,6950,1,0,0:0:0:0:
132,123,7200,2,0,P|139:166|166:202,1,90
295,47,7700,1,0,0:0:0:0:
387,164,7825,6,0,L|426:212,2,45
341,104,8200,2,0,P|289:119|237:95,1,90
166,202,8700,1,0,0:0:0:0:
31,22,8950,6,0,P|14:88|23:140,1,112.5
176,130,9450,2,0,P|120:86|76:82,1,112.5
62,237,9950,2,0,P|118:281|162:285,1,112.5
227,156,10450,2,0,P|175:171|131:229,1,112.5
281,291,10950,5,0,0:0:0:0:
378,132,11200,1,0,0:0:0:0:
417,284,11450,5,0,0:0:0:0:
297,140,11700,1,0,0:0:0:0:
196,301,11950,5,0,0:0:0:0:
110,133,12200,1,0,0:0:0:0:
78,274,12450,5,0,0:0:0:0:
209,127,12700,1,0,0:0:0:0:
291,318,12950,6,0,P|347:286|361:242,1,112.5
265,136,13450,2,0,P|272:208|323:269,1,112.5
425,150,13950,2,0,P|440:96|427:42,1,112.5
282,51,14450,2,0,P|337:95|388:90,1,112.5
507,9,14950,5,0,0:0:0:0:
457,193,15200,1,0,0:0:0:0:
365,24,15450,1,0,0:0:0:0:
298,196,15700,1,0,0:0:0:0:
89,73,16200,5,0,0:0:0:0:
89,73,16325,1,0,0:0:0:0:
89,73,16450,1,0,0:0:0:0:
148,313,16700,5,0,0:0:0:0:
265,65,16950,6,0,P|310:48|385:105,1,135.000005149842
292,217,17700,1,0,0:0:0:0:
212,119,17950,1,0,0:0:0:0:
393,162,18200,2,0,L|436:175,2,33.7500012874604
324,53,18700,1,0,0:0:0:0:
247,290,18950,6,0,P|193:329|127:327,1,135.000005149842
59,187,19700,1,0,0:0:0:0:
183,193,19950,1,0,0:0:0:0:
42,326,20200,1,0,0:0:0:0:
42,326,20325,1,0,0:0:0:0:
42,326,20450,1,0,0:0:0:0:
164,269,20700,1,0,0:0:0:0:
31,79,20950,6,0,P|70:35|153:56,1,135.000005149842
69,182,21700,1,0,0:0:0:0:
183,132,21950,1,0,0:0:0:0:
31,27,22200,2,0,L|-2:4,2,33.7500012874604
0,146,22700,1,0,0:0:0:0:
229,37,22950,6,0,P|281:19|358:58,1,135.000005149842
207,128,23700,1,0,0:0:0:0:
337,137,23950,1,0,0:0:0:0:
201,8,24200,1,0,0:0:0:0:
201,8,24325,1,0,0:0:0:0:
201,8,24450,1,0,0:0:0:0:
318,65,24700,1,0,0:0:0:0:
74,116,24950,6,0,P|36:177|47:249,1,135.000005149842
158,128,25700,1,0,0:0:0:0:
140,254,25950,1,0,0:0:0:0:
36,104,26200,2,0,L|12:70,2,33.7500012874604
55,226,26700,1,0,0:0:0:0:
303,162,26950,6,0,P|361:134|441:172,1,135.000005149842
290,246,27700,1,0,0:0:0:0:
421,228,27950,1,0,0:0:0:0:
269,110,28200,1,0,0:0:0:0:
269,110,28325,1,0,0:0:0:0:
269,110,28450,1,0,0:0:0:0:
350,203,28700,1,0,0:0:0:0:
174,22,28950,6,0,P|108:17|50:80,1,135.000005149842
206,119,29700,1,0,0:0:0:0:
83,161,29950,1,0,0:0:0:0:
219,40,30200,2,0,L|247:8,2,33.7500012874604
94,61,30700,1,0,0:0:0:0:
211,297,30950,5,0,0:0:0:0:
313,93,31200,1,0,0:0:0:0:
106,162,31450,1,0,0:0:0:0:
337,202,31700,1,0,0:0:0:0:
152,68,31950,1,0,0:0:0:0:
266,260,32200,2,0,L|291:314,2,33.7500012874604
255,106,32700,1,0,0:0:0:0:
130,263,32950,6,0,P|78:252|46:125,1,180
12,295,33700,5,0,0:0:0:0:
118,177,33950,1,0,0:0:0:0:
198,308,34200,1,0,0:0:0:0:
301,146,34450,1,0,0:0:0:0:
111,273,34700,5,0,0:0:0:0:
183,130,34950,1,0,0:0:0:0:
58,55,35200,1,0,0:0:0:0:
30,245,35450,1,0,0:0:0:0:
125,85,35700,5,0,0:0:0:0:
0,172,35950,1,0,0:0:0:0:
181,189,36200,2,0,L|233:207,2,45
35,60,36700,1,0,0:0:0:0:
99,271,36950,6,0,P|147:312|277:318,1,180
321,167,37700,5,0,0:0:0:0:
350,330,37950,1,0,0:0:0:0:
426,197,38200,1,0,0:0:0:0:
243,243,38450,1,0,0:0:0:0:
401,269,38700,5,0,0:0:0:0:
310,136,38950,1,0,0:0:0:0:
462,89,39200,1,0,0:0:0:0:
483,282,39450,1,0,0:0:0:0:
398,145,39700,5,0,0:0:0:0:
312,279,39950,1,0,0:0:0:0:
173,156,40200,2,0,L|131:121,2,45
219,338,40700,1,0,0:0:0:0:
271,82,40950,6,0,P|314:52|416:110,1,180
297,202,41700,1,0,0:0:0:0:
482,159,41950,1,0,0:0:0:0:
310,21,42200,1,0,0:0:0:0:
359,144,42450,1,0,0:0:0:0:
188,45,42700,1,0,0:0:0:0:
403,69,42950,6,0,P|442:133|305:226,1,270
195,120,43950,2,0,P|152:85|7:194,1,270
135,292,44950,5,0,0:0:0:0:
388,111,45700,5,0,0:0:0:0:
135,68,45950,1,0,0:0:0:0:
406,286,46450,5,0,0:0:0:0:
135,68,46950,5,0,0:0:0:0:
194,353,47200,1,0,0:0:0:0:
377,68,47450,5,0,0:0:0:0:
318,353,47700,1,0,0:0:0:0:
186,96,48200,5,0,0:0:0:0:
186,96,48450,1,0,0:0:0:0:
186,96,48700,1,0,0:0:0:0:
394,330,48950,5,0,0:0:0:0:
122,161,49200,1,0,0:0:0:0:
417,105,49450,1,0,0:0:0:0:
191,308,49700,1,0,0:0:0:0:
304,11,49950,1,0,0:0:0:0:
431,307,50200,1,0,0:0:0:0:
86,92,50450,1,0,0:0:0:0:
455,94,50700,1,0,0:0:0:0:
157,310,50950,1,0,0:0:0:0:
157,310,51450,5,0,0:0:0:0:
389,45,51700,5,0,0:0:0:0:
283,313,51950,1,0,0:0:0:0:
149,107,52200,1,0,0:0:0:0:
455,220,52450,1,0,0:0:0:0:
239,24,52700,1,0,0:0:0:0:
357,297,52950,2,0,P|268:332|114:253,1,270.000010299683
46,58,53700,1,0,0:0:0:0:
307,193,53950,2,0,P|397:86|296:98,1,270.000010299683
216,338,54700,5,0,0:0:0:0:
153,90,54950,1,0,0:0:0:0:
72,337,55200,1,0,0:0:0:0:
255,144,55450,1,0,0:0:0:0:
13,283,55700,1,0,0:0:0:0:
297,200,55950,1,0,0:0:0:0:
7,201,56200,5,0,0:0:0:0:
7,201,56325,1,0,0:0:0:0:
7,201,56450,1,0,0:0:0:0:
163,269,56700,1,0,0:0:0:0:
203,42,56950,6,0,P|284:16|290:168,1,270.000010299683
132,290,57700,1,0,0:0:0:0:
243,106,57950,2,0,P|322:73|364:220,1,270.000010299683
184,327,58700,5,0,0:0:0:0:
42,115,58950,1,0,0:0:0:0:
280,241,59200,1,0,0:0:0:0:
2,292,59450,1,0,0:0:0:0:
215,85,59700,1,0,0:0:0:0:
187,345,59950,1,0,0:0:0:0:
97,82,60200,5,0,0:0:0:0:
209,239,60450,1,0,0:0:0:0:
313,80,60700,1,0,0:0:0:0:
97,82,60950,2,0,P|27:139|153:198,1,270.000010299683
313,80,61700,1,0,0:0:0:0:
186,275,61950,2,0,P|96:278|130:132,1,270.000010299683
375,90,62700,5,0,0:0:0:0:
328,250,62950,1,0,0:0:0:0:
165,144,63325,5,0,0:0:0:0:
165,144,63450,1,0,0:0:0:0:
186,332,63700,1,0,0:0:0:0:
287,211,63950,5,0,0:0:0:0:
289,169,64075,1,0,0:0:0:0:
280,128,64200,1,0,0:0:0:0:
258,91,64325,1,0,0:0:0:0:
227,63,64450,1,0,0:0:0:0:
189,45,64575,1,0,0:0:0:0:
148,39,64700,1,0,0:0:0:0:
106,45,64825,1,0,0:0:0:0:
64,61,64950,1,0,0:0:0:0:
256,192,65700,12,0,67700,0:0:0:0:
423,58,67950,5,0,0:0:0:0:
424,125,68075,1,0,0:0:0:0:
426,192,68200,1,0,0:0:0:0:
428,260,68325,1,0,0:0:0:0:
430,327,68450,1,0,0:0:0:0:
196,238,68700,5,0,0:0:0:0:
347,47,68950,5,0,0:0:0:0:
297,271,69200,1,0,0:0:0:0:
279,46,69450,5,0,0:0:0:0:
372,282,69700,1,0,0:0:0:0:
396,33,69950,5,0,0:0:0:0:
251,283,70200,1,0,0:0:0:0:
221,2,70450,5,0,0:0:0:0:
312,316,70700,1,0,0:0:0:0:
394,16,70950,5,0,0:0:0:0:
176,290,71200,1,0,0:0:0:0:
441,64,71450,5,0,0:0:0:0:
138,233,71700,1,0,0:0:0:0:
458,118,71950,5,0,0:0:0:0:
119,170,72200,1,0,0:0:0:0:
466,183,72450,5,0,0:0:0:0:
126,106,72700,1,0,0:0:0:0:
271,285,72950,5,0,0:0:0:0:
325,68,73200,1,0,0:0:0:0:
383,281,73450,5,0,0:0:0:0:
231,84,73700,1,0,0:0:0:0:
207,333,73950,5,0,0:0:0:0:
337,113,74200,1,0,0:0:0:0:
448,343,74450,5,0,0:0:0:0:
381,58,74700,1,0,0:0:0:0:
383,370,74950,5,0,0:0:0:0:
286,66,75200,1,0,0:0:0:0:
303,368,75450,5,0,0:0:0:0:
206,64,75700,1,0,0:0:0:0:
224,367,75950,5,0,0:0:0:0:
127,63,76200,1,0,0:0:0:0:
148,367,76450,5,0,0:0:0:0:
51,63,76700,1,0,0:0:0:0:
4,278,76950,5,0,0:0:0:0:
217,203,77200,1,0,0:0:0:0:
11,139,77450,5,0,0:0:0:0:
238,267,77700,1,0,0:0:0:0:
3,345,77950,5,0,0:0:0:0:
217,203,78200,1,0,0:0:0:0:
7,65,78450,5,0,0:0:0:0:
256,290,78700,1,0,0:0:0:0:
40,265,78950,5,0,0:0:0:0:
352,223,79200,1,0,0:0:0:0:
35,193,79450,5,0,0:0:0:0:
347,151,79700,1,0,0:0:0:0:
32,115,79950,5,0,0:0:0:0:
344,73,80200,1,0,0:0:0:0:
23,46,80450,5,0,0:0:0:0:
335,4,80700,1,0,0:0:0:0:
221,312,80950,5,0,0:0:0:0:
143,21,81200,1,0,0:0:0:0:
413,159,81450,5,0,0:0:0:0:
29,196,81700,1,0,0:0:0:0:
372,274,81950,5,0,0:0:0:0:
71,72,82200,1,0,0:0:0:0:
150,313,82450,5,0,0:0:0:0:
381,66,82700,1,0,0:0:0:0:
456,177,82950,5,0,0:0:0:0:
433,264,83200,1,0,0:0:0:0:
380,336,83450,1,0,0:0:0:0:
293,359,83700,1,0,0:0:0:0:
96,87,84200,6,0,L|34:45,2,45
132,222,84700,5,0,0:0:0:0:
290,90,84950,6,0,P|330:49|402:98,1,135
231,38,85450,2,0,P|189:87|222:154,1,135
340,245,85950,2,0,P|371:200|334:114,1,135
189,225,86450,2,0,P|143:178|149:110,1,135
267,40,86950,5,0,0:0:0:0:
349,74,87200,1,0,0:0:0:0:
402,146,87450,1,0,0:0:0:0:
432,230,87700,1,0,0:0:0:0:
97,82,88450,5,0,0:0:0:0:
