osu file format v14

[General]
AudioFilename: audio.mp3
AudioLeadIn: 0
PreviewTime: 33454
Countdown: 0
SampleSet: Soft
StackLeniency: 0.7
Mode: 3
LetterboxInBreaks: 0
SpecialStyle: 0
WidescreenStoryboard: 1

[Editor]
DistanceSpacing: 0.8
BeatDivisor: 4
GridSize: 16
TimelineZoom: 2.5

[Metadata]
Title:Broken Karma (PIU EDIT)
TitleUnicode:Broken Karma (PIU EDIT)
Artist:Quree
ArtistUnicode:Quree
Creator:[ -Ralsei- ]
Version:Hard susah sekali
Source:PUMP IT UP XX
Tags:Broken Karma quree Quree vs Proxy Error Heru20 Fawcro32 [ -Ralsei- ]
BeatmapID:3279107
BeatmapSetID:1456653

[Difficulty]
HPDrainRate:7.5
CircleSize:4
OverallDifficulty:7.5
ApproachRate:5
SliderMultiplier:1.4
SliderTickRate:1

[Events]
//Background and Video events
0,0,"rescale.jpg",0,0
//Break Periods
//Storyboard Layer 0 (Background)
//Storyboard Layer 1 (Fail)
//Storyboard Layer 2 (Pass)
//Storyboard Layer 3 (Foreground)
//Storyboard Layer 4 (Overlay)
//Storyboard Sound Samples
Sample,2787,0,"soft-hitwhistle.wav",0
Sample,14120,0,"LR_NBell_G6.wav",70
Sample,22162,0,"soft-hitwhistle.wav",0
Sample,22245,0,"soft-hitwhistle.wav",0
Sample,22495,0,"soft-hitwhistle.wav",0
Sample,22579,0,"soft-hitwhistle.wav",0
Sample,49787,0,"LR_NBell_G6.wav",70
Sample,65329,0,"soft-hitwhistle.wav",0
Sample,65412,0,"soft-hitwhistle.wav",0
Sample,86495,0,"soft-hitwhistle.wav",0
Sample,86579,0,"soft-hitwhistle.wav",0
Sample,86662,0,"soft-hitwhistle.wav",0
Sample,86745,0,"soft-hitwhistle.wav",0
Sample,107995,0,"soft-hitwhistle.wav",0
Sample,108079,0,"soft-hitwhistle.wav",0

[TimingPoints]
121,333.333333333333,4,2,1,70,1,0
33454,-100,4,2,1,70,0,1
44120,-100,4,2,1,70,0,0
65454,-100,4,2,1,70,0,1
75954,-100,4,2,1,70,0,0
86787,-100,4,2,1,70,0,1
108120,-100,4,2,1,70,0,0

[HitObjects]
320,192,1454,5,0,0:0:0:0:
448,192,1454,1,0,0:0:0:0:
64,192,1620,1,0,0:0:0:0:
320,192,1787,1,0,0:0:0:0:
448,192,1954,128,0,2287:0:0:0:0:
64,192,2287,1,0,0:0:0:0:
192,192,2454,1,0,0:0:0:0:
448,192,2620,128,0,2954:0:0:0:0:
320,192,2787,1,0,0:0:0:0:
64,192,2954,1,0,0:0:0:0:
192,192,3120,1,0,0:0:0:0:
448,192,3287,128,0,3620:0:0:0:0:
64,192,3620,128,0,3954:0:0:0:0:
320,192,3954,1,0,0:0:0:0:
64,192,4120,1,0,0:0:0:0:
448,192,4287,1,0,0:0:0:0:
192,192,4454,1,0,0:0:0:0:
320,192,4620,128,0,4954:0:0:0:0:
64,192,4954,128,0,5287:0:0:0:0:
320,192,5287,1,0,0:0:0:0:
192,192,5454,1,0,0:0:0:0:
64,192,5620,1,0,0:0:0:0:
320,192,5787,1,0,0:0:0:0:
448,192,5954,128,0,6287:0:0:0:0:
320,192,6287,1,0,0:0:0:0:
192,192,6454,1,0,0:0:0:0:
64,192,6620,1,0,0:0:0:0:
448,192,6787,1,0,0:0:0:0:
192,192,6954,1,0,0:0:0:0:
320,192,7120,1,0,0:0:0:0:
448,192,7287,128,0,7620:0:0:0:0:
64,192,7620,1,0,0:0:0:0:
192,192,7787,1,0,0:0:0:0:
320,192,7954,128,0,8287:0:0:0:0:
64,192,8120,1,0,0:0:0:0:
192,192,8287,1,0,0:0:0:0:
320,192,8454,1,0,0:0:0:0:
64,192,8620,1,0,0:0:0:0:
448,192,8787,1,0,0:0:0:0:
320,192,8954,1,0,0:0:0:0:
192,192,9120,1,0,0:0:0:0:
64,192,9287,1,0,0:0:0:0:
448,192,9454,1,0,0:0:0:0:
64,192,9620,1,0,0:0:0:0:
320,192,9787,1,0,0:0:0:0:
192,192,9954,128,0,10287:0:0:0:0:
448,192,10287,128,0,10620:0:0:0:0:
320,192,10620,1,0,0:0:0:0:
64,192,10787,1,0,0:0:0:0:
192,192,10954,1,0,0:0:0:0:
64,192,11120,1,0,0:0:0:0:
320,192,11287,1,0,0:0:0:0:
192,192,11454,1,0,0:0:0:0:
448,192,11537,1,0,0:0:0:0:
320,192,11620,1,0,0:0:0:0:
448,192,11704,1,0,0:0:0:0:
64,192,11787,1,0,0:0:0:0:
320,192,11870,1,0,0:0:0:0:
192,192,11954,1,0,0:0:0:0:
64,192,12037,1,0,0:0:0:0:
448,192,12120,1,0,0:0:0:0:
320,192,12120,1,0,0:0:0:0:
64,192,12620,1,0,0:0:0:0:
448,192,12787,128,0,13454:0:0:0:0:
320,192,13120,1,0,0:0:0:0:
64,192,13454,128,0,14120:0:0:0:0:
448,192,13787,1,0,0:0:0:0:
192,192,14120,128,0,14787:0:0:0:0:
320,192,14120,1,0,0:0:0:0:
64,192,14454,1,0,0:0:0:0:
320,192,14787,128,0,16120:0:0:0:0:
448,192,14787,1,0,0:0:0:0:
192,192,14954,1,0,0:0:0:0:
64,192,15287,1,0,0:0:0:0:
192,192,15454,1,0,0:0:0:0:
448,192,15787,1,0,0:0:0:0:
64,192,15954,1,0,0:0:0:0:
448,192,16120,128,0,16787:0:0:0:0:
64,192,16287,1,0,0:0:0:0:
192,192,16787,128,0,17454:0:0:0:0:
320,192,16787,1,0,0:0:0:0:
64,192,17120,1,0,0:0:0:0:
448,192,17454,128,0,18787:0:0:0:0:
320,192,17454,1,0,0:0:0:0:
64,192,17787,1,0,0:0:0:0:
320,192,17954,1,0,0:0:0:0:
64,192,18120,1,0,0:0:0:0:
192,192,18454,1,0,0:0:0:0:
320,192,18787,128,0,20120:0:0:0:0:
64,192,18787,1,0,0:0:0:0:
448,192,18954,1,0,0:0:0:0:
64,192,19120,1,0,0:0:0:0:
192,192,19287,1,0,0:0:0:0:
448,192,19454,1,0,0:0:0:0:
192,192,19787,1,0,0:0:0:0:
64,192,19954,1,0,0:0:0:0:
448,192,20120,1,0,0:0:0:0:
192,192,20287,1,0,0:0:0:0:
320,192,20454,1,0,0:0:0:0:
64,192,20620,1,0,0:0:0:0:
448,192,20787,1,0,0:0:0:0:
192,192,20954,1,0,0:0:0:0:
320,192,21120,1,0,0:0:0:0:
64,192,21287,1,0,0:0:0:0:
192,192,21370,1,0,0:0:0:0:
320,192,21454,1,0,0:0:0:0:
448,192,21537,1,0,0:0:0:0:
192,192,21620,1,0,0:0:0:0:
64,192,21704,1,0,0:0:0:0:
448,192,21787,1,0,0:0:0:0:
320,192,21870,1,0,0:0:0:0:
192,192,21954,1,0,0:0:0:0:
64,192,22037,1,0,0:0:0:0:
320,192,22120,1,0,0:0:0:0:
448,192,22204,1,0,0:0:0:0:
64,192,22287,1,0,0:0:0:0:
192,192,22370,1,0,0:0:0:0:
320,192,22454,1,0,0:0:0:0:
448,192,22537,1,0,0:0:0:0:
64,192,22620,1,0,0:0:0:0:
192,192,22704,1,0,0:0:0:0:
320,192,22787,1,0,0:0:0:0:
448,192,22787,1,0,0:0:0:0:
320,192,22954,1,0,0:0:0:0:
448,192,22954,1,0,0:0:0:0:
192,192,23287,1,0,0:0:0:0:
64,192,23454,1,0,0:0:0:0:
448,192,23454,1,0,0:0:0:0:
192,192,23787,1,0,0:0:0:0:
320,192,23787,1,0,0:0:0:0:
192,192,23954,1,0,0:0:0:0:
320,192,23954,1,0,0:0:0:0:
64,192,24287,1,0,0:0:0:0:
64,192,24454,1,0,0:0:0:0:
320,192,24787,1,0,0:0:0:0:
448,192,24787,1,0,0:0:0:0:
192,192,24954,1,0,0:0:0:0:
64,192,25120,1,0,0:0:0:0:
448,192,25287,1,0,0:0:0:0:
64,192,25454,1,0,0:0:0:0:
192,192,25454,1,0,0:0:0:0:
64,192,25620,1,0,0:0:0:0:
192,192,25620,1,0,0:0:0:0:
320,192,25954,1,0,0:0:0:0:
64,192,26120,1,0,0:0:0:0:
448,192,26120,1,0,0:0:0:0:
192,192,26454,1,0,0:0:0:0:
320,192,26454,1,0,0:0:0:0:
192,192,26620,1,0,0:0:0:0:
320,192,26620,1,0,0:0:0:0:
448,192,26954,1,0,0:0:0:0:
448,192,27120,1,0,0:0:0:0:
64,192,27454,1,0,0:0:0:0:
192,192,27454,1,0,0:0:0:0:
320,192,27620,1,0,0:0:0:0:
448,192,27787,1,0,0:0:0:0:
64,192,27954,1,0,0:0:0:0:
192,192,28120,1,0,0:0:0:0:
448,192,28120,1,0,0:0:0:0:
192,192,28287,1,0,0:0:0:0:
448,192,28287,1,0,0:0:0:0:
320,192,28620,1,0,0:0:0:0:
64,192,28787,1,0,0:0:0:0:
448,192,28787,1,0,0:0:0:0:
192,192,29120,1,0,0:0:0:0:
320,192,29120,1,0,0:0:0:0:
192,192,29287,1,0,0:0:0:0:
320,192,29287,1,0,0:0:0:0:
448,192,29620,1,0,0:0:0:0:
448,192,29787,1,0,0:0:0:0:
64,192,30120,1,0,0:0:0:0:
192,192,30120,1,0,0:0:0:0:
448,192,30287,1,0,0:0:0:0:
320,192,30454,1,0,0:0:0:0:
192,192,30620,1,0,0:0:0:0:
64,192,30787,1,0,0:0:0:0:
320,192,30787,1,0,0:0:0:0:
64,192,30954,1,0,0:0:0:0:
320,192,30954,1,0,0:0:0:0:
192,192,31287,1,0,0:0:0:0:
64,192,31454,1,0,0:0:0:0:
448,192,31454,1,0,0:0:0:0:
192,192,31787,1,0,0:0:0:0:
320,192,31787,1,0,0:0:0:0:
192,192,31954,1,0,0:0:0:0:
320,192,31954,1,0,0:0:0:0:
64,192,32287,1,0,0:0:0:0:
448,192,32454,1,0,0:0:0:0:
320,192,32454,1,0,0:0:0:0:
192,192,32704,1,0,0:0:0:0:
64,192,32704,1,0,0:0:0:0:
448,192,32787,1,0,0:0:0:0:
64,192,32954,1,0,0:0:0:0:
320,192,33120,1,0,0:0:0:0:
448,192,33120,1,0,0:0:0:0:
192,192,33287,1,0,0:0:0:0:
64,192,33454,1,0,0:0:0:0:
448,192,33454,1,0,0:0:0:0:
320,192,33537,1,0,0:0:0:0:
192,192,33620,1,0,0:0:0:0:
64,192,33704,1,0,0:0:0:0:
320,192,33787,1,0,0:0:0:0:
448,192,33787,1,0,0:0:0:0:
192,192,33870,1,0,0:0:0:0:
320,192,33954,1,0,0:0:0:0:
448,192,34037,1,0,0:0:0:0:
64,192,34120,1,0,0:0:0:0:
192,192,34204,1,0,0:0:0:0:
320,192,34287,1,0,0:0:0:0:
448,192,34370,1,0,0:0:0:0:
64,192,34454,1,0,0:0:0:0:
192,192,34454,1,0,0:0:0:0:
448,192,34537,1,0,0:0:0:0:
320,192,34620,1,0,0:0:0:0:
448,192,34704,1,0,0:0:0:0:
192,192,34787,1,0,0:0:0:0:
64,192,34870,1,0,0:0:0:0:
320,192,34954,1,0,0:0:0:0:
192,192,35037,1,0,0:0:0:0:
320,192,35120,1,0,0:0:0:0:
448,192,35120,1,0,0:0:0:0:
64,192,35204,1,0,0:0:0:0:
192,192,35287,1,0,0:0:0:0:
448,192,35370,1,0,0:0:0:0:
320,192,35454,1,0,0:0:0:0:
192,192,35537,1,0,0:0:0:0:
64,192,35620,1,0,0:0:0:0:
448,192,35704,1,0,0:0:0:0:
320,192,35787,1,0,0:0:0:0:
192,192,35787,1,0,0:0:0:0:
64,192,35870,1,0,0:0:0:0:
448,192,35954,1,0,0:0:0:0:
320,192,36037,1,0,0:0:0:0:
448,192,36120,1,0,0:0:0:0:
64,192,36204,1,0,0:0:0:0:
192,192,36287,1,0,0:0:0:0:
320,192,36370,1,0,0:0:0:0:
448,192,36454,1,0,0:0:0:0:
64,192,36454,1,0,0:0:0:0:
192,192,36537,1,0,0:0:0:0:
320,192,36620,1,0,0:0:0:0:
448,192,36704,1,0,0:0:0:0:
192,192,36787,1,0,0:0:0:0:
64,192,36870,1,0,0:0:0:0:
320,192,36954,1,0,0:0:0:0:
448,192,37037,1,0,0:0:0:0:
192,192,37120,1,0,0:0:0:0:
64,192,37120,1,0,0:0:0:0:
320,192,37287,1,0,0:0:0:0:
448,192,37370,1,0,0:0:0:0:
192,192,37454,1,0,0:0:0:0:
64,192,37537,1,0,0:0:0:0:
448,192,37620,1,0,0:0:0:0:
320,192,37704,1,0,0:0:0:0:
192,192,37787,1,0,0:0:0:0:
64,192,37787,1,0,0:0:0:0:
448,192,37954,1,0,0:0:0:0:
320,192,38037,1,0,0:0:0:0:
64,192,38120,1,0,0:0:0:0:
192,192,38204,1,0,0:0:0:0:
320,192,38287,1,0,0:0:0:0:
192,192,38370,1,0,0:0:0:0:
64,192,38454,1,0,0:0:0:0:
448,192,38454,1,0,0:0:0:0:
320,192,38537,1,0,0:0:0:0:
192,192,38620,1,0,0:0:0:0:
64,192,38704,1,0,0:0:0:0:
448,192,38787,1,0,0:0:0:0:
192,192,38870,1,0,0:0:0:0:
320,192,38954,1,0,0:0:0:0:
448,192,39037,1,0,0:0:0:0:
64,192,39120,1,0,0:0:0:0:
192,192,39120,1,0,0:0:0:0:
320,192,39204,1,0,0:0:0:0:
448,192,39287,1,0,0:0:0:0:
64,192,39370,1,0,0:0:0:0:
192,192,39454,1,0,0:0:0:0:
320,192,39537,1,0,0:0:0:0:
192,192,39620,1,0,0:0:0:0:
64,192,39704,1,0,0:0:0:0:
320,192,39787,1,0,0:0:0:0:
448,192,39787,1,0,0:0:0:0:
192,192,39870,1,0,0:0:0:0:
64,192,39954,1,0,0:0:0:0:
320,192,40037,1,0,0:0:0:0:
448,192,40120,1,0,0:0:0:0:
320,192,40204,1,0,0:0:0:0:
192,192,40287,1,0,0:0:0:0:
64,192,40370,1,0,0:0:0:0:
320,192,40454,1,0,0:0:0:0:
448,192,40454,1,0,0:0:0:0:
192,192,40537,1,0,0:0:0:0:
64,192,40620,1,0,0:0:0:0:
448,192,40704,1,0,0:0:0:0:
320,192,40787,1,0,0:0:0:0:
192,192,40870,1,0,0:0:0:0:
64,192,40954,1,0,0:0:0:0:
448,192,41037,1,0,0:0:0:0:
320,192,41120,1,0,0:0:0:0:
192,192,41120,1,0,0:0:0:0:
64,192,41204,1,0,0:0:0:0:
448,192,41287,1,0,0:0:0:0:
320,192,41370,1,0,0:0:0:0:
448,192,41454,1,0,0:0:0:0:
64,192,41537,1,0,0:0:0:0:
192,192,41620,1,0,0:0:0:0:
320,192,41704,1,0,0:0:0:0:
192,192,41787,1,0,0:0:0:0:
64,192,41787,1,0,0:0:0:0:
448,192,41870,1,0,0:0:0:0:
320,192,41954,1,0,0:0:0:0:
448,192,42037,1,0,0:0:0:0:
192,192,42120,1,0,0:0:0:0:
320,192,42204,1,0,0:0:0:0:
448,192,42287,1,0,0:0:0:0:
64,192,42370,1,0,0:0:0:0:
192,192,42454,1,0,0:0:0:0:
320,192,42454,1,0,0:0:0:0:
448,192,42537,1,0,0:0:0:0:
64,192,42620,1,0,0:0:0:0:
192,192,42704,1,0,0:0:0:0:
64,192,42787,1,0,0:0:0:0:
320,192,42870,1,0,0:0:0:0:
448,192,42954,1,0,0:0:0:0:
192,192,43037,1,0,0:0:0:0:
64,192,43037,1,0,0:0:0:0:
320,192,43120,1,0,0:0:0:0:
192,192,43204,1,0,0:0:0:0:
64,192,43287,1,0,0:0:0:0:
448,192,43370,1,0,0:0:0:0:
320,192,43454,1,0,0:0:0:0:
192,192,43537,1,0,0:0:0:0:
64,192,43537,1,0,0:0:0:0:
448,192,43620,1,0,0:0:0:0:
320,192,43704,1,0,0:0:0:0:
192,192,43787,1,0,0:0:0:0:
64,192,43870,1,0,0:0:0:0:
320,192,43954,1,0,0:0:0:0:
192,192,44037,1,0,0:0:0:0:
320,192,44120,1,0,0:0:0:0:
448,192,44120,1,0,0:0:0:0:
64,192,44287,1,0,0:0:0:0:
192,192,44454,1,0,0:0:0:0:
320,192,44620,1,0,0:0:0:0:
448,192,44954,1,0,0:0:0:0:
64,192,45287,1,0,0:0:0:0:
448,192,45620,1,0,0:0:0:0:
192,192,45954,1,0,0:0:0:0:
320,192,46120,1,0,0:0:0:0:
192,192,46287,1,0,0:0:0:0:
64,192,46454,1,0,0:0:0:0:
320,192,46620,1,0,0:0:0:0:
192,192,46787,1,0,0:0:0:0:
320,192,46954,1,0,0:0:0:0:
64,192,47120,1,0,0:0:0:0:
192,192,47287,1,0,0:0:0:0:
448,192,47620,1,0,0:0:0:0:
320,192,47954,1,0,0:0:0:0:
192,192,48287,1,0,0:0:0:0:
64,192,48620,1,0,0:0:0:0:
448,192,48787,1,0,0:0:0:0:
320,192,48954,1,0,0:0:0:0:
192,192,49120,1,0,0:0:0:0:
64,192,49287,1,0,0:0:0:0:
320,192,49454,1,0,0:0:0:0:
192,192,49620,1,0,0:0:0:0:
448,192,49787,1,0,0:0:0:0:
64,192,50120,1,0,0:0:0:0:
320,192,50454,1,0,0:0:0:0:
448,192,50620,1,0,0:0:0:0:
64,192,50954,1,0,0:0:0:0:
192,192,51287,1,0,0:0:0:0:
320,192,51620,1,0,0:0:0:0:
192,192,51787,1,0,0:0:0:0:
64,192,51954,1,0,0:0:0:0:
448,192,52454,1,0,0:0:0:0:
320,192,52954,1,0,0:0:0:0:
192,192,53454,1,0,0:0:0:0:
448,192,53620,1,0,0:0:0:0:
64,192,53954,128,0,54787:0:0:0:0:
192,192,54287,128,0,54787:0:0:0:0:
320,192,54787,1,0,0:0:0:0:
448,192,54787,1,0,0:0:0:0:
192,192,54954,1,0,0:0:0:0:
192,192,55120,1,0,0:0:0:0:
64,192,55287,1,0,0:0:0:0:
448,192,55454,128,0,55787:0:0:0:0:
64,192,55787,1,0,0:0:0:0:
192,192,55787,1,0,0:0:0:0:
320,192,55870,1,0,0:0:0:0:
448,192,55954,1,0,0:0:0:0:
64,192,56037,1,0,0:0:0:0:
192,192,56120,1,0,0:0:0:0:
448,192,56204,1,0,0:0:0:0:
320,192,56287,1,0,0:0:0:0:
192,192,56370,1,0,0:0:0:0:
64,192,56454,1,0,0:0:0:0:
448,192,56537,1,0,0:0:0:0:
320,192,56620,1,0,0:0:0:0:
192,192,56704,1,0,0:0:0:0:
64,192,56787,1,0,0:0:0:0:
448,192,56787,1,0,0:0:0:0:
320,192,56870,1,0,0:0:0:0:
448,192,56954,1,0,0:0:0:0:
64,192,57037,1,0,0:0:0:0:
192,192,57120,1,0,0:0:0:0:
320,192,57204,1,0,0:0:0:0:
448,192,57287,1,0,0:0:0:0:
192,192,57370,1,0,0:0:0:0:
64,192,57454,1,0,0:0:0:0:
320,192,57620,1,0,0:0:0:0:
320,192,57787,1,0,0:0:0:0:
192,192,57954,1,0,0:0:0:0:
448,192,58120,128,0,58454:0:0:0:0:
64,192,58120,1,0,0:0:0:0:
192,192,58454,1,0,0:0:0:0:
320,192,58537,1,0,0:0:0:0:
448,192,58620,1,0,0:0:0:0:
64,192,58704,1,0,0:0:0:0:
192,192,58787,1,0,0:0:0:0:
448,192,58870,1,0,0:0:0:0:
320,192,58954,1,0,0:0:0:0:
192,192,59037,1,0,0:0:0:0:
320,192,59120,1,0,0:0:0:0:
448,192,59204,1,0,0:0:0:0:
64,192,59287,1,0,0:0:0:0:
192,192,59370,1,0,0:0:0:0:
320,192,59454,1,0,0:0:0:0:
448,192,59454,1,0,0:0:0:0:
192,192,59537,1,0,0:0:0:0:
64,192,59620,1,0,0:0:0:0:
448,192,59704,1,0,0:0:0:0:
320,192,59787,1,0,0:0:0:0:
192,192,59870,1,0,0:0:0:0:
64,192,59954,1,0,0:0:0:0:
448,192,60037,1,0,0:0:0:0:
320,192,60120,1,0,0:0:0:0:
192,192,60120,1,0,0:0:0:0:
64,192,60287,1,0,0:0:0:0:
64,192,60454,1,0,0:0:0:0:
192,192,60620,1,0,0:0:0:0:
320,192,60787,1,0,0:0:0:0:
448,192,60787,1,0,0:0:0:0:
64,192,60954,1,0,0:0:0:0:
64,192,61120,1,0,0:0:0:0:
320,192,61287,1,0,0:0:0:0:
320,192,61454,1,0,0:0:0:0:
192,192,61620,1,0,0:0:0:0:
448,192,61787,1,0,0:0:0:0:
64,192,61787,1,0,0:0:0:0:
320,192,61954,1,0,0:0:0:0:
320,192,62120,1,0,0:0:0:0:
192,192,62287,1,0,0:0:0:0:
64,192,62287,1,0,0:0:0:0:
448,192,62454,1,0,0:0:0:0:
320,192,62537,1,0,0:0:0:0:
192,192,62620,1,0,0:0:0:0:
64,192,62704,1,0,0:0:0:0:
320,192,62787,1,0,0:0:0:0:
448,192,62787,1,0,0:0:0:0:
192,192,62954,1,0,0:0:0:0:
64,192,63120,1,0,0:0:0:0:
448,192,63120,1,0,0:0:0:0:
320,192,63287,1,0,0:0:0:0:
192,192,63454,1,0,0:0:0:0:
448,192,63620,1,0,0:0:0:0:
192,192,63787,1,0,0:0:0:0:
64,192,63787,1,0,0:0:0:0:
320,192,63954,1,0,0:0:0:0:
448,192,64037,1,0,0:0:0:0:
320,192,64120,1,0,0:0:0:0:
192,192,64204,1,0,0:0:0:0:
64,192,64287,1,0,0:0:0:0:
192,192,64370,1,0,0:0:0:0:
320,192,64454,1,0,0:0:0:0:
448,192,64454,1,0,0:0:0:0:
64,192,64620,1,0,0:0:0:0:
192,192,64704,1,0,0:0:0:0:
320,192,64787,1,0,0:0:0:0:
448,192,64787,1,0,0:0:0:0:
64,192,64954,1,0,0:0:0:0:
192,192,65037,1,0,0:0:0:0:
320,192,65120,1,0,0:0:0:0:
192,192,65204,1,0,0:0:0:0:
64,192,65287,1,0,0:0:0:0:
192,192,65370,1,0,0:0:0:0:
320,192,65454,1,0,0:0:0:0:
448,192,65454,128,0,66787:0:0:0:0:
64,192,65620,1,0,0:0:0:0:
192,192,65787,1,0,0:0:0:0:
64,192,65954,1,0,0:0:0:0:
192,192,66037,1,0,0:0:0:0:
320,192,66120,1,0,0:0:0:0:
192,192,66287,1,0,0:0:0:0:
64,192,66454,1,0,0:0:0:0:
320,192,66620,1,0,0:0:0:0:
64,192,66787,128,0,68120:0:0:0:0:
192,192,66954,1,0,0:0:0:0:
448,192,67120,1,0,0:0:0:0:
192,192,67287,1,0,0:0:0:0:
320,192,67370,1,0,0:0:0:0:
448,192,67454,1,0,0:0:0:0:
320,192,67620,1,0,0:0:0:0:
192,192,67787,1,0,0:0:0:0:
448,192,67954,1,0,0:0:0:0:
192,192,68120,128,0,69454:0:0:0:0:
64,192,68287,1,0,0:0:0:0:
448,192,68454,1,0,0:0:0:0:
64,192,68620,1,0,0:0:0:0:
320,192,68704,1,0,0:0:0:0:
448,192,68787,1,0,0:0:0:0:
320,192,68954,1,0,0:0:0:0:
64,192,69120,1,0,0:0:0:0:
320,192,69287,1,0,0:0:0:0:
448,192,69454,128,0,70120:0:0:0:0:
64,192,69620,1,0,0:0:0:0:
320,192,69787,1,0,0:0:0:0:
64,192,69954,1,0,0:0:0:0:
192,192,70037,1,0,0:0:0:0:
320,192,70120,128,0,70787:0:0:0:0:
64,192,70287,1,0,0:0:0:0:
448,192,70454,1,0,0:0:0:0:
192,192,70620,1,0,0:0:0:0:
64,192,70787,128,0,72120:0:0:0:0:
448,192,70954,1,0,0:0:0:0:
320,192,71120,1,0,0:0:0:0:
448,192,71287,1,0,0:0:0:0:
320,192,71370,1,0,0:0:0:0:
192,192,71454,1,0,0:0:0:0:
320,192,71620,1,0,0:0:0:0:
448,192,71787,1,0,0:0:0:0:
192,192,71954,1,0,0:0:0:0:
448,192,72120,128,0,73454:0:0:0:0:
320,192,72287,1,0,0:0:0:0:
64,192,72454,1,0,0:0:0:0:
320,192,72620,1,0,0:0:0:0:
192,192,72704,1,0,0:0:0:0:
64,192,72787,1,0,0:0:0:0:
192,192,72954,1,0,0:0:0:0:
320,192,73120,1,0,0:0:0:0:
64,192,73287,1,0,0:0:0:0:
320,192,73454,128,0,74787:0:0:0:0:
448,192,73620,1,0,0:0:0:0:
64,192,73787,1,0,0:0:0:0:
448,192,73954,1,0,0:0:0:0:
192,192,74037,1,0,0:0:0:0:
64,192,74120,1,0,0:0:0:0:
192,192,74287,1,0,0:0:0:0:
448,192,74454,1,0,0:0:0:0:
192,192,74620,1,0,0:0:0:0:
64,192,74787,128,0,75454:0:0:0:0:
448,192,74954,1,0,0:0:0:0:
192,192,75120,1,0,0:0:0:0:
320,192,75287,1,0,0:0:0:0:
192,192,75454,128,0,76120:0:0:0:0:
448,192,75537,1,0,0:0:0:0:
320,192,75620,1,0,0:0:0:0:
64,192,75787,1,0,0:0:0:0:
320,192,75870,1,0,0:0:0:0:
448,192,75954,1,0,0:0:0:0:
448,192,76454,1,0,0:0:0:0:
64,192,76454,1,0,0:0:0:0:
320,192,76787,1,0,0:0:0:0:
64,192,76954,1,0,0:0:0:0:
192,192,77037,1,0,0:0:0:0:
320,192,77120,1,0,0:0:0:0:
448,192,77120,1,0,0:0:0:0:
64,192,77287,1,0,0:0:0:0:
192,192,77370,1,0,0:0:0:0:
320,192,77454,1,0,0:0:0:0:
192,192,77620,1,0,0:0:0:0:
320,192,77704,1,0,0:0:0:0:
192,192,77787,1,0,0:0:0:0:
64,192,77787,1,0,0:0:0:0:
448,192,77954,1,0,0:0:0:0:
320,192,78037,1,0,0:0:0:0:
192,192,78120,1,0,0:0:0:0:
320,192,78287,1,0,0:0:0:0:
192,192,78370,1,0,0:0:0:0:
320,192,78454,1,0,0:0:0:0:
448,192,78454,1,0,0:0:0:0:
64,192,78620,1,0,0:0:0:0:
192,192,78704,1,0,0:0:0:0:
448,192,78787,1,0,0:0:0:0:
320,192,78954,1,0,0:0:0:0:
192,192,79037,1,0,0:0:0:0:
64,192,79120,1,0,0:0:0:0:
448,192,79120,1,0,0:0:0:0:
320,192,79287,1,0,0:0:0:0:
192,192,79370,1,0,0:0:0:0:
64,192,79454,1,0,0:0:0:0:
192,192,79620,1,0,0:0:0:0:
320,192,79704,1,0,0:0:0:0:
448,192,79787,1,0,0:0:0:0:
64,192,79787,1,0,0:0:0:0:
192,192,79954,1,0,0:0:0:0:
320,192,80037,1,0,0:0:0:0:
448,192,80120,1,0,0:0:0:0:
192,192,80287,1,0,0:0:0:0:
320,192,80370,1,0,0:0:0:0:
192,192,80454,1,0,0:0:0:0:
64,192,80454,1,0,0:0:0:0:
320,192,80620,1,0,0:0:0:0:
192,192,80704,1,0,0:0:0:0:
64,192,80787,1,0,0:0:0:0:
320,192,80954,1,0,0:0:0:0:
192,192,81037,1,0,0:0:0:0:
320,192,81120,1,0,0:0:0:0:
448,192,81120,1,0,0:0:0:0:
64,192,81287,1,0,0:0:0:0:
192,192,81370,1,0,0:0:0:0:
320,192,81454,1,0,0:0:0:0:
448,192,81454,1,0,0:0:0:0:
192,192,81620,1,0,0:0:0:0:
64,192,81787,1,0,0:0:0:0:
448,192,81787,1,0,0:0:0:0:
320,192,81954,1,0,0:0:0:0:
192,192,82120,1,0,0:0:0:0:
448,192,82287,1,0,0:0:0:0:
192,192,82454,1,0,0:0:0:0:
64,192,82454,1,0,0:0:0:0:
320,192,82620,1,0,0:0:0:0:
64,192,82787,1,0,0:0:0:0:
192,192,82954,1,0,0:0:0:0:
320,192,83120,1,0,0:0:0:0:
448,192,83120,1,0,0:0:0:0:
64,192,83287,1,0,0:0:0:0:
320,192,83454,1,0,0:0:0:0:
192,192,83620,1,0,0:0:0:0:
448,192,83787,1,0,0:0:0:0:
64,192,83787,1,0,0:0:0:0:
320,192,83954,1,0,0:0:0:0:
192,192,84120,1,0,0:0:0:0:
64,192,84120,1,0,0:0:0:0:
320,192,84204,1,0,0:0:0:0:
448,192,84287,1,0,0:0:0:0:
64,192,84370,1,0,0:0:0:0:
192,192,84454,1,0,0:0:0:0:
320,192,84454,1,0,0:0:0:0:
448,192,84537,1,0,0:0:0:0:
64,192,84620,1,0,0:0:0:0:
192,192,84704,1,0,0:0:0:0:
320,192,84787,1,0,0:0:0:0:
448,192,84870,1,0,0:0:0:0:
64,192,84954,1,0,0:0:0:0:
192,192,85037,1,0,0:0:0:0:
320,192,85120,1,0,0:0:0:0:
448,192,85120,1,0,0:0:0:0:
64,192,85204,1,0,0:0:0:0:
192,192,85287,1,0,0:0:0:0:
320,192,85370,1,0,0:0:0:0:
448,192,85454,1,0,0:0:0:0:
320,192,85537,1,0,0:0:0:0:
192,192,85620,1,0,0:0:0:0:
64,192,85704,1,0,0:0:0:0:
320,192,85787,1,0,0:0:0:0:
448,192,85787,1,0,0:0:0:0:
192,192,85954,1,0,0:0:0:0:
64,192,86037,1,0,0:0:0:0:
320,192,86120,1,0,0:0:0:0:
448,192,86120,1,0,0:0:0:0:
192,192,86287,1,0,0:0:0:0:
64,192,86370,1,0,0:0:0:0:
448,192,86454,1,0,0:0:0:0:
320,192,86537,1,0,0:0:0:0:
192,192,86620,1,0,0:0:0:0:
64,192,86704,1,0,0:0:0:0:
320,192,86787,1,0,0:0:0:0:
448,192,86787,1,0,0:0:0:0:
192,192,86870,1,0,0:0:0:0:
64,192,86954,1,0,0:0:0:0:
320,192,87037,1,0,0:0:0:0:
192,192,87120,1,0,0:0:0:0:
448,192,87120,1,0,0:0:0:0:
64,192,87204,1,0,0:0:0:0:
320,192,87287,1,0,0:0:0:0:
192,192,87370,1,0,0:0:0:0:
448,192,87454,1,0,0:0:0:0:
64,192,87537,1,0,0:0:0:0:
192,192,87620,1,0,0:0:0:0:
320,192,87704,1,0,0:0:0:0:
64,192,87787,1,0,0:0:0:0:
448,192,87787,128,0,87954:0:0:0:0:
320,192,87954,128,0,88120:0:0:0:0:
64,192,88120,1,0,0:0:0:0:
192,192,88204,1,0,0:0:0:0:
448,192,88287,1,0,0:0:0:0:
320,192,88370,1,0,0:0:0:0:
192,192,88454,1,0,0:0:0:0:
64,192,88454,1,0,0:0:0:0:
448,192,88537,1,0,0:0:0:0:
192,192,88620,1,0,0:0:0:0:
320,192,88704,1,0,0:0:0:0:
64,192,88787,1,0,0:0:0:0:
192,192,88870,1,0,0:0:0:0:
320,192,88954,1,0,0:0:0:0:
448,192,89037,1,0,0:0:0:0:
192,192,89120,1,0,0:0:0:0:
64,192,89120,128,0,89287:0:0:0:0:
320,192,89287,128,0,89454:0:0:0:0:
448,192,89454,1,0,0:0:0:0:
64,192,89537,1,0,0:0:0:0:
192,192,89620,1,0,0:0:0:0:
320,192,89704,1,0,0:0:0:0:
448,192,89787,1,0,0:0:0:0:
64,192,89787,1,0,0:0:0:0:
192,192,89870,1,0,0:0:0:0:
320,192,89954,1,0,0:0:0:0:
64,192,90037,1,0,0:0:0:0:
448,192,90120,1,0,0:0:0:0:
192,192,90204,1,0,0:0:0:0:
320,192,90287,1,0,0:0:0:0:
192,192,90370,1,0,0:0:0:0:
64,192,90454,1,0,0:0:0:0:
448,192,90454,128,0,90620:0:0:0:0:
192,192,90620,128,0,90787:0:0:0:0:
64,192,90787,1,0,0:0:0:0:
320,192,90870,1,0,0:0:0:0:
192,192,90954,1,0,0:0:0:0:
320,192,91037,1,0,0:0:0:0:
448,192,91120,1,0,0:0:0:0:
64,192,91120,1,0,0:0:0:0:
192,192,91204,1,0,0:0:0:0:
64,192,91287,1,0,0:0:0:0:
320,192,91370,1,0,0:0:0:0:
192,192,91454,1,0,0:0:0:0:
448,192,91537,1,0,0:0:0:0:
320,192,91620,1,0,0:0:0:0:
192,192,91704,1,0,0:0:0:0:
64,192,91787,1,0,0:0:0:0:
320,192,91787,128,0,91954:0:0:0:0:
192,192,91954,128,0,92120:0:0:0:0:
64,192,92120,1,0,0:0:0:0:
320,192,92204,1,0,0:0:0:0:
448,192,92287,1,0,0:0:0:0:
192,192,92370,1,0,0:0:0:0:
64,192,92454,1,0,0:0:0:0:
320,192,92454,1,0,0:0:0:0:
448,192,92537,1,0,0:0:0:0:
192,192,92620,1,0,0:0:0:0:
320,192,92704,1,0,0:0:0:0:
64,192,92787,1,0,0:0:0:0:
448,192,92870,1,0,0:0:0:0:
320,192,92954,1,0,0:0:0:0:
192,192,93037,1,0,0:0:0:0:
64,192,93120,128,0,93287:0:0:0:0:
448,192,93120,1,0,0:0:0:0:
192,192,93287,128,0,93454:0:0:0:0:
448,192,93454,1,0,0:0:0:0:
320,192,93537,1,0,0:0:0:0:
64,192,93620,1,0,0:0:0:0:
192,192,93704,1,0,0:0:0:0:
448,192,93787,1,0,0:0:0:0:
320,192,93787,1,0,0:0:0:0:
64,192,93870,1,0,0:0:0:0:
320,192,93954,1,0,0:0:0:0:
192,192,94037,1,0,0:0:0:0:
448,192,94120,1,0,0:0:0:0:
320,192,94204,1,0,0:0:0:0:
192,192,94287,1,0,0:0:0:0:
64,192,94370,1,0,0:0:0:0:
448,192,94454,128,0,94620:0:0:0:0:
320,192,94454,1,0,0:0:0:0:
192,192,94620,128,0,94787:0:0:0:0:
64,192,94787,1,0,0:0:0:0:
448,192,94870,1,0,0:0:0:0:
320,192,94954,1,0,0:0:0:0:
192,192,95037,1,0,0:0:0:0:
448,192,95120,1,0,0:0:0:0:
64,192,95120,1,0,0:0:0:0:
320,192,95204,1,0,0:0:0:0:
192,192,95287,1,0,0:0:0:0:
448,192,95370,1,0,0:0:0:0:
64,192,95454,1,0,0:0:0:0:
320,192,95537,1,0,0:0:0:0:
192,192,95620,1,0,0:0:0:0:
320,192,95704,1,0,0:0:0:0:
64,192,95787,128,0,95954:0:0:0:0:
448,192,95787,1,0,0:0:0:0:
320,192,95954,128,0,96120:0:0:0:0:
448,192,96120,1,0,0:0:0:0:
192,192,96204,1,0,0:0:0:0:
320,192,96287,1,0,0:0:0:0:
192,192,96370,1,0,0:0:0:0:
448,192,96454,1,0,0:0:0:0:
64,192,96454,1,0,0:0:0:0:
320,192,96537,1,0,0:0:0:0:
448,192,96620,1,0,0:0:0:0:
192,192,96704,1,0,0:0:0:0:
320,192,96787,1,0,0:0:0:0:
64,192,96870,1,0,0:0:0:0:
448,192,96870,1,0,0:0:0:0:
192,192,96954,1,0,0:0:0:0:
320,192,97037,1,0,0:0:0:0:
64,192,97120,128,0,97287:0:0:0:0:
448,192,97120,1,0,0:0:0:0:
192,192,97287,128,0,97454:0:0:0:0:
448,192,97454,1,0,0:0:0:0:
320,192,97454,1,0,0:0:0:0:
64,192,97537,1,0,0:0:0:0:
192,192,97620,1,0,0:0:0:0:
320,192,97704,1,0,0:0:0:0:
448,192,97787,1,0,0:0:0:0:
64,192,97787,1,0,0:0:0:0:
192,192,97870,1,0,0:0:0:0:
64,192,97954,1,0,0:0:0:0:
448,192,98037,1,0,0:0:0:0:
192,192,98120,1,0,0:0:0:0:
320,192,98204,1,0,0:0:0:0:
448,192,98287,1,0,0:0:0:0:
64,192,98370,1,0,0:0:0:0:
320,192,98454,1,0,0:0:0:0:
192,192,98454,128,0,98620:0:0:0:0:
448,192,98620,128,0,98787:0:0:0:0:
64,192,98787,1,0,0:0:0:0:
320,192,98870,1,0,0:0:0:0:
192,192,98954,1,0,0:0:0:0:
320,192,99037,1,0,0:0:0:0:
448,192,99120,1,0,0:0:0:0:
64,192,99120,1,0,0:0:0:0:
192,192,99204,1,0,0:0:0:0:
64,192,99287,1,0,0:0:0:0:
448,192,99370,1,0,0:0:0:0:
320,192,99454,1,0,0:0:0:0:
448,192,99537,1,0,0:0:0:0:
192,192,99620,1,0,0:0:0:0:
320,192,99704,1,0,0:0:0:0:
448,192,99787,1,0,0:0:0:0:
64,192,99787,128,0,99954:0:0:0:0:
320,192,99954,128,0,100120:0:0:0:0:
448,192,100120,1,0,0:0:0:0:
192,192,100204,1,0,0:0:0:0:
320,192,100287,1,0,0:0:0:0:
448,192,100370,1,0,0:0:0:0:
192,192,100454,1,0,0:0:0:0:
64,192,100454,1,0,0:0:0:0:
320,192,100537,1,0,0:0:0:0:
64,192,100620,1,0,0:0:0:0:
448,192,100704,1,0,0:0:0:0:
192,192,100787,1,0,0:0:0:0:
320,192,100870,1,0,0:0:0:0:
448,192,100954,1,0,0:0:0:0:
192,192,101037,1,0,0:0:0:0:
64,192,101120,1,0,0:0:0:0:
320,192,101120,128,0,101287:0:0:0:0:
192,192,101287,128,0,101454:0:0:0:0:
448,192,101454,1,0,0:0:0:0:
320,192,101537,1,0,0:0:0:0:
64,192,101620,1,0,0:0:0:0:
192,192,101704,1,0,0:0:0:0:
320,192,101787,1,0,0:0:0:0:
448,192,101787,1,0,0:0:0:0:
64,192,101870,1,0,0:0:0:0:
320,192,101954,1,0,0:0:0:0:
192,192,102037,1,0,0:0:0:0:
448,192,102120,1,0,0:0:0:0:
64,192,102204,1,0,0:0:0:0:
320,192,102287,1,0,0:0:0:0:
192,192,102370,1,0,0:0:0:0:
64,192,102454,1,0,0:0:0:0:
448,192,102454,128,0,102620:0:0:0:0:
320,192,102620,128,0,102787:0:0:0:0:
64,192,102787,1,0,0:0:0:0:
192,192,102787,1,0,0:0:0:0:
448,192,102870,1,0,0:0:0:0:
320,192,102954,1,0,0:0:0:0:
192,192,103037,1,0,0:0:0:0:
64,192,103120,1,0,0:0:0:0:
448,192,103120,1,0,0:0:0:0:
320,192,103204,1,0,0:0:0:0:
448,192,103287,1,0,0:0:0:0:
64,192,103370,1,0,0:0:0:0:
320,192,103454,1,0,0:0:0:0:
192,192,103537,1,0,0:0:0:0:
64,192,103620,1,0,0:0:0:0:
448,192,103704,1,0,0:0:0:0:
192,192,103787,1,0,0:0:0:0:
320,192,103787,128,0,103954:0:0:0:0:
64,192,103954,128,0,104120:0:0:0:0:
448,192,104120,1,0,0:0:0:0:
320,192,104120,1,0,0:0:0:0:
192,192,104204,1,0,0:0:0:0:
320,192,104287,1,0,0:0:0:0:
192,192,104370,1,0,0:0:0:0:
64,192,104454,1,0,0:0:0:0:
448,192,104454,1,0,0:0:0:0:
320,192,104537,1,0,0:0:0:0:
448,192,104620,1,0,0:0:0:0:
64,192,104704,1,0,0:0:0:0:
192,192,104787,1,0,0:0:0:0:
64,192,104870,1,0,0:0:0:0:
320,192,104954,1,0,0:0:0:0:
192,192,105037,1,0,0:0:0:0:
64,192,105120,1,0,0:0:0:0:
448,192,105120,128,0,105287:0:0:0:0:
192,192,105287,128,0,105454:0:0:0:0:
64,192,105454,1,0,0:0:0:0:
448,192,105454,1,0,0:0:0:0:
320,192,105537,1,0,0:0:0:0:
192,192,105620,1,0,0:0:0:0:
64,192,105704,1,0,0:0:0:0:
320,192,105787,1,0,0:0:0:0:
448,192,105787,1,0,0:0:0:0:
64,192,105870,1,0,0:0:0:0:
320,192,105954,1,0,0:0:0:0:
192,192,106037,1,0,0:0:0:0:
448,192,106120,1,0,0:0:0:0:
64,192,106204,1,0,0:0:0:0:
448,192,106287,1,0,0:0:0:0:
320,192,106370,1,0,0:0:0:0:
192,192,106454,1,0,0:0:0:0:
64,192,106454,1,0,0:0:0:0:
448,192,106537,1,0,0:0:0:0:
192,192,106620,1,0,0:0:0:0:
320,192,106704,1,0,0:0:0:0:
448,192,106787,1,0,0:0:0:0:
64,192,106870,1,0,0:0:0:0:
192,192,106954,1,0,0:0:0:0:
320,192,107037,1,0,0:0:0:0:
448,192,107120,1,0,0:0:0:0:
64,192,107120,1,0,0:0:0:0:
192,192,107204,1,0,0:0:0:0:
320,192,107287,1,0,0:0:0:0:
448,192,107370,1,0,0:0:0:0:
64,192,107454,1,0,0:0:0:0:
320,192,107537,1,0,0:0:0:0:
448,192,107537,1,0,0:0:0:0:
192,192,107620,1,0,0:0:0:0:
64,192,107704,1,0,0:0:0:0:
320,192,107787,1,0,0:0:0:0:
448,192,107787,1,0,0:0:0:0:
192,192,107870,1,0,0:0:0:0:
64,192,107954,1,0,0:0:0:0:
320,192,108037,1,0,0:0:0:0:
448,192,108120,1,0,0:0:0:0:
192,192,108120,1,0,0:0:0:0:
64,192,108287,1,0,0:0:0:0:
192,192,108454,1,0,0:0:0:0:
448,192,108620,1,0,0:0:0:0:
64,192,108954,1,0,0:0:0:0:
192,192,109120,1,0,0:0:0:0:
320,192,109287,1,0,0:0:0:0:
64,192,109620,1,0,0:0:0:0:
192,192,109787,1,0,0:0:0:0:
320,192,109954,1,0,0:0:0:0:
192,192,110287,1,0,0:0:0:0:
448,192,110620,128,0,113454:0:0:0:0:
