osu file format v14

[General]
AudioFilename: audio.mp3
AudioLeadIn: 0
PreviewTime: 52169
Countdown: 0
SampleSet: Soft
StackLeniency: 0.4
Mode: 0
LetterboxInBreaks: 0
EpilepsyWarning: 1
WidescreenStoryboard: 1

[Editor]
Bookmarks: 101,11135,22169,33204,44238,55273,66307,77342,88376,99411
DistanceSpacing: 1.2
BeatDivisor: 4
GridSize: 16
TimelineZoom: 2.2

[Metadata]
Title:Living in a Dream feat. Natalie Major (Feint Remix) (Cut Ver.)
TitleUnicode:Living in a Dream feat. Natalie Major (Feint Remix) (Cut Ver.)
Artist:Quinn Karter
ArtistUnicode:Quinn Karter
Creator:Tachibana_
Version:Broken Reality
Source:
Tags:liquicity Kujinn English edm dnb d&b Electronic Akane-_ drum and bass Baack Ryxliee Nymphe Kiyoshi Guarden Kang Sae-byeok Le Mirai SirMirai Cacturne Reform browiec Seroshii
BeatmapID:3627869
BeatmapSetID:1448953

[Difficulty]
HPDrainRate:6
CircleSize:4
OverallDifficulty:8.8
ApproachRate:9.4
SliderMultiplier:1.92
SliderTickRate:1

[Events]
//Background and Video events
0,0,"Background.jpg",0,0
//Break Periods
//Storyboard Layer 0 (Background)
//Storyboard Layer 1 (Fail)
//Storyboard Layer 2 (Pass)
//Storyboard Layer 3 (Foreground)
Sprite,Foreground,Centre,"sb\circ.png",0,0 C,0,55273,,168,168,255 M,0,55273,55316,132,69,139.579,94.78909 F,2,55273,55931,1,0 S,2,55273,55931,0.5,1 P,0,55273,55931,A M,0,55316,55359,139.579,94.78909,146.7919,120.6828 M,0,55359,55402,146.7919,120.6828,153.6373,146.6761 M,0,55402,55445,153.6373,146.6761,160.1249,172.7611 M,0,55445,55488,160.1249,172.7611,166.2212,198.9402 M,0,55488,55531,166.2212,198.9402,171.9462,225.2031
Sprite,Foreground,Centre,"sb\circ.png",160,233 C,0,55618,,168,168,255 F,2,55618,56018,1,0 S,2,55618,56018,0.5,1 P,0,55618,56018,A
Sprite,Foreground,Centre,"sb\circ.png",293,78 C,0,55790,,168,168,255 F,2,55790,56190,1,0 S,2,55790,56190,0.5,1 P,0,55790,56190,A
Sprite,Foreground,Centre,"sb\circ.png",293,78 C,0,55876,,168,168,255 F,2,55876,56276,1,0 S,2,55876,56276,0.5,1 P,0,55876,56276,A
Sprite,Foreground,Centre,"sb\circ.png",293,78 C,0,55963,,168,168,255 F,2,55963,56363,1,0 S,2,55963,56363,0.5,1 P,0,55963,56363,A
Sprite,Foreground,Centre,"sb\circ.png",0,0 C,0,56135,,168,168,255 M,0,56135,56178,383,264,372.2136,285.9448 F,2,56135,56621,1,0 S,2,56135,56621,0.5,1 P,0,56135,56621,A M,0,56178,56221,372.2136,285.9448,364.0064,308.9787
Sprite,Foreground,Centre,"sb\circ.png",0,0 C,0,56307,,168,168,255 M,0,56307,56350,374,254,362.8997,278.4698 F,2,56307,56879,1,0 S,2,56307,56879,0.5,1 P,0,56307,56879,A M,0,56350,56393,362.8997,278.4698,353.8426,303.7644 M,0,56393,56436,353.8426,303.7644,346.8891,329.7142 M,0,56436,56479,346.8891,329.7142,342,356
Sprite,Foreground,Centre,"sb\circ.png",271,151 C,0,56652,,237,243,194 F,2,56652,57052,1,0 S,2,56652,57052,0.5,1 P,0,56652,57052,A
Sprite,Foreground,Centre,"sb\circ.png",414,88 C,0,56825,,237,243,194 F,2,56825,57225,1,0 S,2,56825,57225,0.5,1 P,0,56825,57225,A
Sprite,Foreground,Centre,"sb\circ.png",465,311 C,0,56997,,129,223,254 F,2,56997,57397,1,0 S,2,56997,57397,0.5,1 P,0,56997,57397,A
Sprite,Foreground,Centre,"sb\circ.png",295,226 C,0,57170,,129,223,254 F,2,57170,57570,1,0 S,2,57170,57570,0.5,1 P,0,57170,57570,A
Sprite,Foreground,Centre,"sb\circ.png",513,72 C,0,57342,,233,166,255 F,2,57342,57742,1,0 S,2,57342,57742,0.5,1 P,0,57342,57742,A
Sprite,Foreground,Centre,"sb\circ.png",576,327 C,0,57515,,233,166,255 F,2,57515,57915,1,0 S,2,57515,57915,0.5,1 P,0,57515,57915,A
Sprite,Foreground,Centre,"sb\circ.png",392,206 C,0,57687,,233,166,255 F,2,57687,58087,1,0 S,2,57687,58087,0.5,1 P,0,57687,58087,A
Sprite,Foreground,Centre,"sb\circ.png",576,119 C,0,57860,,233,166,255 F,2,57860,58260,1,0 S,2,57860,58260,0.5,1 P,0,57860,58260,A
Sprite,Foreground,Centre,"sb\circ.png",0,0 C,0,58032,,168,168,255 M,0,58032,58075,513,393,486.7196,387.5613 F,2,58032,58690,1,0 S,2,58032,58690,0.5,1 P,0,58032,58690,A M,0,58075,58118,486.7196,387.5613,463.373,374.665 M,0,58118,58161,463.373,374.665,447.5506,353.0777 M,0,58161,58204,447.5506,353.0777,431.008,332.071 M,0,58204,58247,431.008,332.071,407.5732,319.2142 M,0,58247,58290,407.5732,319.2142,381.4978,312.8353
Sprite,Foreground,Centre,"sb\circ.png",362,325 C,0,58376,,168,168,255 F,2,58376,58776,1,0 S,2,58376,58776,0.5,1 P,0,58376,58776,A
Sprite,Foreground,Centre,"sb\circ.png",488,175 C,0,58549,,168,168,255 F,2,58549,58949,1,0 S,2,58549,58949,0.5,1 P,0,58549,58949,A
Sprite,Foreground,Centre,"sb\circ.png",488,175 C,0,58636,,168,168,255 F,2,58636,59036,1,0 S,2,58636,59036,0.5,1 P,0,58636,59036,A
Sprite,Foreground,Centre,"sb\circ.png",488,175 C,0,58722,,168,168,255 F,2,58722,59122,1,0 S,2,58722,59122,0.5,1 P,0,58722,59122,A
Sprite,Foreground,Centre,"sb\circ.png",0,0 C,0,58894,,168,168,255 M,0,58894,58937,273,88,278.8975,111.759 F,2,58894,59380,1,0 S,2,58894,59380,0.5,1 P,0,58894,59380,A M,0,58937,58980,278.8975,111.759,284.6581,135.5515
Sprite,Foreground,Centre,"sb\circ.png",0,0 C,0,59066,,168,168,255 M,0,59066,59109,260,84,266.2546,110.1422 F,2,59066,59638,1,0 S,2,59066,59638,0.5,1 P,0,59066,59638,A M,0,59109,59152,266.2546,110.1422,272.6398,136.2527 M,0,59152,59195,272.6398,136.2527,279.1396,162.3351 M,0,59195,59238,279.1396,162.3351,285.741,188.3918
Sprite,Foreground,Centre,"sb\circ.png",488,88 C,0,59411,,237,243,194 F,2,59411,59811,1,0 S,2,59411,59811,0.5,1 P,0,59411,59811,A
Sprite,Foreground,Centre,"sb\circ.png",441,248 C,0,59583,,237,243,194 F,2,59583,59983,1,0 S,2,59583,59983,0.5,1 P,0,59583,59983,A
Sprite,Foreground,Centre,"sb\circ.png",285,187 C,0,59756,,129,223,254 F,2,59756,60156,1,0 S,2,59756,60156,0.5,1 P,0,59756,60156,A
Sprite,Foreground,Centre,"sb\circ.png",353,357 C,0,59928,,129,223,254 F,2,59928,60328,1,0 S,2,59928,60328,0.5,1 P,0,59928,60328,A
Sprite,Foreground,Centre,"sb\circ.png",512,168 C,0,60101,,129,223,254 F,2,60101,60501,1,0 S,2,60101,60501,0.5,1 P,0,60101,60501,A
Sprite,Foreground,Centre,"sb\circ.png",272,264 C,0,60273,,129,223,254 F,2,60273,60673,1,0 S,2,60273,60673,0.5,1 P,0,60273,60673,A
Sprite,Foreground,Centre,"sb\circ.png",488,394 C,0,60445,,129,223,254 F,2,60445,60845,1,0 S,2,60445,60845,0.5,1 P,0,60445,60845,A
Sprite,Foreground,Centre,"sb\circ.png",400,166 C,0,60618,,129,223,254 F,2,60618,61018,1,0 S,2,60618,61018,0.5,1 P,0,60618,61018,A
Sprite,Foreground,Centre,"sb\circ.png",0,0 C,0,60790,,233,166,255 M,0,60790,60833,216,403,194.1597,418.2733 F,2,60790,61448,1,0 S,2,60790,61448,0.5,1 P,0,60790,61448,A M,0,60833,60876,194.1597,418.2733,182.7206,441.8079 M,0,60876,60919,182.7206,441.8079,162.4375,424.2715 M,0,60919,60962,162.4375,424.2715,148.0958,401.6877 M,0,60962,61005,148.0958,401.6877,142.3732,375.5628 M,0,61005,61048,142.3732,375.5628,144.8344,348.8734
Sprite,Foreground,Centre,"sb\circ.png",133,337 C,0,61135,,233,166,255 F,2,61135,61535,1,0 S,2,61135,61535,0.5,1 P,0,61135,61535,A
Sprite,Foreground,Centre,"sb\circ.png",278,207 C,0,61307,,233,166,255 F,2,61307,61707,1,0 S,2,61307,61707,0.5,1 P,0,61307,61707,A
Sprite,Foreground,Centre,"sb\circ.png",278,207 C,0,61393,,233,166,255 F,2,61393,61793,1,0 S,2,61393,61793,0.5,1 P,0,61393,61793,A
Sprite,Foreground,Centre,"sb\circ.png",278,207 C,0,61480,,233,166,255 F,2,61480,61880,1,0 S,2,61480,61880,0.5,1 P,0,61480,61880,A
Sprite,Foreground,Centre,"sb\circ.png",0,0 C,0,61652,,233,166,255 M,0,61652,61695,78,103,81.34488,127.2504 F,2,61652,62138,1,0 S,2,61652,62138,0.5,1 P,0,61652,62138,A M,0,61695,61738,81.34488,127.2504,84.68977,151.5008
Sprite,Foreground,Centre,"sb\circ.png",0,0 C,0,61825,,233,166,255 M,0,61825,61868,65,94,68.96458,120.586 F,2,61825,62397,1,0 S,2,61825,62397,0.5,1 P,0,61825,62397,A M,0,61868,61911,68.96458,120.586,72.92917,147.172 M,0,61911,61954,72.92917,147.172,76.89375,173.7581 M,0,61954,61997,76.89375,173.7581,80.85833,200.3441
Sprite,Foreground,Centre,"sb\circ.png",320,134 C,0,62169,,168,168,255 F,2,62169,62569,1,0 S,2,62169,62569,0.5,1 P,0,62169,62569,A
Sprite,Foreground,Centre,"sb\circ.png",134,258 C,0,62342,,168,168,255 F,2,62342,62742,1,0 S,2,62342,62742,0.5,1 P,0,62342,62742,A
Sprite,Foreground,Centre,"sb\circ.png",344,310 C,0,62514,,237,243,194 F,2,62514,62914,1,0 S,2,62514,62914,0.5,1 P,0,62514,62914,A
Sprite,Foreground,Centre,"sb\circ.png",159,167 C,0,62687,,237,243,194 F,2,62687,63087,1,0 S,2,62687,63087,0.5,1 P,0,62687,63087,A
Sprite,Foreground,Centre,"sb\circ.png",98,423 C,0,62859,,129,223,254 F,2,62859,63259,1,0 S,2,62859,63259,0.5,1 P,0,62859,63259,A
Sprite,Foreground,Centre,"sb\circ.png",232,195 C,0,63032,,129,223,254 F,2,63032,63432,1,0 S,2,63032,63432,0.5,1 P,0,63032,63432,A
Sprite,Foreground,Centre,"sb\circ.png",344,409 C,0,63204,,129,223,254 F,2,63204,63604,1,0 S,2,63204,63604,0.5,1 P,0,63204,63604,A
Sprite,Foreground,Centre,"sb\circ.png",111,240 C,0,63376,,129,223,254 F,2,63376,63776,1,0 S,2,63376,63776,0.5,1 P,0,63376,63776,A
Sprite,Foreground,Centre,"sb\circ.png",337,71 C,0,63549,,233,166,255 F,2,63549,63949,1,0 S,2,63549,63949,0.5,1 P,0,63549,63949,A
Sprite,Foreground,Centre,"sb\circ.png",512,182 C,0,63721,,233,166,255 F,2,63721,64121,1,0 S,2,63721,64121,0.5,1 P,0,63721,64121,A
Sprite,Foreground,Centre,"sb\circ.png",331,171 C,0,63894,,168,168,255 F,2,63894,64294,1,0 S,2,63894,64294,0.5,1 P,0,63894,64294,A
Sprite,Foreground,Centre,"sb\circ.png",185,248 C,0,64066,,168,168,255 F,2,64066,64466,1,0 S,2,64066,64466,0.5,1 P,0,64066,64466,A
Sprite,Foreground,Centre,"sb\circ.png",362,263 C,0,64238,,237,243,194 F,2,64238,64638,1,0 S,2,64238,64638,0.5,1 P,0,64238,64638,A
Sprite,Foreground,Centre,"sb\circ.png",479,328 C,0,64410,,237,243,194 F,2,64410,64810,1,0 S,2,64410,64810,0.5,1 P,0,64410,64810,A
Sprite,Foreground,Centre,"sb\circ.png",0,0 C,0,64583,,129,223,254 M,0,64583,64626,320,362,293.3446,365.3483 F,2,64583,65241,1,0 S,2,64583,65241,0.5,1 P,0,64583,65241,A M,0,64626,64669,293.3446,365.3483,267.7215,373.2356 M,0,64669,64712,267.7215,373.2356,245.5175,388.2354 M,0,64712,64755,245.5175,388.2354,223.1816,403.0418 M,0,64755,64798,223.1816,403.0418,197.6639,411.3086 M,0,64798,64841,197.6639,411.3086,171.1127,415.4103
Sprite,Foreground,Centre,"sb\circ.png",156,428 C,0,64928,,129,223,254 F,2,64928,65328,1,0 S,2,64928,65328,0.5,1 P,0,64928,65328,A
Sprite,Foreground,Centre,"sb\circ.png",278,247 C,0,65101,,129,223,254 F,2,65101,65501,1,0 S,2,65101,65501,0.5,1 P,0,65101,65501,A
Sprite,Foreground,Centre,"sb\circ.png",278,247 C,0,65187,,129,223,254 F,2,65187,65587,1,0 S,2,65187,65587,0.5,1 P,0,65187,65587,A
Sprite,Foreground,Centre,"sb\circ.png",278,247 C,0,65273,,129,223,254 F,2,65273,65673,1,0 S,2,65273,65673,0.5,1 P,0,65273,65673,A
Sprite,Foreground,Centre,"sb\circ.png",400,339 C,0,65445,,233,166,255 F,2,65445,65845,1,0 S,2,65445,65845,0.5,1 P,0,65445,65845,A
Sprite,Foreground,Centre,"sb\circ.png",367,142 C,0,65618,,233,166,255 F,2,65618,66018,1,0 S,2,65618,66018,0.5,1 P,0,65618,66018,A
Sprite,Foreground,Centre,"sb\circ.png",370,154 C,0,65704,,233,166,255 F,2,65704,66104,1,0 S,2,65704,66104,0.5,1 P,0,65704,66104,A
Sprite,Foreground,Centre,"sb\circ.png",0,0 C,0,65790,,233,166,255 M,0,65790,65833,373,164,377.3367,188.0928 F,2,65790,66276,1,0 S,2,65790,66276,0.5,1 P,0,65790,66276,A M,0,65833,65876,377.3367,188.0928,381.6734,212.1856
Sprite,Foreground,Centre,"sb\circ.png",0,0 C,0,65963,,168,168,255 M,0,65963,66006,568,56,562.0732,79.74974 F,2,65963,66535,1,0 S,2,65963,66535,0.5,1 P,0,65963,66535,A M,0,66006,66049,562.0732,79.74974,556.9128,103.6768 M,0,66049,66092,556.9128,103.6768,552.5695,127.7656 M,0,66092,66135,552.5695,127.7656,549.0023,151.9824
Sprite,Foreground,Centre,"sb\circ.png",543,163 C,0,66221,,168,168,255 F,2,66221,66621,1,0 S,2,66221,66621,0.5,1 P,0,66221,66621,A
Sprite,Foreground,Centre,"sb\circ.png",0,0 C,0,66307,,237,243,194 M,0,66307,66350,535,170,509.6522,178.0373 F,2,66307,66965,1,0 S,2,66307,66965,0.5,1 P,0,66307,66965,A M,0,66350,66393,509.6522,178.0373,483.3482,174.7387 M,0,66393,66436,483.3482,174.7387,460.879,160.7536 M,0,66436,66479,460.879,160.7536,446.1094,138.7644 M,0,66479,66522,446.1094,138.7644,442.4592,112.4961 M,0,66522,66565,442.4592,112.4961,450.1271,87.16048
Sprite,Foreground,Centre,"sb\circ.png",439,70 C,0,66652,,237,243,194 F,2,66652,67052,1,0 S,2,66652,67052,0.5,1 P,0,66652,67052,A
Sprite,Foreground,Centre,"sb\circ.png",558,259 C,0,66825,,237,243,194 F,2,66825,67225,1,0 S,2,66825,67225,0.5,1 P,0,66825,67225,A
Sprite,Foreground,Centre,"sb\circ.png",558,259 C,0,66911,,237,243,194 F,2,66911,67311,1,0 S,2,66911,67311,0.5,1 P,0,66911,67311,A
Sprite,Foreground,Centre,"sb\circ.png",558,259 C,0,66998,,237,243,194 F,2,66998,67398,1,0 S,2,66998,67398,0.5,1 P,0,66998,67398,A
Sprite,Foreground,Centre,"sb\circ.png",0,0 C,0,67169,,237,243,194 M,0,67169,67212,336,344,339.3449,319.7496 F,2,67169,67655,1,0 S,2,67169,67655,0.5,1 P,0,67169,67655,A M,0,67212,67255,339.3449,319.7496,342.6898,295.4992
Sprite,Foreground,Centre,"sb\circ.png",0,0 C,0,67342,,237,243,194 M,0,67342,67385,323,353,326.2783,328.7405 F,2,67342,67914,1,0 S,2,67342,67914,0.5,1 P,0,67342,67914,A M,0,67385,67428,326.2783,328.7405,329.5566,304.481 M,0,67428,67471,329.5566,304.481,332.8349,280.2215 M,0,67471,67514,332.8349,280.2215,336.1133,255.962
Sprite,Foreground,Centre,"sb\circ.png",124,185 C,0,67687,,129,223,254 F,2,67687,68087,1,0 S,2,67687,68087,0.5,1 P,0,67687,68087,A
Sprite,Foreground,Centre,"sb\circ.png",206,397 C,0,67859,,129,223,254 F,2,67859,68259,1,0 S,2,67859,68259,0.5,1 P,0,67859,68259,A
Sprite,Foreground,Centre,"sb\circ.png",302,88 C,0,68032,,233,166,255 F,2,68032,68432,1,0 S,2,68032,68432,0.5,1 P,0,68032,68432,A
Sprite,Foreground,Centre,"sb\circ.png",240,310 C,0,68204,,233,166,255 F,2,68204,68604,1,0 S,2,68204,68604,0.5,1 P,0,68204,68604,A
Sprite,Foreground,Centre,"sb\circ.png",96,56 C,0,68376,,168,168,255 F,2,68376,68776,1,0 S,2,68376,68776,0.5,1 P,0,68376,68776,A
Sprite,Foreground,Centre,"sb\circ.png",364,231 C,0,68549,,168,168,255 F,2,68549,68949,1,0 S,2,68549,68949,0.5,1 P,0,68549,68949,A
Sprite,Foreground,Centre,"sb\circ.png",79,327 C,0,68721,,168,168,255 F,2,68721,69121,1,0 S,2,68721,69121,0.5,1 P,0,68721,69121,A
Sprite,Foreground,Centre,"sb\circ.png",206,56 C,0,68894,,168,168,255 F,2,68894,69294,1,0 S,2,68894,69294,0.5,1 P,0,68894,69294,A
Sprite,Foreground,Centre,"sb\circ.png",0,0 C,0,69066,,237,243,194 M,0,69066,69109,365,318,390.7101,310.1563 F,2,69066,69724,1,0 S,2,69066,69724,0.5,1 P,0,69066,69724,A M,0,69109,69152,390.7101,310.1563,416.4202,302.3125 M,0,69152,69195,416.4202,302.3125,432.2562,282.9372 M,0,69195,69238,432.2562,282.9372,449.893,265.6483 M,0,69238,69281,449.893,265.6483,475.5843,257.7433 M,0,69281,69324,475.5843,257.7433,501.2757,249.8383
Sprite,Foreground,Centre,"sb\circ.png",508,234 C,0,69411,,237,243,194 F,2,69411,69811,1,0 S,2,69411,69811,0.5,1 P,0,69411,69811,A
Sprite,Foreground,Centre,"sb\circ.png",422,401 C,0,69583,,237,243,194 F,2,69583,69983,1,0 S,2,69583,69983,0.5,1 P,0,69583,69983,A
Sprite,Foreground,Centre,"sb\circ.png",422,401 C,0,69669,,237,243,194 F,2,69669,70069,1,0 S,2,69669,70069,0.5,1 P,0,69669,70069,A
Sprite,Foreground,Centre,"sb\circ.png",422,401 C,0,69756,,237,243,194 F,2,69756,70156,1,0 S,2,69756,70156,0.5,1 P,0,69756,70156,A
Sprite,Foreground,Centre,"sb\circ.png",0,0 C,0,69928,,237,243,194 M,0,69928,69971,310,222,286.1626,224.9608 F,2,69928,70414,1,0 S,2,69928,70414,0.5,1 P,0,69928,70414,A M,0,69971,70014,286.1626,224.9608,266.5681,238.5239
Sprite,Foreground,Centre,"sb\circ.png",0,0 C,0,70101,,237,243,194 M,0,70101,70144,318,212,293.7172,212.2231 F,2,70101,70759,1,0 S,2,70101,70759,0.5,1 P,0,70101,70759,A M,0,70144,70187,293.7172,212.2231,270.801,220 M,0,70187,70230,270.801,220,251.7524,234.9342 M,0,70230,70273,251.7524,234.9342,238.7245,255.3431 M,0,70273,70316,238.7245,255.3431,233.1932,278.926 M,0,70316,70359,233.1932,278.926,235.7907,303.0221
Sprite,Foreground,Centre,"sb\circ.png",227,319 C,0,70445,,129,223,254 F,2,70445,70845,1,0 S,2,70445,70845,0.5,1 P,0,70445,70845,A
Sprite,Foreground,Centre,"sb\circ.png",408,167 C,0,70618,,129,223,254 F,2,70618,71018,1,0 S,2,70618,71018,0.5,1 P,0,70618,71018,A
Sprite,Foreground,Centre,"sb\circ.png",184,70 C,0,70790,,233,166,255 F,2,70790,71190,1,0 S,2,70790,71190,0.5,1 P,0,70790,71190,A
Sprite,Foreground,Centre,"sb\circ.png",394,243 C,0,70963,,233,166,255 F,2,70963,71363,1,0 S,2,70963,71363,0.5,1 P,0,70963,71363,A
Sprite,Foreground,Centre,"sb\circ.png",144,327 C,0,71135,,168,168,255 F,2,71135,71535,1,0 S,2,71135,71535,0.5,1 P,0,71135,71535,A
Sprite,Foreground,Centre,"sb\circ.png",272,73 C,0,71307,,168,168,255 F,2,71307,71707,1,0 S,2,71307,71707,0.5,1 P,0,71307,71707,A
Sprite,Foreground,Centre,"sb\circ.png",386,341 C,0,71480,,168,168,255 F,2,71480,71880,1,0 S,2,71480,71880,0.5,1 P,0,71480,71880,A
Sprite,Foreground,Centre,"sb\circ.png",112,168 C,0,71652,,168,168,255 F,2,71652,72052,1,0 S,2,71652,72052,0.5,1 P,0,71652,72052,A
Sprite,Foreground,Centre,"sb\circ.png",0,0 C,0,71825,,237,243,194 M,0,71825,71868,384,56,410.2804,61.43868 F,2,71825,72483,1,0 S,2,71825,72483,0.5,1 P,0,71825,72483,A M,0,71868,71911,410.2804,61.43868,433.627,74.335 M,0,71911,71954,433.627,74.335,449.4494,95.92233 M,0,71954,71997,449.4494,95.92233,465.992,116.929 M,0,71997,72040,465.992,116.929,489.4268,129.7858 M,0,72040,72083,489.4268,129.7858,515.5023,136.1647
Sprite,Foreground,Centre,"sb\circ.png",524,153 C,0,72169,,237,243,194 F,2,72169,72569,1,0 S,2,72169,72569,0.5,1 P,0,72169,72569,A
Sprite,Foreground,Centre,"sb\circ.png",344,226 C,0,72342,,237,243,194 F,2,72342,72742,1,0 S,2,72342,72742,0.5,1 P,0,72342,72742,A
Sprite,Foreground,Centre,"sb\circ.png",344,226 C,0,72428,,237,243,194 F,2,72428,72828,1,0 S,2,72428,72828,0.5,1 P,0,72428,72828,A
Sprite,Foreground,Centre,"sb\circ.png",344,226 C,0,72514,,237,243,194 F,2,72514,72914,1,0 S,2,72514,72914,0.5,1 P,0,72514,72914,A
Sprite,Foreground,Centre,"sb\circ.png",0,0 C,0,72687,,237,243,194 M,0,72687,72730,534,345,530.6552,320.7496 F,2,72687,73173,1,0 S,2,72687,73173,0.5,1 P,0,72687,73173,A M,0,72730,72773,530.6552,320.7496,527.3102,296.4992
Sprite,Foreground,Centre,"sb\circ.png",0,0 C,0,72860,,237,243,194 M,0,72860,72903,547,354,544.2264,329.6776 F,2,72860,73432,1,0 S,2,72860,73432,0.5,1 P,0,72860,73432,A M,0,72903,72946,544.2264,329.6776,541.4528,305.3553 M,0,72946,72989,541.4528,305.3553,538.6792,281.0329 M,0,72989,73032,538.6792,281.0329,535.9056,256.7105
Sprite,Foreground,Centre,"sb\circ.png",446,102 C,0,73204,,129,223,254 F,2,73204,73604,1,0 S,2,73204,73604,0.5,1 P,0,73204,73604,A
Sprite,Foreground,Centre,"sb\circ.png",384,325 C,0,73376,,129,223,254 F,2,73376,73776,1,0 S,2,73376,73776,0.5,1 P,0,73376,73776,A
Sprite,Foreground,Centre,"sb\circ.png",253,87 C,0,73549,,233,166,255 F,2,73549,73949,1,0 S,2,73549,73949,0.5,1 P,0,73549,73949,A
Sprite,Foreground,Centre,"sb\circ.png",480,182 C,0,73721,,233,166,255 F,2,73721,74121,1,0 S,2,73721,74121,0.5,1 P,0,73721,74121,A
Sprite,Foreground,Centre,"sb\circ.png",224,296 C,0,73894,,168,168,255 F,2,73894,74294,1,0 S,2,73894,74294,0.5,1 P,0,73894,74294,A
Sprite,Foreground,Centre,"sb\circ.png",368,56 C,0,74066,,168,168,255 F,2,74066,74466,1,0 S,2,74066,74466,0.5,1 P,0,74066,74466,A
Sprite,Foreground,Centre,"sb\circ.png",487,296 C,0,74238,,168,168,255 F,2,74238,74638,1,0 S,2,74238,74638,0.5,1 P,0,74238,74638,A
Sprite,Foreground,Centre,"sb\circ.png",249,164 C,0,74411,,168,168,255 F,2,74411,74811,1,0 S,2,74411,74811,0.5,1 P,0,74411,74811,A
Sprite,Foreground,Centre,"sb\circ.png",308,359 C,0,74583,,237,243,194 F,2,74583,74983,1,0 S,2,74583,74983,0.5,1 P,0,74583,74983,A
Sprite,Foreground,Centre,"sb\circ.png",308,359 C,0,74756,,237,243,194 F,2,74756,75156,1,0 S,2,74756,75156,0.5,1 P,0,74756,75156,A
Sprite,Foreground,Centre,"sb\circ.png",0,0 C,0,74928,,237,243,194 M,0,74928,74971,159,264,135.2024,269.7347 F,2,74928,75414,1,0 S,2,74928,75414,0.5,1 P,0,74928,75414,A M,0,74971,75014,135.2024,269.7347,111.5417,276.0104
Sprite,Foreground,Centre,"sb\circ.png",287,227 C,0,75101,,237,243,194 F,2,75101,75501,1,0 S,2,75101,75501,0.5,1 P,0,75101,75501,A
Sprite,Foreground,Centre,"sb\circ.png",182,421 C,0,75273,,237,243,194 F,2,75273,75673,1,0 S,2,75273,75673,0.5,1 P,0,75273,75673,A
Sprite,Foreground,Centre,"sb\circ.png",178,396 C,0,75359,,237,243,194 F,2,75359,75759,1,0 S,2,75359,75759,0.5,1 P,0,75359,75759,A
Sprite,Foreground,Centre,"sb\circ.png",175,371 C,0,75445,,237,243,194 F,2,75445,75845,1,0 S,2,75445,75845,0.5,1 P,0,75445,75845,A
Sprite,Foreground,Centre,"sb\circ.png",0,0 C,0,75618,,237,243,194 M,0,75618,75661,360,255,363.462,279.2339 F,2,75618,76104,1,0 S,2,75618,76104,0.5,1 P,0,75618,76104,A M,0,75661,75704,363.462,279.2339,366.924,303.4679
Sprite,Foreground,Centre,"sb\circ.png",0,0 C,0,75790,,237,243,194 M,0,75790,75833,264,365,266.9753,340.7015 F,2,75790,76276,1,0 S,2,75790,76276,0.5,1 P,0,75790,76276,A M,0,75833,75876,266.9753,340.7015,269.9507,316.403
Sprite,Foreground,Centre,"sb\circ.png",191,196 C,0,75963,,129,223,254 F,2,75963,76363,1,0 S,2,75963,76363,0.5,1 P,0,75963,76363,A
Sprite,Foreground,Centre,"sb\circ.png",332,97 C,0,76135,,129,223,254 F,2,76135,76535,1,0 S,2,76135,76535,0.5,1 P,0,76135,76535,A
Sprite,Foreground,Centre,"sb\circ.png",335,114 C,0,76221,,129,223,254 F,2,76221,76621,1,0 S,2,76221,76621,0.5,1 P,0,76221,76621,A
Sprite,Foreground,Centre,"sb\circ.png",0,0 C,0,76307,,129,223,254 M,0,76307,76350,338,131,341.462,155.234 F,2,76307,76793,1,0 S,2,76307,76793,0.5,1 P,0,76307,76793,A M,0,76350,76393,341.462,155.234,344.924,179.4679
Sprite,Foreground,Centre,"sb\circ.png",360,255 C,0,76480,,129,223,254 F,2,76480,76880,1,0 S,2,76480,76880,0.5,1 P,0,76480,76880,A
Sprite,Foreground,Centre,"sb\circ.png",531,266 C,0,76652,,233,166,255 F,2,76652,77052,1,0 S,2,76652,77052,0.5,1 P,0,76652,77052,A
Sprite,Foreground,Centre,"sb\circ.png",565,232 C,0,76738,,233,166,255 F,2,76738,77138,1,0 S,2,76738,77138,0.5,1 P,0,76738,77138,A
Sprite,Foreground,Centre,"sb\circ.png",572,184 C,0,76824,,233,166,255 F,2,76824,77224,1,0 S,2,76824,77224,0.5,1 P,0,76824,77224,A
Sprite,Foreground,Centre,"sb\circ.png",548,142 C,0,76910,,233,166,255 F,2,76910,77310,1,0 S,2,76910,77310,0.5,1 P,0,76910,77310,A
Sprite,Foreground,Centre,"sb\circ.png",0,0 C,0,76997,,233,166,255 M,0,76997,77040,510,112,461.4384,105.8878 F,2,76997,77655,1,0 S,2,76997,77655,0.5,1 P,0,76997,77655,A M,0,77040,77083,461.4384,105.8878,416.5655,129.7116 M,0,77083,77126,416.5655,129.7116,368.1843,126.0464 M,0,77126,77169,368.1843,126.0464,355.7047,80.32079 M,0,77169,77212,355.7047,80.32079,396.3228,55.66821 M,0,77212,77255,396.3228,55.66821,439.7821,79.51653
Sprite,Foreground,Centre,"sb\mappers\0042.png",0,0 S,0,99411,,0.07 MX,0,99411,,245.46 MY,0,99411,,350 C,0,99411,104928,255,255,255
Sprite,Foreground,Centre,"sb\mappers\0065.png",0,0 S,0,99411,,0.07 MX,0,99411,,254.27 MY,0,99411,,350 C,0,99411,104928,255,255,255
Sprite,Foreground,Centre,"sb\mappers\0061.png",0,0 S,0,99411,,0.07 MX,0,99411,,263.36 MY,0,99411,,350 C,0,99411,104928,255,255,255
Sprite,Foreground,Centre,"sb\mappers\0074.png",0,0 S,0,99411,,0.07 MX,0,99411,,270.91 MY,0,99411,,350 C,0,99411,104928,255,255,255
Sprite,Foreground,Centre,"sb\mappers\006d.png",0,0 S,0,99411,,0.07 MX,0,99411,,279.3 MY,0,99411,,350 C,0,99411,104928,255,255,255
Sprite,Foreground,Centre,"sb\mappers\0061.png",0,0 S,0,99411,,0.07 MX,0,99411,,289.58 MY,0,99411,,350 C,0,99411,104928,255,255,255
Sprite,Foreground,Centre,"sb\mappers\0070.png",0,0 S,0,99411,,0.07 MX,0,99411,,298.67 MY,0,99411,,350 C,0,99411,104928,255,255,255
Sprite,Foreground,Centre,"sb\mappers\007c.png",0,0 S,0,99411,,0.07 MX,0,99411,,312.965 MY,0,99411,,350 C,0,99411,104928,255,255,255
Sprite,Foreground,Centre,"sb\mappers\0054.png",0,0 S,0,99411,,0.07 MX,0,99411,,327.085 MY,0,99411,,350 C,0,99411,104928,255,255,255
Sprite,Foreground,Centre,"sb\mappers\0061.png",0,0 S,0,99411,,0.07 MX,0,99411,,336 MY,0,99411,,350 C,0,99411,104928,255,255,255
Sprite,Foreground,Centre,"sb\mappers\0063.png",0,0 S,0,99411,,0.07 MX,0,99411,,344.775 MY,0,99411,,350 C,0,99411,104928,255,255,255
Sprite,Foreground,Centre,"sb\mappers\0068.png",0,0 S,0,99411,,0.07 MX,0,99411,,353.235 MY,0,99411,,350 C,0,99411,104928,255,255,255
Sprite,Foreground,Centre,"sb\mappers\0069.png",0,0 S,0,99411,,0.07 MX,0,99411,,360.015 MY,0,99411,,350 C,0,99411,104928,255,255,255
Sprite,Foreground,Centre,"sb\mappers\0062.png",0,0 S,0,99411,,0.07 MX,0,99411,,366.76 MY,0,99411,,350 C,0,99411,104928,255,255,255
Sprite,Foreground,Centre,"sb\mappers\0061.png",0,0 S,0,99411,,0.07 MX,0,99411,,375.85 MY,0,99411,,350 C,0,99411,104928,255,255,255
Sprite,Foreground,Centre,"sb\mappers\006e.png",0,0 S,0,99411,,0.07 MX,0,99411,,385.045 MY,0,99411,,350 C,0,99411,104928,255,255,255
Sprite,Foreground,Centre,"sb\mappers\0061.png",0,0 S,0,99411,,0.07 MX,0,99411,,394.24 MY,0,99411,,350 C,0,99411,104928,255,255,255
Sprite,Foreground,Centre,"sb\mappers\005f.png",0,0 S,0,99411,,0.07 MX,0,99411,,403.47 MY,0,99411,,350 C,0,99411,104928,255,255,255
Sprite,Foreground,Centre,"sb\pg2.png",128,311 C,0,52514,,233,166,255 F,2,52514,52814,1,0 S,2,52514,52814,0.5,1 P,0,52514,52814,A
Sprite,Foreground,Centre,"sb\pg2.png",305,211 C,0,52687,,233,166,255 F,2,52687,52987,1,0 S,2,52687,52987,0.5,1 P,0,52687,52987,A
Sprite,Foreground,Centre,"sb\pg2.png",105,124 C,0,52859,,233,166,255 F,2,52859,53159,1,0 S,2,52859,53159,0.5,1 P,0,52859,53159,A
Sprite,Foreground,Centre,"sb\pg2.png",250,295 C,0,53032,,233,166,255 F,2,53032,53332,1,0 S,2,53032,53332,0.5,1 P,0,53032,53332,A
Sprite,Foreground,Centre,"sb\pg2.png",274,77 C,0,53204,,168,168,255 F,2,53204,53504,1,0 S,2,53204,53504,0.5,1 P,0,53204,53504,A
Sprite,Foreground,Centre,"sb\pg2.png",221,175 C,0,53376,,168,168,255 F,2,53376,53676,1,0 S,2,53376,53676,0.5,1 P,0,53376,53676,A
Sprite,Foreground,Centre,"sb\pg2.png",250,295 C,0,53549,,168,168,255 F,2,53549,53849,1,0 S,2,53549,53849,0.5,1 P,0,53549,53849,A
Sprite,Foreground,Centre,"sb\pg2.png",381,336 C,0,53721,,168,168,255 F,2,53721,54021,1,0 S,2,53721,54021,0.5,1 P,0,53721,54021,A
Sprite,Foreground,Centre,"sb\pg2.png",496,291 C,0,53894,,168,168,255 F,2,53894,54194,1,0 S,2,53894,54194,0.5,1 P,0,53894,54194,A
Sprite,Foreground,Centre,"sb\pg2.png",492,270 C,0,53980,,168,168,255 F,2,53980,54280,1,0 S,2,53980,54280,0.5,1 P,0,53980,54280,A
Sprite,Foreground,Centre,"sb\pg2.png",488,248 C,0,54066,,168,168,255 F,2,54066,54366,1,0 S,2,54066,54366,0.5,1 P,0,54066,54366,A
Sprite,Foreground,Centre,"sb\pg2.png",484,225 C,0,54152,,168,168,255 F,2,54152,54452,1,0 S,2,54152,54452,0.5,1 P,0,54152,54452,A
Sprite,Foreground,Centre,"sb\pg2.png",479,205 C,0,54238,,237,243,194 F,2,54238,54538,1,0 S,2,54238,54538,0.5,1 P,0,54238,54538,A
Sprite,Foreground,Centre,"sb\pg2.png",441,170 C,0,54324,,237,243,194 F,2,54324,54624,1,0 S,2,54324,54624,0.5,1 P,0,54324,54624,A
Sprite,Foreground,Centre,"sb\pg2.png",392,165 C,0,54410,,237,243,194 F,2,54410,54710,1,0 S,2,54410,54710,0.5,1 P,0,54410,54710,A
Sprite,Foreground,Centre,"sb\pg2.png",347,188 C,0,54496,,237,243,194 F,2,54496,54796,1,0 S,2,54496,54796,0.5,1 P,0,54496,54796,A
Sprite,Foreground,Centre,"sb\pg2.png",326,234 C,0,54583,,237,243,194 F,2,54583,54883,1,0 S,2,54583,54883,0.5,1 P,0,54583,54883,A
Sprite,Foreground,Centre,"sb\pg2.png",295,276 C,0,54669,,237,243,194 F,2,54669,54969,1,0 S,2,54669,54969,0.5,1 P,0,54669,54969,A
Sprite,Foreground,Centre,"sb\pg2.png",243,284 C,0,54755,,237,243,194 F,2,54755,55055,1,0 S,2,54755,55055,0.5,1 P,0,54755,55055,A
Sprite,Foreground,Centre,"sb\pg2.png",194,270 C,0,54841,,237,243,194 F,2,54841,55141,1,0 S,2,54841,55141,0.5,1 P,0,54841,55141,A
Sprite,Foreground,Centre,"sb\pg2.png",160,233 C,0,54928,,129,223,254 F,2,54928,55228,1,0 S,2,54928,55228,0.5,1 P,0,54928,55228,A
Sprite,Foreground,Centre,"sb\pg2.png",172,226 C,0,55014,,129,223,254 F,2,55014,55314,1,0 S,2,55014,55314,0.5,1 P,0,55014,55314,A
Sprite,Foreground,Centre,"sb\pg2.png",202,153 C,0,55101,,233,166,255 F,2,55101,55401,1,0 S,2,55101,55401,0.5,1 P,0,55101,55401,A
Sprite,Foreground,Centre,"sb\pg2.png",191,149 C,0,55187,,233,166,255 F,2,55187,55487,1,0 S,2,55187,55487,0.5,1 P,0,55187,55487,A
Sprite,Foreground,Centre,"sb\pg2.png",473,162 C,0,44238,,233,166,255 F,2,44238,44538,0.3,0 S,2,44238,44538,0.5,1 P,0,44238,44538,A
Sprite,Foreground,Centre,"sb\pg2.png",434,144 C,0,44324,,233,166,255 F,2,44324,44624,0.3,0 S,2,44324,44624,0.5,1 P,0,44324,44624,A
Sprite,Foreground,Centre,"sb\pg2.png",393,155 C,0,44410,,233,166,255 F,2,44410,44710,0.3,0 S,2,44410,44710,0.5,1 P,0,44410,44710,A
Sprite,Foreground,Centre,"sb\pg2.png",368,189 C,0,44496,,233,166,255 F,2,44496,44796,0.3,0 S,2,44496,44796,0.5,1 P,0,44496,44796,A
Sprite,Foreground,Centre,"sb\pg2.png",360,233 C,0,44583,,233,166,255 F,2,44583,44883,0.3,0 S,2,44583,44883,0.5,1 P,0,44583,44883,A
Sprite,Foreground,Centre,"sb\pg2.png",348,273 C,0,44669,,233,166,255 F,2,44669,44969,0.3,0 S,2,44669,44969,0.5,1 P,0,44669,44969,A
Sprite,Foreground,Centre,"sb\pg2.png",314,298 C,0,44755,,233,166,255 F,2,44755,45055,0.3,0 S,2,44755,45055,0.5,1 P,0,44755,45055,A
Sprite,Foreground,Centre,"sb\pg2.png",272,294 C,0,44841,,233,166,255 F,2,44841,45141,0.3,0 S,2,44841,45141,0.5,1 P,0,44841,45141,A
Sprite,Foreground,Centre,"sb\pg2.png",0,0 C,0,44928,,168,168,255 M,0,44928,44971,243,265,246.5552,245.6438 F,2,44928,45486,0.3,0 S,2,44928,45486,0.5,1 P,0,44928,45486,A M,0,44971,45014,246.5552,245.6438,250.1104,226.2876 M,0,45014,45057,250.1104,226.2876,246.5552,245.6438 M,0,45057,45100,246.5552,245.6438,243,265 M,0,45100,45143,243,265,246.5552,245.6438 M,0,45143,45186,246.5552,245.6438,250.1104,226.2876
Sprite,Foreground,Centre,"sb\pg2.png",0,0 C,0,45273,,168,168,255 M,0,45273,45316,177,207,180.5552,187.6438 F,2,45273,45831,0.3,0 S,2,45273,45831,0.5,1 P,0,45273,45831,A M,0,45316,45359,180.5552,187.6438,184.1104,168.2876 M,0,45359,45402,184.1104,168.2876,180.5552,187.6438 M,0,45402,45445,180.5552,187.6438,177,207 M,0,45445,45488,177,207,180.5552,187.6438 M,0,45488,45531,180.5552,187.6438,184.1104,168.2876
Sprite,Foreground,Centre,"sb\pg2.png",66,297 C,0,45618,,237,243,194 F,2,45618,45918,0.3,0 S,2,45618,45918,0.5,1 P,0,45618,45918,A
Sprite,Foreground,Centre,"sb\pg2.png",68,307 C,0,45704,,237,243,194 F,2,45704,46004,0.3,0 S,2,45704,46004,0.5,1 P,0,45704,46004,A
Sprite,Foreground,Centre,"sb\pg2.png",0,0 C,0,45790,,237,243,194 M,0,45790,45833,70,316,74.32,335.2 F,2,45790,46176,0.3,0 S,2,45790,46176,0.5,1 P,0,45790,46176,A M,0,45833,45876,74.32,335.2,78.64,354.4
Sprite,Foreground,Centre,"sb\pg2.png",165,354 C,0,45963,,237,243,194 F,2,45963,46263,0.3,0 S,2,45963,46263,0.5,1 P,0,45963,46263,A
Sprite,Foreground,Centre,"sb\pg2.png",163,364 C,0,46049,,237,243,194 F,2,46049,46349,0.3,0 S,2,46049,46349,0.5,1 P,0,46049,46349,A
Sprite,Foreground,Centre,"sb\pg2.png",0,0 C,0,46135,,237,243,194 M,0,46135,46178,161,373,156.68,392.2 F,2,46135,46521,0.3,0 S,2,46135,46521,0.5,1 P,0,46135,46521,A M,0,46178,46221,156.68,392.2,152.36,411.4
Sprite,Foreground,Centre,"sb\pg2.png",288,308 C,0,46307,,129,223,254 F,2,46307,46607,0.3,0 S,2,46307,46607,0.5,1 P,0,46307,46607,A
Sprite,Foreground,Centre,"sb\pg2.png",286,298 C,0,46393,,129,223,254 F,2,46393,46693,0.3,0 S,2,46393,46693,0.5,1 P,0,46393,46693,A
Sprite,Foreground,Centre,"sb\pg2.png",0,0 C,0,46479,,129,223,254 M,0,46479,46522,284,289,279.68,269.8 F,2,46479,46865,0.3,0 S,2,46479,46865,0.5,1 P,0,46479,46865,A M,0,46522,46565,279.68,269.8,275.36,250.6
Sprite,Foreground,Centre,"sb\pg2.png",189,251 C,0,46652,,129,223,254 F,2,46652,46952,0.3,0 S,2,46652,46952,0.5,1 P,0,46652,46952,A
Sprite,Foreground,Centre,"sb\pg2.png",191,241 C,0,46738,,129,223,254 F,2,46738,47038,0.3,0 S,2,46738,47038,0.5,1 P,0,46738,47038,A
Sprite,Foreground,Centre,"sb\pg2.png",0,0 C,0,46824,,129,223,254 M,0,46824,46867,193,232,197.32,212.8 F,2,46824,47210,0.3,0 S,2,46824,47210,0.5,1 P,0,46824,47210,A M,0,46867,46910,197.32,212.8,201.64,193.6
Sprite,Foreground,Centre,"sb\pg2.png",270,396 C,0,46997,,233,166,255 F,2,46997,47297,0.3,0 S,2,46997,47297,0.5,1 P,0,46997,47297,A
Sprite,Foreground,Centre,"sb\pg2.png",312,398 C,0,47083,,233,166,255 F,2,47083,47383,0.3,0 S,2,47083,47383,0.5,1 P,0,47083,47383,A
Sprite,Foreground,Centre,"sb\pg2.png",350,379 C,0,47169,,233,166,255 F,2,47169,47469,0.3,0 S,2,47169,47469,0.5,1 P,0,47169,47469,A
Sprite,Foreground,Centre,"sb\pg2.png",374,343 C,0,47255,,233,166,255 F,2,47255,47555,0.3,0 S,2,47255,47555,0.5,1 P,0,47255,47555,A
Sprite,Foreground,Centre,"sb\pg2.png",376,300 C,0,47341,,233,166,255 F,2,47341,47641,0.3,0 S,2,47341,47641,0.5,1 P,0,47341,47641,A
Sprite,Foreground,Centre,"sb\pg2.png",381,258 C,0,47428,,233,166,255 F,2,47428,47728,0.3,0 S,2,47428,47728,0.5,1 P,0,47428,47728,A
Sprite,Foreground,Centre,"sb\pg2.png",409,225 C,0,47514,,233,166,255 F,2,47514,47814,0.3,0 S,2,47514,47814,0.5,1 P,0,47514,47814,A
Sprite,Foreground,Centre,"sb\pg2.png",449,213 C,0,47600,,233,166,255 F,2,47600,47900,0.3,0 S,2,47600,47900,0.5,1 P,0,47600,47900,A
Sprite,Foreground,Centre,"sb\pg2.png",0,0 C,0,47687,,168,168,255 M,0,47687,47730,490,226,493.0498,245.4423 F,2,47687,48245,0.3,0 S,2,47687,48245,0.5,1 P,0,47687,48245,A M,0,47730,47773,493.0498,245.4423,496.0995,264.8845 M,0,47773,47816,496.0995,264.8845,493.0498,245.4423 M,0,47816,47859,493.0498,245.4423,490,226 M,0,47859,47902,490,226,493.0498,245.4423 M,0,47902,47945,493.0498,245.4423,496.0995,264.8845
Sprite,Foreground,Centre,"sb\pg2.png",0,0 C,0,48032,,168,168,255 M,0,48032,48075,570,252,573.0693,271.4392 F,2,48032,48590,0.3,0 S,2,48032,48590,0.5,1 P,0,48032,48590,A M,0,48075,48118,573.0693,271.4392,576,290 M,0,48118,48161,576,290,573.0693,271.4392 M,0,48161,48204,573.0693,271.4392,570,252 M,0,48204,48247,570,252,573.0693,271.4392 M,0,48247,48290,573.0693,271.4392,576,290
Sprite,Foreground,Centre,"sb\pg2.png",560,115 C,0,48376,,237,243,194 F,2,48376,48676,0.3,0 S,2,48376,48676,0.5,1 P,0,48376,48676,A
Sprite,Foreground,Centre,"sb\pg2.png",550,113 C,0,48462,,237,243,194 F,2,48462,48762,0.3,0 S,2,48462,48762,0.5,1 P,0,48462,48762,A
Sprite,Foreground,Centre,"sb\pg2.png",0,0 C,0,48548,,237,243,194 M,0,48548,48591,541,111,545.6813,130.1151 F,2,48548,48934,0.3,0 S,2,48548,48934,0.5,1 P,0,48548,48934,A M,0,48591,48634,545.6813,130.1151,550.3625,149.2303
Sprite,Foreground,Centre,"sb\pg2.png",431,67 C,0,48721,,237,243,194 F,2,48721,49021,0.3,0 S,2,48721,49021,0.5,1 P,0,48721,49021,A
Sprite,Foreground,Centre,"sb\pg2.png",441,65 C,0,48807,,237,243,194 F,2,48807,49107,0.3,0 S,2,48807,49107,0.5,1 P,0,48807,49107,A
Sprite,Foreground,Centre,"sb\pg2.png",0,0 C,0,48893,,237,243,194 M,0,48893,48936,450,63,445.3188,82.11513 F,2,48893,49279,0.3,0 S,2,48893,49279,0.5,1 P,0,48893,49279,A M,0,48936,48979,445.3188,82.11513,440.6375,101.2303
Sprite,Foreground,Centre,"sb\pg2.png",440,221 C,0,49066,,129,223,254 F,2,49066,49366,0.3,0 S,2,49066,49366,0.5,1 P,0,49066,49366,A
Sprite,Foreground,Centre,"sb\pg2.png",430,223 C,0,49152,,129,223,254 F,2,49152,49452,0.3,0 S,2,49152,49452,0.5,1 P,0,49152,49452,A
Sprite,Foreground,Centre,"sb\pg2.png",0,0 C,0,49238,,129,223,254 M,0,49238,49281,421,225,425.6812,205.8849 F,2,49238,49624,0.3,0 S,2,49238,49624,0.5,1 P,0,49238,49624,A M,0,49281,49324,425.6812,205.8849,430.3625,186.7697
Sprite,Foreground,Centre,"sb\pg2.png",333,273 C,0,49411,,129,223,254 F,2,49411,49711,0.3,0 S,2,49411,49711,0.5,1 P,0,49411,49711,A
Sprite,Foreground,Centre,"sb\pg2.png",343,275 C,0,49497,,129,223,254 F,2,49497,49797,0.3,0 S,2,49497,49797,0.5,1 P,0,49497,49797,A
Sprite,Foreground,Centre,"sb\pg2.png",0,0 C,0,49583,,129,223,254 M,0,49583,49626,352,277,347.3188,257.8849 F,2,49583,49969,0.3,0 S,2,49583,49969,0.5,1 P,0,49583,49969,A M,0,49626,49669,347.3188,257.8849,342.6375,238.7697
Sprite,Foreground,Centre,"sb\pg2.png",448,388 C,0,49756,,233,166,255 F,2,49756,50056,0.3,0 S,2,49756,50056,0.5,1 P,0,49756,50056,A
Sprite,Foreground,Centre,"sb\pg2.png",406,375 C,0,49842,,233,166,255 F,2,49842,50142,0.3,0 S,2,49842,50142,0.5,1 P,0,49842,50142,A
Sprite,Foreground,Centre,"sb\pg2.png",365,363 C,0,49928,,233,166,255 F,2,49928,50228,0.3,0 S,2,49928,50228,0.5,1 P,0,49928,50228,A
Sprite,Foreground,Centre,"sb\pg2.png",323,351 C,0,50014,,233,166,255 F,2,50014,50314,0.3,0 S,2,50014,50314,0.5,1 P,0,50014,50314,A
Sprite,Foreground,Centre,"sb\pg2.png",281,339 C,0,50100,,233,166,255 F,2,50100,50400,0.3,0 S,2,50100,50400,0.5,1 P,0,50100,50400,A
Sprite,Foreground,Centre,"sb\pg2.png",240,327 C,0,50187,,233,166,255 F,2,50187,50487,0.3,0 S,2,50187,50487,0.5,1 P,0,50187,50487,A
Sprite,Foreground,Centre,"sb\pg2.png",198,315 C,0,50273,,233,166,255 F,2,50273,50573,0.3,0 S,2,50273,50573,0.5,1 P,0,50273,50573,A
Sprite,Foreground,Centre,"sb\pg2.png",156,301 C,0,50359,,233,166,255 F,2,50359,50659,0.3,0 S,2,50359,50659,0.5,1 P,0,50359,50659,A
Sprite,Foreground,Centre,"sb\pg2.png",0,0 C,0,50445,,168,168,255 M,0,50445,50488,115,287,95.93396,282.1226 F,2,50445,51003,0.3,0 S,2,50445,51003,0.5,1 P,0,50445,51003,A M,0,50488,50531,95.93396,282.1226,76.86793,277.2453 M,0,50531,50574,76.86793,277.2453,95.93396,282.1226 M,0,50574,50617,95.93396,282.1226,115,287 M,0,50617,50660,115,287,95.93396,282.1226 M,0,50660,50703,95.93396,282.1226,76.86793,277.2453
Sprite,Foreground,Centre,"sb\pg2.png",0,0 C,0,50790,,168,168,255 M,0,50790,50833,105,204,85.93669,199.112 F,2,50790,51348,0.3,0 S,2,50790,51348,0.5,1 P,0,50790,51348,A M,0,50833,50876,85.93669,199.112,66.87339,194.2239 M,0,50876,50919,66.87339,194.2239,85.93669,199.112 M,0,50919,50962,85.93669,199.112,105,204 M,0,50962,51005,105,204,85.93669,199.112 M,0,51005,51048,85.93669,199.112,66.87338,194.2239
Sprite,Foreground,Centre,"sb\pg2.png",191,97 C,0,51135,,237,243,194 F,2,51135,51435,0.3,0 S,2,51135,51435,0.5,1 P,0,51135,51435,A
Sprite,Foreground,Centre,"sb\pg2.png",201,95 C,0,51221,,237,243,194 F,2,51221,51521,0.3,0 S,2,51221,51521,0.5,1 P,0,51221,51521,A
Sprite,Foreground,Centre,"sb\pg2.png",0,0 C,0,51307,,237,243,194 M,0,51307,51350,210,93,227.8612,100.4117 F,2,51307,51693,0.3,0 S,2,51307,51693,0.5,1 P,0,51307,51693,A M,0,51350,51393,227.8612,100.4117,239.0969,116.1541
Sprite,Foreground,Centre,"sb\pg2.png",319,119 C,0,51480,,237,243,194 F,2,51480,51780,0.3,0 S,2,51480,51780,0.5,1 P,0,51480,51780,A
Sprite,Foreground,Centre,"sb\pg2.png",325,128 C,0,51566,,237,243,194 F,2,51566,51866,0.3,0 S,2,51566,51866,0.5,1 P,0,51566,51866,A
Sprite,Foreground,Centre,"sb\pg2.png",0,0 C,0,51652,,237,243,194 M,0,51652,51695,330,135,330.2213,154.3458 F,2,51652,52038,0.3,0 S,2,51652,52038,0.5,1 P,0,51652,52038,A M,0,51695,51738,330.2213,154.3458,320.667,171.1755
Sprite,Foreground,Centre,"sb\pg2.png",372,268 C,0,51825,,129,223,254 F,2,51825,52125,0.3,0 S,2,51825,52125,0.5,1 P,0,51825,52125,A
Sprite,Foreground,Centre,"sb\pg2.png",367,277 C,0,51911,,129,223,254 F,2,51911,52211,0.3,0 S,2,51911,52211,0.5,1 P,0,51911,52211,A
Sprite,Foreground,Centre,"sb\pg2.png",0,0 C,0,51997,,129,223,254 M,0,51997,52040,363,285,345.5826,293.4506 F,2,51997,52383,0.3,0 S,2,51997,52383,0.5,1 P,0,51997,52383,A M,0,52040,52083,345.5826,293.4506,326.3026,291.6746
Sprite,Foreground,Centre,"sb\pg2.png",241,385 C,0,52169,,129,223,254 F,2,52169,52469,0.3,0 S,2,52169,52469,0.5,1 P,0,52169,52469,A
Sprite,Foreground,Centre,"sb\pg2.png",231,384 C,0,52255,,129,223,254 F,2,52255,52555,0.3,0 S,2,52255,52555,0.5,1 P,0,52255,52555,A
Sprite,Foreground,Centre,"sb\pg2.png",0,0 C,0,52341,,129,223,254 M,0,52341,52384,222,384,206.7007,372.1611 F,2,52341,52727,0.3,0 S,2,52341,52727,0.5,1 P,0,52341,52727,A M,0,52384,52427,206.7007,372.1611,199.8679,354.0601
Sprite,Foreground,Centre,"sb\pg2.png",440,142 C,0,77342,,168,168,255 F,2,77342,77642,0.4,0 S,2,77342,77642,0.5,1 P,0,77342,77642,A
Sprite,Foreground,Centre,"sb\pg2.png",326,301 C,0,77514,,168,168,255 F,2,77514,77814,0.4,0 S,2,77514,77814,0.5,1 P,0,77514,77814,A
Sprite,Foreground,Centre,"sb\pg2.png",326,301 C,0,77601,,168,168,255 F,2,77601,77901,0.4,0 S,2,77601,77901,0.5,1 P,0,77601,77901,A
Sprite,Foreground,Centre,"sb\pg2.png",0,0 C,0,77687,,168,168,255 M,0,77687,77730,326,301,321.5488,279.3787 F,2,77687,78159,0.4,0 S,2,77687,78159,0.5,1 P,0,77687,78159,A M,0,77730,77773,321.5488,279.3787,316.0187,258.0084 M,0,77773,77816,316.0187,258.0084,309.2176,237.0083 M,0,77816,77859,309.2176,237.0083,301.3373,216.39
Sprite,Foreground,Centre,"sb\pg2.png",477,336 C,0,78032,,168,168,255 F,2,78032,78332,0.4,0 S,2,78032,78332,0.5,1 P,0,78032,78332,A
Sprite,Foreground,Centre,"sb\pg2.png",271,438 C,0,78204,,168,168,255 F,2,78204,78504,0.4,0 S,2,78204,78504,0.5,1 P,0,78204,78504,A
Sprite,Foreground,Centre,"sb\pg2.png",0,0 C,0,78376,,168,168,255 M,0,78376,78419,491,325,496.1562,303.5316 F,2,78376,78848,0.4,0 S,2,78376,78848,0.5,1 P,0,78376,78848,A M,0,78419,78462,496.1562,303.5316,501.8046,282.1876 M,0,78462,78505,501.8046,282.1876,507.9781,260.9893 M,0,78505,78548,507.9781,260.9893,514.686,239.9536
Sprite,Foreground,Centre,"sb\pg2.png",352,72 C,0,78721,,237,243,194 F,2,78721,79021,0.4,0 S,2,78721,79021,0.5,1 P,0,78721,79021,A
Sprite,Foreground,Centre,"sb\pg2.png",264,242 C,0,78894,,237,243,194 F,2,78894,79194,0.4,0 S,2,78894,79194,0.5,1 P,0,78894,79194,A
Sprite,Foreground,Centre,"sb\pg2.png",264,242 C,0,78981,,237,243,194 F,2,78981,79281,0.4,0 S,2,78981,79281,0.5,1 P,0,78981,79281,A
Sprite,Foreground,Centre,"sb\pg2.png",0,0 C,0,79067,,237,243,194 M,0,79067,79110,264,242,249.006,257.8994 F,2,79067,79539,0.4,0 S,2,79067,79539,0.5,1 P,0,79067,79539,A M,0,79110,79153,249.006,257.8994,229.6613,267.9638 M,0,79153,79196,229.6613,267.9638,207.9375,269.9629 M,0,79196,79239,207.9375,269.9629,186.9201,264.3784
Sprite,Foreground,Centre,"sb\pg2.png",205,75 C,0,79411,,237,243,194 F,2,79411,79711,0.4,0 S,2,79411,79711,0.5,1 P,0,79411,79711,A
Sprite,Foreground,Centre,"sb\pg2.png",400,200 C,0,79583,,237,243,194 F,2,79583,79883,0.4,0 S,2,79583,79883,0.5,1 P,0,79583,79883,A
Sprite,Foreground,Centre,"sb\pg2.png",0,0 C,0,79756,,237,243,194 M,0,79756,79799,185,67,191.1923,88.19356 F,2,79756,80228,0.4,0 S,2,79756,80228,0.5,1 P,0,79756,80228,A M,0,79799,79842,191.1923,88.19356,197.1099,109.4654 M,0,79842,79885,197.1099,109.4654,202.7319,130.8173 M,0,79885,79928,202.7319,130.8173,208,152
Sprite,Foreground,Centre,"sb\pg2.png",361,329 C,0,80101,,129,223,254 F,2,80101,80401,0.4,0 S,2,80101,80401,0.5,1 P,0,80101,80401,A
Sprite,Foreground,Centre,"sb\pg2.png",504,171 C,0,80273,,129,223,254 F,2,80273,80573,0.4,0 S,2,80273,80573,0.5,1 P,0,80273,80573,A
Sprite,Foreground,Centre,"sb\pg2.png",504,171 C,0,80360,,129,223,254 F,2,80360,80660,0.4,0 S,2,80360,80660,0.5,1 P,0,80360,80660,A
Sprite,Foreground,Centre,"sb\pg2.png",0,0 C,0,80445,,129,223,254 M,0,80445,80488,504,171,497.8077,192.1936 F,2,80445,80917,0.4,0 S,2,80445,80917,0.5,1 P,0,80445,80917,A M,0,80488,80531,497.8077,192.1936,491.8901,213.4654 M,0,80531,80574,491.8901,213.4654,486.2681,234.8173 M,0,80574,80617,486.2681,234.8173,481,256
Sprite,Foreground,Centre,"sb\pg2.png",352,120 C,0,80790,,129,223,254 F,2,80790,81090,0.4,0 S,2,80790,81090,0.5,1 P,0,80790,81090,A
Sprite,Foreground,Centre,"sb\pg2.png",552,56 C,0,80963,,129,223,254 F,2,80963,81263,0.4,0 S,2,80963,81263,0.5,1 P,0,80963,81263,A
Sprite,Foreground,Centre,"sb\pg2.png",0,0 C,0,81135,,129,223,254 M,0,81135,81178,420,202,404.3614,217.3621 F,2,81135,81607,0.4,0 S,2,81135,81607,0.5,1 P,0,81135,81607,A M,0,81178,81221,404.3614,217.3621,385.0577,227.64 M,0,81221,81264,385.0577,227.64,363.5045,231.5941 M,0,81264,81307,363.5045,231.5941,341.8396,228.3685
Sprite,Foreground,Centre,"sb\pg2.png",0,0 C,0,81480,,233,166,255 M,0,81480,81523,120,325,141.3382,330.5924 F,2,81480,82038,0.4,0 S,2,81480,82038,0.5,1 P,0,81480,82038,A M,0,81523,81566,141.3382,330.5924,160.854,340.7264 M,0,81566,81609,160.854,340.7264,176.1326,356.5862 M,0,81609,81652,176.1326,356.5862,192.3755,371.3873 M,0,81652,81695,192.3755,371.3873,212.5652,380.1604 M,0,81695,81738,212.5652,380.1604,234,385
Sprite,Foreground,Centre,"sb\pg2.png",0,0 C,0,81825,,233,166,255 M,0,81825,81868,288,438,306.6228,426.5751 F,2,81825,82297,0.4,0 S,2,81825,82297,0.5,1 P,0,81825,82297,A M,0,81868,81911,306.6228,426.5751,320.5196,409.7216 M,0,81911,81954,320.5196,409.7216,326.6913,388.7892 M,0,81954,81997,326.6913,388.7892,325.7213,366.9646
Sprite,Foreground,Centre,"sb\pg2.png",256,199 C,0,82169,,233,166,255 F,2,82169,82469,0.4,0 S,2,82169,82469,0.5,1 P,0,82169,82469,A
Sprite,Foreground,Centre,"sb\pg2.png",416,344 C,0,82342,,233,166,255 F,2,82342,82642,0.4,0 S,2,82342,82642,0.5,1 P,0,82342,82642,A
Sprite,Foreground,Centre,"sb\pg2.png",0,0 C,0,82514,,233,166,255 M,0,82514,82557,376,99,369.8145,120.1956 F,2,82514,83072,0.4,0 S,2,82514,83072,0.5,1 P,0,82514,83072,A M,0,82557,82600,369.8145,120.1956,363.8882,141.465 M,0,82600,82643,363.8882,141.465,358.2408,162.8103 M,0,82643,82686,358.2408,162.8103,352.8947,184.233 M,0,82686,82729,352.8947,184.233,347.8182,205.7211 M,0,82729,82772,347.8182,205.7211,343.0157,227.2721
Sprite,Foreground,Centre,"sb\pg2.png",0,0 C,0,82859,,233,166,255 M,0,82859,82902,382,81,401.0078,70.20207 F,2,82859,83331,0.4,0 S,2,82859,83331,0.5,1 P,0,82859,83331,A M,0,82902,82945,401.0078,70.20207,422.4492,66.31788 M,0,82945,82988,422.4492,66.31788,443.9415,70.28581 M,0,82988,83031,443.9415,70.28581,462.6557,81.72181
Sprite,Foreground,Centre,"sb\pg2.png",0,0 C,0,83204,,168,168,255 M,0,83204,83247,565,273,543.0367,271.8574 F,2,83204,83848,0.4,0 S,2,83204,83848,0.5,1 P,0,83204,83848,A M,0,83247,83290,543.0367,271.8574,521.7589,277.4031 M,0,83290,83333,521.7589,277.4031,503.2689,289.2946 M,0,83333,83376,503.2689,289.2946,488.8592,305.9639 M,0,83376,83419,488.8592,305.9639,475.5186,323.5413 M,0,83419,83462,475.5186,323.5413,458.3572,337.252 M,0,83462,83505,458.3572,337.252,437.4356,343.9171 M,0,83505,83548,437.4356,343.9171,415.4473,343.3765
Sprite,Foreground,Centre,"sb\pg2.png",271,216 C,0,83721,,168,168,255 F,2,83721,84021,0.4,0 S,2,83721,84021,0.5,1 P,0,83721,84021,A
Sprite,Foreground,Centre,"sb\pg2.png",0,0 C,0,83894,,168,168,255 M,0,83894,83937,360,393,363.6066,371.2186 F,2,83894,84366,0.4,0 S,2,83894,84366,0.5,1 P,0,83894,84366,A M,0,83937,83980,363.6066,371.2186,367.9138,349.5655 M,0,83980,84023,367.9138,349.5655,372.968,328.0738 M,0,84023,84066,372.968,328.0738,378.7783,306.7734
Sprite,Foreground,Centre,"sb\pg2.png",0,0 C,0,84238,,237,243,194 M,0,84238,84281,172,440,169.9175,418.0242 F,2,84238,84796,0.4,0 S,2,84238,84796,0.5,1 P,0,84238,84796,A M,0,84281,84324,169.9175,418.0242,166.6506,396.1947 M,0,84324,84367,166.6506,396.1947,162.1216,374.5895 M,0,84367,84410,162.1216,374.5895,156.2335,353.3155 M,0,84410,84453,156.2335,353.3155,149.1833,332.3998 M,0,84453,84496,149.1833,332.3998,140.9305,311.9269
Sprite,Foreground,Centre,"sb\pg2.png",0,0 C,0,84583,,237,243,194 M,0,84583,84626,96,248,79.44641,262.3674 F,2,84583,85055,0.4,0 S,2,84583,85055,0.5,1 P,0,84583,85055,A M,0,84626,84669,79.44641,262.3674,67.61092,280.7688 M,0,84669,84712,67.61092,280.7688,61.85122,301.954 M,0,84712,84755,61.85122,301.954,63.47024,323.8087
Sprite,Foreground,Centre,"sb\pg2.png",258,231 C,0,84928,,237,243,194 F,2,84928,85228,0.4,0 S,2,84928,85228,0.5,1 P,0,84928,85228,A
Sprite,Foreground,Centre,"sb\pg2.png",130,130 C,0,85101,,237,243,194 F,2,85101,85401,0.4,0 S,2,85101,85401,0.5,1 P,0,85101,85401,A
Sprite,Foreground,Centre,"sb\pg2.png",0,0 C,0,85273,,237,243,194 M,0,85273,85316,319,56,339.8451,63.27984 F,2,85273,85745,0.4,0 S,2,85273,85745,0.5,1 P,0,85273,85745,A M,0,85316,85359,339.8451,63.27984,360.7764,70.30769 M,0,85359,85402,360.7764,70.30769,381.7968,77.06451 M,0,85402,85445,381.7968,77.06451,402.9028,83.54938
Sprite,Foreground,Centre,"sb\pg2.png",0,0 C,0,85618,,129,223,254 M,0,85618,85661,191,184,197.3893,205.1347 F,2,85618,86607,0.4,0 S,2,85618,86607,0.5,1 P,0,85618,86607,A M,0,85661,85704,197.3893,205.1347,203.4191,226.3747 M,0,85704,85747,203.4191,226.3747,209.0253,247.7305 M,0,85747,85790,209.0253,247.7305,214.2524,269.1819 M,0,85790,85833,214.2524,269.1819,219.0859,290.7258 M,0,85833,85876,219.0859,290.7258,223.4851,312.3624 M,0,85876,85919,223.4851,312.3624,227.5054,334.0725 M,0,85919,85962,227.5054,334.0725,231,355 M,0,85962,86005,231,355,227.5054,334.0724 M,0,86005,86049,227.5054,334.0724,223.4851,312.3624 M,0,86049,86092,223.4851,312.3624,219.0859,290.7257 M,0,86092,86135,219.0859,290.7257,214.2524,269.1819 M,0,86135,86178,214.2524,269.1819,209.0253,247.7304 M,0,86178,86221,209.0253,247.7304,203.4191,226.3747 M,0,86221,86264,203.4191,226.3747,197.3893,205.1347 M,0,86264,86307,197.3893,205.1347,191,184
Sprite,Foreground,Centre,"sb\pg2.png",306,279 C,0,86480,,129,223,254 F,2,86480,86780,0.4,0 S,2,86480,86780,0.5,1 P,0,86480,86780,A
Sprite,Foreground,Centre,"sb\pg2.png",0,0 C,0,86652,,129,223,254 M,0,86652,86695,177,424,155.7843,417.885 F,2,86652,87124,0.4,0 S,2,86652,87124,0.5,1 P,0,86652,87124,A M,0,86695,86738,155.7843,417.885,134.4631,412.1494 M,0,86738,86781,134.4631,412.1494,113.025,406.8673 M,0,86781,86824,113.025,406.8673,91.49307,401.9822
Sprite,Foreground,Centre,"sb\pg2.png",0,0 C,0,86997,,233,166,255 M,0,86997,87040,320,284,339.6913,293.5144 F,2,86997,87469,0.4,0 S,2,86997,87469,0.5,1 P,0,86997,87469,A M,0,87040,87083,339.6913,293.5144,355.4205,308.6863 M,0,87083,87126,355.4205,308.6863,364.3678,328.6119 M,0,87126,87169,364.3678,328.6119,366.4433,350.3154
Sprite,Foreground,Centre,"sb\pg2.png",0,0 C,0,87342,,233,166,255 M,0,87342,87385,127,242,122.3053,220.6452 F,2,87342,87814,0.4,0 S,2,87342,87814,0.5,1 P,0,87342,87814,A M,0,87385,87428,122.3053,220.6452,124.6034,198.9232 M,0,87428,87471,124.6034,198.9232,134.8748,179.655 M,0,87471,87514,134.8748,179.655,150.7286,164.6161
Sprite,Foreground,Centre,"sb\pg2.png",319,104 C,0,87687,,233,166,255 F,2,87687,87987,0.4,0 S,2,87687,87987,0.5,1 P,0,87687,87987,A
Sprite,Foreground,Centre,"sb\pg2.png",104,56 C,0,87859,,233,166,255 F,2,87859,88159,0.4,0 S,2,87859,88159,0.5,1 P,0,87859,88159,A
Sprite,Foreground,Centre,"sb\pg2.png",0,0 C,0,88032,,233,166,255 M,0,88032,88075,243,267,239.1794,245.2533 F,2,88032,88504,0.4,0 S,2,88032,88504,0.5,1 P,0,88032,88504,A M,0,88075,88118,239.1794,245.2533,235.0941,223.555 M,0,88118,88161,235.0941,223.555,230.7257,201.9117 M,0,88161,88204,230.7257,201.9117,226.0723,180.3279
Sprite,Foreground,Centre,"sb\pg2.png",393,71 C,0,88376,,168,168,255 F,2,88376,88676,0.4,0 S,2,88376,88676,0.5,1 P,0,88376,88676,A
Sprite,Foreground,Centre,"sb\pg2.png",489,254 C,0,88549,,168,168,255 F,2,88549,88849,0.4,0 S,2,88549,88849,0.5,1 P,0,88549,88849,A
Sprite,Foreground,Centre,"sb\pg2.png",489,254 C,0,88636,,168,168,255 F,2,88636,88936,0.4,0 S,2,88636,88936,0.5,1 P,0,88636,88936,A
Sprite,Foreground,Centre,"sb\pg2.png",0,0 C,0,88722,,168,168,255 M,0,88722,88765,489,254,492.4166,232.1872 F,2,88722,89194,0.4,0 S,2,88722,89194,0.5,1 P,0,88722,89194,A M,0,88765,88808,492.4166,232.1872,496.3786,210.4672 M,0,88808,88851,496.3786,210.4672,500.925,188.8613 M,0,88851,88894,500.925,188.8613,506.1187,167.4021
Sprite,Foreground,Centre,"sb\pg2.png",337,298 C,0,89066,,168,168,255 F,2,89066,89366,0.4,0 S,2,89066,89366,0.5,1 P,0,89066,89366,A
Sprite,Foreground,Centre,"sb\pg2.png",525,430 C,0,89238,,168,168,255 F,2,89238,89538,0.4,0 S,2,89238,89538,0.5,1 P,0,89238,89538,A
Sprite,Foreground,Centre,"sb\pg2.png",0,0 C,0,89411,,168,168,255 M,0,89411,89454,322,286,300.6962,291.8016 F,2,89411,89883,0.4,0 S,2,89411,89883,0.5,1 P,0,89411,89883,A M,0,89454,89497,300.6962,291.8016,279.4691,297.8777 M,0,89497,89540,279.4691,297.8777,258.3281,304.2471 M,0,89540,89583,258.3281,304.2471,237.2778,310.9106
Sprite,Foreground,Centre,"sb\pg2.png",496,359 C,0,89756,,237,243,194 F,2,89756,90056,0.4,0 S,2,89756,90056,0.5,1 P,0,89756,90056,A
Sprite,Foreground,Centre,"sb\pg2.png",390,192 C,0,89928,,237,243,194 F,2,89928,90228,0.4,0 S,2,89928,90228,0.5,1 P,0,89928,90228,A
Sprite,Foreground,Centre,"sb\pg2.png",390,192 C,0,90015,,237,243,194 F,2,90015,90315,0.4,0 S,2,90015,90315,0.5,1 P,0,90015,90315,A
Sprite,Foreground,Centre,"sb\pg2.png",0,0 C,0,90101,,237,243,194 M,0,90101,90144,390,192,369.1002,184.8822 F,2,90101,90573,0.4,0 S,2,90101,90573,0.5,1 P,0,90101,90573,A M,0,90144,90187,369.1002,184.8822,348.0164,178.331 M,0,90187,90230,348.0164,178.331,326.7516,172.3924 M,0,90230,90273,326.7516,172.3924,305.322,167.0764
Sprite,Foreground,Centre,"sb\pg2.png",410,369 C,0,90445,,237,243,194 F,2,90445,90745,0.4,0 S,2,90445,90745,0.5,1 P,0,90445,90745,A
Sprite,Foreground,Centre,"sb\pg2.png",560,182 C,0,90618,,237,243,194 F,2,90618,90918,0.4,0 S,2,90618,90918,0.5,1 P,0,90618,90918,A
Sprite,Foreground,Centre,"sb\pg2.png",0,0 C,0,90790,,237,243,194 M,0,90790,90833,394,382,388.1984,360.6962 F,2,90790,91262,0.4,0 S,2,90790,91262,0.5,1 P,0,90790,91262,A M,0,90833,90876,388.1984,360.6962,382.1223,339.4691 M,0,90876,90919,382.1223,339.4691,375.7529,318.3281 M,0,90919,90962,375.7529,318.3281,369.0894,297.2778
Sprite,Foreground,Centre,"sb\pg2.png",256,134 C,0,91135,,129,223,254 F,2,91135,91435,0.4,0 S,2,91135,91435,0.5,1 P,0,91135,91435,A
Sprite,Foreground,Centre,"sb\pg2.png",450,265 C,0,91307,,129,223,254 F,2,91307,91607,0.4,0 S,2,91307,91607,0.5,1 P,0,91307,91607,A
Sprite,Foreground,Centre,"sb\pg2.png",450,265 C,0,91394,,129,223,254 F,2,91394,91694,0.4,0 S,2,91394,91694,0.5,1 P,0,91394,91694,A
Sprite,Foreground,Centre,"sb\pg2.png",0,0 C,0,91480,,129,223,254 M,0,91480,91523,450,265,465.6456,249.7118 F,2,91480,91952,0.4,0 S,2,91480,91952,0.5,1 P,0,91480,91952,A M,0,91523,91566,465.6456,249.7118,475.5241,230.2699 M,0,91566,91609,475.5241,230.2699,478.1376,208.5615 M,0,91609,91652,478.1376,208.5615,473.079,187.2115
Sprite,Foreground,Centre,"sb\pg2.png",303,313 C,0,91825,,129,223,254 F,2,91825,92125,0.4,0 S,2,91825,92125,0.5,1 P,0,91825,92125,A
Sprite,Foreground,Centre,"sb\pg2.png",495,393 C,0,91997,,129,223,254 F,2,91997,92297,0.4,0 S,2,91997,92297,0.5,1 P,0,91997,92297,A
Sprite,Foreground,Centre,"sb\pg2.png",0,0 C,0,92169,,129,223,254 M,0,92169,92212,306,212,284.1467,210.3481 F,2,92169,92641,0.4,0 S,2,92169,92641,0.5,1 P,0,92169,92641,A M,0,92212,92255,284.1467,210.3481,262.7925,215.0391 M,0,92255,92298,262.7925,215.0391,243.8747,226.0995 M,0,92298,92341,243.8747,226.0995,229.3144,242.5505
Sprite,Foreground,Centre,"sb\pg2.png",0,0 C,0,92514,,233,166,255 M,0,92514,92557,433,57,454.8758,56.09765 F,2,92514,93072,0.4,0 S,2,92514,93072,0.5,1 P,0,92514,93072,A M,0,92557,92600,454.8758,56.09765,475.9658,61.80385 M,0,92600,92643,475.9658,61.80385,494.1554,74.0621 M,0,92643,92686,494.1554,74.0621,506.756,91.96082 M,0,92686,92729,506.756,91.96082,513.3342,112.7865 M,0,92729,92772,513.3342,112.7865,512.8768,134.7149
Sprite,Foreground,Centre,"sb\pg2.png",0,0 C,0,92859,,233,166,255 M,0,92859,92902,564,191,556.343,211.7088 F,2,92859,93331,0.4,0 S,2,92859,93331,0.5,1 P,0,92859,93331,A M,0,92902,92945,556.343,211.7088,549.1251,232.5747 M,0,92945,92988,549.1251,232.5747,542.4309,253.6143 M,0,92988,93031,542.4309,253.6143,536.1825,274.7907
Sprite,Foreground,Centre,"sb\pg2.png",376,113 C,0,93204,,233,166,255 F,2,93204,93504,0.4,0 S,2,93204,93504,0.5,1 P,0,93204,93504,A
Sprite,Foreground,Centre,"sb\pg2.png",576,56 C,0,93376,,233,166,255 F,2,93376,93676,0.4,0 S,2,93376,93676,0.5,1 P,0,93376,93676,A
Sprite,Foreground,Centre,"sb\pg2.png",0,0 C,0,93549,,233,166,255 M,0,93549,93592,399,245,378.1992,237.6404 F,2,93549,94107,0.4,0 S,2,93549,94107,0.5,1 P,0,93549,94107,A M,0,93592,93635,378.1992,237.6404,359.1201,226.6409 M,0,93635,93678,359.1201,226.6409,343.7471,210.8722 M,0,93678,93721,343.7471,210.8722,328.6452,194.8318 M,0,93721,93764,328.6452,194.8318,309.7073,183.6097 M,0,93764,93807,309.7073,183.6097,288.8935,176.2951
Sprite,Foreground,Centre,"sb\pg2.png",0,0 C,0,93894,,233,166,255 M,0,93894,93937,416,253,437.7932,251.6122 F,2,93894,94366,0.4,0 S,2,93894,94366,0.5,1 P,0,93894,94366,A M,0,93937,93980,437.7932,251.6122,457.6489,242.725 M,0,93980,94023,457.6489,242.725,472.7937,227.0266 M,0,94023,94066,472.7937,227.0266,481,207
Sprite,Foreground,Centre,"sb\pg2.png",0,0 C,0,94238,,168,168,255 M,0,94238,94281,232,100,237.4853,121.3877 F,2,94238,94882,0.4,0 S,2,94238,94882,0.5,1 P,0,94238,94882,A M,0,94281,94324,237.4853,121.3877,242.8492,142.8062 M,0,94324,94367,242.8492,142.8062,248.0711,164.2598 M,0,94367,94410,248.0711,164.2598,253.1659,185.7438 M,0,94410,94453,253.1659,185.7438,258.1293,207.2587 M,0,94453,94496,258.1293,207.2587,262.9484,228.8063 M,0,94496,94539,262.9484,228.8063,267.6414,250.3817 M,0,94539,94582,267.6414,250.3817,272,271
Sprite,Foreground,Centre,"sb\pg2.png",416,119 C,0,94756,,168,168,255 F,2,94756,95056,0.4,0 S,2,94756,95056,0.5,1 P,0,94756,95056,A
Sprite,Foreground,Centre,"sb\pg2.png",0,0 C,0,94928,,168,168,255 M,0,94928,94971,382,320,377.9597,341.7071 F,2,94928,95400,0.4,0 S,2,94928,95400,0.5,1 P,0,94928,95400,A M,0,94971,95014,377.9597,341.7071,374.1054,363.4479 M,0,95014,95057,374.1054,363.4479,370.4506,385.2231 M,0,95057,95100,370.4506,385.2231,367,407
Sprite,Foreground,Centre,"sb\pg2.png",0,0 C,0,95273,,237,243,194 M,0,95273,95316,568,244,546.4783,239.135 F,2,95273,95831,0.4,0 S,2,95273,95831,0.5,1 P,0,95273,95831,A M,0,95316,95359,546.4783,239.135,526.2964,230.3431 M,0,95359,95402,526.2964,230.3431,510.0747,215.5165 M,0,95402,95445,510.0747,215.5165,494.7799,199.6742 M,0,95445,95488,494.7799,199.6742,475.253,189.5618 M,0,95488,95531,475.253,189.5618,454,184
Sprite,Foreground,Centre,"sb\pg2.png",0,0 C,0,95618,,237,243,194 M,0,95618,95661,416,119,397.2889,130.3098 F,2,95618,96090,0.4,0 S,2,95618,96090,0.5,1 P,0,95618,96090,A M,0,95661,95704,397.2889,130.3098,383.3906,147.0961 M,0,95704,95747,383.3906,147.0961,376.2701,167.7592 M,0,95747,95790,376.2701,167.7592,376.9487,189.6822
Sprite,Foreground,Centre,"sb\pg2.png",480,359 C,0,95963,,237,243,194 F,2,95963,96263,0.4,0 S,2,95963,96263,0.5,1 P,0,95963,96263,A
Sprite,Foreground,Centre,"sb\pg2.png",568,164 C,0,96135,,237,243,194 F,2,96135,96435,0.4,0 S,2,96135,96435,0.5,1 P,0,96135,96435,A
Sprite,Foreground,Centre,"sb\pg2.png",0,0 C,0,96307,,237,243,194 M,0,96307,96350,372,370,366.1984,348.6962 F,2,96307,96779,0.4,0 S,2,96307,96779,0.5,1 P,0,96307,96779,A M,0,96350,96393,366.1984,348.6962,360.1223,327.4691 M,0,96393,96436,360.1223,327.4691,353.7529,306.3281 M,0,96436,96479,353.7529,306.3281,347.0894,285.2778
Sprite,Foreground,Centre,"sb\pg2.png",223,141 C,0,96652,,129,223,254 F,2,96652,96952,0.4,0 S,2,96652,96952,0.5,1 P,0,96652,96952,A
Sprite,Foreground,Centre,"sb\pg2.png",0,0 C,0,96738,,129,223,254 M,0,96738,96781,211,133,224.4515,115.7177 F,2,96738,97210,0.4,0 S,2,96738,97210,0.5,1 P,0,96738,97210,A M,0,96781,96824,224.4515,115.7177,242.4169,103.2894 M,0,96824,96867,242.4169,103.2894,263.4765,97.26233 M,0,96867,96910,263.4765,97.26233,285.2995,98.89337
Sprite,Foreground,Centre,"sb\pg2.png",304,95 C,0,96997,,129,223,254 F,2,96997,97297,0.4,0 S,2,96997,97297,0.5,1 P,0,96997,97297,A
Sprite,Foreground,Centre,"sb\pg2.png",186,228 C,0,97169,,129,223,254 F,2,97169,97469,0.4,0 S,2,97169,97469,0.5,1 P,0,97169,97469,A
Sprite,Foreground,Centre,"sb\pg2.png",400,192 C,0,97342,,233,166,255 F,2,97342,97642,0.4,0 S,2,97342,97642,0.5,1 P,0,97342,97642,A
Sprite,Foreground,Centre,"sb\pg2.png",373,186 C,0,97428,,233,166,255 F,2,97428,97728,0.4,0 S,2,97428,97728,0.5,1 P,0,97428,97728,A
Sprite,Foreground,Centre,"sb\pg2.png",346,180 C,0,97514,,233,166,255 F,2,97514,97814,0.4,0 S,2,97514,97814,0.5,1 P,0,97514,97814,A
Sprite,Foreground,Centre,"sb\pg2.png",0,0 C,0,97687,,233,166,255 M,0,97687,97730,512,72,533.2305,65.93416 F,2,97687,98073,0.4,0 S,2,97687,98073,0.5,1 P,0,97687,98073,A M,0,97730,97773,533.2305,65.93416,554,60
Sprite,Foreground,Centre,"sb\pg2.png",0,0 C,0,97859,,233,166,255 M,0,97859,97902,439,121,417.7326,115.0649 F,2,97859,98245,0.4,0 S,2,97859,98245,0.5,1 P,0,97859,98245,A M,0,97902,97945,417.7326,115.0649,396.4652,109.1298
Sprite,Foreground,Centre,"sb\pg2.png",511,248 C,0,98031,,168,168,255 F,2,98031,98331,0.4,0 S,2,98031,98331,0.5,1 P,0,98031,98331,A
Sprite,Foreground,Centre,"sb\pg2.png",362,417 C,0,98204,,168,168,255 F,2,98204,98504,0.4,0 S,2,98204,98504,0.5,1 P,0,98204,98504,A
Sprite,Foreground,Centre,"sb\pg2.png",360,406 C,0,98290,,168,168,255 F,2,98290,98590,0.4,0 S,2,98290,98590,0.5,1 P,0,98290,98590,A
Sprite,Foreground,Centre,"sb\pg2.png",0,0 C,0,98376,,168,168,255 M,0,98376,98419,358,396,353.6698,374.3488 F,2,98376,98762,0.4,0 S,2,98376,98762,0.5,1 P,0,98376,98762,A M,0,98419,98462,353.6698,374.3488,349.3395,352.6976
Sprite,Foreground,Centre,"sb\pg2.png",0,0 C,0,98549,,168,168,255 M,0,98549,98592,431,313,435.3302,291.3488 F,2,98549,98935,0.4,0 S,2,98549,98935,0.5,1 P,0,98549,98935,A M,0,98592,98635,435.3302,291.3488,439.6605,269.6976
Sprite,Foreground,Centre,"sb\pg2.png",337,88 C,0,98721,,237,243,194 F,2,98721,99021,0.4,0 S,2,98721,99021,0.5,1 P,0,98721,99021,A
Sprite,Foreground,Centre,"sb\pg2.png",311,78 C,0,98807,,237,243,194 F,2,98807,99107,0.4,0 S,2,98807,99107,0.5,1 P,0,98807,99107,A
Sprite,Foreground,Centre,"sb\pg2.png",280,80 C,0,98893,,237,243,194 F,2,98893,99193,0.4,0 S,2,98893,99193,0.5,1 P,0,98893,99193,A
Sprite,Foreground,Centre,"sb\pg2.png",254,91 C,0,98979,,237,243,194 F,2,98979,99279,0.4,0 S,2,98979,99279,0.5,1 P,0,98979,99279,A
Sprite,Foreground,Centre,"sb\pg2.png",0,0 C,0,99066,,237,243,194 M,0,99066,99109,238,105,219.1168,146.4479 F,2,99066,99624,0.4,0 S,2,99066,99624,0.5,1 P,0,99066,99624,A M,0,99109,99152,219.1168,146.4479,225.0327,191.5334 M,0,99152,99195,225.0327,191.5334,249.2115,230.6501 M,0,99195,99238,249.2115,230.6501,268.517,272.1533 M,0,99238,99281,268.517,272.1533,268.142,317.8763 M,0,99281,99324,268.142,317.8763,251.1222,360.4848
//Storyboard Layer 4 (Overlay)
//Storyboard Sound Samples

[TimingPoints]
101,344.827586206897,4,2,1,45,1,0
10963,-100,4,2,1,45,0,0
11135,-147.058823529412,4,2,1,52,0,0
11825,-147.058823529412,4,2,1,35,0,0
12169,-147.058823529412,4,2,1,35,0,0
13204,-147.058823529412,4,2,1,35,0,0
13290,-147.058823529412,4,2,1,5,0,0
13376,-147.058823529412,4,2,1,35,0,0
13894,-147.058823529412,4,2,1,45,0,0
14583,-147.058823529412,4,2,1,35,0,0
14928,-147.058823529412,4,2,1,35,0,0
16652,-147.058823529412,4,2,1,45,0,0
17342,-147.058823529412,4,2,1,35,0,0
17687,-147.058823529412,4,2,1,35,0,0
18032,-147.058823529412,4,2,1,35,0,0
18290,-147.058823529412,4,2,1,5,0,0
18376,-147.058823529412,4,2,1,35,0,0
18721,-147.058823529412,4,2,1,35,0,0
18807,-147.058823529412,4,2,1,35,0,0
18894,-147.058823529412,4,2,1,35,0,0
19066,-147.058823529412,4,2,1,35,0,0
19325,-147.058823529412,4,2,1,5,0,0
19411,-147.058823529412,4,2,1,45,0,0
20101,-147.058823529412,4,2,1,35,0,0
20445,-147.058823529412,4,2,1,35,0,0
21480,-147.058823529412,4,2,1,35,0,0
21566,-147.058823529412,4,2,1,5,0,0
21652,-147.058823529412,4,2,1,35,0,0
22083,-147.058823529412,4,2,1,5,0,0
22169,-147.058823529412,4,2,1,45,0,0
22859,-147.058823529412,4,2,1,35,0,0
23204,-147.058823529412,4,2,1,35,0,0
24238,-147.058823529412,4,2,1,35,0,0
24325,-147.058823529412,4,2,1,5,0,0
24411,-147.058823529412,4,2,1,35,0,0
24928,-147.058823529412,4,2,1,45,0,0
25618,-147.058823529412,4,2,1,35,0,0
25963,-147.058823529412,4,2,1,35,0,0
27687,-147.058823529412,4,2,1,45,0,0
28376,-147.058823529412,4,2,1,35,0,0
28721,-147.058823529412,4,2,1,35,0,0
29066,-147.058823529412,4,2,1,35,0,0
29325,-147.058823529412,4,2,1,5,0,0
29411,-147.058823529412,4,2,1,35,0,0
29756,-147.058823529412,4,2,1,35,0,0
29842,-147.058823529412,4,2,1,5,0,0
29928,-147.058823529412,4,2,1,35,0,0
30101,-147.058823529412,4,2,1,35,0,0
30359,-147.058823529412,4,2,1,5,0,0
30445,-147.058823529412,4,2,1,45,0,0
31135,-147.058823529412,4,2,1,35,0,0
31480,-147.058823529412,4,2,1,35,0,0
32428,-147.058823529412,4,2,1,5,0,0
32514,-147.058823529412,4,2,1,35,0,0
33204,-133.333333333333,4,2,1,52,0,0
33721,-133.333333333333,4,2,1,45,0,0
35963,-133.333333333333,4,2,1,52,0,0
36480,-133.333333333333,4,2,1,45,0,0
38376,-133.333333333333,4,2,1,45,0,0
38635,-133.333333333333,4,2,1,5,0,0
38721,-133.333333333333,4,2,1,52,0,0
39238,-133.333333333333,4,2,1,45,0,0
41480,-133.333333333333,4,2,1,52,0,0
44238,-121.951219512195,4,1,2,42,0,0
44325,-121.951219512195,4,1,2,44,0,0
44411,-121.951219512195,4,1,2,46,0,0
44497,-121.951219512195,4,1,2,48,0,0
44583,-121.951219512195,4,1,2,50,0,0
44669,-121.951219512195,4,1,2,52,0,0
44756,-121.951219512195,4,1,2,54,0,0
44842,-121.951219512195,4,1,2,56,0,0
44928,-121.951219512195,4,1,2,58,0,0
45014,-121.951219512195,4,1,2,60,0,0
45101,-121.951219512195,4,1,2,62,0,0
45187,-121.951219512195,4,1,2,64,0,0
45273,-121.951219512195,4,1,2,66,0,0
45359,-121.951219512195,4,1,2,68,0,0
45445,-121.951219512195,4,1,2,70,0,0
45532,-121.951219512195,4,1,2,72,0,0
45618,-121.951219512195,4,1,2,64,0,0
45704,-121.951219512195,4,1,2,66,0,0
45790,-121.951219512195,4,1,2,68,0,0
45876,-121.951219512195,4,1,2,70,0,0
45963,-121.951219512195,4,1,2,64,0,0
46049,-121.951219512195,4,1,2,66,0,0
46135,-121.951219512195,4,1,2,68,0,0
46221,-121.951219512195,4,1,2,70,0,0
46307,-121.951219512195,4,1,2,64,0,0
46393,-121.951219512195,4,1,2,66,0,0
46479,-121.951219512195,4,1,2,68,0,0
46565,-121.951219512195,4,1,2,70,0,0
46652,-121.951219512195,4,1,2,64,0,0
46738,-121.951219512195,4,1,2,66,0,0
46824,-121.951219512195,4,1,2,68,0,0
46910,-121.951219512195,4,1,2,70,0,0
46997,-121.951219512195,4,1,2,42,0,0
47084,-121.951219512195,4,1,2,44,0,0
47170,-121.951219512195,4,1,2,46,0,0
47256,-121.951219512195,4,1,2,48,0,0
47342,-121.951219512195,4,1,2,50,0,0
47428,-121.951219512195,4,1,2,52,0,0
47515,-121.951219512195,4,1,2,54,0,0
47601,-121.951219512195,4,1,2,56,0,0
47687,-121.951219512195,4,1,2,58,0,0
47773,-121.951219512195,4,1,2,60,0,0
47860,-121.951219512195,4,1,2,62,0,0
47946,-121.951219512195,4,1,2,64,0,0
48032,-121.951219512195,4,1,2,66,0,0
48118,-121.951219512195,4,1,2,68,0,0
48204,-121.951219512195,4,1,2,70,0,0
48291,-121.951219512195,4,1,2,72,0,0
48376,-121.951219512195,4,1,2,64,0,0
48462,-121.951219512195,4,1,2,66,0,0
48548,-121.951219512195,4,1,2,68,0,0
48634,-121.951219512195,4,1,2,70,0,0
48721,-121.951219512195,4,1,2,64,0,0
48807,-121.951219512195,4,1,2,66,0,0
48893,-121.951219512195,4,1,2,68,0,0
48979,-121.951219512195,4,1,2,70,0,0
49066,-121.951219512195,4,1,2,64,0,0
49152,-121.951219512195,4,1,2,66,0,0
49238,-121.951219512195,4,1,2,68,0,0
49324,-121.951219512195,4,1,2,70,0,0
49411,-121.951219512195,4,1,2,64,0,0
49497,-121.951219512195,4,1,2,66,0,0
49583,-121.951219512195,4,1,2,68,0,0
49669,-121.951219512195,4,1,2,70,0,0
49756,-121.951219512195,4,1,2,42,0,0
49843,-121.951219512195,4,1,2,44,0,0
49929,-121.951219512195,4,1,2,46,0,0
50015,-121.951219512195,4,1,2,48,0,0
50101,-121.951219512195,4,1,2,50,0,0
50187,-121.951219512195,4,1,2,52,0,0
50274,-121.951219512195,4,1,2,54,0,0
50360,-121.951219512195,4,1,2,56,0,0
50446,-121.951219512195,4,1,2,58,0,0
50532,-121.951219512195,4,1,2,60,0,0
50619,-121.951219512195,4,1,2,62,0,0
50705,-121.951219512195,4,1,2,64,0,0
50791,-121.951219512195,4,1,2,66,0,0
50877,-121.951219512195,4,1,2,68,0,0
50963,-121.951219512195,4,1,2,70,0,0
51050,-121.951219512195,4,1,2,72,0,0
51135,-121.951219512195,4,1,2,64,0,0
51221,-121.951219512195,4,1,2,66,0,0
51307,-121.951219512195,4,1,2,68,0,0
51393,-121.951219512195,4,1,2,70,0,0
51480,-121.951219512195,4,1,2,64,0,0
51566,-121.951219512195,4,1,2,66,0,0
51652,-121.951219512195,4,1,2,68,0,0
51738,-121.951219512195,4,1,2,70,0,0
51825,-121.951219512195,4,1,2,64,0,0
51911,-121.951219512195,4,1,2,66,0,0
51997,-121.951219512195,4,1,2,68,0,0
52083,-121.951219512195,4,1,2,70,0,0
52169,-121.951219512195,4,1,2,64,0,0
52255,-121.951219512195,4,1,2,66,0,0
52341,-121.951219512195,4,1,2,68,0,0
52427,-121.951219512195,4,1,2,70,0,0
52514,-121.951219512195,4,1,2,55,0,0
52601,-121.951219512195,4,1,2,5,0,0
52687,-121.951219512195,4,1,2,55,0,0
52773,-121.951219512195,4,1,2,5,0,0
52859,-121.951219512195,4,1,2,55,0,0
52945,-121.951219512195,4,1,2,5,0,0
53032,-121.951219512195,4,1,2,55,0,0
53118,-121.951219512195,4,1,2,5,0,0
53204,-54.9450549450549,4,1,2,55,0,0
53290,-121.951219512195,4,1,2,5,0,0
53376,-121.951219512195,4,1,2,55,0,0
53463,-121.951219512195,4,1,2,5,0,0
53549,-121.951219512195,4,1,2,55,0,0
53635,-121.951219512195,4,1,2,5,0,0
53721,-121.951219512195,4,1,2,55,0,0
53807,-121.951219512195,4,1,2,5,0,0
53894,-121.951219512195,4,1,2,22,0,0
53980,-121.951219512195,4,1,2,25,0,0
54066,-121.951219512195,4,1,2,33,0,0
54152,-121.951219512195,4,1,2,41,0,0
54238,-121.951219512195,4,1,2,49,0,0
54325,-121.951219512195,4,1,2,57,0,0
54411,-121.951219512195,4,1,2,65,0,0
54497,-121.951219512195,4,1,2,74,0,0
54583,-121.951219512195,4,1,2,75,0,0
54669,-121.951219512195,4,1,2,76,0,0
54756,-121.951219512195,4,1,2,77,0,0
54842,-121.951219512195,4,1,2,78,0,0
54928,-121.951219512195,4,1,2,83,0,0
55014,-121.951219512195,4,1,2,81,0,0
55101,-121.951219512195,4,1,2,79,0,0
55187,-121.951219512195,4,1,2,77,0,0
55273,-89.2857142857143,4,1,3,75,0,1
55532,-98.0392156862744,4,1,3,5,0,1
55618,-98.0392156862744,4,1,3,70,0,1
55790,-98.0392156862745,4,1,3,70,0,1
56307,-89.2857142857143,4,1,3,72,0,1
56479,-98.0392156862745,4,1,3,70,0,1
56652,-98.0392156862744,4,1,3,75,0,1
56825,-98.0392156862744,4,1,3,70,0,1
56997,-98.0392156862744,4,1,3,72,0,1
57169,-98.0392156862745,4,1,3,70,0,1
57687,-98.0392156862744,4,1,3,72,0,1
57859,-98.0392156862745,4,1,3,70,0,1
58032,-89.2857142857143,4,1,3,75,0,1
58204,-98.0392156862744,4,1,3,70,0,1
58290,-98.0392156862744,4,1,3,5,0,1
58376,-98.0392156862744,4,1,3,72,0,1
58548,-98.0392156862745,4,1,3,70,0,1
59066,-89.2857142857143,4,1,3,72,0,1
59325,-98.0392156862745,4,1,3,5,0,1
59411,-98.0392156862744,4,1,3,75,0,1
59584,-98.0392156862744,4,1,3,70,0,1
59756,-98.0392156862744,4,1,3,72,0,1
59928,-98.0392156862745,4,1,3,70,0,1
60445,-98.0392156862744,4,1,3,72,0,1
60617,-98.0392156862745,4,1,3,70,0,1
60790,-89.2857142857143,4,1,3,75,0,1
61049,-98.0392156862744,4,1,3,5,0,1
61135,-98.0392156862744,4,1,3,72,0,1
61307,-98.0392156862745,4,1,3,70,0,1
61825,-89.2857142857143,4,1,3,72,0,1
61997,-98.0392156862745,4,1,3,70,0,1
62169,-98.0392156862744,4,1,3,75,0,1
62342,-98.0392156862744,4,1,3,70,0,1
62514,-98.0392156862744,4,1,3,72,0,1
62686,-98.0392156862745,4,1,3,70,0,1
63204,-98.0392156862744,4,1,3,72,0,1
63376,-98.0392156862745,4,1,3,70,0,1
63549,-98.0392156862744,4,1,3,75,0,1
63721,-98.0392156862744,4,1,3,70,0,1
63894,-98.0392156862744,4,1,3,72,0,1
64066,-98.0392156862745,4,1,3,70,0,1
64583,-89.2857142857143,4,1,3,72,0,1
64842,-98.0392156862745,4,1,3,5,0,1
64928,-98.0392156862744,4,1,3,75,0,1
65101,-98.0392156862744,4,1,3,70,0,1
65273,-98.0392156862744,4,1,3,72,0,1
65445,-98.0392156862745,4,1,3,70,0,1
65963,-98.0392156862744,4,1,3,72,0,1
66135,-98.0392156862745,4,1,3,70,0,1
66307,-89.2857142857143,4,1,3,75,0,1
66566,-98.0392156862744,4,1,3,5,0,1
66652,-98.0392156862744,4,1,3,72,0,1
66824,-98.0392156862745,4,1,3,70,0,1
67342,-98.0392156862744,4,1,3,72,0,1
67514,-98.0392156862745,4,1,3,70,0,1
67687,-98.0392156862744,4,1,3,75,0,1
67860,-98.0392156862744,4,1,3,70,0,1
68032,-98.0392156862744,4,1,3,72,0,1
68204,-98.0392156862745,4,1,3,70,0,1
68721,-98.0392156862744,4,1,3,72,0,1
68893,-98.0392156862745,4,1,3,70,0,1
69066,-89.2857142857143,4,1,3,75,0,1
69238,-98.0392156862744,4,1,3,70,0,1
69325,-98.0392156862744,4,1,3,5,0,1
69411,-98.0392156862744,4,1,3,72,0,1
69583,-98.0392156862745,4,1,3,70,0,1
70101,-98.0392156862744,4,1,3,72,0,1
70359,-98.0392156862745,4,1,3,5,0,1
70445,-98.0392156862744,4,1,3,75,0,1
70618,-98.0392156862744,4,1,3,70,0,1
70790,-98.0392156862744,4,1,3,72,0,1
70962,-98.0392156862745,4,1,3,70,0,1
71480,-98.0392156862744,4,1,3,72,0,1
71652,-98.0392156862745,4,1,3,70,0,1
71825,-89.2857142857143,4,1,3,70,0,1
72083,-98.0392156862744,4,1,3,5,0,1
72169,-98.0392156862744,4,1,3,72,0,1
72341,-98.0392156862745,4,1,3,70,0,1
72859,-98.0392156862744,4,1,3,72,0,1
73031,-98.0392156862745,4,1,3,70,0,1
73204,-98.0392156862744,4,1,3,75,0,1
73377,-98.0392156862744,4,1,3,70,0,1
73549,-98.0392156862744,4,1,3,72,0,1
73721,-98.0392156862745,4,1,3,70,0,1
74238,-98.0392156862744,4,1,3,72,0,1
74410,-98.0392156862745,4,1,3,70,0,1
74583,-98.0392156862744,4,1,3,75,0,1
74756,-98.0392156862744,4,1,2,70,0,1
75273,-98.0392156862744,4,1,2,75,0,1
75359,-98.0392156862744,4,1,2,75,0,1
75445,-98.0392156862744,4,1,2,75,0,1
75618,-98.0392156862744,4,1,2,75,0,1
75790,-98.0392156862744,4,1,2,75,0,1
75963,-98.0392156862744,4,1,2,75,0,1
76136,-98.0392156862744,4,1,2,70,0,1
76480,-98.0392156862744,4,1,1,70,0,1
76566,-98.0392156862744,4,1,1,74,0,1
76652,-98.0392156862745,4,1,1,78,0,1
76738,-98.0392156862745,4,1,1,82,0,1
76825,-98.0392156862745,4,1,1,86,0,1
76911,-98.0392156862745,4,1,1,90,0,1
76997,-47.1698113207547,4,1,3,72,0,1
77256,-98.0392156862744,4,1,3,72,0,1
77342,-108.695652173913,4,1,3,55,0,0
77687,-108.695652173913,4,1,3,70,0,0
77859,-108.695652173913,4,1,3,55,0,0
78376,-108.695652173913,4,1,3,70,0,0
78548,-108.695652173913,4,1,3,55,0,0
79066,-108.695652173913,4,1,3,70,0,0
79238,-108.695652173913,4,1,3,55,0,0
79756,-108.695652173913,4,1,3,70,0,0
79928,-108.695652173913,4,1,3,55,0,0
80445,-108.695652173913,4,1,3,70,0,0
80617,-108.695652173913,4,1,3,55,0,0
81135,-108.695652173913,4,1,3,70,0,0
81307,-108.695652173913,4,1,3,55,0,0
81480,-108.695652173913,4,1,3,55,0,0
81738,-108.695652173913,4,1,3,55,0,0
81825,-108.695652173913,4,1,3,70,0,0
81997,-108.695652173913,4,1,3,55,0,0
82514,-108.695652173913,4,1,3,70,0,0
82686,-108.695652173913,4,1,3,55,0,0
82773,-108.695652173913,4,1,3,5,0,0
82859,-108.695652173913,4,1,3,55,0,0
83118,-108.695652173913,4,1,3,5,0,0
83204,-108.695652173913,4,1,3,70,0,0
83376,-108.695652173913,4,1,3,55,0,0
83894,-108.695652173913,4,1,3,70,0,0
84066,-108.695652173913,4,1,3,55,0,0
84238,-108.695652173913,4,1,3,55,0,0
84497,-108.695652173913,4,1,3,5,0,0
84583,-108.695652173913,4,1,3,70,0,0
84755,-108.695652173913,4,1,3,55,0,0
85273,-108.695652173913,4,1,3,70,0,0
85445,-108.695652173913,4,1,3,55,0,0
85876,-108.695652173913,4,1,3,5,0,0
85963,-108.695652173913,4,1,3,70,0,0
86135,-108.695652173913,4,1,3,55,0,0
86652,-108.695652173913,4,1,3,70,0,0
86824,-108.695652173913,4,1,3,55,0,0
87256,-108.695652173913,4,1,3,5,0,0
87342,-108.695652173913,4,1,3,70,0,0
87514,-108.695652173913,4,1,3,55,0,0
88032,-108.695652173913,4,1,3,70,0,0
88204,-108.695652173913,4,1,3,55,0,0
88721,-108.695652173913,4,1,3,70,0,0
88893,-108.695652173913,4,1,3,55,0,0
89411,-108.695652173913,4,1,3,70,0,0
89583,-108.695652173913,4,1,3,55,0,0
90101,-108.695652173913,4,1,3,70,0,0
90273,-108.695652173913,4,1,3,55,0,0
90790,-108.695652173913,4,1,3,70,0,0
90962,-108.695652173913,4,1,3,55,0,0
91480,-108.695652173913,4,1,3,70,0,0
91652,-108.695652173913,4,1,3,55,0,0
92169,-108.695652173913,4,1,3,70,0,0
92341,-108.695652173913,4,1,3,55,0,0
92514,-108.695652173913,4,1,3,55,0,0
92773,-108.695652173913,4,1,3,5,0,0
92859,-108.695652173913,4,1,3,70,0,0
93031,-108.695652173913,4,1,3,55,0,0
93549,-108.695652173913,4,1,3,70,0,0
93721,-108.695652173913,4,1,3,55,0,0
93807,-108.695652173913,4,1,3,5,0,0
93894,-108.695652173913,4,1,3,55,0,0
94238,-108.695652173913,4,1,3,70,0,0
94410,-108.695652173913,4,1,3,55,0,0
94928,-108.695652173913,4,1,3,70,0,0
95100,-108.695652173913,4,1,3,55,0,0
95273,-108.695652173913,4,1,3,55,0,0
95532,-108.695652173913,4,1,3,5,0,0
95618,-108.695652173913,4,1,3,70,0,0
95790,-108.695652173913,4,1,3,55,0,0
96307,-108.695652173913,4,1,3,70,0,0
96479,-108.695652173913,4,1,3,55,0,0
96652,-108.695652173913,4,1,2,55,0,0
97687,-108.695652173913,4,1,2,55,0,0
97773,-108.695652173913,4,1,2,5,0,0
97859,-108.695652173913,4,1,2,55,0,0
97945,-108.695652173913,4,1,2,5,0,0
98032,-108.695652173913,4,1,2,55,0,0
98549,-108.695652173913,4,1,1,55,0,0
99066,-52.0833333333333,4,1,3,55,0,0
99325,-70.4225352112676,4,1,3,5,0,0
99411,-108.695652173913,4,1,1,55,0,0

[Colours]
Combo1 : 233,166,255
Combo2 : 168,168,255
Combo3 : 237,243,194
Combo4 : 129,223,254
SliderBorder : 50,50,128
SliderTrackOverride : 30,30,75

[HitObjects]
256,192,8376,12,0,10963,0:0:0:0:
192,131,11135,6,0,B|202:59|112:42|72:87|64:183|149:226,1,261.12000159375,6|0,3:2|0:0,0:0:0:0:
281,117,12169,2,0,P|279:86|261:49,1,65.2800003984375,2|0,0:0|0:0,0:0:0:0:
210,204,12514,2,0,B|264:179|319:217|285:239|338:280|399:249,1,195.840001195313,0|0,3:0|0:0,0:0:0:0:
487,166,13204,2,0,L|475:202,1,32.6400001992188
457,240,13376,1,0,0:0:0:0:
344,137,13549,1,0,0:0:0:0:
384,256,13721,1,0,0:0:0:0:
481,64,13894,6,0,P|358:40|219:17,1,261.12000159375
327,200,14928,2,0,P|340:170|342:137,1,65.2800003984375
260,152,15273,1,0,3:0:0:0:
260,152,15445,1,0,3:0:0:0:
232,233,15618,2,0,P|243:263|255:293,1,65.2800003984375,2|2,0:0|0:0,0:0:0:0:
111,158,15963,2,0,P|122:110|136:63,2,97.9200005976563,10|2|2,0:0|0:0|0:0,0:0:0:0:
186,4,16652,6,0,B|272:-32|286:50|311:47|286:54|311:50|326:114|413:70,1,261.12000159375,2|8,3:2|0:0,0:0:0:0:
512,0,17687,2,0,P|502:35|494:73,1,65.2800003984375
432,117,18032,2,0,P|441:152|457:221,1,97.9200005976563,0|0,3:0|0:0,0:0:0:0:
475,227,18376,1,0,0:0:0:0:
370,354,18721,2,0,P|340:368|308:365,1,65.2800003984375,8|0,0:0|0:0,0:0:0:0:
245,320,19066,2,0,P|215:286|161:295,1,97.9200005976563
96,315,19411,6,0,P|183:217|114:127,1,261.12000159375,0|8,3:0|0:0,0:0:0:0:
225,17,20445,2,0,P|259:25|301:37,1,65.2800003984375
145,44,20790,1,0,3:0:0:0:
145,44,20962,1,0,3:0:0:0:
240,123,21135,2,0,P|271:114|303:106,1,65.2800003984375
207,225,21480,2,0,P|192:221|176:217,1,32.6400001992188,8|0,0:0|0:0,0:0:0:0:
264,276,21652,2,0,B|362:271|307:217|410:204,1,163.200000996094,0|0,3:0|0:0,0:0:0:0:
437,135,22169,6,0,B|482:154|483:204|483:204|495:119|511:32,1,261.12000159375,2|8,3:2|0:0,0:0:0:0:
316,1,23204,2,0,P|324:32|332:64,1,65.2800003984375,2|0,0:0|0:0,0:0:0:0:
356,136,23549,2,0,P|269:90|207:152,1,195.840001195313,0|0,3:0|0:0,0:0:0:0:
194,280,24238,2,0,P|210:277|228:274,1,32.6400001992188,10|0,0:0|0:0,0:0:0:0:
271,266,24411,1,2,0:0:0:0:
176,361,24583,1,2,0:0:0:0:
303,384,24756,1,2,0:0:0:0:
329,212,24928,6,0,P|217:235|71:271,1,261.12000159375,2|8,3:2|0:0,0:0:0:0:
112,103,25963,2,0,P|146:111|188:123,1,65.2800003984375,2|0,0:0|0:0,0:0:0:0:
17,137,26307,1,0,3:0:0:0:
17,137,26480,1,0,3:0:0:0:
56,17,26652,2,0,P|87:8|119:0,1,65.2800003984375,2|0,0:0|0:0,0:0:0:0:
216,144,26997,2,0,P|168:130|121:120,2,97.9200005976563,10|2|2,0:0|0:0|0:0,0:0:0:0:
55,89,27687,6,0,B|110:156|49:207|29:197|-27:251|28:331,1,261.12000159375
159,384,28721,2,0,P|190:376|222:367,1,65.2800003984375
288,318,29066,2,0,P|351:332|400:347,1,97.9200005976563
398,361,29411,1,0,0:0:0:0:
476,250,29583,2,0,P|489:313|494:348,1,97.9200005976563
485,368,29928,1,0,0:0:0:0:
388,246,30101,2,0,P|400:197|440:169,1,97.9200005976563
511,141,30445,6,0,B|419:125|419:125|382:77|382:77|268:62,1,261.12000159375
325,214,31480,2,0,P|332:182|341:150,1,65.2800003984375
254,264,31825,2,0,P|357:251|389:355,1,228.480001394531
404,361,32514,2,0,P|413:330|409:297,1,65.2800003984375
476,231,32859,2,0,P|451:209|421:199,1,65.2800003984375,2|0,0:0|0:0,0:0:0:0:
320,60,33204,6,0,P|206:80|100:99,1,216.000008239746,4|0,3:1|0:0,0:0:0:0:
32,64,33894,2,0,B|94:103|94:103|49:251,1,216.000008239746,2|0,0:0|0:0,0:0:0:0:
168,149,34583,6,0,P|177:183|185:218,1,72.0000027465821
295,213,34928,2,0,P|285:247|277:282,1,72.0000027465821
387,126,35187,1,0,0:0:0:0:
391,138,35273,2,0,P|410:208|427:282,1,144.000005493164
426,277,35963,6,0,B|286:281|360:352|221:355,1,216.000008239746,2|0,0:0|0:0,0:0:0:0:
146,354,36652,2,0,B|213:380|213:380|197:308|182:236,1,216.000008239746,2|0,0:0|0:0,0:0:0:0:
87,148,37342,6,0,P|55:179|56:216,1,72.0000027465821,2|0,0:0|0:0,0:0:0:0:
208,113,37687,2,0,P|196:69|163:52,1,72.0000027465821,2|0,0:0|0:0,0:0:0:0:
179,229,37945,1,0,0:0:0:0:
182,239,38032,2,0,P|225:250|320:286,1,144.000005493164
318,285,38721,6,0,P|365:269|323:123,1,216.000008239746,2|0,0:0|0:0,0:0:0:0:
416,64,39411,2,0,B|350:50|311:106|345:123|307:181|231:157,1,216.000008239746,2|0,0:0|0:0,0:0:0:0:
238,15,40101,6,0,P|250:55|260:97,1,72.0000027465821,2|0,0:0|0:0,0:0:0:0:
145,175,40445,2,0,P|155:140|166:106,1,72.0000027465821,2|0,0:0|0:0,0:0:0:0:
314,186,40704,1,0,0:0:0:0:
304,180,40790,2,0,P|263:179|229:269,1,144.000005493164,2|2,0:0|0:0,0:0:0:0:
225,261,41480,5,0,0:0:0:0:
256,192,41652,12,0,43894,0:0:0:0:
409,106,44238,5,6,3:2:0:0:
370,88,44324,1,0,0:2:0:0:
329,99,44410,1,0,0:2:0:0:
304,133,44496,1,0,0:2:0:0:
296,177,44583,1,0,3:2:0:0:
284,217,44669,1,0,0:2:0:0:
250,242,44755,1,0,0:2:0:0:
208,238,44841,1,0,0:2:0:0:
179,209,44928,6,0,L|188:160,3,39.3600006005859,2|0|0|0,3:2|0:2|0:2|0:2,0:0:0:0:
113,151,45273,2,0,L|122:102,3,39.3600006005859,0|0|0|0,3:2|0:2|0:2|0:2,0:0:0:0:
2,241,45618,5,2,3:2:0:0:
4,251,45704,1,0,0:2:0:0:
6,260,45790,2,0,L|15:300,1,39.3600006005859,0|0,0:2|0:2,0:0:0:0:
101,298,45963,1,2,3:2:0:0:
99,308,46049,1,0,0:2:0:0:
97,317,46135,2,0,L|88:357,1,39.3600006005859,0|0,0:2|0:2,0:0:0:0:
224,252,46307,5,2,3:2:0:0:
222,242,46393,1,0,0:2:0:0:
220,233,46479,2,0,L|211:193,1,39.3600006005859,0|0,0:2|0:2,0:0:0:0:
125,195,46652,1,2,3:2:0:0:
127,185,46738,1,0,0:2:0:0:
129,176,46824,2,0,L|138:136,1,39.3600006005859,0|0,0:2|0:2,0:0:0:0:
206,340,46997,5,2,3:2:0:0:
248,342,47083,1,0,0:2:0:0:
286,323,47169,1,0,0:2:0:0:
310,287,47255,1,0,0:2:0:0:
312,244,47341,1,0,3:2:0:0:
317,202,47428,1,0,0:2:0:0:
345,169,47514,1,0,0:2:0:0:
385,157,47600,1,0,0:2:0:0:
426,170,47687,6,0,L|434:221,3,39.3600006005859,2|0|0|0,3:2|0:2|0:2|0:2,0:0:0:0:
506,196,48032,2,0,L|512:234,3,39.3600006005859,0|0|0|0,3:2|0:2|0:2|0:2,0:0:0:0:
496,59,48376,5,2,3:2:0:0:
486,57,48462,1,0,0:2:0:0:
477,55,48548,2,0,L|489:104,1,39.3600006005859,0|0,0:2|0:2,0:0:0:0:
367,11,48721,1,2,3:2:0:0:
377,9,48807,1,0,0:2:0:0:
386,7,48893,2,0,L|374:56,1,39.3600006005859,0|0,0:2|0:2,0:0:0:0:
376,165,49066,5,2,3:2:0:0:
366,167,49152,1,0,0:2:0:0:
357,169,49238,2,0,L|369:120,1,39.3600006005859,0|0,0:2|0:2,0:0:0:0:
269,217,49411,1,2,3:2:0:0:
279,219,49497,1,0,0:2:0:0:
288,221,49583,2,0,L|276:172,1,39.3600006005859,0|0,0:2|0:2,0:0:0:0:
384,332,49756,5,2,3:2:0:0:
342,319,49842,1,0,0:2:0:0:
301,307,49928,1,0,0:2:0:0:
259,295,50014,1,0,0:2:0:0:
217,283,50100,1,0,3:2:0:0:
176,271,50187,1,0,0:2:0:0:
134,259,50273,1,0,0:2:0:0:
92,245,50359,1,0,0:2:0:0:
51,231,50445,6,0,L|8:220,3,39.3600006005859,2|0|0|0,3:2|0:2|0:2|0:2,0:0:0:0:
41,148,50790,2,0,L|2:138,3,39.3600006005859,0|0|0|0,3:2|0:2|0:2|0:2,0:0:0:0:
127,41,51135,5,2,3:2:0:0:
137,39,51221,1,0,0:2:0:0:
146,37,51307,2,0,P|166:46|177:68,1,39.3600006005859,0|0,0:2|0:2,0:0:0:0:
255,63,51480,1,2,3:2:0:0:
261,72,51566,1,0,0:2:0:0:
266,79,51652,2,0,P|266:100|251:120,1,39.3600006005859,0|0,0:2|0:2,0:0:0:0:
308,212,51825,5,2,3:2:0:0:
303,221,51911,1,0,0:2:0:0:
299,229,51997,2,0,P|279:238|255:232,1,39.3600006005859,0|0,0:2|0:2,0:0:0:0:
177,329,52169,1,2,3:2:0:0:
167,328,52255,1,0,0:2:0:0:
158,328,52341,2,0,P|141:314|136:290,1,39.3600006005859,0|0,0:2|0:2,0:0:0:0:
64,255,52514,5,2,3:2:0:0:
241,155,52687,1,0,3:2:0:0:
41,68,52859,1,0,3:2:0:0:
186,239,53032,1,0,3:2:0:0:
210,21,53204,5,0,3:2:0:0:
157,119,53376,1,0,3:2:0:0:
186,239,53549,1,2,3:2:0:0:
317,280,53721,1,0,3:2:0:0:
432,235,53894,1,2,3:2:0:0:
428,214,53980,1,0,3:2:0:0:
424,192,54066,1,0,3:2:0:0:
420,169,54152,1,0,3:2:0:0:
415,149,54238,5,2,3:2:0:0:
377,114,54324,1,0,3:2:0:0:
328,109,54410,1,0,3:2:0:0:
283,132,54496,1,0,3:2:0:0:
262,178,54583,1,0,3:2:0:0:
231,220,54669,1,0,3:2:0:0:
179,228,54755,1,0,3:2:0:0:
130,214,54841,1,0,3:2:0:0:
96,177,54928,5,0,1:2:0:0:
108,170,55014,1,0,1:2:0:0:
138,97,55101,5,0,1:2:0:0:
127,93,55187,1,0,1:2:0:0:
68,13,55273,6,0,P|94:108|110:179,1,161.28000196875,4|0,3:1|0:0,0:0:0:0:
96,177,55618,1,10,0:0:0:0:
229,22,55790,1,2,0:2:0:0:
229,22,55876,1,0,0:0:0:0:
229,22,55963,1,2,0:3:0:0:
319,208,56135,2,0,P|308:230|300:253,1,48.9600002988281,2|0,3:2|0:0,0:0:0:0:
310,198,56307,2,0,P|290:247|278:300,1,107.5200013125,10|0,0:0|0:0,0:0:0:0:
207,95,56652,5,0,3:0:0:0:
350,32,56825,1,0,0:0:0:0:
401,255,56997,5,8,0:0:0:0:
231,170,57170,1,0,0:0:0:0:
449,16,57342,5,2,0:0:0:0:
512,271,57515,1,0,3:0:0:0:
328,150,57687,1,8,0:0:0:0:
512,63,57860,1,0,0:0:0:0:
449,337,58032,6,0,B|357:326|413:270|312:256,1,161.28000196875,2|0,3:1|0:0,0:0:0:0:
298,269,58376,1,8,0:0:0:0:
424,119,58549,1,0,0:0:0:0:
424,119,58636,1,0,0:0:0:0:
424,119,58722,1,0,0:0:0:0:
209,32,58894,2,0,B|217:64|221:81,1,48.9600002988281,0|0,3:0|0:0,0:0:0:0:
196,28,59066,2,0,B|209:83|226:149,1,107.5200013125,8|0,0:0|0:0,0:0:0:0:
424,32,59411,5,0,3:0:0:0:
377,192,59583,1,0,0:0:0:0:
221,131,59756,5,8,0:0:0:0:
289,301,59928,1,0,0:0:0:0:
448,112,60101,1,2,0:0:0:0:
208,208,60273,1,0,3:0:0:0:
424,338,60445,1,8,0:0:0:0:
336,110,60618,1,0,0:0:0:0:
152,347,60790,6,0,B|124:359|119:386|119:386|63:348|84:281,1,161.28000196875,4|0,3:2|0:0,0:0:0:0:
69,281,61135,1,10,0:0:0:0:
214,151,61307,1,2,0:2:0:0:
214,151,61393,1,0,0:0:0:0:
214,151,61480,1,2,0:3:0:0:
14,47,61652,2,0,L|22:105,1,48.9600002988281,2|0,3:2|0:0,0:0:0:0:
1,38,61825,2,0,L|18:152,1,107.5200013125,10|0,0:0|0:0,0:0:0:0:
256,78,62169,5,0,3:0:0:0:
70,202,62342,1,0,0:0:0:0:
280,254,62514,5,8,0:0:0:0:
95,111,62687,1,0,0:0:0:0:
34,367,62859,5,2,0:0:0:0:
168,139,63032,1,0,3:0:0:0:
280,353,63204,1,8,0:0:0:0:
47,184,63376,1,0,0:0:0:0:
273,15,63549,5,2,3:1:0:0:
448,126,63721,1,0,0:0:0:0:
267,115,63894,5,8,0:0:0:0:
121,192,64066,1,0,0:0:0:0:
298,207,64238,5,0,0:0:0:0:
415,272,64410,1,0,3:0:0:0:
256,306,64583,6,0,B|161:313|204:351|101:360,1,161.28000196875,8|0,0:0|0:0,0:0:0:0:
92,372,64928,1,2,3:2:0:0:
214,191,65101,1,0,0:0:0:0:
214,191,65187,1,0,0:0:0:0:
214,191,65273,1,8,0:0:0:0:
336,283,65445,5,2,0:2:0:0:
303,86,65618,1,2,0:2:0:0:
306,98,65704,1,0,0:0:0:0:
309,108,65790,2,0,L|318:158,1,48.9600002988281,2|0,3:2|0:0,0:0:0:0:
504,0,65963,6,0,P|493:47|485:96,1,97.9200005976563,8|0,0:0|0:0,0:0:0:0:
479,107,66221,1,0,0:0:0:0:
471,114,66307,6,0,P|391:99|402:12,1,161.28000196875,4|0,3:1|0:0,0:0:0:0:
375,14,66652,1,10,0:0:0:0:
494,203,66825,1,2,0:2:0:0:
494,203,66911,1,0,0:0:0:0:
494,203,66998,1,2,0:3:0:0:
272,288,67169,2,0,L|280:230,1,48.9600002988281,2|0,3:2|0:0,0:0:0:0:
259,297,67342,2,0,L|274:186,1,97.9200005976563,10|0,0:0|0:0,0:0:0:0:
60,129,67687,5,0,3:0:0:0:
142,341,67859,1,0,0:0:0:0:
238,32,68032,5,8,0:0:0:0:
176,254,68204,1,0,0:0:0:0:
32,0,68376,5,2,0:0:0:0:
300,175,68549,1,0,3:0:0:0:
15,271,68721,1,8,0:0:0:0:
142,0,68894,1,0,0:0:0:0:
301,262,69066,6,0,B|360:244|360:244|375:213|375:213|440:193,1,161.28000196875,2|0,3:1|0:0,0:0:0:0:
444,178,69411,1,8,0:0:0:0:
358,345,69583,1,0,0:0:0:0:
358,345,69669,1,0,0:0:0:0:
358,345,69756,1,0,0:0:0:0:
246,166,69928,2,0,P|220:169|196:191,1,48.9600002988281,0|0,3:0|0:0,0:0:0:0:
254,156,70101,2,0,P|183:184|176:259,1,146.880000896484,8|0,0:0|0:0,0:0:0:0:
163,263,70445,5,0,3:0:0:0:
344,111,70618,1,0,0:0:0:0:
120,14,70790,5,8,0:0:0:0:
330,187,70963,1,0,0:0:0:0:
80,271,71135,5,2,0:0:0:0:
208,17,71307,1,0,3:0:0:0:
322,285,71480,1,8,0:0:0:0:
48,112,71652,1,0,0:0:0:0:
320,0,71825,6,0,B|412:11|356:67|457:81,1,161.28000196875,4|0,3:2|0:0,0:0:0:0:
460,97,72169,1,10,0:0:0:0:
280,170,72342,1,2,0:2:0:0:
280,170,72428,1,0,0:0:0:0:
280,170,72514,1,2,0:3:0:0:
470,289,72687,2,0,L|462:231,1,48.9600002988281,2|0,3:2|0:0,0:0:0:0:
483,298,72860,2,0,L|470:184,1,97.9200005976563,10|0,0:0|0:0,0:0:0:0:
382,46,73204,5,0,3:0:0:0:
320,269,73376,1,0,0:0:0:0:
189,31,73549,5,8,0:0:0:0:
416,126,73721,1,0,0:0:0:0:
160,240,73894,5,2,0:0:0:0:
304,0,74066,1,0,3:0:0:0:
423,240,74238,1,8,0:0:0:0:
185,108,74411,1,0,0:0:0:0:
244,303,74583,5,2,3:1:0:0:
244,303,74756,1,0,0:0:0:0:
95,208,74928,2,0,P|70:214|44:221,1,48.9600002988281
223,171,75101,1,0,0:0:0:0:
118,365,75273,1,0,0:0:0:0:
114,340,75359,1,0,0:0:0:0:
111,315,75445,1,0,0:0:0:0:
296,199,75618,2,0,L|304:255,1,48.9600002988281
200,309,75790,2,0,L|206:260,1,48.9600002988281
127,140,75963,5,2,0:3:0:0:
268,41,76135,1,0,0:0:0:0:
271,58,76221,1,0,0:0:0:0:
274,75,76307,2,0,L|282:131,1,48.9600002988281,2|0,0:3|0:0,0:0:0:0:
296,199,76480,1,0,3:0:0:0:
467,210,76652,5,0,3:0:0:0:
501,176,76738,1,0,3:0:0:0:
508,128,76824,1,0,3:0:0:0:
484,86,76910,1,0,3:0:0:0:
446,56,76997,2,0,B|395:23|356:72|376:81|285:152|205:19|325:-65|387:39,1,305.28000046582,8|0,0:0|3:0,0:0:0:0:
376,86,77342,5,4,3:1:0:0:
262,245,77514,1,0,0:0:0:0:
262,245,77601,1,0,0:0:0:0:
262,245,77687,2,0,P|249:192|232:148,1,88.3199970351563,8|2,0:0|0:2,0:0:0:0:
413,280,78032,1,2,0:2:0:0:
207,382,78204,1,0,3:0:0:0:
427,269,78376,2,0,P|437:229|451:183,1,88.3199970351563,8|0,0:0|0:0,0:0:0:0:
288,16,78721,5,2,3:2:0:0:
200,186,78894,1,0,0:0:0:0:
200,186,78981,1,2,0:2:0:0:
200,186,79067,2,0,P|158:214|113:203,1,88.3199970351563,8|2,0:0|0:2,0:0:0:0:
141,19,79411,1,2,0:2:0:0:
336,144,79583,1,0,3:0:0:0:
121,11,79756,2,0,P|133:53|144:96,1,88.3199970351563,8|0,0:0|0:0,0:0:0:0:
297,273,80101,5,2,3:2:0:0:
440,115,80273,1,0,0:0:0:0:
440,115,80360,1,2,0:2:0:0:
440,115,80445,2,0,P|428:157|417:200,1,88.3199970351563,8|2,0:0|0:2,0:0:0:0:
288,64,80790,1,2,0:2:0:0:
488,0,80963,1,0,3:0:0:0:
356,146,81135,2,0,P|314:174|270:170,1,88.3199970351563,8|0,0:0|0:0,0:0:0:0:
56,269,81480,6,0,B|129:283|92:316|170:329,1,132.479995552735,2|2,3:2|0:2,0:0:0:0:
224,382,81825,2,0,P|256:355|260:305,1,88.3199970351563,8|2,0:0|0:2,0:0:0:0:
192,143,82169,1,2,0:2:0:0:
352,288,82342,1,0,3:0:0:0:
312,43,82514,2,0,P|300:85|278:176,1,132.479995552735,8|0,0:0|0:0,0:0:0:0:
318,25,82859,2,0,P|355:10|399:26,1,88.3199970351563,2|0,3:2|0:0,0:0:0:0:
501,217,83204,6,0,B|448:206|414:250|430:253|404:301|345:286,1,176.639994070313,8|0,0:0|0:0,0:0:0:0:
207,160,83721,1,0,3:0:0:0:
296,337,83894,2,0,P|304:293|315:250,1,88.3199970351563,8|0,0:0|0:0,0:0:0:0:
108,384,84238,6,0,P|98:318|71:243,1,132.479995552735,2|0,3:2|0:0,0:0:0:0:
32,192,84583,2,0,P|2:228|2:278,1,88.3199970351563,8|2,0:0|0:2,0:0:0:0:
194,175,84928,1,2,0:2:0:0:
66,74,85101,1,0,3:0:0:0:
255,0,85273,2,0,P|305:17|354:32,1,88.3199970351563,8|0,0:0|0:0,0:0:0:0:
127,128,85618,6,0,P|150:212|167:299,2,176.639994070313,2|8|0,3:2|0:0|0:0,0:0:0:0:
242,223,86480,1,2,3:2:0:0:
113,368,86652,2,0,P|58:353|-2:340,1,88.3199970351563,8|0,0:0|0:0,0:0:0:0:
256,228,86997,6,0,P|295:258|300:308,1,88.3199970351563,0|0,3:0|0:0,0:0:0:0:
63,186,87342,2,0,P|61:141|91:106,1,88.3199970351563,8|0,0:0|0:0,0:0:0:0:
255,48,87687,1,0,0:0:0:0:
40,0,87859,1,0,3:0:0:0:
179,211,88032,2,0,P|171:167|162:124,1,88.3199970351563,8|0,0:0|0:0,0:0:0:0:
329,15,88376,5,4,3:1:0:0:
425,198,88549,1,0,0:0:0:0:
425,198,88636,1,2,0:2:0:0:
425,198,88722,2,0,P|436:137|447:93,1,88.3199970351563,8|2,0:0|0:2,0:0:0:0:
273,242,89066,1,2,0:2:0:0:
461,374,89238,1,0,3:0:0:0:
258,230,89411,2,0,P|215:242|173:255,1,88.3199970351563,8|0,0:0|0:0,0:0:0:0:
432,303,89756,5,2,3:2:0:0:
326,136,89928,1,0,0:0:0:0:
326,136,90015,1,2,0:2:0:0:
326,136,90101,2,0,P|283:122|241:111,1,88.3199970351563,8|2,0:0|0:2,0:0:0:0:
346,313,90445,1,2,0:2:0:0:
496,126,90618,1,0,3:0:0:0:
330,326,90790,2,0,P|318:283|305:241,1,88.3199970351563,8|0,0:0|0:0,0:0:0:0:
192,78,91135,5,2,3:2:0:0:
386,209,91307,1,0,0:0:0:0:
386,209,91394,1,0,0:0:0:0:
386,209,91480,2,0,P|412:174|409:131,1,88.3199970351563,8|2,0:0|0:2,0:0:0:0:
239,257,91825,1,2,0:2:0:0:
431,337,91997,1,0,3:0:0:0:
242,156,92169,2,0,P|198:159|165:187,1,88.3199970351563,8|0,0:0|0:0,0:0:0:0:
369,1,92514,6,0,P|428:16|447:86,1,132.479995552735,2|0,3:2|0:0,0:0:0:0:
500,135,92859,2,0,P|483:183|471:223,1,88.3199970351563,8|2,0:0|0:2,0:0:0:0:
312,57,93204,1,2,0:2:0:0:
512,0,93376,1,0,3:0:0:0:
335,189,93549,2,0,B|259:167|299:137|212:117,1,132.479995552735,8|0,0:0|0:0,0:0:0:0:
352,197,93894,2,0,P|394:187|417:151,1,88.3199970351563,2|0,3:2|0:0,0:0:0:0:
168,44,94238,6,0,P|189:129|208:215,1,176.639994070313,8|0,0:0|0:0,0:0:0:0:
352,63,94756,1,0,3:0:0:0:
318,264,94928,2,0,P|310:308|303:351,1,88.3199970351563,8|0,0:0|0:0,0:0:0:0:
504,188,95273,6,0,B|426:175|463:142|390:128,1,132.479995552735,2|0,3:2|0:0,0:0:0:0:
352,63,95618,2,0,P|319:91|313:134,1,88.3199970351563,8|2,0:0|0:2,0:0:0:0:
416,303,95963,1,2,0:2:0:0:
504,108,96135,1,0,3:0:0:0:
308,314,96307,2,0,P|296:271|283:229,1,88.3199970351563,8|0,0:0|0:0,0:0:0:0:
159,85,96652,5,2,0:2:0:0:
147,77,96738,2,0,P|183:45|230:45,1,88.3199970351563
240,39,96997,1,0,0:0:0:0:
122,172,97169,1,0,0:0:0:0:
336,136,97342,5,0,0:0:0:0:
309,130,97428,1,0,0:0:0:0:
282,124,97514,1,0,0:0:0:0:
448,16,97687,2,0,L|490:4,1,44.1599985175782
375,65,97859,2,0,L|332:53,1,44.1599985175782
447,192,98031,5,2,0:2:0:0:
298,361,98204,1,0,0:0:0:0:
296,350,98290,1,0,3:0:0:0:
294,340,98376,2,0,L|285:295,1,44.1599985175782,2|0,3:2|3:0,3:0:0:0:
367,257,98549,2,0,L|376:212,1,44.1599985175782,2|0,3:2|3:0,3:0:0:0:
273,32,98721,5,0,3:0:0:0:
247,22,98807,1,0,3:0:0:0:
216,24,98893,1,2,3:2:0:0:
190,35,98979,1,0,3:0:0:0:
170,55,99066,2,0,B|119:118|170:185|186:165|234:229|181:314,1,276.48000675,8|0,0:0|0:0,0:0:0:0:
175,327,99411,5,4,3:1:0:0:
