osu file format v14

[General]
AudioFilename: audio.mp3
AudioLeadIn: 0
PreviewTime: 55116
Countdown: 0
SampleSet: Soft
StackLeniency: 0.7
Mode: 0
LetterboxInBreaks: 0
EpilepsyWarning: 1
WidescreenStoryboard: 1

[Editor]
Bookmarks: 33076,44110,99283,110317,121352,132386,165490,187552
DistanceSpacing: 1.2
BeatDivisor: 4
GridSize: 32
TimelineZoom: 1.6

[Metadata]
Title:Living in a Dream (feat. Natalie Major) (Feint Remix)
TitleUnicode:Living in a Dream (feat. Natalie Major) (Feint Remix)
Artist:Quinn Karter
ArtistUnicode:Quinn Karter
Creator:Asphyxia
Version:kolik's Easy
Source:
Tags:Liquicity dnb d&b drum and bass collab collaboration Apis035 -Ady koleiker kolikiscool riffy kyshiro bakari electronic english
BeatmapID:3342775
BeatmapSetID:1602640

[Difficulty]
HPDrainRate:2
CircleSize:3
OverallDifficulty:2.8
ApproachRate:3
SliderMultiplier:0.8
SliderTickRate:1

[Events]
//Background and Video events
0,0,"newbg.png",0,0
//Break Periods
2,33766,42670
2,100317,108877
2,122041,130946
//Storyboard Layer 0 (Background)
//Storyboard Layer 1 (Fail)
//Storyboard Layer 2 (Pass)
//Storyboard Layer 3 (Foreground)
Sprite,Foreground,Centre,"sb/p.png",0,0 M,0,45490,,431,108 R,0,45490,,0.7333361 V,13,45490,46866,1400,70,1400,0 F,19,45490,46866,0.3,0.05 M,0,46869,,113,101 R,0,46869,,-0.5255154 V,13,46869,48245,1400,70,1400,0 F,19,46869,48245,0.3,0.05 M,0,48248,,145,361 R,0,48248,,4.304959 V,13,48248,49624,1400,70,1400,0 F,19,48248,49624,0.3,0.05 M,0,49628,,479,376 R,0,49628,,1.800954 V,13,49628,51004,1400,70,1400,0 F,19,49628,51004,0.3,0.05 M,0,51007,,451,119 R,0,51007,,0.8096653 V,13,51007,52383,1400,70,1400,0 F,19,51007,52383,0.3,0.05 M,0,52386,,496,254 R,0,52386,,1.706542 V,13,52386,53762,1400,46.66667,1400,0 F,19,52386,53762,0.4,0.05 M,0,57904,,551,252 R,0,57904,,1.73161 V,13,57904,59280,1400,46.66667,1400,0 F,19,57904,59280,0.4,0.05 M,0,59283,,282,194 R,0,59283,,1.394416 V,13,59283,60659,1400,58.33333,1400,0 F,19,59283,60659,0.48,0.05 M,0,60662,,88,189 R,0,60662,,1.814413 V,13,60662,62038,1400,70,1400,0 F,19,60662,62038,0.56,0.05 M,0,63421,,572,319 R,0,63421,,1.536103 V,13,63421,64797,1400,46.66667,1400,0 F,19,63421,64797,0.4,0.05 M,0,64800,,392,172 R,0,64800,,1.435019 V,13,64800,66176,1400,58.33333,1400,0 F,19,64800,66176,0.48,0.05 M,0,66179,,315,101 R,0,66179,,1.44594 V,13,66179,67555,1400,64.16666,1400,0 F,19,66179,67555,0.52,0.05 M,0,68938,,381,402 R,0,68938,,1.551185 V,13,68938,70314,1400,46.66667,1400,0 F,19,68938,70314,0.4,0.05 M,0,70317,,254,165 R,0,70317,,1.552503 V,13,70317,71693,1400,58.33333,1400,0 F,19,70317,71693,0.48,0.05 M,0,71697,,283,309 R,0,71697,,1.289016 V,13,71697,73073,1400,70,1400,0 F,19,71697,73073,0.56,0.05 M,0,74455,,204,333 R,0,74455,,1.788218 V,13,74455,75831,1400,46.66667,1400,0 F,19,74455,75831,0.4,0.05 P,0,45490,,A
Sprite,Foreground,Centre,"sb/p.png",0,0 M,0,46179,,273,163 R,0,46179,,0.2071752 V,13,46179,47555,1400,70,1400,0 F,19,46179,47555,0.3,0.05 M,0,48938,,308,395 R,0,48938,,2.405107 V,13,48938,50314,1400,70,1400,0 F,19,48938,50314,0.3,0.05 M,0,51697,,326,214 R,0,51697,,0.6816058 V,13,51697,53073,1400,70,1400,0 F,19,51697,53073,0.3,0.05 M,0,53076,,476,348 R,0,53076,,1.761192 V,13,53076,54452,1400,52.5,1400,0 F,19,53076,54452,0.44,0.05 M,0,58938,,352,115 R,0,58938,,1.605693 V,13,58938,60314,1400,52.5,1400,0 F,19,58938,60314,0.44,0.05 M,0,64455,,462,93 R,0,64455,,1.857326 V,13,64455,65831,1400,52.5,1400,0 F,19,64455,65831,0.44,0.05 M,0,69973,,350,121 R,0,69973,,1.650392 V,13,69973,71349,1400,52.5,1400,0 F,19,69973,71349,0.44,0.05 M,0,71352,,343,222 R,0,71352,,1.860087 V,13,71352,72728,1400,64.16666,1400,0 F,19,71352,72728,0.52,0.05 P,0,46179,,A
Sprite,Foreground,Centre,"sb/p.png",0,0 M,0,59973,,184,302 R,0,59973,,1.606127 V,13,59973,61349,1400,64.16666,1400,0 F,19,59973,61349,0.52,0.05 P,0,59973,,A
Sprite,Foreground,Centre,"sb/p.png",0,0 M,0,133766,,410,135 R,0,133766,,0.7431698 V,13,133766,135142,1400,70,1400,0 F,19,133766,135142,0.3,0.05 M,0,135145,,404,435 R,0,135145,,2.18234 V,13,135145,136521,1400,70,1400,0 F,19,135145,136521,0.3,0.05 M,0,136524,,104,367 R,0,136524,,4.37965 V,13,136524,137900,1400,70,1400,0 F,19,136524,137900,0.3,0.05 M,0,137904,,135,67 R,0,137904,,-0.393387 V,13,137904,139280,1400,70,1400,0 F,19,137904,139280,0.3,0.05 M,0,139283,,421,136 R,0,139283,,0.7771792 V,13,139283,140659,1400,70,1400,0 F,19,139283,140659,0.3,0.05 M,0,140662,,453,426 R,0,140662,,1.868005 V,13,140662,142038,1400,46.66667,1400,0 F,19,140662,142038,0.4,0.05 M,0,146179,,189,142 R,0,146179,,1.459551 V,13,146179,147555,1400,46.66667,1400,0 F,19,146179,147555,0.4,0.05 M,0,147559,,230,239 R,0,147559,,1.760941 V,13,147559,148935,1400,52.5,1400,0 F,19,147559,148935,0.44,0.05 M,0,148938,,425,281 R,0,148938,,1.865938 V,13,148938,150314,1400,64.16666,1400,0 F,19,148938,150314,0.52,0.05 M,0,151697,,501,207 R,0,151697,,1.290371 V,13,151697,153073,1400,46.66667,1400,0 F,19,151697,153073,0.4,0.05 M,0,153076,,317,399 R,0,153076,,1.586567 V,13,153076,154452,1400,58.33333,1400,0 F,19,153076,154452,0.48,0.05 M,0,154455,,134,223 R,0,154455,,1.683368 V,13,154455,155831,1400,70,1400,0 F,19,154455,155831,0.56,0.05 M,0,157214,,491,367 R,0,157214,,1.598886 V,13,157214,158590,1400,46.66667,1400,0 F,19,157214,158590,0.4,0.05 M,0,158593,,565,291 R,0,158593,,1.319462 V,13,158593,159969,1400,52.5,1400,0 F,19,158593,159969,0.44,0.05 M,0,159973,,533,316 R,0,159973,,1.542793 V,13,159973,161349,1400,64.16666,1400,0 F,19,159973,161349,0.52,0.05 M,0,162731,,76,335 R,0,162731,,1.449099 V,13,162731,164107,1400,46.66667,1400,0 F,19,162731,164107,0.4,0.05 P,0,133766,,A
Sprite,Foreground,Centre,"sb/p.png",0,0 M,0,134455,,347,283 R,0,134455,,1.237873 V,13,134455,135831,1400,70,1400,0 F,19,134455,135831,0.3,0.05 M,0,137214,,179,231 R,0,137214,,-0.6008554 V,13,137214,138590,1400,70,1400,0 F,19,137214,138590,0.3,0.05 M,0,139973,,373,297 R,0,139973,,1.399558 V,13,139973,141349,1400,70,1400,0 F,19,139973,141349,0.3,0.05 M,0,141352,,452,329 R,0,141352,,1.677105 V,13,141352,142728,1400,52.5,1400,0 F,19,141352,142728,0.44,0.05 M,0,148248,,327,348 R,0,148248,,1.779627 V,13,148248,149624,1400,58.33333,1400,0 F,19,148248,149624,0.48,0.05 M,0,152731,,417,364 R,0,152731,,1.690762 V,13,152731,154107,1400,52.5,1400,0 F,19,152731,154107,0.44,0.05 M,0,154110,,70,307 R,0,154110,,1.831208 V,13,154110,155486,1400,64.16666,1400,0 F,19,154110,155486,0.52,0.05 M,0,159283,,465,154 R,0,159283,,1.383071 V,13,159283,160659,1400,58.33333,1400,0 F,19,159283,160659,0.48,0.05 M,0,163766,,69,114 R,0,163766,,1.863923 V,13,163766,165142,1400,52.5,1400,0 F,19,163766,165142,0.44,0.05 P,0,134455,,A
Sprite,Foreground,Centre,"sb/f/_006.png",320,0 S,0,193076,,0.5 MY,26,193076,194828,354,374 MY,18,194828,195828,374,354 F,7,193076,194076,0,1 F,6,194828,195828,1,0
//Storyboard Layer 4 (Overlay)
Sprite,Overlay,Centre,"sb/4.png",0,0 M,0,44110,,478,428 S,0,44110,44798,1.166667,1.4 F,1,44799,45487,0.6,0 C,0,44110,,0,128,128 M,0,44110,44153,478,428,477.0968,418.065 M,0,44153,44196,477.0968,418.065,476.1936,408.1299 M,0,44196,44239,476.1936,408.1299,475.2904,398.1949 M,0,44239,44282,475.2904,398.1949,474.3873,388.2599 M,0,44282,44325,474.3873,388.2599,473.4841,378.3249 M,0,44325,44368,473.4841,378.3249,472.5809,368.3898 M,0,44368,44411,472.5809,368.3898,471.6777,358.4548 M,0,44411,44454,471.6777,358.4548,470.7745,348.5197 M,0,44454,44497,470.7745,348.5197,469.8713,338.5847 M,0,44497,44540,469.8713,338.5847,468.9681,328.6497 M,0,44540,44583,468.9681,328.6497,468.065,318.7147 M,0,44583,44626,468.065,318.7147,467.1618,308.7796 M,0,44626,44669,467.1618,308.7796,466.2586,298.8446 M,0,44669,44712,466.2586,298.8446,465.3554,288.9096 M,0,44712,44755,465.3554,288.9096,464.4522,278.9745 M,0,44755,44799,464.4522,278.9745,463.5143,268.6571 M,0,45490,,431,108 S,0,45490,46178,1.166667,1.4 F,0,45490,,0.6 F,1,45834,46522,0.6,0 C,0,45490,,255,128,128 M,0,45490,45533,431,108,421.5568,104.839 M,0,45533,45576,421.5568,104.839,411.848,102.6636 M,0,45576,45619,411.848,102.6636,401.9734,101.495 M,0,45619,45662,401.9734,101.495,392.0343,101.3443 M,0,45662,45705,392.0343,101.3443,382.112,102.0031 M,0,45705,45748,382.112,102.0031,372.3728,104.0445 M,0,45748,45791,372.3728,104.0445,362.9001,107.0709 M,0,45791,45834,362.9001,107.0709,353.6197,111.1371 M,0,46869,,113,101 S,0,46869,47557,1.166667,1.4 F,0,46869,,0.6 F,1,47558,48246,0.6,0 C,0,46869,,154,78,78 M,0,46869,46912,113,101,120.5418,107.5087 M,0,46912,46955,120.5418,107.5087,127.4435,114.6828 M,0,46955,46998,127.4435,114.6828,133.6476,122.4614 M,0,46998,47041,133.6476,122.4614,139.1026,130.7785 M,0,47041,47084,139.1026,130.7785,144.0261,139.4372 M,0,47084,47127,144.0261,139.4372,147.7321,148.6821 M,0,47127,47170,147.7321,148.6821,150.564,158.2243 M,0,47170,47213,150.564,158.2243,152.4988,167.9831 M,0,47213,47256,152.4988,167.9831,153.5208,177.8764 M,0,47256,47299,153.5208,177.8764,153.8806,187.8259 M,0,47299,47342,153.8806,187.8259,152.9232,197.7381 M,0,47342,47385,152.9232,197.7381,151.0529,207.5129 M,0,47385,47428,151.0529,207.5129,148.2862,217.0684 M,0,47428,47471,148.2862,217.0684,144.647,226.3242 M,0,47471,47514,144.647,226.3242,140.3655,235.3079 M,0,47514,47558,140.3655,235.3079,134.8302,244.0546 M,0,48248,,145,361 S,0,48248,48936,1.166667,1.4 F,0,48248,,0.6 F,1,48592,49280,0.6,0 M,0,48248,48291,145,361,154.8757,359.5892 M,0,48291,48334,154.8757,359.5892,164.7515,358.1784 M,0,48334,48377,164.7515,358.1784,174.6272,356.7675 M,0,48377,48420,174.6272,356.7675,184.5029,355.3567 M,0,48420,48463,184.5029,355.3567,194.3787,353.9459 M,0,48463,48506,194.3787,353.9459,204.2544,352.5351 M,0,48506,48549,204.2544,352.5351,214.1302,351.1243 M,0,48549,48592,214.1302,351.1243,224.196,349.6863 M,0,49628,,479,376 S,0,49628,50316,1.166667,1.4 F,0,49628,,0.6 F,1,50317,51005,0.6,0 C,0,49628,,89,172,255 M,0,49628,49671,479,376,483.8491,367.2875 M,0,49671,49714,483.8491,367.2875,487.6799,358.0828 M,0,49714,49757,487.6799,358.0828,490.3567,348.4795 M,0,49757,49800,490.3567,348.4795,491.8037,338.6158 M,0,49800,49843,491.8037,338.6158,492.0168,328.6484 M,0,49843,49886,492.0168,328.6484,491.0628,318.7234 M,0,49886,49929,491.0628,318.7234,489.0597,308.955 M,0,49929,49972,489.0597,308.955,486.1478,299.4169 M,0,49972,50015,486.1478,299.4169,482.6565,290.0744 M,0,50015,50058,482.6565,290.0744,479.9548,280.4749 M,0,50058,50101,479.9548,280.4749,478.1933,270.66 M,0,50101,50144,478.1933,270.66,477.4851,260.7144 M,0,50144,50187,477.4851,260.7144,477.9092,250.7531 M,0,50187,50230,477.9092,250.7531,479.4957,240.91 M,0,50230,50273,479.4957,240.91,482.2112,231.3163 M,0,50273,50317,482.2112,231.3163,486.133,221.7331 M,0,51007,,451,119 S,0,51007,51695,1.166667,1.4 F,0,51007,,0.6 F,1,51351,52039,0.6,0 M,0,51007,51050,451,119,441.0995,120.2248 M,0,51050,51093,441.0995,120.2248,431.1989,121.4496 M,0,51093,51136,431.1989,121.4496,421.2984,122.6744 M,0,51136,51179,421.2984,122.6744,411.3979,123.8992 M,0,51179,51222,411.3979,123.8992,401.4974,125.124 M,0,51222,51265,401.4974,125.124,391.5968,126.3488 M,0,51265,51308,391.5968,126.3488,381.6963,127.5737 M,0,51308,51351,381.6963,127.5737,371.6052,128.822 M,0,52386,,496,254 S,0,52386,53074,1.166667,1.4 F,0,52386,,0.6 F,1,52730,53418,0.6,0 C,0,52386,,0,128,128 M,0,52386,52429,496,254,505.4641,250.8453 M,0,52429,52472,505.4641,250.8453,514.9281,247.6906 M,0,52472,52515,514.9281,247.6906,524.3922,244.5359 M,0,52515,52558,524.3922,244.5359,533.8563,241.3812 M,0,52558,52601,533.8563,241.3812,524.5743,244.4752 M,0,52601,52644,524.5743,244.4752,515.1103,247.6299 M,0,52644,52687,515.1103,247.6299,505.6462,250.7846 M,0,52687,52730,505.6462,250.7846,496,254 M,0,53766,,383,376 S,0,53766,54454,1.166667,1.4 F,0,53766,,0.6 F,1,54800,55488,0.6,0 M,0,53766,53809,383,376,374.9667,381.8998 M,0,53809,53852,374.9667,381.8998,366.5295,387.1975 M,0,53852,53895,366.5295,387.1975,357.7319,391.8662 M,0,53895,53938,357.7319,391.8662,348.6194,395.882 M,0,53938,53981,348.6194,395.882,339.2841,399.3508 M,0,53981,54024,339.2841,399.3508,329.6498,401.8886 M,0,54024,54067,329.6498,401.8886,319.8596,403.7185 M,0,54067,54110,319.8596,403.7185,309.9638,404.8312 M,0,54110,54153,309.9638,404.8312,300.0184,405.3653 M,0,54153,54196,300.0184,405.3653,290.0655,404.9116 M,0,54196,54239,290.0655,404.9116,280.1751,403.7357 M,0,54239,54282,280.1751,403.7357,270.3983,401.844 M,0,54282,54325,270.3983,401.844,260.7436,399.3943 M,0,54325,54368,260.7436,399.3943,251.3795,395.9904 M,0,54368,54411,251.3795,395.9904,242.2909,391.9159 M,0,54411,54454,242.2909,391.9159,233.5243,387.192 M,0,54454,54497,233.5243,387.192,225.0351,381.9801 M,0,54497,54540,225.0351,381.9801,217.1137,375.9361 M,0,54540,54583,217.1137,375.9361,209.6554,369.3343 M,0,54583,54626,209.6554,369.3343,202.6984,362.2089 M,0,54626,54669,202.6984,362.2089,196.1439,354.7065 M,0,54669,54712,196.1439,354.7065,190.3875,346.5732 M,0,54712,54755,190.3875,346.5732,185.2397,338.0459 M,0,54755,54800,185.2397,338.0459,180.4877,328.645 M,0,56179,,475,179 S,0,56179,56867,1.166667,1.4 F,1,56179,56867,0.6,0 C,0,56179,,255,128,128 M,0,57904,,551,252 S,0,57904,58592,1.166667,1.4 F,0,57904,,0.8 F,1,58593,59281,0.8,0 C,0,57904,,154,78,78 M,0,57904,57947,551,252,541.2083,256.9152 M,0,57947,57990,541.2083,256.9152,531.006,260.8873 M,0,57990,58033,531.006,260.8873,520.4799,263.8834 M,0,58033,58076,520.4799,263.8834,509.7463,266.0077 M,0,58076,58119,509.7463,266.0077,498.825,266.7844 M,0,58119,58162,498.825,266.7844,487.8834,266.5329 M,0,58162,58205,487.8834,266.5329,476.9978,265.4074 M,0,58205,58248,476.9978,265.4074,466.3348,262.9188 M,0,58248,58291,466.3348,262.9188,455.9569,259.4422 M,0,58291,58334,455.9569,259.4422,445.8816,255.1653 M,0,58334,58377,445.8816,255.1653,436.4312,249.6337 M,0,58377,58420,436.4312,249.6337,427.5457,243.2428 M,0,58420,58463,427.5457,243.2428,419.1715,236.1913 M,0,58463,58506,419.1715,236.1913,411.7796,228.1114 M,0,58506,58549,411.7796,228.1114,405.1819,219.378 M,0,58549,58593,405.1819,219.378,399.0106,209.8203 M,0,59283,,282,194 S,0,59283,59971,1.166667,1.4 F,0,59283,,0.8 F,1,59627,60315,0.8,0 M,0,59283,59326,282,194,282.8416,204.9413 M,0,59326,59369,282.8416,204.9413,283.6833,215.8826 M,0,59369,59412,283.6833,215.8826,284.5249,226.8238 M,0,59412,59455,284.5249,226.8238,285.3665,237.7651 M,0,59455,59498,285.3665,237.7651,286.2082,248.7064 M,0,59498,59541,286.2082,248.7064,287.0498,259.6476 M,0,59541,59584,287.0498,259.6476,287.8914,270.5889 M,0,59584,59627,287.8914,270.5889,288.7493,281.7408 M,0,60662,,88,189 S,0,60662,61350,1.166667,1.4 F,0,60662,,0.8 F,1,61351,62039,0.8,0 C,0,60662,,89,172,255 M,0,60662,60705,88,189,88.55105,199.9597 M,0,60705,60748,88.55105,199.9597,89.1021,210.9195 M,0,60748,60791,89.1021,210.9195,89.65314,221.8793 M,0,60791,60834,89.65314,221.8793,90.20419,232.839 M,0,60834,60877,90.20419,232.839,90.75525,243.7988 M,0,60877,60920,90.75525,243.7988,91.3063,254.7585 M,0,60920,60963,91.3063,254.7585,91.85735,265.7183 M,0,60963,61006,91.85735,265.7183,92.40839,276.678 M,0,61006,61049,92.40839,276.678,92.95944,287.6378 M,0,61049,61092,92.95944,287.6378,93.51049,298.5976 M,0,61092,61135,93.51049,298.5976,94.06154,309.5573 M,0,61135,61178,94.06154,309.5573,94.61259,320.5171 M,0,61178,61221,94.61259,320.5171,95.16364,331.4768 M,0,61221,61264,95.16364,331.4768,95.71469,342.4366 M,0,61264,61307,95.71469,342.4366,96.26574,353.3963 M,0,61307,61351,96.26574,353.3963,96.838,364.778 M,0,62041,,262,366 S,0,62041,62729,1.166667,1.4 F,0,62041,,0.8 F,1,62385,63073,0.8,0 M,0,62041,62084,262,366,272.1064,361.7749 M,0,62084,62127,272.1064,361.7749,282.575,358.5801 M,0,62127,62170,282.575,358.5801,293.3047,356.4451 M,0,62170,62213,293.3047,356.4451,304.1752,355.199 M,0,62213,62256,304.1752,355.199,315.1199,355.4398 M,0,62256,62299,315.1199,355.4398,325.98,356.769 M,0,62299,62342,325.98,356.769,336.713,358.9306 M,0,62342,62385,336.713,358.9306,347.2274,362.6713 M,0,63421,,572,319 S,0,63421,64109,1.166667,1.4 F,0,63421,,0.8 F,1,64110,64798,0.8,0 C,0,63421,,0,128,128 M,0,63421,63464,572,319,570.9449,308.0772 M,0,63464,63507,570.9449,308.0772,569.8899,297.1545 M,0,63507,63550,569.8899,297.1545,568.8348,286.2317 M,0,63550,63593,568.8348,286.2317,567.7798,275.309 M,0,63593,63636,567.7798,275.309,566.7248,264.3862 M,0,63636,63679,566.7248,264.3862,565.6698,253.4634 M,0,63679,63722,565.6698,253.4634,564.6147,242.5406 M,0,63722,63765,564.6147,242.5406,563.5597,231.6179 M,0,63765,63808,563.5597,231.6179,562.5046,220.6951 M,0,63808,63851,562.5046,220.6951,561.4496,209.7724 M,0,63851,63894,561.4496,209.7724,560.3945,198.8496 M,0,63894,63937,560.3945,198.8496,559.3395,187.9268 M,0,63937,63980,559.3395,187.9268,558.2845,177.0041 M,0,63980,64023,558.2845,177.0041,557.2294,166.0813 M,0,64023,64066,557.2294,166.0813,556.1744,155.1585 M,0,64066,64110,556.1744,155.1585,555.0787,143.8153 M,0,64800,,392,172 S,0,64800,65488,1.166667,1.4 F,0,64800,,0.8 F,1,65834,66522,0.8,0 M,0,64800,64843,392,172,396.0221,182.2099 M,0,64843,64886,396.0221,182.2099,400.0442,192.4199 M,0,64886,64929,400.0442,192.4199,404.0663,202.6298 M,0,64929,64972,404.0663,202.6298,403.0148,213.1889 M,0,64972,65015,403.0148,213.1889,400.4294,223.8536 M,0,65015,65058,400.4294,223.8536,397.8441,234.5183 M,0,65058,65101,397.8441,234.5183,399.6681,244.8927 M,0,65101,65144,399.6681,244.8927,403.6295,255.1263 M,0,65144,65187,403.6295,255.1263,407.5909,265.3599 M,0,65187,65230,407.5909,265.3599,407.1198,275.8157 M,0,65230,65273,407.1198,275.8157,404.2016,286.3942 M,0,65273,65316,404.2016,286.3942,401.2834,296.9727 M,0,65316,65359,401.2834,296.9727,404.0331,287.005 M,0,65359,65402,404.0331,287.005,406.9513,276.4265 M,0,65402,65445,406.9513,276.4265,407.8197,265.9508 M,0,65445,65488,407.8197,265.9508,403.8582,255.7172 M,0,65488,65531,403.8582,255.7172,399.8969,245.4835 M,0,65531,65574,399.8969,245.4835,397.6948,235.1341 M,0,65574,65617,397.6948,235.1341,400.2802,224.4694 M,0,65617,65660,400.2802,224.4694,402.8655,213.8047 M,0,65660,65703,402.8655,213.8047,404.2985,203.2193 M,0,65703,65746,404.2985,203.2193,400.2764,193.0094 M,0,65746,65789,400.2764,193.0094,396.2543,182.7994 M,0,65789,65834,396.2543,182.7994,392,172 M,0,67214,,545,59 S,0,67214,67902,1.166667,1.4 F,1,67214,67902,0.6,0 C,0,67214,,255,128,128 M,0,68938,,381,402 S,0,68938,69626,1.166667,1.4 F,0,68938,,0.8 F,1,69627,70315,0.8,0 C,0,68938,,154,78,78 M,0,68938,68981,381,402,379.902,391.0815 M,0,68981,69024,379.902,391.0815,378.8041,380.1629 M,0,69024,69067,378.8041,380.1629,377.7061,369.2444 M,0,69067,69110,377.7061,369.2444,376.6082,358.3259 M,0,69110,69153,376.6082,358.3259,375.5102,347.4073 M,0,69153,69196,375.5102,347.4073,374.4123,336.4888 M,0,69196,69239,374.4123,336.4888,373.3143,325.5703 M,0,69239,69282,373.3143,325.5703,372.2164,314.6517 M,0,69282,69325,372.2164,314.6517,371.1184,303.7332 M,0,69325,69368,371.1184,303.7332,370.0205,292.8147 M,0,69368,69411,370.0205,292.8147,368.9225,281.8961 M,0,69411,69454,368.9225,281.8961,367.8246,270.9776 M,0,69454,69497,367.8246,270.9776,366.7266,260.0591 M,0,69497,69540,366.7266,260.0591,365.6287,249.1405 M,0,69540,69583,365.6287,249.1405,364.5307,238.222 M,0,69583,69627,364.5307,238.222,363.3905,226.8832 M,0,70317,,254,165 S,0,70317,71005,1.166667,1.4 F,0,70317,,0.8 F,1,71006,71694,0.8,0 M,0,70317,70360,254,165,250.7159,154.5431 M,0,70360,70403,250.7159,154.5431,248.3182,143.8547 M,0,70403,70446,248.3182,143.8547,246.8223,133.0075 M,0,70446,70489,246.8223,133.0075,245.933,122.079 M,0,70489,70532,245.933,122.079,246.4169,111.1293 M,0,70532,70575,246.4169,111.1293,247.8129,100.2646 M,0,70575,70618,247.8129,100.2646,250.1107,89.55859 M,0,70618,70661,250.1107,89.55859,253,79 M,0,70661,70704,253,79,250.2222,89.15149 M,0,70704,70747,250.2222,89.15149,247.8957,99.85069 M,0,70747,70790,247.8957,99.85069,246.4706,110.7107 M,0,70790,70833,246.4706,110.7107,245.9575,121.6577 M,0,70833,70876,245.9575,121.6577,246.788,132.5869 M,0,70876,70919,246.788,132.5869,248.2547,143.4374 M,0,70919,70962,248.2547,143.4374,250.6235,154.1313 M,0,70962,71006,250.6235,154.1313,254,165 M,0,71697,,283,309 S,0,71697,72385,1.166667,1.4 F,0,71697,,0.8 F,1,72386,73074,0.8,0 C,0,71697,,89,172,255 M,0,71697,71740,283,309,272.0724,307.9958 M,0,71740,71783,272.0724,307.9958,261.1449,306.9917 M,0,71783,71826,261.1449,306.9917,250.2173,305.9875 M,0,71826,71869,250.2173,305.9875,239.2898,304.9834 M,0,71869,71912,239.2898,304.9834,228.3622,303.9792 M,0,71912,71955,228.3622,303.9792,217.4346,302.9751 M,0,71955,71998,217.4346,302.9751,206.5071,301.9709 M,0,71998,72041,206.5071,301.9709,195.5795,300.9668 M,0,72041,72084,195.5795,300.9668,184.652,299.9626 M,0,72084,72127,184.652,299.9626,173.7244,298.9585 M,0,72127,72170,173.7244,298.9585,162.7968,297.9543 M,0,72170,72213,162.7968,297.9543,151.8693,296.9501 M,0,72213,72256,151.8693,296.9501,140.9417,295.946 M,0,72256,72299,140.9417,295.946,130.0141,294.9418 M,0,72299,72342,130.0141,294.9418,119.0866,293.9377 M,0,72342,72386,119.0866,293.9377,107.7384,292.8949 M,0,73076,,160,124 S,0,73076,73764,1.166667,1.4 F,0,73076,,0.8 F,1,73420,74108,0.8,0 M,0,73076,73119,160,124,162.2864,134.7241 M,0,73119,73162,162.2864,134.7241,163.8649,145.5711 M,0,73162,73205,163.8649,145.5711,164.7292,156.4962 M,0,73205,73248,164.7292,156.4962,164.9746,167.4519 M,0,73248,73291,164.9746,167.4519,164.2635,178.3905 M,0,73291,73334,164.2635,178.3905,162.8377,189.2568 M,0,73334,73377,162.8377,189.2568,160.8185,200.0288 M,0,73377,73420,160.8185,200.0288,157.7814,210.7811 M,0,74455,,204,333 S,0,74455,75143,1.166667,1.4 F,0,74455,,0.8 F,1,75834,76522,0.8,0 C,0,74455,,0,128,128 M,0,74455,74498,204,333,214.9616,332.4862 M,0,74498,74541,214.9616,332.4862,225.9231,331.9724 M,0,74541,74584,225.9231,331.9724,236.8847,331.4585 M,0,74584,74627,236.8847,331.4585,247.8463,330.9447 M,0,74627,74670,247.8463,330.9447,258.8078,330.4309 M,0,74670,74713,258.8078,330.4309,269.7694,329.9171 M,0,74713,74756,269.7694,329.9171,280.731,329.4032 M,0,74756,74799,280.731,329.4032,291.6925,328.8894 M,0,74799,74842,291.6925,328.8894,302.6541,328.3756 M,0,74842,74885,302.6541,328.3756,313.6156,327.8618 M,0,74885,74928,313.6156,327.8618,324.5772,327.3479 M,0,74928,74971,324.5772,327.3479,335.1952,328.5301 M,0,74971,75014,335.1952,328.5301,345.0925,333.2697 M,0,75014,75057,345.0925,333.2697,354.9898,338.0092 M,0,75057,75100,354.9898,338.0092,364.8871,342.7487 M,0,75100,75143,364.8871,342.7487,374.7844,347.4883 M,0,75143,75186,374.7844,347.4883,384.6817,352.2278 M,0,75186,75229,384.6817,352.2278,394.579,356.9674 M,0,75229,75272,394.579,356.9674,404.636,360.9489 M,0,75272,75315,404.636,360.9489,415.6043,360.6061 M,0,75315,75358,415.6043,360.6061,426.5725,360.2634 M,0,75358,75401,426.5725,360.2634,437.5408,359.9206 M,0,75401,75444,437.5408,359.9206,448.509,359.5779 M,0,75444,75487,448.509,359.5779,459.4773,359.2351 M,0,75487,75530,459.4773,359.2351,470.4455,358.8923 M,0,75530,75573,470.4455,358.8923,481.4138,358.5496 M,0,75573,75616,481.4138,358.5496,492.382,358.2068 M,0,75616,75659,492.382,358.2068,503.3502,357.864 M,0,75659,75702,503.3502,357.864,514.3185,357.5213 M,0,75702,75745,514.3185,357.5213,525.2867,357.1785 M,0,75745,75788,525.2867,357.1785,536.255,356.8358 M,0,75788,75834,536.255,356.8358,548.0676,356.4666 M,0,76524,,442,185 S,0,76524,77212,1.166667,1.4 F,1,76524,77212,0.6,0 C,0,76524,,255,128,128 M,0,78593,,229,369 S,0,78593,79281,1.166667,1.4 F,0,78593,,0.7 F,1,79282,79970,0.7,0 C,0,78593,,154,78,78 M,0,78593,78636,229,369,238.9252,367.9949 M,0,78636,78679,238.9252,367.9949,248.8505,366.9898 M,0,78679,78722,248.8505,366.9898,258.7757,365.9847 M,0,78722,78765,258.7757,365.9847,268.701,364.9796 M,0,78765,78808,268.701,364.9796,278.6262,363.9745 M,0,78808,78851,278.6262,363.9745,288.5515,362.9695 M,0,78851,78894,288.5515,362.9695,298.4767,361.9644 M,0,78894,78937,298.4767,361.9644,308,361 M,0,78937,78980,308,361,298.8587,361.9257 M,0,78980,79023,298.8587,361.9257,288.9335,362.9308 M,0,79023,79066,288.9335,362.9308,279.0082,363.9359 M,0,79066,79109,279.0082,363.9359,269.083,364.9409 M,0,79109,79152,269.083,364.9409,259.1578,365.946 M,0,79152,79195,259.1578,365.946,249.2325,366.9511 M,0,79195,79238,249.2325,366.9511,239.3073,367.9562 M,0,79238,79282,239.3073,367.9562,229,369 M,0,79973,,87,238 S,0,79973,80661,1.166667,1.4 F,0,79973,,0.7 F,1,80317,81005,0.7,0 C,0,79973,,89,172,255 M,0,79973,80016,87,238,83.37996,228.722 M,0,80016,80059,83.37996,228.722,80.7128,219.1353 M,0,80059,80102,80.7128,219.1353,79.02373,209.335 M,0,80102,80145,79.02373,209.335,78.32865,199.4179 M,0,80145,80188,78.32865,199.4179,78.3746,189.4672 M,0,80188,80231,78.3746,189.4672,79.83219,179.6203 M,0,80231,80274,79.83219,179.6203,82.27031,169.9765 M,0,80274,80317,82.27031,169.9765,85.47974,160.341 M,0,81697,,269,248 S,0,81697,82385,1.166667,1.4 F,1,81697,82385,0.5,0 C,0,81697,,0,128,128 M,0,83076,,224,355 S,0,83076,83764,1.166667,1.4 F,0,83076,,0.7 F,1,83765,84453,0.7,0 M,0,83076,83119,224,355,233.9316,354.0597 M,0,83119,83162,233.9316,354.0597,243.8632,353.1195 M,0,83162,83205,243.8632,353.1195,253.7948,352.1792 M,0,83205,83248,253.7948,352.1792,263.7263,351.2389 M,0,83248,83291,263.7263,351.2389,273.658,350.2986 M,0,83291,83334,273.658,350.2986,283.5895,349.3584 M,0,83334,83377,283.5895,349.3584,293.5211,348.4181 M,0,83377,83420,293.5211,348.4181,303.4527,347.4778 M,0,83420,83463,303.4527,347.4778,313.3843,346.5376 M,0,83463,83506,313.3843,346.5376,323.3159,345.5973 M,0,83506,83549,323.3159,345.5973,333.2475,344.657 M,0,83549,83592,333.2475,344.657,343.1791,343.7168 M,0,83592,83635,343.1791,343.7168,353.1107,342.7765 M,0,83635,83678,353.1107,342.7765,363.0422,341.8362 M,0,83678,83721,363.0422,341.8362,372.9738,340.896 M,0,83721,83765,372.9738,340.896,383.2877,339.9195 M,0,85145,,377,242 S,0,85145,85833,1.166667,1.4 F,1,85145,85833,0.5,0 C,0,85145,,255,128,128 M,0,86869,,568,241 S,0,86869,87557,1.166667,1.4 F,0,86869,,0.7 F,1,87558,88246,0.7,0 M,0,86869,86912,568,241,566.5725,250.8733 M,0,86912,86955,566.5725,250.8733,565.145,260.7467 M,0,86955,86998,565.145,260.7467,563.7176,270.62 M,0,86998,87041,563.7176,270.62,562.2901,280.4934 M,0,87041,87084,562.2901,280.4934,560.8627,290.3667 M,0,87084,87127,560.8627,290.3667,559.4352,300.2401 M,0,87127,87170,559.4352,300.2401,558.0077,310.1134 M,0,87170,87213,558.0077,310.1134,556.5802,319.9868 M,0,87213,87256,556.5802,319.9868,555.1528,329.8601 M,0,87256,87299,555.1528,329.8601,553.7253,339.7334 M,0,87299,87342,553.7253,339.7334,552.2979,349.6068 M,0,87342,87385,552.2979,349.6068,550.8704,359.4801 M,0,87385,87428,550.8704,359.4801,549.4429,369.3535 M,0,87428,87471,549.4429,369.3535,548.0154,379.2268 M,0,87471,87514,548.0154,379.2268,546.5879,389.1002 M,0,87514,87558,546.5879,389.1002,545.1055,399.3535 M,0,88248,,371,382 S,0,88248,88936,1.166667,1.4 F,0,88248,,0.7 F,1,88937,89625,0.7,0 C,0,88248,,154,78,78 M,0,88248,88291,371,382,361.3781,379.406 M,0,88291,88334,361.3781,379.406,351.5868,377.5795 M,0,88334,88377,351.5868,377.5795,341.6854,376.531 M,0,88377,88420,341.6854,376.531,331.734,376.2665 M,0,88420,88463,331.734,376.2665,321.7857,376.6476 M,0,88463,88506,321.7857,376.6476,311.9287,378.0797 M,0,88506,88549,311.9287,378.0797,302.2188,380.2837 M,0,88549,88592,302.2188,380.2837,292.7147,383.2458 M,0,88592,88635,292.7147,383.2458,301.8498,380.3886 M,0,88635,88678,301.8498,380.3886,311.5535,378.1602 M,0,88678,88721,311.5535,378.1602,321.406,376.7032 M,0,88721,88764,321.406,376.7032,331.3476,376.0271 M,0,88764,88807,331.3476,376.0271,341.3022,376.5109 M,0,88807,88850,341.3022,376.5109,351.2057,377.5342 M,0,88850,88893,351.2057,377.5342,361.0009,379.3358 M,0,88893,88937,361.0009,379.3358,371,382 M,0,89628,,495,235 S,0,89628,90316,1.166667,1.4 F,0,89628,,0.7 F,1,90317,91005,0.7,0 M,0,89628,89671,495,235,504.6219,237.594 M,0,89671,89714,504.6219,237.594,514.4132,239.4205 M,0,89714,89757,514.4132,239.4205,524.3146,240.469 M,0,89757,89800,524.3146,240.469,534.266,240.7335 M,0,89800,89843,534.266,240.7335,544.2144,240.3524 M,0,89843,89886,544.2144,240.3524,554.0713,238.9203 M,0,89886,89929,554.0713,238.9203,563.7811,236.7163 M,0,89929,89972,563.7811,236.7163,573.2853,233.7542 M,0,89972,90015,573.2853,233.7542,564.1503,236.6113 M,0,90015,90058,564.1503,236.6113,554.4464,238.8399 M,0,90058,90101,554.4464,238.8399,544.594,240.2968 M,0,90101,90144,544.594,240.2968,534.6524,240.9729 M,0,90144,90187,534.6524,240.9729,524.6978,240.4891 M,0,90187,90230,524.6978,240.4891,514.7943,239.4658 M,0,90230,90273,514.7943,239.4658,504.9991,237.6642 M,0,90273,90317,504.9991,237.6642,495,235 M,0,91007,,352,106 S,0,91007,91695,1.166667,1.4 F,0,91007,,0.7 F,1,91351,92039,0.7,0 C,0,91007,,89,172,255 M,0,91007,91050,352,106,353.0553,115.92 M,0,91050,91093,353.0553,115.92,354.1107,125.84 M,0,91093,91136,354.1107,125.84,355.166,135.7601 M,0,91136,91179,355.166,135.7601,356.2213,145.6801 M,0,91179,91222,356.2213,145.6801,357.2766,155.6001 M,0,91222,91265,357.2766,155.6001,358.3319,165.5201 M,0,91265,91308,358.3319,165.5201,359.3872,175.4402 M,0,91308,91351,359.3872,175.4402,360.4629,185.5511 M,0,92731,,272,356 S,0,92731,93419,1.166667,1.4 F,1,92731,93419,0.5,0 M,0,94110,,161,182 S,0,94110,94798,1.166667,1.4 F,0,94110,,0.7 F,1,95144,95832,0.7,0 C,0,94110,,0,128,128 M,0,94110,94153,161,182,170.9508,182.708 M,0,94153,94196,170.9508,182.708,180.9017,183.4159 M,0,94196,94239,180.9017,183.4159,190.8525,184.1239 M,0,94239,94282,190.8525,184.1239,200.8034,184.8319 M,0,94282,94325,200.8034,184.8319,210.7542,185.5398 M,0,94325,94368,210.7542,185.5398,220.7051,186.2478 M,0,94368,94411,220.7051,186.2478,230.6559,186.9558 M,0,94411,94454,230.6559,186.9558,240.6068,187.6637 M,0,94454,94497,240.6068,187.6637,250.5576,188.3717 M,0,94497,94540,250.5576,188.3717,260.5085,189.0797 M,0,94540,94583,260.5085,189.0797,270.4593,189.7876 M,0,94583,94626,270.4593,189.7876,280.4102,190.4956 M,0,94626,94669,280.4102,190.4956,290.361,191.2036 M,0,94669,94712,290.361,191.2036,300.3119,191.9115 M,0,94712,94755,300.3119,191.9115,310.2627,192.6195 M,0,94755,94798,310.2627,192.6195,320.2136,193.3275 M,0,94798,94841,320.2136,193.3275,330.1644,194.0354 M,0,94841,94884,330.1644,194.0354,340.1152,194.7434 M,0,94884,94927,340.1152,194.7434,350.0661,195.4513 M,0,94927,94970,350.0661,195.4513,360.017,196.1593 M,0,94970,95013,360.017,196.1593,369.9678,196.8673 M,0,95013,95056,369.9678,196.8673,379.9186,197.5752 M,0,95056,95099,379.9186,197.5752,389.8695,198.2832 M,0,95099,95144,389.8695,198.2832,400.3949,199.032 M,0,95835,,554,275 S,0,95835,96523,1.166667,1.4 F,0,95835,,0.7 F,1,96179,96867,0.7,0 M,0,95835,95878,554,275,555.2915,284.8864 M,0,95878,95921,555.2915,284.8864,555.9507,294.8319 M,0,95921,95964,555.9507,294.8319,555.9755,304.7968 M,0,95964,96007,555.9755,304.7968,555.3658,314.741 M,0,96007,96050,555.3658,314.741,554.1245,324.6247 M,0,96050,96093,554.1245,324.6247,552.2566,334.4082 M,0,96093,96136,552.2566,334.4082,549.7697,344.0524 M,0,96136,96179,549.7697,344.0524,546.8168,353.7734 M,0,97904,,147,336 S,0,97904,98592,1.166667,1.4 F,0,97904,,0.7 F,1,98938,99626,0.7,0 C,0,97904,,255,128,128 M,0,97904,97947,147,336,150.8997,326.833 M,0,97947,97990,150.8997,326.833,153.936,317.3524 M,0,97990,98033,153.936,317.3524,156.0846,307.6372 M,0,98033,98076,156.0846,307.6372,157.3283,297.7685 M,0,98076,98119,157.3283,297.7685,157.9195,287.8286 M,0,98119,98162,157.9195,287.8286,157.1912,277.8964 M,0,98162,98205,157.1912,277.8964,155.5518,268.0797 M,0,98205,98248,155.5518,268.0797,153.0158,258.46 M,0,98248,98291,153.0158,258.46,149.6047,249.1171 M,0,98291,98334,149.6047,249.1171,145.5309,240.0389 M,0,98334,98377,145.5309,240.0389,140.3389,231.5439 M,0,98377,98420,140.3389,231.5439,134.3893,223.5678 M,0,98420,98463,134.3893,223.5678,139.9983,231.0801 M,0,98463,98506,139.9983,231.0801,145.2276,239.5499 M,0,98506,98549,145.2276,239.5499,149.6573,248.4715 M,0,98549,98592,149.6573,248.4715,152.8346,257.9138 M,0,98592,98635,152.8346,257.9138,155.4139,267.5211 M,0,98635,98678,155.4139,267.5211,157.0974,277.3287 M,0,98678,98721,157.0974,277.3287,157.8703,287.2553 M,0,98721,98764,157.8703,287.2553,157.3691,297.1945 M,0,98764,98807,157.3691,297.1945,156.1702,307.0682 M,0,98807,98850,156.1702,307.0682,154.0658,316.7918 M,0,98850,98893,154.0658,316.7918,151.0729,326.2843 M,0,98893,98938,151.0729,326.2843,147,336 P,0,44110,,A
Sprite,Overlay,Centre,"sb/4.png",0,0 M,0,45145,,497,178 S,0,45145,45833,1.166667,1.4 F,1,45145,45833,0.4,0 C,0,45145,,0,128,128 M,0,47904,,65,310 S,0,47904,48592,1.166667,1.4 F,1,47904,48592,0.4,0 C,0,47904,,154,78,78 M,0,50662,,544,145 S,0,50662,51350,1.166667,1.4 F,1,50662,51350,0.4,0 C,0,50662,,89,172,255 M,0,53076,,476,348 S,0,53076,53764,1.166667,1.4 F,0,53076,,0.6 F,1,53420,54108,0.6,0 C,0,53076,,0,128,128 M,0,53076,53119,476,348,484.5215,353.187 M,0,53119,53162,484.5215,353.187,493.043,358.374 M,0,53162,53205,493.043,358.374,501.5645,363.561 M,0,53205,53248,501.5645,363.561,510.0859,368.748 M,0,53248,53291,510.0859,368.748,501.7285,363.6608 M,0,53291,53334,501.7285,363.6608,493.207,358.4738 M,0,53334,53377,493.207,358.4738,484.6855,353.2868 M,0,53377,53420,484.6855,353.2868,476,348 M,0,55145,,200,225 S,0,55145,55833,1.166667,1.4 F,0,55145,,0.8 F,1,55834,56522,0.8,0 C,0,55145,,255,128,128 M,0,55145,55188,200,225,210.9551,224.3624 M,0,55188,55231,210.9551,224.3624,221.9101,223.7248 M,0,55231,55274,221.9101,223.7248,232.8652,223.0872 M,0,55274,55317,232.8652,223.0872,243.8203,222.4496 M,0,55317,55360,243.8203,222.4496,254.7753,221.812 M,0,55360,55403,254.7753,221.812,265.7304,221.1744 M,0,55403,55446,265.7304,221.1744,276.6854,220.5368 M,0,55446,55489,276.6854,220.5368,287.6405,219.8992 M,0,55489,55532,287.6405,219.8992,298.5956,219.2616 M,0,55532,55575,298.5956,219.2616,309.5506,218.624 M,0,55575,55618,309.5506,218.624,320.5057,217.9865 M,0,55618,55661,320.5057,217.9865,331.4608,217.3488 M,0,55661,55704,331.4608,217.3488,342.4158,216.7112 M,0,55704,55747,342.4158,216.7112,353.3708,216.0737 M,0,55747,55790,353.3708,216.0737,364.3259,215.4361 M,0,55790,55834,364.3259,215.4361,375.7027,214.7739 M,0,56524,,551,252 S,0,56524,57212,1.166667,1.4 F,0,56524,,0.8 F,1,56868,57556,0.8,0 M,0,56524,56567,551,252,555.6225,261.9259 M,0,56567,56610,555.6225,261.9259,559.1189,272.2907 M,0,56610,56653,559.1189,272.2907,561.4496,282.9722 M,0,56653,56696,561.4496,282.9722,562.7587,293.8245 M,0,56696,56739,562.7587,293.8245,562.4574,304.7603 M,0,56739,56782,562.4574,304.7603,560.9528,315.5897 M,0,56782,56825,560.9528,315.5897,558.4644,326.2377 M,0,56825,56868,558.4644,326.2377,554.4929,336.6791 M,0,58938,,352,115 S,0,58938,59626,1.166667,1.4 F,1,58938,59626,0.6,0 C,0,58938,,154,78,78 M,0,61697,,179,431 S,0,61697,62385,1.166667,1.4 F,1,61697,62385,0.6,0 C,0,61697,,89,172,255 M,0,64455,,462,93 S,0,64455,65143,1.166667,1.4 F,1,64455,65143,0.6,0 C,0,64455,,0,128,128 M,0,66179,,315,101 S,0,66179,66867,1.166667,1.4 F,0,66179,,0.8 F,1,66868,67556,0.8,0 C,0,66179,,255,128,128 M,0,66179,66222,315,101,321.52,109.8052 M,0,66222,66265,321.52,109.8052,328.822,117.9637 M,0,66265,66308,328.822,117.9637,336.6764,125.6052 M,0,66308,66351,336.6764,125.6052,345.488,132.1137 M,0,66351,66394,345.488,132.1137,354.8585,137.7755 M,0,66394,66437,354.8585,137.7755,364.6197,142.7452 M,0,66437,66480,364.6197,142.7452,374.9496,146.3871 M,0,66480,66523,374.9496,146.3871,385.5666,149.056 M,0,66523,66566,385.5666,149.056,396.3577,150.9104 M,0,66566,66609,396.3577,150.9104,407.2999,151.3672 M,0,66609,66652,407.2999,151.3672,418.2324,150.8096 M,0,66652,66695,418.2324,150.8096,429.0847,149.3847 M,0,66695,66738,429.0847,149.3847,439.6797,146.617 M,0,66738,66781,439.6797,146.617,449.9689,142.8821 M,0,66781,66824,449.9689,142.8821,459.9091,138.3077 M,0,66824,66868,459.9091,138.3077,469.5724,132.3149 M,0,67559,,575,160 S,0,67559,68247,1.166667,1.4 F,0,67559,,0.8 F,1,67903,68591,0.8,0 M,0,67559,67602,575,160,573.8002,170.9078 M,0,67602,67645,573.8002,170.9078,572.6003,181.8156 M,0,67645,67688,572.6003,181.8156,571.4004,192.7234 M,0,67688,67731,571.4004,192.7234,570.2006,203.6312 M,0,67731,67774,570.2006,203.6312,569.0007,214.539 M,0,67774,67817,569.0007,214.539,567.8008,225.4468 M,0,67817,67860,567.8008,225.4468,566.601,236.3546 M,0,67860,67903,566.601,236.3546,565.3781,247.4724 M,0,69973,,350,121 S,0,69973,70661,1.166667,1.4 F,1,69973,70661,0.6,0 C,0,69973,,154,78,78 M,0,71352,,343,222 S,0,71352,72040,1.166667,1.4 F,1,71352,72040,0.6,0 M,0,72731,,68,194 S,0,72731,73419,1.166667,1.4 F,1,72731,73419,0.6,0 C,0,72731,,89,172,255 M,0,76869,,442,185 S,0,76869,77557,1.166667,1.4 F,1,76869,77557,0.6,0 C,0,76869,,255,128,128 M,0,80662,,157,96 S,0,80662,81350,1.166667,1.4 F,0,80662,,0.7 F,1,81351,82039,0.7,0 C,0,80662,,89,172,255 M,0,80662,80705,157,96,166.4014,92.71095 M,0,80705,80748,166.4014,92.71095,176.0751,90.37361 M,0,80748,80791,176.0751,90.37361,185.9271,89.00944 M,0,80791,80834,185.9271,89.00944,195.8619,88.63082 M,0,80834,80877,195.8619,88.63082,205.8215,88.89452 M,0,80877,80920,205.8215,88.89452,215.629,90.62999 M,0,80920,80963,215.629,90.62999,225.2079,93.32861 M,0,80963,81006,225.2079,93.32861,234.4659,96.96309 M,0,81006,81049,234.4659,96.96309,243.3136,101.4975 M,0,81049,81092,243.3136,101.4975,251.8652,106.6079 M,0,81092,81135,251.8652,106.6079,259.5665,112.923 M,0,81135,81178,259.5665,112.923,266.597,119.9661 M,0,81178,81221,266.597,119.9661,272.8896,127.6681 M,0,81221,81264,272.8896,127.6681,278.3838,135.9538 M,0,81264,81307,278.3838,135.9538,283.3331,144.5987 M,0,81307,81351,283.3331,144.5987,287.1488,154.2204 M,0,82041,,176,273 S,0,82041,82729,1.166667,1.4 F,0,82041,,0.7 F,1,82385,83073,0.7,0 C,0,82041,,0,128,128 M,0,82041,82084,176,273,166.043,272.3854 M,0,82084,82127,166.043,272.3854,156.0859,271.7708 M,0,82127,82170,156.0859,271.7708,146.1289,271.1561 M,0,82170,82213,146.1289,271.1561,136.1718,270.5415 M,0,82213,82256,136.1718,270.5415,126.2148,269.9268 M,0,82256,82299,126.2148,269.9268,116.2577,269.3122 M,0,82299,82342,116.2577,269.3122,106.3007,268.6976 M,0,82342,82385,106.3007,268.6976,96.15199,268.0711 M,0,84110,,463,287 S,0,84110,84798,1.166667,1.4 F,0,84110,,0.7 F,1,84799,85487,0.7,0 C,0,84110,,255,128,128 M,0,84110,84153,463,287,467.3782,295.9536 M,0,84153,84196,467.3782,295.9536,471.0107,305.2296 M,0,84196,84239,471.0107,305.2296,473.8743,314.7668 M,0,84239,84282,473.8743,314.7668,475.9507,324.5024 M,0,84282,84325,475.9507,324.5024,477.2265,334.3723 M,0,84325,84368,477.2265,334.3723,477.6938,344.3115 M,0,84368,84411,477.6938,344.3115,477.3497,354.2548 M,0,84411,84454,477.3497,354.2548,476.4828,364.1802 M,0,84454,84497,476.4828,364.1802,477.6381,354.6622 M,0,84497,84540,477.6381,354.6622,477.6917,344.6952 M,0,84540,84583,477.6917,344.6952,477.2524,334.755 M,0,84583,84626,477.2524,334.755,476.0043,324.8823 M,0,84626,84669,476.0043,324.8823,473.9554,315.1418 M,0,84669,84712,473.9554,315.1418,471.1189,305.5977 M,0,84712,84755,471.1189,305.5977,467.5129,296.3128 M,0,84755,84799,467.5129,296.3128,463,287 M,0,85490,,293,194 S,0,85490,86178,1.166667,1.4 F,0,85490,,0.7 F,1,86524,87212,0.7,0 M,0,85490,85533,293,194,302.3213,197.5482 M,0,85533,85576,302.3213,197.5482,311.8876,200.3678 M,0,85576,85619,311.8876,200.3678,321.6629,202.3404 M,0,85619,85662,321.6629,202.3404,331.583,203.3525 M,0,85662,85705,331.583,203.3525,341.5538,203.3044 M,0,85705,85748,341.5538,203.3044,351.4556,202.1364 M,0,85748,85791,351.4556,202.1364,361.1574,199.8375 M,0,85791,85834,361.1574,199.8375,370.5387,196.46 M,0,85834,85877,370.5387,196.46,379.5058,192.0984 M,0,85877,85920,379.5058,192.0984,388.0018,186.8767 M,0,85920,85963,388.0018,186.8767,396.005,180.926 M,0,85963,86006,396.005,180.926,403.5204,174.3691 M,0,86006,86049,403.5204,174.3691,410.9439,167.7164 M,0,86049,86092,410.9439,167.7164,419.048,161.9059 M,0,86092,86135,419.048,161.9059,427.7151,156.9765 M,0,86135,86178,427.7151,156.9765,436.8875,153.0687 M,0,86178,86221,436.8875,153.0687,446.4638,150.2959 M,0,86221,86264,446.4638,150.2959,456.3065,148.7091 M,0,86264,86307,456.3065,148.7091,466.2684,148.2948 M,0,86307,86350,466.2684,148.2948,476.2164,148.9769 M,0,86350,86393,476.2164,148.9769,486.0488,150.6409 M,0,86393,86436,486.0488,150.6409,495.6985,153.1603 M,0,86436,86479,495.6985,153.1603,505.1277,156.411 M,0,86479,86524,505.1277,156.411,514.8438,160.5223 M,0,87904,,454,430 S,0,87904,88592,1.166667,1.4 F,1,87904,88592,0.5,0 M,0,91697,,314,270 S,0,91697,92385,1.166667,1.4 F,0,91697,,0.7 F,1,92386,93074,0.7,0 C,0,91697,,89,172,255 M,0,91697,91740,314,270,322.5149,275.1678 M,0,91740,91783,322.5149,275.1678,330.485,281.1291 M,0,91783,91826,330.485,281.1291,337.838,287.8283 M,0,91826,91869,337.838,287.8283,344.5076,295.204 M,0,91869,91912,344.5076,295.204,350.6366,303.0457 M,0,91912,91955,350.6366,303.0457,355.6417,311.6519 M,0,91955,91998,355.6417,311.6519,359.7897,320.6954 M,0,91998,92041,359.7897,320.6954,363.0435,330.0932 M,0,92041,92084,363.0435,330.0932,365.683,339.6993 M,0,92084,92127,365.683,339.6993,366.9237,349.5812 M,0,92127,92170,366.9237,349.5812,367.2042,359.5292 M,0,92170,92213,367.2042,359.5292,366.5231,369.4526 M,0,92213,92256,366.5231,369.4526,364.8873,379.2609 M,0,92256,92299,364.8873,379.2609,362.5341,388.9291 M,0,92299,92342,362.5341,388.9291,358.9002,398.1972 M,0,92342,92386,358.9002,398.1972,354.3771,407.5055 M,0,93076,,187,401 S,0,93076,93764,1.166667,1.4 F,0,93076,,0.7 F,1,93420,94108,0.7,0 M,0,93076,93119,187,401,182.6097,392.0628 M,0,93119,93162,182.6097,392.0628,179.2178,382.7111 M,0,93162,93205,179.2178,382.7111,176.862,373.0538 M,0,93205,93248,176.862,373.0538,175.5685,363.2028 M,0,93248,93291,175.5685,363.2028,175.3515,353.2724 M,0,93291,93334,175.3515,353.2724,175.9452,343.3484 M,0,93334,93377,175.9452,343.3484,178.0248,333.6188 M,0,93377,93420,178.0248,333.6188,181.2214,324.0035 M,0,95490,,496,199 S,0,95490,96178,1.166667,1.4 F,1,95490,96178,0.5,0 C,0,95490,,0,128,128 P,0,45145,,A
Sprite,Overlay,Centre,"sb/4.png",0,0 M,0,46179,,273,163 S,0,46179,46867,1.166667,1.4 F,1,46523,47211,0.6,0 C,0,46179,,255,128,128 M,0,46179,46222,273,163,263.5568,166.161 M,0,46222,46265,263.5568,166.161,253.848,168.3364 M,0,46265,46308,253.848,168.3364,243.9734,169.505 M,0,46308,46351,243.9734,169.505,234.0343,169.6557 M,0,46351,46394,234.0343,169.6557,224.112,168.9969 M,0,46394,46437,224.112,168.9969,214.3728,166.9554 M,0,46437,46480,214.3728,166.9554,204.9001,163.9291 M,0,46480,46523,204.9001,163.9291,195.6197,159.8629 M,0,48938,,308,395 S,0,48938,49626,1.166667,1.4 F,0,48938,,0.6 F,1,49282,49970,0.6,0 C,0,48938,,154,78,78 M,0,48938,48981,308,395,317.9119,396.1292 M,0,48981,49024,317.9119,396.1292,327.8238,397.2584 M,0,49024,49067,327.8238,397.2584,337.7357,398.3876 M,0,49067,49110,337.7357,398.3876,347.6476,399.5168 M,0,49110,49153,347.6476,399.5168,357.5594,400.646 M,0,49153,49196,357.5594,400.646,367.4713,401.7752 M,0,49196,49239,367.4713,401.7752,377.3832,402.9044 M,0,49239,49282,377.3832,402.9044,387,404 M,0,51697,,326,214 S,0,51697,52385,1.166667,1.4 F,0,51697,,0.6 F,1,52041,52729,0.6,0 C,0,51697,,89,172,255 M,0,51697,51740,326,214,335.9005,215.2248 M,0,51740,51783,335.9005,215.2248,345.8011,216.4496 M,0,51783,51826,345.8011,216.4496,355.7016,217.6744 M,0,51826,51869,355.7016,217.6744,365.6021,218.8992 M,0,51869,51912,365.6021,218.8992,375.5026,220.124 M,0,51912,51955,375.5026,220.124,385.4032,221.3488 M,0,51955,51998,385.4032,221.3488,395.3037,222.5737 M,0,51998,52041,395.3037,222.5737,405.3948,223.822 M,0,57214,,460,386 S,0,57214,57902,1.166667,1.4 F,0,57214,,0.8 F,1,57558,58246,0.8,0 C,0,57214,,255,128,128 M,0,57214,57257,460,386,456.0403,375.7927 M,0,57257,57300,456.0403,375.7927,453.2453,365.2179 M,0,57300,57343,453.2453,365.2179,451.3601,354.4328 M,0,57343,57386,451.3601,354.4328,451.2332,343.4883 M,0,57386,57429,451.2332,343.4883,452.3257,332.6069 M,0,57429,57472,452.3257,332.6069,454.4066,321.8672 M,0,57472,57515,454.4066,321.8672,458.1264,311.5766 M,0,57515,57558,458.1264,311.5766,462.7821,301.4227 M,0,59973,,184,302 S,0,59973,60661,1.166667,1.4 F,0,59973,,0.8 F,1,60317,61005,0.8,0 C,0,59973,,154,78,78 M,0,59973,60016,184,302,184.7465,291.0518 M,0,60016,60059,184.7465,291.0518,185.4929,280.1036 M,0,60059,60102,185.4929,280.1036,186.2394,269.1555 M,0,60102,60145,186.2394,269.1555,186.9859,258.2073 M,0,60145,60188,186.9859,258.2073,187.7323,247.2591 M,0,60188,60231,187.7323,247.2591,188.4788,236.3109 M,0,60231,60274,188.4788,236.3109,189.2253,225.3627 M,0,60274,60317,189.2253,225.3627,189.9861,214.2038 M,0,62731,,441,411 S,0,62731,63419,1.166667,1.4 F,0,62731,,0.8 F,1,63075,63763,0.8,0 C,0,62731,,89,172,255 M,0,62731,62774,441,411,451.1065,415.2251 M,0,62774,62817,451.1065,415.2251,461.575,418.4199 M,0,62817,62860,461.575,418.4199,472.3047,420.5548 M,0,62860,62903,472.3047,420.5548,483.1752,421.8009 M,0,62903,62946,483.1752,421.8009,494.1198,421.5602 M,0,62946,62989,494.1198,421.5602,504.98,420.231 M,0,62989,63032,504.98,420.231,515.713,418.0693 M,0,63032,63075,515.713,418.0693,526.2274,414.3287 M,0,68248,,478,308 S,0,68248,68936,1.166667,1.4 F,0,68248,,0.8 F,1,68592,69280,0.8,0 C,0,68248,,255,128,128 M,0,68248,68291,478,308,479.1292,318.9153 M,0,68291,68334,479.1292,318.9153,480.2584,329.8307 M,0,68334,68377,480.2584,329.8307,481.3875,340.7461 M,0,68377,68420,481.3875,340.7461,482.5167,351.6614 M,0,68420,68463,482.5167,351.6614,483.6459,362.5768 M,0,68463,68506,483.6459,362.5768,484.7751,373.4921 M,0,68506,68549,484.7751,373.4921,485.9042,384.4074 M,0,68549,68592,485.9042,384.4074,487,395 M,0,73766,,107,292 S,0,73766,74454,1.166667,1.4 F,0,73766,,0.8 F,1,74110,74798,0.8,0 C,0,73766,,89,172,255 M,0,73766,73809,107,292,104.7136,302.7241 M,0,73809,73852,104.7136,302.7241,103.1351,313.5711 M,0,73852,73895,103.1351,313.5711,102.2708,324.4962 M,0,73895,73938,102.2708,324.4962,102.0254,335.4519 M,0,73938,73981,102.0254,335.4519,102.7365,346.3905 M,0,73981,74024,102.7365,346.3905,104.1623,357.2567 M,0,74024,74067,104.1623,357.2567,106.1815,368.0288 M,0,74067,74110,106.1815,368.0288,109.2186,378.781 M,0,77214,,353,223 S,0,77214,77902,1.166667,1.4 F,0,77214,,0.7 F,1,77903,78591,0.7,0 C,0,77214,,154,78,78 M,0,77214,77257,353,223,343.0659,222.0865 M,0,77257,77300,343.0659,222.0865,333.1318,221.173 M,0,77300,77343,333.1318,221.173,323.1977,220.2596 M,0,77343,77386,323.1977,220.2596,313.2636,219.3461 M,0,77386,77429,313.2636,219.3461,303.3296,218.4326 M,0,77429,77472,303.3296,218.4326,293.3954,217.5191 M,0,77472,77515,293.3954,217.5191,283.4614,216.6056 M,0,77515,77558,283.4614,216.6056,273.5273,215.6922 M,0,77558,77601,273.5273,215.6922,283.079,216.5705 M,0,77601,77644,283.079,216.5705,293.0131,217.484 M,0,77644,77687,293.0131,217.484,302.9472,218.3974 M,0,77687,77730,302.9472,218.3974,312.8813,219.3109 M,0,77730,77773,312.8813,219.3109,322.8153,220.2244 M,0,77773,77816,322.8153,220.2244,332.7494,221.1379 M,0,77816,77859,332.7494,221.1379,342.6835,222.0514 M,0,77859,77903,342.6835,222.0514,353,223 M,0,82731,,128,358 S,0,82731,83419,1.166667,1.4 F,1,82731,83419,0.5,0 C,0,82731,,0,128,128 M,0,93766,,235,244 S,0,93766,94454,1.166667,1.4 F,1,93766,94454,0.5,0 C,0,93766,,89,172,255 M,0,96524,,468,407 S,0,96524,97212,1.166667,1.4 F,0,96524,,0.7 F,1,97558,98246,0.7,0 C,0,96524,,0,128,128 M,0,96524,96567,468,407,458.0551,406.2127 M,0,96567,96610,458.0551,406.2127,448.1102,405.4254 M,0,96610,96653,448.1102,405.4254,438.1653,404.6381 M,0,96653,96696,438.1653,404.6381,428.2205,403.8508 M,0,96696,96739,428.2205,403.8508,418.2756,403.0635 M,0,96739,96782,418.2756,403.0635,408.3307,402.2762 M,0,96782,96825,408.3307,402.2762,398.3858,401.4889 M,0,96825,96868,398.3858,401.4889,388.4409,400.7016 M,0,96868,96911,388.4409,400.7016,378.496,399.9143 M,0,96911,96954,378.496,399.9143,368.5511,399.127 M,0,96954,96997,368.5511,399.127,358.6063,398.3397 M,0,96997,97040,358.6063,398.3397,348.6614,397.5524 M,0,97040,97083,348.6614,397.5524,338.7165,396.765 M,0,97083,97126,338.7165,396.765,328.7716,395.9778 M,0,97126,97169,328.7716,395.9778,318.8267,395.1905 M,0,97169,97212,318.8267,395.1905,308.8818,394.4031 M,0,97212,97255,308.8818,394.4031,298.937,393.6158 M,0,97255,97298,298.937,393.6158,288.9921,392.8286 M,0,97298,97341,288.9921,392.8286,279.0472,392.0412 M,0,97341,97384,279.0472,392.0412,269.1023,391.2539 M,0,97384,97427,269.1023,391.2539,259.1574,390.4666 M,0,97427,97470,259.1574,390.4666,249.2125,389.6793 M,0,97470,97513,249.2125,389.6793,239.2677,388.892 M,0,97513,97558,239.2677,388.892,228.7486,388.0593 P,0,46179,,A
Sprite,Overlay,Centre,"sb/4.png",0,0 M,0,132386,,111,137 S,0,132386,133074,1.166667,1.4 F,1,133075,133763,0.6,0 C,0,132386,,154,78,78 M,0,132386,132429,111,137,120.9475,136.2464 M,0,132429,132472,120.9475,136.2464,130.895,135.4928 M,0,132472,132515,130.895,135.4928,140.8425,134.7392 M,0,132515,132558,140.8425,134.7392,150.79,133.9856 M,0,132558,132601,150.79,133.9856,160.7375,133.232 M,0,132601,132644,160.7375,133.232,170.685,132.4784 M,0,132644,132687,170.685,132.4784,180.4161,133.2652 M,0,132687,132730,180.4161,133.2652,189.7711,136.73 M,0,132730,132773,189.7711,136.73,199.1261,140.1948 M,0,132773,132816,199.1261,140.1948,208.7595,141.5738 M,0,132816,132859,208.7595,141.5738,218.6957,140.684 M,0,132859,132902,218.6957,140.684,228.6319,139.7942 M,0,132902,132945,228.6319,139.7942,238.5682,138.9043 M,0,132945,132988,238.5682,138.9043,248.5044,138.0145 M,0,132988,133031,248.5044,138.0145,258.4407,137.1247 M,0,133031,133075,258.4407,137.1247,268.7594,136.2007 M,0,133766,,410,135 S,0,133766,134454,1.166667,1.4 F,0,133766,,0.6 F,1,134110,134798,0.6,0 M,0,133766,133809,410,135,413.4494,144.3462 M,0,133809,133852,413.4494,144.3462,416.0471,153.9572 M,0,133852,133895,416.0471,153.9572,417.7734,163.7574 M,0,133895,133938,417.7734,163.7574,418.6156,173.6705 M,0,133938,133981,418.6156,173.6705,418.7483,183.6211 M,0,133981,134024,418.7483,183.6211,417.6657,193.5188 M,0,134024,134067,417.6657,193.5188,415.7028,203.2751 M,0,134067,134110,415.7028,203.2751,412.8118,212.9949 M,0,135145,,404,435 S,0,135145,135833,1.166667,1.4 F,0,135145,,0.6 F,1,135834,136522,0.6,0 C,0,135145,,89,172,255 M,0,135145,135188,404,435,397.1952,427.7208 M,0,135188,135231,397.1952,427.7208,389.8207,421.0276 M,0,135231,135274,389.8207,421.0276,381.9254,414.9638 M,0,135274,135317,381.9254,414.9638,373.5612,409.5688 M,0,135317,135360,373.5612,409.5688,364.8552,404.742 M,0,135360,135403,364.8552,404.742,355.6638,400.9068 M,0,135403,135446,355.6638,400.9068,346.1927,397.8392 M,0,135446,135489,346.1927,397.8392,336.5042,395.5589 M,0,135489,135532,336.5042,395.5589,326.685,393.9158 M,0,135532,135575,326.685,393.9158,316.7394,393.3824 M,0,135575,135618,316.7394,393.3824,306.7877,393.6658 M,0,135618,135661,306.7877,393.6658,296.895,394.764 M,0,135661,135704,296.895,394.764,287.0895,396.4939 M,0,135704,135747,287.0895,396.4939,277.5397,399.3242 M,0,135747,135790,277.5397,399.3242,268.258,402.9262 M,0,135790,135834,268.258,402.9262,258.9681,407.4594 M,0,136524,,104,367 S,0,136524,137212,1.166667,1.4 F,0,136524,,0.6 F,1,136868,137556,0.6,0 M,0,136524,136567,104,367,103.5521,357.0341 M,0,136567,136610,103.5521,357.0341,103.1042,347.0681 M,0,136610,136653,103.1042,347.0681,102.6563,337.1022 M,0,136653,136696,102.6563,337.1022,102.2084,327.1362 M,0,136696,136739,102.2084,327.1362,101.7605,317.1703 M,0,136739,136782,101.7605,317.1703,101.3126,307.2043 M,0,136782,136825,101.3126,307.2043,100.8646,297.2384 M,0,136825,136868,100.8646,297.2384,100.4081,287.0807 M,0,137904,,135,67 S,0,137904,138592,1.166667,1.4 F,0,137904,,0.6 F,1,138593,139281,0.6,0 C,0,137904,,0,128,128 M,0,137904,137947,135,67,140.9394,75.00106 M,0,137947,137990,140.9394,75.00106,147.5232,82.47315 M,0,137990,138033,147.5232,82.47315,154.7058,89.36554 M,0,138033,138076,154.7058,89.36554,162.4376,95.63135 M,0,138076,138119,162.4376,95.63135,170.5241,101.4521 M,0,138119,138162,170.5241,101.4521,179.2616,106.2395 M,0,138162,138205,179.2616,106.2395,188.364,110.2773 M,0,138205,138248,188.364,110.2773,197.7685,113.5384 M,0,138248,138291,197.7685,113.5384,207.4105,116.0009 M,0,138291,138334,207.4105,116.0009,217.1912,117.8821 M,0,138334,138377,217.1912,117.8821,227.1284,118.5812 M,0,138377,138420,227.1284,118.5812,237.0842,118.447 M,0,138420,138463,237.0842,118.447,246.9903,117.481 M,0,138463,138506,246.9903,117.481,256.7791,115.6901 M,0,138506,138549,256.7791,115.6901,266.4411,113.286 M,0,138549,138593,266.4411,113.286,276.1074,109.6066 M,0,139283,,421,136 S,0,139283,139971,1.166667,1.4 F,0,139283,,0.6 F,1,139627,140315,0.6,0 M,0,139283,139326,421,136,423.385,145.6803 M,0,139326,139369,423.385,145.6803,425.1635,155.487 M,0,139369,139412,425.1635,155.487,426.3293,165.3828 M,0,139412,139455,426.3293,165.3828,426.878,175.3305 M,0,139455,139498,426.878,175.3305,427.0242,185.3002 M,0,139498,139541,427.0242,185.3002,426.246,195.2395 M,0,139541,139584,426.246,195.2395,424.8524,205.1081 M,0,139584,139627,424.8524,205.1081,422.8015,215.0547 M,0,140662,,453,426 S,0,140662,141350,1.166667,1.4 F,0,140662,,0.6 F,1,141006,141694,0.6,0 C,0,140662,,255,128,128 M,0,140662,140705,453,426,462.974,425.8005 M,0,140705,140748,462.974,425.8005,472.948,425.601 M,0,140748,140791,472.948,425.601,482.922,425.4016 M,0,140791,140834,482.922,425.4016,492.896,425.2021 M,0,140834,140877,492.896,425.2021,483.114,425.3977 M,0,140877,140920,483.114,425.3977,473.14,425.5972 M,0,140920,140963,473.14,425.5972,463.166,425.7967 M,0,140963,141006,463.166,425.7967,453,426 M,0,142041,,364,289 S,0,142041,142729,1.166667,1.4 F,0,142041,,0.6 F,1,143075,143763,0.6,0 M,0,142041,142084,364,289,362.0309,279.2314 M,0,142084,142127,362.0309,279.2314,360.8654,269.3402 M,0,142127,142170,360.8654,269.3402,360.5103,259.3909 M,0,142170,142213,360.5103,259.3909,360.9676,249.4483 M,0,142213,142256,360.9676,249.4483,361.9922,239.5383 M,0,142256,142299,361.9922,239.5383,364.1802,229.8184 M,0,142299,142342,364.1802,229.8184,367.1519,220.314 M,0,142342,142385,367.1519,220.314,370.8874,211.0868 M,0,142385,142428,370.8874,211.0868,375.3619,202.1967 M,0,142428,142471,375.3619,202.1967,380.3734,193.5914 M,0,142471,142514,380.3734,193.5914,386.3362,185.6119 M,0,142514,142557,386.3362,185.6119,392.9268,178.1485 M,0,142557,142600,392.9268,178.1485,400.1019,171.2494 M,0,142600,142643,400.1019,171.2494,407.8144,164.9593 M,0,142643,142686,407.8144,164.9593,415.9212,159.1829 M,0,142686,142729,415.9212,159.1829,424.6197,154.332 M,0,142729,142772,424.6197,154.332,433.6811,150.2081 M,0,142772,142815,433.6811,150.2081,443.0462,146.8377 M,0,142815,142858,443.0462,146.8377,452.5973,144.0024 M,0,142858,142901,452.5973,144.0024,462.4169,142.3168 M,0,142901,142944,462.4169,142.3168,472.3362,141.4379 M,0,142944,142987,472.3362,141.4379,482.2907,141.3706 M,0,142987,143030,482.2907,141.3706,492.2155,142.1152 M,0,143030,143075,492.2155,142.1152,502.6537,143.5532 M,0,144800,,493,165 S,0,144800,145488,1.166667,1.4 F,0,144800,,0.8 F,1,145144,145832,0.8,0 C,0,144800,,154,78,78 M,0,144800,144843,493,165,482.8611,160.8629 M,0,144843,144886,482.8611,160.8629,472.3475,157.8357 M,0,144886,144929,472.3475,157.8357,461.6108,155.689 M,0,144929,144972,461.6108,155.689,450.6741,155.2131 M,0,144972,145015,450.6741,155.2131,439.7572,155.9081 M,0,145015,145058,439.7572,155.9081,428.9458,157.5785 M,0,145058,145101,428.9458,157.5785,418.492,160.8173 M,0,145101,145144,418.492,160.8173,408.1127,164.9495 M,0,146179,,189,142 S,0,146179,146867,1.166667,1.4 F,0,146179,,0.8 F,1,147213,147901,0.8,0 M,0,146179,146222,189,142,189.1037,131.0591 M,0,146222,146265,189.1037,131.0591,190.5843,120.232 M,0,146265,146308,190.5843,120.232,193.1057,109.5849 M,0,146308,146351,193.1057,109.5849,197.5191,99.57767 M,0,146351,146394,197.5191,99.57767,203.1533,90.21689 M,0,146394,146437,203.1533,90.21689,209.7257,81.48383 M,0,146437,146480,209.7257,81.48383,217.7291,74.03484 M,0,146480,146523,217.7291,74.03484,226.6003,67.66039 M,0,146523,146566,226.6003,67.66039,236.1147,62.30093 M,0,146566,146609,236.1147,62.30093,246.406,58.61838 M,0,146609,146652,246.406,58.61838,257.011,55.87358 M,0,146652,146695,257.011,55.87358,267.9363,55.02375 M,0,146695,146738,267.9363,55.02375,257.6426,55.83907 M,0,146738,146781,257.6426,55.83907,247.0182,58.45935 M,0,146781,146824,247.0182,58.45935,236.708,62.0817 M,0,146824,146867,236.708,62.0817,227.1384,67.32787 M,0,146867,146910,227.1384,67.32787,218.2314,73.65039 M,0,146910,146953,218.2314,73.65039,210.1872,81.05124 M,0,146953,146996,210.1872,81.05124,203.5199,89.7014 M,0,146996,147039,203.5199,89.7014,197.8325,99.02823 M,0,147039,147082,197.8325,99.02823,193.3628,109.0069 M,0,147082,147125,193.3628,109.0069,190.7217,119.6146 M,0,147125,147168,190.7217,119.6146,189.179,130.431 M,0,147168,147213,189.179,130.431,189,142 M,0,148248,,327,348 S,0,148248,148936,1.166667,1.4 F,0,148248,,0.8 F,1,148592,149280,0.8,0 C,0,148248,,89,172,255 M,0,148248,148291,327,348,326.2535,337.0518 M,0,148291,148334,326.2535,337.0518,325.5071,326.1036 M,0,148334,148377,325.5071,326.1036,324.7606,315.1555 M,0,148377,148420,324.7606,315.1555,324.0141,304.2073 M,0,148420,148463,324.0141,304.2073,323.2677,293.2591 M,0,148463,148506,323.2677,293.2591,322.5212,282.3109 M,0,148506,148549,322.5212,282.3109,321.7747,271.3627 M,0,148549,148592,321.7747,271.3627,321.0139,260.2038 M,0,150317,,501,207 S,0,150317,151005,1.166667,1.4 F,0,150317,,0.8 F,1,150661,151349,0.8,0 C,0,150317,,0,128,128 M,0,150317,150360,501,207,504.2856,196.544 M,0,150360,150403,504.2856,196.544,506.6787,185.855 M,0,150403,150446,506.6787,185.855,508.1638,175.0067 M,0,150446,150489,508.1638,175.0067,508.9932,164.0785 M,0,150489,150532,508.9932,164.0785,508.4786,153.1323 M,0,150532,150575,508.4786,153.1323,507.046,142.274 M,0,150575,150618,507.046,142.274,504.7059,131.5782 M,0,150618,150661,504.7059,131.5782,501.6462,120.8352 M,0,151697,,501,207 S,0,151697,152385,1.166667,1.4 F,0,151697,,0.8 F,1,152386,153074,0.8,0 M,0,151697,151740,501,207,491.3069,201.9157 M,0,151740,151783,491.3069,201.9157,481.0933,198.0136 M,0,151783,151826,481.0933,198.0136,470.564,195.0022 M,0,151826,151869,470.564,195.0022,459.6799,193.8614 M,0,151869,151912,459.6799,193.8614,448.7484,194.0113 M,0,151912,151955,448.7484,194.0113,437.8606,195.1376 M,0,151955,151998,437.8606,195.1376,427.3274,198.1006 M,0,151998,152041,427.3274,198.1006,417.2266,202.2806 M,0,152041,152084,417.2266,202.2806,407.5463,207.3786 M,0,152084,152127,407.5463,207.3786,398.8558,214.0244 M,0,152127,152170,398.8558,214.0244,391.0163,221.6417 M,0,152170,152213,391.0163,221.6417,383.9345,229.9747 M,0,152213,152256,383.9345,229.9747,378.3171,239.361 M,0,152256,152299,378.3171,239.361,373.8491,249.336 M,0,152299,152342,373.8491,249.336,370.382,259.7031 M,0,152342,152386,370.382,259.7031,368.3675,270.9035 M,0,153076,,317,399 S,0,153076,153764,1.166667,1.4 F,0,153076,,0.8 F,1,153765,154453,0.8,0 M,0,153076,153119,317,399,306.0594,398.1491 M,0,153119,153162,306.0594,398.1491,295.1189,397.2981 M,0,153162,153205,295.1189,397.2981,284.1783,396.4472 M,0,153205,153248,284.1783,396.4472,273.2378,395.5963 M,0,153248,153291,273.2378,395.5963,262.2972,394.7453 M,0,153291,153334,262.2972,394.7453,251.3567,393.8944 M,0,153334,153377,251.3567,393.8944,240.4161,393.0435 M,0,153377,153420,240.4161,393.0435,229.4755,392.1925 M,0,153420,153463,229.4755,392.1925,218.535,391.3416 M,0,153463,153506,218.535,391.3416,207.5944,390.4907 M,0,153506,153549,207.5944,390.4907,196.6539,389.6397 M,0,153549,153592,196.6539,389.6397,185.7133,388.7888 M,0,153592,153635,185.7133,388.7888,174.7728,387.9379 M,0,153635,153678,174.7728,387.9379,163.8322,387.0869 M,0,153678,153721,163.8322,387.0869,152.8916,386.236 M,0,153721,153765,152.8916,386.236,141.5299,385.3523 M,0,154455,,134,223 S,0,154455,155143,1.166667,1.4 F,0,154455,,0.8 F,1,155489,156177,0.8,0 C,0,154455,,255,128,128 M,0,154455,154498,134,223,139.6787,213.6327 M,0,154498,154541,139.6787,213.6327,144.4092,203.7616 M,0,154541,154584,144.4092,203.7616,148.3923,193.5568 M,0,154584,154627,148.3923,193.5568,150.8899,182.8936 M,0,154627,154670,150.8899,182.8936,152.3301,172.0441 M,0,154670,154713,152.3301,172.0441,152.9009,161.1113 M,0,154713,154756,152.9009,161.1113,151.9731,150.2011 M,0,154756,154799,151.9731,150.2011,149.982,139.44 M,0,154799,154842,149.982,139.44,147.0865,128.8882 M,0,154842,154885,147.0865,128.8882,142.8258,118.8037 M,0,154885,154928,142.8258,118.8037,137.5999,109.1892 M,0,154928,154971,137.5999,109.1892,131.5348,100.0877 M,0,154971,155014,131.5348,100.0877,137.4989,108.5115 M,0,155014,155057,137.4989,108.5115,142.5392,118.2393 M,0,155057,155100,142.5392,118.2393,146.8445,128.3033 M,0,155100,155143,146.8445,128.3033,149.8331,138.8248 M,0,155143,155186,149.8331,138.8248,151.8722,149.5762 M,0,155186,155229,151.8722,149.5762,152.8487,160.4805 M,0,155229,155272,152.8487,160.4805,152.3759,171.4128 M,0,155272,155315,152.3759,171.4128,150.9844,182.2678 M,0,155315,155358,150.9844,182.2678,148.535,192.9401 M,0,155358,155401,148.535,192.9401,144.6453,203.1743 M,0,155401,155444,144.6453,203.1743,139.9596,213.0654 M,0,155444,155489,139.9596,213.0654,134,223 M,0,156524,,383,257 S,0,156524,157212,1.166667,1.4 F,0,156524,,0.8 F,1,156868,157556,0.8,0 M,0,156524,156567,383,257,393.9476,257.755 M,0,156567,156610,393.9476,257.755,404.8952,258.51 M,0,156610,156653,404.8952,258.51,415.8428,259.265 M,0,156653,156696,415.8428,259.265,426.7904,260.02 M,0,156696,156739,426.7904,260.02,437.738,260.775 M,0,156739,156782,437.738,260.775,448.6856,261.53 M,0,156782,156825,448.6856,261.53,459.6332,262.285 M,0,156825,156868,459.6332,262.285,470,263 M,0,158593,,565,291 S,0,158593,159281,1.166667,1.4 F,0,158593,,0.8 F,1,158937,159625,0.8,0 C,0,158593,,154,78,78 M,0,158593,158636,565,291,567.4661,280.3192 M,0,158636,158679,567.4661,280.3192,569.1064,269.486 M,0,158679,158722,569.1064,269.486,570.1333,258.5703 M,0,158722,158765,570.1333,258.5703,569.9274,247.6114 M,0,158765,158808,569.9274,247.6114,568.8834,236.705 M,0,158808,158851,568.8834,236.705,567.1992,225.8741 M,0,158851,158894,567.1992,225.8741,564.334,215.2953 M,0,158894,158937,564.334,215.2953,560.5887,204.7755 M,0,159973,,533,316 S,0,159973,160661,1.166667,1.4 F,0,159973,,0.8 F,1,161007,161695,0.8,0 C,0,159973,,89,172,255 M,0,159973,160016,533,316,539.3146,324.95 M,0,160016,160059,539.3146,324.95,544.688,334.4843 M,0,160059,160102,544.688,334.4843,549.0679,344.5085 M,0,160102,160145,549.0679,344.5085,552.5715,354.8708 M,0,160145,160188,552.5715,354.8708,554.6385,365.6195 M,0,160188,160231,554.6385,365.6195,555.6078,376.5164 M,0,160231,160274,555.6078,376.5164,555.6791,387.4591 M,0,160274,160317,555.6791,387.4591,554.2249,398.3093 M,0,160317,160360,554.2249,398.3093,551.6827,408.9506 M,0,160360,160403,551.6827,408.9506,548.3115,419.3665 M,0,160403,160446,548.3115,419.3665,543.4855,429.1944 M,0,160446,160489,543.4855,429.1944,537.6946,438.478 M,0,160489,160532,537.6946,438.478,543.1593,429.7368 M,0,160532,160575,543.1593,429.7368,548.0307,419.9337 M,0,160575,160618,548.0307,419.9337,551.498,409.5559 M,0,160618,160661,551.498,409.5559,554.0901,398.9277 M,0,160661,160704,554.0901,398.9277,555.5953,388.0865 M,0,160704,160747,555.5953,388.0865,555.6273,377.149 M,0,160747,160790,555.6273,377.149,554.7095,366.2484 M,0,160790,160833,554.7095,366.2484,552.6936,355.4918 M,0,160833,160876,552.6936,355.4918,549.5984,344.9854 M,0,160876,160919,549.5984,344.9854,544.9572,335.0572 M,0,160919,160962,544.9572,335.0572,539.6297,325.4989 M,0,160962,161007,539.6297,325.4989,533,316 M,0,162041,,262,297 S,0,162041,162729,1.166667,1.4 F,0,162041,,0.8 F,1,162385,163073,0.8,0 M,0,162041,162084,262,297,251.0328,296.6261 M,0,162084,162127,251.0328,296.6261,240.0655,296.2522 M,0,162127,162170,240.0655,296.2522,229.0983,295.8784 M,0,162170,162213,229.0983,295.8784,218.1311,295.5045 M,0,162213,162256,218.1311,295.5045,207.1638,295.1306 M,0,162256,162299,207.1638,295.1306,196.1966,294.7567 M,0,162299,162342,196.1966,294.7567,185.2294,294.3828 M,0,162342,162385,185.2294,294.3828,174.0511,294.0017 M,0,163766,,69,114 S,0,163766,164454,1.166667,1.4 F,1,163766,164454,0.6,0 C,0,163766,,0,128,128 M,0,165490,,463,210 S,0,165490,166178,1.166667,1.4 F,0,165490,,0.7 F,1,166179,166867,0.7,0 C,0,165490,,255,128,128 M,0,165490,165533,463,210,463.7487,219.9479 M,0,165533,165576,463.7487,219.9479,464.4975,229.8957 M,0,165576,165619,464.4975,229.8957,465.2463,239.8436 M,0,165619,165662,465.2463,239.8436,465.9951,249.7914 M,0,165662,165705,465.9951,249.7914,466.7438,259.7393 M,0,165705,165748,466.7438,259.7393,467.4926,269.6872 M,0,165748,165791,467.4926,269.6872,468.2413,279.635 M,0,165791,165834,468.2413,279.635,468.9901,289.5829 M,0,165834,165877,468.9901,289.5829,468.2702,280.0179 M,0,165877,165920,468.2702,280.0179,467.5214,270.0701 M,0,165920,165963,467.5214,270.0701,466.7726,260.1222 M,0,165963,166006,466.7726,260.1222,466.0239,250.1744 M,0,166006,166049,466.0239,250.1744,465.2751,240.2265 M,0,166049,166092,465.2751,240.2265,464.5263,230.2786 M,0,166092,166135,464.5263,230.2786,463.7776,220.3308 M,0,166135,166179,463.7776,220.3308,463,210 M,0,166869,,335,353 S,0,166869,167557,1.166667,1.4 F,0,166869,,0.7 F,1,167558,168246,0.7,0 M,0,166869,166912,335,353,335.7461,343.0519 M,0,166912,166955,335.7461,343.0519,336.4922,333.1039 M,0,166955,166998,336.4922,333.1039,337.2383,323.1558 M,0,166998,167041,337.2383,323.1558,337.9844,313.2078 M,0,167041,167084,337.9844,313.2078,338.7305,303.2597 M,0,167084,167127,338.7305,303.2597,339.4766,293.3116 M,0,167127,167170,339.4766,293.3116,340.2227,283.3636 M,0,167170,167213,340.2227,283.3636,340.9688,273.4155 M,0,167213,167256,340.9688,273.4155,340.2515,282.9807 M,0,167256,167299,340.2515,282.9807,339.5053,292.9287 M,0,167299,167342,339.5053,292.9287,338.7592,302.8768 M,0,167342,167385,338.7592,302.8768,338.0131,312.8248 M,0,167385,167428,338.0131,312.8248,337.267,322.7729 M,0,167428,167471,337.267,322.7729,336.5209,332.7209 M,0,167471,167514,336.5209,332.7209,335.7748,342.669 M,0,167514,167558,335.7748,342.669,335,353 M,0,168249,,258,176 S,0,168249,168937,1.166667,1.4 F,0,168249,,0.7 F,1,168593,169281,0.7,0 C,0,168249,,154,78,78 M,0,168249,168292,258,176,254.3799,166.722 M,0,168292,168335,254.3799,166.722,251.7128,157.1353 M,0,168335,168378,251.7128,157.1353,250.0237,147.335 M,0,168378,168421,250.0237,147.335,249.3287,137.4179 M,0,168421,168464,249.3287,137.4179,249.3746,127.4672 M,0,168464,168507,249.3746,127.4672,250.8322,117.6203 M,0,168507,168550,250.8322,117.6203,253.2703,107.9765 M,0,168550,168593,253.2703,107.9765,256.4797,98.34103 M,0,169973,,268,370 S,0,169973,170661,1.166667,1.4 F,1,169973,170661,0.5,0 C,0,169973,,89,172,255 M,0,171352,,252,382 S,0,171352,172040,1.166667,1.4 F,0,171352,,0.7 F,1,172041,172729,0.7,0 M,0,171352,171395,252,382,261.9316,381.0597 M,0,171395,171438,261.9316,381.0597,271.8632,380.1195 M,0,171438,171481,271.8632,380.1195,281.7948,379.1792 M,0,171481,171524,281.7948,379.1792,291.7263,378.2389 M,0,171524,171567,291.7263,378.2389,301.658,377.2986 M,0,171567,171610,301.658,377.2986,311.5895,376.3584 M,0,171610,171653,311.5895,376.3584,321.5211,375.4181 M,0,171653,171696,321.5211,375.4181,331.4527,374.4778 M,0,171696,171739,331.4527,374.4778,341.3843,373.5376 M,0,171739,171782,341.3843,373.5376,351.3159,372.5973 M,0,171782,171825,351.3159,372.5973,361.2475,371.657 M,0,171825,171868,361.2475,371.657,371.1791,370.7168 M,0,171868,171911,371.1791,370.7168,381.1107,369.7765 M,0,171911,171954,381.1107,369.7765,391.0422,368.8362 M,0,171954,171997,391.0422,368.8362,400.9738,367.896 M,0,171997,172041,400.9738,367.896,411.2877,366.9195 M,0,173421,,434,236 S,0,173421,174109,1.166667,1.4 F,1,173421,174109,0.5,0 C,0,173421,,0,128,128 M,0,175145,,98,351 S,0,175145,175833,1.166667,1.4 F,0,175145,,0.7 F,1,175834,176522,0.7,0 M,0,175145,175188,98,351,96.57179,341.1268 M,0,175188,175231,96.57179,341.1268,95.14359,331.2535 M,0,175231,175274,95.14359,331.2535,93.71539,321.3803 M,0,175274,175317,93.71539,321.3803,92.28719,311.507 M,0,175317,175360,92.28719,311.507,90.85898,301.6338 M,0,175360,175403,90.85898,301.6338,89.43077,291.7606 M,0,175403,175446,89.43077,291.7606,88.00257,281.8873 M,0,175446,175489,88.00257,281.8873,86.57437,272.0141 M,0,175489,175532,86.57437,272.0141,85.14616,262.1409 M,0,175532,175575,85.14616,262.1409,83.71796,252.2676 M,0,175575,175618,83.71796,252.2676,82.28976,242.3944 M,0,175618,175661,82.28976,242.3944,80.86155,232.5211 M,0,175661,175704,80.86155,232.5211,79.43335,222.6479 M,0,175704,175747,79.43335,222.6479,78.00514,212.7747 M,0,175747,175790,78.00514,212.7747,76.57693,202.9014 M,0,175790,175834,76.57693,202.9014,75.09376,192.6482 M,0,176524,,197,155 S,0,176524,177212,1.166667,1.4 F,0,176524,,0.7 F,1,177213,177901,0.7,0 C,0,176524,,255,128,128 M,0,176524,176567,197,155,206.6219,157.594 M,0,176567,176610,206.6219,157.594,216.4132,159.4205 M,0,176610,176653,216.4132,159.4205,226.3146,160.469 M,0,176653,176696,226.3146,160.469,236.266,160.7335 M,0,176696,176739,236.266,160.7335,246.2143,160.3524 M,0,176739,176782,246.2143,160.3524,256.0713,158.9203 M,0,176782,176825,256.0713,158.9203,265.7811,156.7163 M,0,176825,176868,265.7811,156.7163,275.2852,153.7542 M,0,176868,176911,275.2852,153.7542,266.1502,156.6114 M,0,176911,176954,266.1502,156.6114,256.4465,158.8399 M,0,176954,176997,256.4465,158.8399,246.594,160.2968 M,0,176997,177040,246.594,160.2968,236.6524,160.9729 M,0,177040,177083,236.6524,160.9729,226.6978,160.4891 M,0,177083,177126,226.6978,160.4891,216.7942,159.4658 M,0,177126,177169,216.7942,159.4658,206.9991,157.6642 M,0,177169,177213,206.9991,157.6642,197,155 M,0,177904,,147,341 S,0,177904,178592,1.166667,1.4 F,0,177904,,0.7 F,1,178593,179281,0.7,0 M,0,177904,177947,147,341,137.3781,338.406 M,0,177947,177990,137.3781,338.406,127.5868,336.5795 M,0,177990,178033,127.5868,336.5795,117.6854,335.531 M,0,178033,178076,117.6854,335.531,107.734,335.2665 M,0,178076,178119,107.734,335.2665,97.78569,335.6476 M,0,178119,178162,97.78569,335.6476,87.92874,337.0797 M,0,178162,178205,87.92874,337.0797,78.21885,339.2837 M,0,178205,178248,78.21885,339.2837,68.71474,342.2458 M,0,178248,178291,68.71474,342.2458,77.84975,339.3886 M,0,178291,178334,77.84975,339.3886,87.55354,337.1601 M,0,178334,178377,87.55354,337.1601,97.40601,335.7032 M,0,178377,178420,97.40601,335.7032,107.3476,335.0271 M,0,178420,178463,107.3476,335.0271,117.3022,335.5109 M,0,178463,178506,117.3022,335.5109,127.2058,336.5342 M,0,178506,178549,127.2058,336.5342,137.0009,338.3358 M,0,178549,178593,137.0009,338.3358,147,341 M,0,179283,,328,405 S,0,179283,179971,1.166667,1.4 F,0,179283,,0.7 F,1,179627,180315,0.7,0 C,0,179283,,154,78,78 M,0,179283,179326,328,405,337.846,403.3947 M,0,179326,179369,337.846,403.3947,347.692,401.7893 M,0,179369,179412,347.692,401.7893,357.538,400.184 M,0,179412,179455,357.538,400.184,367.384,398.5787 M,0,179455,179498,367.384,398.5787,377.2299,396.9734 M,0,179498,179541,377.2299,396.9734,387.0759,395.368 M,0,179541,179584,387.0759,395.368,396.9219,393.7627 M,0,179584,179627,396.9219,393.7627,406.9574,392.1265 M,0,181007,,398,277 S,0,181007,181695,1.166667,1.4 F,1,181007,181695,0.5,0 M,0,182386,,453,210 S,0,182386,183074,1.166667,1.4 F,0,182386,,0.7 F,1,183420,184108,0.7,0 C,0,182386,,89,172,255 M,0,182386,182429,453,210,443.0492,210.708 M,0,182429,182472,443.0492,210.708,433.0983,211.4159 M,0,182472,182515,433.0983,211.4159,423.1475,212.1239 M,0,182515,182558,423.1475,212.1239,413.1966,212.8319 M,0,182558,182601,413.1966,212.8319,403.2458,213.5398 M,0,182601,182644,403.2458,213.5398,393.2949,214.2478 M,0,182644,182687,393.2949,214.2478,383.3441,214.9558 M,0,182687,182730,383.3441,214.9558,373.3932,215.6637 M,0,182730,182773,373.3932,215.6637,363.4424,216.3717 M,0,182773,182816,363.4424,216.3717,353.4915,217.0797 M,0,182816,182859,353.4915,217.0797,343.5407,217.7876 M,0,182859,182902,343.5407,217.7876,333.5898,218.4956 M,0,182902,182945,333.5898,218.4956,323.639,219.2036 M,0,182945,182988,323.639,219.2036,313.6881,219.9115 M,0,182988,183031,313.6881,219.9115,303.7373,220.6195 M,0,183031,183074,303.7373,220.6195,293.7864,221.3275 M,0,183074,183117,293.7864,221.3275,283.8356,222.0354 M,0,183117,183160,283.8356,222.0354,273.8848,222.7434 M,0,183160,183203,273.8848,222.7434,263.9339,223.4513 M,0,183203,183246,263.9339,223.4513,253.983,224.1593 M,0,183246,183289,253.983,224.1593,244.0322,224.8673 M,0,183289,183332,244.0322,224.8673,234.0814,225.5752 M,0,183332,183375,234.0814,225.5752,224.1305,226.2832 M,0,183375,183420,224.1305,226.2832,213.6051,227.032 M,0,184111,,79,263 S,0,184111,184799,1.166667,1.4 F,0,184111,,0.7 F,1,184455,185143,0.7,0 M,0,184111,184154,79,263,76.65095,272.6818 M,0,184154,184197,76.65095,272.6818,75.17357,282.5277 M,0,184197,184240,75.17357,282.5277,74.57848,292.4615 M,0,184240,184283,74.57848,292.4615,74.86972,302.4061 M,0,184283,184326,74.86972,302.4061,75.83969,312.3128 M,0,184326,184369,75.83969,312.3128,78.02796,322.0274 M,0,184369,184412,78.02796,322.0274,81.07037,331.5038 M,0,184412,184455,81.07037,331.5038,85.02676,340.8412 M,0,186180,,167,185 S,0,186180,186868,1.166667,1.4 F,0,186180,,0.7 F,1,187214,187902,0.7,0 C,0,186180,,0,128,128 M,0,186180,186223,167,185,165.3731,175.1575 M,0,186223,186266,165.3731,175.1575,163.7463,165.3151 M,0,186266,186309,163.7463,165.3151,162.1194,155.4726 M,0,186309,186352,162.1194,155.4726,160.4926,145.6302 M,0,186352,186395,160.4926,145.6302,158.8657,135.7877 M,0,186395,186438,158.8657,135.7877,157.2389,125.9453 M,0,186438,186481,157.2389,125.9453,155.612,116.1028 M,0,186481,186524,155.612,116.1028,153.9852,106.2604 M,0,186524,186567,153.9852,106.2604,152.3583,96.4179 M,0,186567,186610,152.3583,96.4179,150.7315,86.57545 M,0,186610,186653,150.7315,86.57545,149.1046,76.73299 M,0,186653,186696,149.1046,76.73299,147.4778,66.89053 M,0,186696,186739,147.4778,66.89053,149.0107,76.1647 M,0,186739,186782,149.0107,76.1647,150.6375,86.00716 M,0,186782,186825,150.6375,86.00716,152.2644,95.84962 M,0,186825,186868,152.2644,95.84962,153.8913,105.6921 M,0,186868,186911,153.8913,105.6921,155.5181,115.5345 M,0,186911,186954,155.5181,115.5345,157.145,125.377 M,0,186954,186997,157.145,125.377,158.7718,135.2194 M,0,186997,187040,158.7718,135.2194,160.3987,145.0619 M,0,187040,187083,160.3987,145.0619,162.0255,154.9043 M,0,187083,187126,162.0255,154.9043,163.6524,164.7468 M,0,187126,187169,163.6524,164.7468,165.2792,174.5893 M,0,187169,187214,165.2792,174.5893,167,185 P,0,132386,,A
Sprite,Overlay,Centre,"sb/4.png",0,0 M,0,133421,,340,71 S,0,133421,134109,1.166667,1.4 F,1,133421,134109,0.4,0 C,0,133421,,154,78,78 M,0,136179,,168,439 S,0,136179,136867,1.166667,1.4 F,1,136179,136867,0.4,0 C,0,136179,,89,172,255 M,0,138938,,360,63 S,0,138938,139626,1.166667,1.4 F,1,138938,139626,0.4,0 C,0,138938,,0,128,128 M,0,141352,,452,329 S,0,141352,142040,1.166667,1.4 F,0,141352,,0.6 F,1,141696,142384,0.6,0 C,0,141352,,255,128,128 M,0,141352,141395,452,329,460.9228,324.5386 M,0,141395,141438,460.9228,324.5386,469.8456,320.0772 M,0,141438,141481,469.8456,320.0772,478.7684,315.6158 M,0,141481,141524,478.7684,315.6158,487.6912,311.1544 M,0,141524,141567,487.6912,311.1544,478.9402,315.5299 M,0,141567,141610,478.9402,315.5299,470.0173,319.9913 M,0,141610,141653,470.0173,319.9913,461.0945,324.4527 M,0,141653,141696,461.0945,324.4527,452,329 M,0,143421,,574,234 S,0,143421,144109,1.166667,1.4 F,0,143421,,0.8 F,1,144455,145143,0.8,0 C,0,143421,,154,78,78 M,0,143421,143464,574,234,573.1343,244.9394 M,0,143464,143507,573.1343,244.9394,572.2686,255.8788 M,0,143507,143550,572.2686,255.8788,571.4028,266.8182 M,0,143550,143593,571.4028,266.8182,570.5372,277.7576 M,0,143593,143636,570.5372,277.7576,569.6714,288.697 M,0,143636,143679,569.6714,288.697,568.8058,299.6364 M,0,143679,143722,568.8058,299.6364,567.9401,310.5758 M,0,143722,143765,567.9401,310.5758,567.0743,321.5152 M,0,143765,143808,567.0743,321.5152,566.2086,332.4546 M,0,143808,143851,566.2086,332.4546,565.3429,343.394 M,0,143851,143894,565.3429,343.394,564.4772,354.3334 M,0,143894,143937,564.4772,354.3334,563.6115,365.2728 M,0,143937,143980,563.6115,365.2728,564.4272,354.965 M,0,143980,144023,564.4272,354.965,565.293,344.0256 M,0,144023,144066,565.293,344.0256,566.1586,333.0862 M,0,144066,144109,566.1586,333.0862,567.0244,322.1468 M,0,144109,144152,567.0244,322.1468,567.89,311.2074 M,0,144152,144195,567.89,311.2074,568.7557,300.268 M,0,144195,144238,568.7557,300.268,569.6215,289.3286 M,0,144238,144281,569.6215,289.3286,570.4872,278.3892 M,0,144281,144324,570.4872,278.3892,571.3529,267.4498 M,0,144324,144367,571.3529,267.4498,572.2186,256.5104 M,0,144367,144410,572.2186,256.5104,573.0844,245.571 M,0,144410,144455,573.0844,245.571,574,234 M,0,145490,,327,234 S,0,145490,146178,1.166667,1.4 F,0,145490,,0.8 F,1,145834,146522,0.8,0 M,0,145490,145533,327,234,316.8611,238.137 M,0,145533,145576,316.8611,238.137,306.3475,241.1643 M,0,145576,145619,306.3475,241.1643,295.6108,243.311 M,0,145619,145662,295.6108,243.311,284.6741,243.7869 M,0,145662,145705,284.6741,243.7869,273.7573,243.0919 M,0,145705,145748,273.7573,243.0919,262.9458,241.4215 M,0,145748,145791,262.9458,241.4215,252.4919,238.1827 M,0,145791,145834,252.4919,238.1827,242.1127,234.0505 M,0,147559,,230,239 S,0,147559,148247,1.166667,1.4 F,0,147559,,0.8 F,1,147903,148591,0.8,0 C,0,147559,,89,172,255 M,0,147559,147602,230,239,229.2858,249.9503 M,0,147602,147645,229.2858,249.9503,228.5717,260.9007 M,0,147645,147688,228.5717,260.9007,227.8575,271.851 M,0,147688,147731,227.8575,271.851,227.1434,282.8013 M,0,147731,147774,227.1434,282.8013,226.4292,293.7517 M,0,147774,147817,226.4292,293.7517,225.7151,304.702 M,0,147817,147860,225.7151,304.702,225.0009,315.6524 M,0,147860,147903,225.0009,315.6524,224.273,326.8134 M,0,148938,,425,281 S,0,148938,149626,1.166667,1.4 F,0,148938,,0.8 F,1,149972,150660,0.8,0 M,0,148938,148981,425,281,424.4037,291.9574 M,0,148981,149024,424.4037,291.9574,423.8074,302.9148 M,0,149024,149067,423.8074,302.9148,423.211,313.8722 M,0,149067,149110,423.211,313.8722,422.6147,324.8295 M,0,149110,149153,422.6147,324.8295,422.0184,335.7869 M,0,149153,149196,422.0184,335.7869,421.4221,346.7443 M,0,149196,149239,421.4221,346.7443,420.8257,357.7017 M,0,149239,149282,420.8257,357.7017,420.2294,368.6591 M,0,149282,149325,420.2294,368.6591,419.6331,379.6165 M,0,149325,149368,419.6331,379.6165,419.0368,390.5739 M,0,149368,149411,419.0368,390.5739,418.4405,401.5313 M,0,149411,149454,418.4405,401.5313,417.8441,412.4886 M,0,149454,149497,417.8441,412.4886,418.406,402.1639 M,0,149497,149540,418.406,402.1639,419.0024,391.2065 M,0,149540,149583,419.0024,391.2065,419.5987,380.2491 M,0,149583,149626,419.5987,380.2491,420.195,369.2917 M,0,149626,149669,420.195,369.2917,420.7913,358.3344 M,0,149669,149712,420.7913,358.3344,421.3876,347.377 M,0,149712,149755,421.3876,347.377,421.984,336.4196 M,0,149755,149798,421.984,336.4196,422.5803,325.4622 M,0,149798,149841,422.5803,325.4622,423.1766,314.5048 M,0,149841,149884,423.1766,314.5048,423.7729,303.5474 M,0,149884,149927,423.7729,303.5474,424.3693,292.5901 M,0,149927,149972,424.3693,292.5901,425,281 M,0,151007,,404,78 S,0,151007,151695,1.166667,1.4 F,0,151007,,0.8 F,1,151351,152039,0.8,0 C,0,151007,,0,128,128 M,0,151007,151050,404,78,400.6648,88.43919 M,0,151050,151093,400.6648,88.43919,398.2632,99.12458 M,0,151093,151136,398.2632,99.12458,396.8127,109.9752 M,0,151136,151179,396.8127,109.9752,396.3235,120.909 M,0,151179,151222,396.3235,120.909,396.629,131.8502 M,0,151222,151265,396.629,131.8502,398.2245,142.6855 M,0,151265,151308,398.2245,142.6855,400.7668,153.3335 M,0,151308,151351,400.7668,153.3335,404,164 M,0,152731,,417,364 S,0,152731,153419,1.166667,1.4 F,1,152731,153419,0.6,0 M,0,154110,,70,307 S,0,154110,154798,1.166667,1.4 F,1,154110,154798,0.6,0 M,0,155835,,199,306 S,0,155835,156523,1.166667,1.4 F,0,155835,,0.8 F,1,156179,156867,0.8,0 C,0,155835,,255,128,128 M,0,155835,155878,199,306,209.9468,305.2337 M,0,155878,155921,209.9468,305.2337,220.8936,304.4675 M,0,155921,155964,220.8936,304.4675,231.8404,303.7012 M,0,155964,156007,231.8404,303.7012,242.7873,302.9349 M,0,156007,156050,242.7873,302.9349,253.7341,302.1686 M,0,156050,156093,253.7341,302.1686,264.6809,301.4023 M,0,156093,156136,264.6809,301.4023,275.6277,300.636 M,0,156136,156179,275.6277,300.636,286.7852,299.855 M,0,157214,,491,367 S,0,157214,157902,1.166667,1.4 F,0,157214,,0.8 F,1,158248,158936,0.8,0 C,0,157214,,154,78,78 M,0,157214,157257,491,367,480.0555,367.7989 M,0,157257,157300,480.0555,367.7989,469.111,368.5977 M,0,157300,157343,469.111,368.5977,458.1666,369.3966 M,0,157343,157386,458.1666,369.3966,447.2221,370.1955 M,0,157386,157429,447.2221,370.1955,436.2776,370.9943 M,0,157429,157472,436.2776,370.9943,425.3331,371.7932 M,0,157472,157515,425.3331,371.7932,414.3886,372.5921 M,0,157515,157558,414.3886,372.5921,403.4441,373.3909 M,0,157558,157601,403.4441,373.3909,392.4996,374.1898 M,0,157601,157644,392.4996,374.1898,381.5552,374.9887 M,0,157644,157687,381.5552,374.9887,370.6107,375.7875 M,0,157687,157730,370.6107,375.7875,359.6662,376.5864 M,0,157730,157773,359.6662,376.5864,369.9788,375.8337 M,0,157773,157816,369.9788,375.8337,380.9232,375.0348 M,0,157816,157859,380.9232,375.0348,391.8677,374.2359 M,0,157859,157902,391.8677,374.2359,402.8122,373.4371 M,0,157902,157945,402.8122,373.4371,413.7567,372.6382 M,0,157945,157988,413.7567,372.6382,424.7012,371.8393 M,0,157988,158031,424.7012,371.8393,435.6457,371.0405 M,0,158031,158074,435.6457,371.0405,446.5901,370.2416 M,0,158074,158117,446.5901,370.2416,457.5346,369.4427 M,0,158117,158160,457.5346,369.4427,468.4791,368.6439 M,0,158160,158203,468.4791,368.6439,479.4236,367.845 M,0,158203,158248,479.4236,367.845,491,367 M,0,159283,,465,154 S,0,159283,159971,1.166667,1.4 F,0,159283,,0.8 F,1,159627,160315,0.8,0 M,0,159283,159326,465,154,461.2332,164.2919 M,0,159326,159369,461.2332,164.2919,458.3399,174.8564 M,0,159369,159412,458.3399,174.8564,456.1096,185.5882 M,0,159412,159455,456.1096,185.5882,455.2027,196.5089 M,0,159455,159498,455.2027,196.5089,455.2104,207.4617 M,0,159498,159541,455.2104,207.4617,455.9369,218.3946 M,0,159541,159584,455.9369,218.3946,457.954,229.1643 M,0,159584,159627,457.954,229.1643,460.7061,239.9968 M,0,161352,,439,353 S,0,161352,162040,1.166667,1.4 F,0,161352,,0.8 F,1,161696,162384,0.8,0 C,0,161352,,89,172,255 M,0,161352,161395,439,353,428.0311,353.3195 M,0,161395,161438,428.0311,353.3195,417.0621,353.639 M,0,161438,161481,417.0621,353.639,406.0931,353.9585 M,0,161481,161524,406.0931,353.9585,395.1242,354.2779 M,0,161524,161567,395.1242,354.2779,384.1553,354.5974 M,0,161567,161610,384.1553,354.5974,373.1863,354.9169 M,0,161610,161653,373.1863,354.9169,362.2173,355.2364 M,0,161653,161696,362.2173,355.2364,351.0373,355.562 M,0,162731,,76,335 S,0,162731,163419,1.166667,1.4 F,0,162731,,0.8 F,1,163420,164108,0.8,0 C,0,162731,,0,128,128 M,0,162731,162774,76,335,86.64922,332.4723 M,0,162774,162817,86.64922,332.4723,96.9122,328.7034 M,0,162817,162860,96.9122,328.7034,106.8002,324.011 M,0,162860,162903,106.8002,324.011,115.7381,317.7003 M,0,162903,162946,115.7381,317.7003,123.8568,310.3806 M,0,162946,162989,123.8568,310.3806,131.2247,302.3016 M,0,162989,163032,131.2247,302.3016,137.1665,293.1183 M,0,163032,163075,137.1665,293.1183,141.9732,283.3024 M,0,163075,163118,141.9732,283.3024,145.7304,273.0434 M,0,163118,163161,145.7304,273.0434,147.8228,262.3104 M,0,163161,163204,147.8228,262.3104,148.9885,251.4177 M,0,163204,163247,148.9885,251.4177,148.2195,240.5005 M,0,163247,163290,148.2195,240.5005,146.1632,229.7629 M,0,163290,163333,146.1632,229.7629,143.1215,219.2515 M,0,163333,163376,143.1215,219.2515,138.3425,209.4099 M,0,163376,163420,138.3425,209.4099,132.4543,199.6725 M,0,164110,,161,63 S,0,164110,164798,1.166667,1.4 F,0,164110,,0.8 F,1,164799,165487,0.8,0 M,0,164110,164153,161,63,170.5052,68.48376 M,0,164153,164196,170.5052,68.48376,180.0103,73.96751 M,0,164196,164239,180.0103,73.96751,189.5155,79.45126 M,0,164239,164282,189.5155,79.45126,199.0207,84.93501 M,0,164282,164325,199.0207,84.93501,208.5259,90.41877 M,0,164325,164368,208.5259,90.41877,218.0311,95.90253 M,0,164368,164411,218.0311,95.90253,227.5362,101.3863 M,0,164411,164454,227.5362,101.3863,237.0414,106.87 M,0,164454,164497,237.0414,106.87,247.2917,105.3253 M,0,164497,164540,247.2917,105.3253,257.7354,101.9563 M,0,164540,164583,257.7354,101.9563,268.179,98.58742 M,0,164583,164626,268.179,98.58742,278.6227,95.21849 M,0,164626,164669,278.6227,95.21849,289.0663,91.84956 M,0,164669,164712,289.0663,91.84956,299.51,88.48064 M,0,164712,164755,299.51,88.48064,309.9537,85.11171 M,0,164755,164799,309.9537,85.11171,320.7994,81.61311 M,0,168938,,344,135 S,0,168938,169626,1.166667,1.4 F,0,168938,,0.7 F,1,169627,170315,0.7,0 C,0,168938,,154,78,78 M,0,168938,168981,344,135,342.9652,144.9222 M,0,168981,169024,342.9652,144.9222,341.9303,154.8444 M,0,169024,169067,341.9303,154.8444,340.8955,164.7665 M,0,169067,169110,340.8955,164.7665,339.8607,174.6887 M,0,169110,169153,339.8607,174.6887,338.8259,184.6109 M,0,169153,169196,338.8259,184.6109,337.791,194.5331 M,0,169196,169239,337.791,194.5331,336.7562,204.4553 M,0,169239,169282,336.7562,204.4553,335.7214,214.3775 M,0,169282,169325,335.7214,214.3775,334.6866,224.2996 M,0,169325,169368,334.6866,224.2996,333.6517,234.2218 M,0,169368,169411,333.6517,234.2218,332.6169,244.144 M,0,169411,169454,332.6169,244.144,331.5821,254.0662 M,0,169454,169497,331.5821,254.0662,330.5472,263.9884 M,0,169497,169540,330.5472,263.9884,329.5124,273.9106 M,0,169540,169583,329.5124,273.9106,328.4776,283.8327 M,0,169583,169627,328.4776,283.8327,327.4029,294.1368 M,0,170317,,202,302 S,0,170317,171005,1.166667,1.4 F,0,170317,,0.7 F,1,170661,171349,0.7,0 C,0,170317,,89,172,255 M,0,170317,170360,202,302,192.7701,298.2482 M,0,170360,170403,192.7701,298.2482,183.2493,295.3337 M,0,170403,170446,183.2493,295.3337,173.5119,293.2782 M,0,170446,170489,173.5119,293.2782,163.6334,292.097 M,0,170489,170532,163.6334,292.097,153.6907,291.799 M,0,170532,170575,153.6907,291.799,143.7483,292.1949 M,0,170575,170618,143.7483,292.1949,133.9197,293.7885 M,0,170618,170661,133.9197,293.7885,124.0325,296.1221 M,0,172386,,492,314 S,0,172386,173074,1.166667,1.4 F,0,172386,,0.7 F,1,173075,173763,0.7,0 C,0,172386,,0,128,128 M,0,172386,172429,492,314,496.3782,322.9536 M,0,172429,172472,496.3782,322.9536,500.0107,332.2296 M,0,172472,172515,500.0107,332.2296,502.8743,341.7668 M,0,172515,172558,502.8743,341.7668,504.9507,351.5024 M,0,172558,172601,504.9507,351.5024,506.2265,361.3723 M,0,172601,172644,506.2265,361.3723,506.6938,371.3115 M,0,172644,172687,506.6938,371.3115,506.3497,381.2548 M,0,172687,172730,506.3497,381.2548,505.4828,391.1802 M,0,172730,172773,505.4828,391.1802,506.6381,381.6622 M,0,172773,172816,506.6381,381.6622,506.6917,371.6952 M,0,172816,172859,506.6917,371.6952,506.2524,361.755 M,0,172859,172902,506.2524,361.755,505.0043,351.8823 M,0,172902,172945,505.0043,351.8823,502.9554,342.1418 M,0,172945,172988,502.9554,342.1418,500.1189,332.5977 M,0,172988,173031,500.1189,332.5977,496.5129,323.3128 M,0,173031,173075,496.5129,323.3128,492,314 M,0,173766,,361,298 S,0,173766,174454,1.166667,1.4 F,0,173766,,0.7 F,1,174800,175488,0.7,0 M,0,173766,173809,361,298,351.6787,301.5482 M,0,173809,173852,351.6787,301.5482,342.1124,304.3678 M,0,173852,173895,342.1124,304.3678,332.3371,306.3404 M,0,173895,173938,332.3371,306.3404,322.417,307.3525 M,0,173938,173981,322.417,307.3525,312.4462,307.3044 M,0,173981,174024,312.4462,307.3044,302.5444,306.1364 M,0,174024,174067,302.5444,306.1364,292.8427,303.8375 M,0,174067,174110,292.8427,303.8375,283.4613,300.46 M,0,174110,174153,283.4613,300.46,274.4942,296.0984 M,0,174153,174196,274.4942,296.0984,265.9982,290.8768 M,0,174196,174239,265.9982,290.8768,257.9951,284.9261 M,0,174239,174282,257.9951,284.9261,250.4796,278.3691 M,0,174282,174325,250.4796,278.3691,243.0561,271.7164 M,0,174325,174368,243.0561,271.7164,234.952,265.9059 M,0,174368,174411,234.952,265.9059,226.2849,260.9765 M,0,174411,174454,226.2849,260.9765,217.1126,257.0687 M,0,174454,174497,217.1126,257.0687,207.5362,254.2959 M,0,174497,174540,207.5362,254.2959,197.6935,252.7091 M,0,174540,174583,197.6935,252.7091,187.7317,252.2947 M,0,174583,174626,187.7317,252.2947,177.7837,252.9769 M,0,174626,174669,177.7837,252.9769,167.9512,254.6409 M,0,174669,174712,167.9512,254.6409,158.3015,257.1603 M,0,174712,174755,158.3015,257.1603,148.8723,260.411 M,0,174755,174800,148.8723,260.411,139.1563,264.5223 M,0,176180,,116,105 S,0,176180,176868,1.166667,1.4 F,1,176180,176868,0.5,0 M,0,179973,,478,327 S,0,179973,180661,1.166667,1.4 F,0,179973,,0.7 F,1,180662,181350,0.7,0 C,0,179973,,154,78,78 M,0,179973,180016,478,327,482.2202,317.9764 M,0,180016,180059,482.2202,317.9764,485.5559,308.5976 M,0,180059,180102,485.5559,308.5976,487.9781,298.9483 M,0,180102,180145,487.9781,298.9483,489.4658,289.1156 M,0,180145,180188,489.4658,289.1156,490.006,279.188 M,0,180188,180231,490.006,279.188,489.8662,269.2358 M,0,180231,180274,489.8662,269.2358,488.3776,259.3905 M,0,180274,180317,488.3776,259.3905,485.956,249.7389 M,0,180317,180360,485.956,249.7389,482.624,240.3675 M,0,180360,180403,482.624,240.3675,478.4122,231.3605 M,0,180403,180446,478.4122,231.3605,473.6319,222.6217 M,0,180446,180489,473.6319,222.6217,467.6689,214.6437 M,0,180489,180532,467.6689,214.6437,460.9752,207.2775 M,0,180532,180575,460.9752,207.2775,453.6118,200.5888 M,0,180575,180618,453.6118,200.5888,445.6453,194.6372 M,0,180618,180662,445.6453,194.6372,437,189 M,0,181352,,314,325 S,0,181352,182040,1.166667,1.4 F,0,181352,,0.7 F,1,181696,182384,0.7,0 M,0,181352,181395,314,325,309.6097,316.0628 M,0,181395,181438,309.6097,316.0628,306.2178,306.7111 M,0,181438,181481,306.2178,306.7111,303.8621,297.0538 M,0,181481,181524,303.8621,297.0538,302.5685,287.2028 M,0,181524,181567,302.5685,287.2028,302.3516,277.2724 M,0,181567,181610,302.3516,277.2724,302.9452,267.3484 M,0,181610,181653,302.9452,267.3484,305.0248,257.6188 M,0,181653,181696,305.0248,257.6188,308.2214,248.0035 M,0,183766,,128,181 S,0,183766,184454,1.166667,1.4 F,1,183766,184454,0.5,0 C,0,183766,,89,172,255 P,0,133421,,A
Sprite,Overlay,Centre,"sb/4.png",0,0 M,0,134455,,347,283 S,0,134455,135143,1.166667,1.4 F,1,134799,135487,0.6,0 C,0,134455,,154,78,78 M,0,134455,134498,347,283,343.5335,292.3432 M,0,134498,134541,343.5335,292.3432,340.9043,301.95 M,0,134541,134584,340.9043,301.95,339.1317,311.7464 M,0,134584,134627,339.1317,311.7464,338.2287,321.657 M,0,134627,134670,338.2287,321.657,338.2017,331.6054 M,0,134670,134713,338.2017,331.6054,339.0506,341.5153 M,0,134713,134756,339.0506,341.5153,340.7684,351.3104 M,0,134756,134799,340.7684,351.3104,343,361 M,0,137214,,179,231 S,0,137214,137902,1.166667,1.4 F,0,137214,,0.6 F,1,137558,138246,0.6,0 C,0,137214,,89,172,255 M,0,137214,137257,179,231,179.4479,221.0341 M,0,137257,137300,179.4479,221.0341,179.8958,211.0681 M,0,137300,137343,179.8958,211.0681,180.3437,201.1022 M,0,137343,137386,180.3437,201.1022,180.7916,191.1362 M,0,137386,137429,180.7916,191.1362,181.2395,181.1703 M,0,137429,137472,181.2395,181.1703,181.6874,171.2044 M,0,137472,137515,181.6874,171.2044,182.1353,161.2384 M,0,137515,137558,182.1353,161.2384,182.5919,151.0807 M,0,139973,,373,297 S,0,139973,140661,1.166667,1.4 F,0,139973,,0.6 F,1,140317,141005,0.6,0 C,0,139973,,0,128,128 M,0,139973,140016,373,297,370.615,306.6803 M,0,140016,140059,370.615,306.6803,368.8365,316.487 M,0,140059,140102,368.8365,316.487,367.6707,326.3828 M,0,140102,140145,367.6707,326.3828,367.122,336.3305 M,0,140145,140188,367.122,336.3305,366.9758,346.3003 M,0,140188,140231,366.9758,346.3003,367.754,356.2395 M,0,140231,140274,367.754,356.2395,369.1476,366.1081 M,0,140274,140317,369.1476,366.1081,371.1985,376.0547 M,0,171007,,157,386 S,0,171007,171695,1.166667,1.4 F,1,171007,171695,0.5,0 C,0,171007,,89,172,255 M,0,182042,,366,171 S,0,182042,182730,1.166667,1.4 F,1,182042,182730,0.5,0 C,0,182042,,154,78,78 M,0,184800,,164,394 S,0,184800,185488,1.166667,1.4 F,0,184800,,0.7 F,1,185834,186522,0.7,0 C,0,184800,,89,172,255 M,0,184800,184843,164,394,173.9615,394.1073 M,0,184843,184886,173.9615,394.1073,183.8835,393.2967 M,0,184886,184929,183.8835,393.2967,193.6836,391.5759 M,0,184929,184972,193.6836,391.5759,203.2802,388.9599 M,0,184972,185015,203.2802,388.9599,212.7006,385.7284 M,0,185015,185058,212.7006,385.7284,221.6049,381.2665 M,0,185058,185101,221.6049,381.2665,230.0547,376.0065 M,0,185101,185144,230.0547,376.0065,237.9801,369.9926 M,0,185144,185187,237.9801,369.9926,245.3155,363.2756 M,0,185187,185230,245.3155,363.2756,252.1778,356.0657 M,0,185230,185273,252.1778,356.0657,258.0522,348.0256 M,0,185273,185316,258.0522,348.0256,263.1575,339.4834 M,0,185316,185359,263.1575,339.4834,267.4521,330.5104 M,0,185359,185402,267.4521,330.5104,270.9005,321.1816 M,0,185402,185445,270.9005,321.1816,273.6599,311.6232 M,0,185445,185488,273.6599,311.6232,275.2037,301.7883 M,0,185488,185531,275.2037,301.7883,275.8342,291.8581 M,0,185531,185574,275.8342,291.8581,275.5467,281.9154 M,0,185574,185617,275.5467,281.9154,274.6263,271.9977 M,0,185617,185660,274.6263,271.9977,272.3819,262.2939 M,0,185660,185703,272.3819,262.2939,269.2548,252.8443 M,0,185703,185746,269.2548,252.8443,265.2718,243.7274 M,0,185746,185789,265.2718,243.7274,260.4667,235.0189 M,0,185789,185834,260.4667,235.0189,254.7003,226.2148 P,0,134455,,A
Sprite,Overlay,Centre,"sb/5.png",0,0 M,0,44110,,478,428 S,1,44110,50990,0.2,3 F,19,44110,52366,1,0 M,0,55145,,200,225 S,1,55145,62025,0.2,3 F,19,55145,63401,1,0 M,0,66179,,315,101 S,1,66179,73059,0.2,3 F,19,66179,74435,1,0 M,0,77214,,353,223 S,1,77214,84094,0.2,3 F,19,77214,85470,1,0 M,0,88248,,371,382 S,7,88248,93752,0.2,2 F,19,88248,93752,1,0 P,0,44110,,A
Sprite,Overlay,Centre,"sb/5.png",0,0 M,0,132386,,111,137 S,1,132386,139266,0.2,3 F,19,132386,140642,1,0 M,0,143421,,574,234 S,1,143421,150301,0.2,3 F,19,143421,151677,1,0 M,0,154455,,134,223 S,1,154455,161335,0.2,3 F,19,154455,162711,1,0 M,0,165490,,463,210 S,1,165490,172370,0.2,3 F,19,165490,173746,1,0 M,0,187559,,123,270 S,1,187559,194439,0.2,3 F,19,187559,195815,1,0 P,0,132386,,A
Sprite,Overlay,Centre,"sb/5.png",0,0 M,0,60662,,88,189 S,7,60662,66166,0.2,2 F,19,60662,66166,1,0 M,0,71697,,283,309 S,7,71697,77201,0.2,2 F,19,71697,77201,1,0 P,0,60662,,A
Sprite,Overlay,Centre,"sb/5.png",0,0 M,0,148938,,425,281 S,7,148938,154442,0.2,2 F,19,148938,154442,1,0 M,0,159973,,533,316 S,7,159973,165477,0.2,2 F,19,159973,165477,1,0 M,0,176524,,197,155 S,7,176524,182028,0.2,2 F,19,176524,182028,1,0 P,0,148938,,A
//Storyboard Sound Samples

[TimingPoints]
-27,344.827586206897,4,2,1,100,1,0
11007,-100,4,2,1,50,0,0
33076,-100,4,2,1,60,0,0
44110,-100,4,2,1,70,0,0
55145,-90.9090909090909,4,2,2,90,0,1
77214,-100,4,2,2,80,0,0
110317,-100,4,2,2,50,0,0
121352,-100,4,2,2,60,0,0
132386,-100,4,2,2,70,0,0
143421,-90.9090909090909,4,2,2,90,0,1
165490,-100,4,2,2,80,0,0

[Colours]
Combo1 : 0,128,128
Combo2 : 255,128,128
Combo3 : 154,78,78
Combo4 : 89,172,255

[HitObjects]
25,98,11007,6,0,L|185:84,1,160,6|8,0:0|0:0,0:0:0:0:
255,148,12041,2,0,L|415:162,1,160,2|0,0:0|0:0,0:0:0:0:
503,199,13076,2,0,P|513:160|504:123,1,80,2|2,0:0|0:0,0:0:0:0:
436,53,13766,6,0,P|359:49|294:106,1,160,2|8,3:2|0:0,0:0:0:0:
259,187,14800,2,0,P|198:137|120:140,1,160,2|2,0:0|0:0,0:0:0:0:
42,196,15835,2,0,L|50:282,1,80,2|2,0:0|0:0,0:0:0:0:
22,367,16524,6,0,B|33:323|101:274|177:294|213:341|213:341|256:324|256:324|302:335,1,320,2|2,3:2|3:2,0:0:0:0:
389,374,18248,1,2,0:0:0:0:
389,374,18593,2,0,L|481:363,1,80,10|2,0:0|0:0,0:0:0:0:
445,270,19283,2,0,B|366:280|366:280|389:212|348:156|348:156|345:35,1,320,2|0,3:2|3:0,0:0:0:0:
268,229,21352,1,8,0:0:0:0:
102,325,22041,6,0,B|81:248|81:248|108:166,1,160,2|8,3:2|0:0,0:0:0:0:
201,156,23076,2,0,B|226:79|226:79|205:2,1,160,2|0,0:0|0:0,0:0:0:0:
109,3,24110,2,0,L|19:13,1,80,10|2,0:0|0:0,0:0:0:0:
47,106,24800,6,0,L|212:116,1,160,2|8,3:2|0:0,0:0:0:0:
273,184,25835,2,0,L|432:174,1,160,2|2,0:0|0:0,0:0:0:0:
497,103,26869,2,0,P|503:55|491:18,1,80,10|2,0:0|0:0,0:0:0:0:
413,76,27559,6,0,B|393:125|422:177|466:198|512:192|512:192|442:231|455:316,1,320,2|2,3:2|3:2,0:0:0:0:
279,223,29628,1,8,0:0:0:0:
158,371,30317,2,0,B|137:257|137:257|84:194|84:194|57:66,1,320,0|0,3:0|3:0,0:0:0:0:
245,120,32386,6,0,P|200:132|164:126,1,80,2|2,0:0|0:0,0:0:0:0:
196,35,33076,1,4,0:0:0:0:
414,372,44110,6,0,L|399:207,1,160,4|0,1:2|1:0,0:0:0:0:
433,122,45145,1,0,1:0:0:0:
367,52,45490,6,0,P|328:45|282:59,1,80,0|0,1:0|1:0,0:0:0:0:
209,107,46179,2,0,P|170:114|124:100,1,80,0|0,1:0|1:0,0:0:0:0:
49,45,46869,6,0,P|87:103|68:192,1,160,0|0,1:0|1:0,0:0:0:0:
1,254,47904,1,0,1:0:0:0:
81,305,48248,2,0,L|165:293,1,80,0|0,1:0|1:0,0:0:0:0:
244,339,48938,2,0,L|323:348,1,80,0|0,1:0|1:0,0:0:0:0:
415,320,49628,6,0,B|437:285|422:243|422:243|404:200|424:162,1,160,0|0,1:0|1:0,0:0:0:0:
480,89,50662,1,0,1:0:0:0:
387,63,51007,2,0,L|290:75,1,80,0|0,1:0|1:0,0:0:0:0:
262,158,51697,2,0,L|359:170,1,80,0|0,1:0|1:0,0:0:0:0:
432,198,52386,6,0,L|480:182,2,40,0|0|0,3:0|3:0|3:0,0:0:0:0:
412,292,53076,2,0,L|458:320,2,40,0|0|0,3:0|3:0|3:0,0:0:0:0:
319,320,53766,2,0,P|202:345|113:265,1,240,0|8,1:0|0:0,0:0:0:0:
136,169,55145,6,0,B|325:158,1,176.000005371094,4|2,3:2|0:0,0:0:0:0:
411,123,56179,1,10,0:0:0:0:
487,196,56524,2,0,P|499:240|489:284,1,88.000002685547,2|8,3:2|0:0,0:0:0:0:
396,330,57214,2,0,P|387:287|399:245,1,88.000002685547,2|8,0:0|0:0,0:0:0:0:
487,196,57904,6,0,P|390:203|332:148,1,176.000005371094,2|0,3:2|0:0,0:0:0:0:
288,59,58938,1,8,0:0:0:0:
218,138,59283,2,0,L|225:229,1,88.000002685547,0|8,3:0|0:0,0:0:0:0:
120,246,59973,2,0,L|126:158,1,88.000002685547,2|10,0:0|0:0,0:0:0:0:
24,133,60662,6,0,L|33:312,1,176.000005371094,4|2,0:0|0:0,0:0:0:0:
115,375,61697,1,10,0:0:0:0:
198,310,62041,2,0,P|247:299|295:312,1,88.000002685547,2|8,3:2|0:0,0:0:0:0:
377,355,62731,2,0,P|426:366|474:353,1,88.000002685547,2|8,0:0|0:0,0:0:0:0:
508,263,63421,6,0,L|491:87,1,176.000005371094,2|0,3:2|0:0,0:0:0:0:
398,37,64455,1,8,0:0:0:0:
328,116,64800,2,0,B|341:149|341:149|333:182|333:182|345:213|345:213|337:242,2,132.00000402832,2|2|10,3:2|0:3|0:0,0:0:0:0:
251,45,66179,6,0,P|325:94|420:65,1,176.000005371094,4|2,3:2|0:0,0:0:0:0:
481,3,67214,1,10,0:0:0:0:
511,104,67559,2,0,L|500:204,1,88.000002685547,2|8,3:2|0:0,0:0:0:0:
414,252,68248,2,0,L|423:339,1,88.000002685547,2|10,0:0|0:0,0:0:0:0:
317,346,68938,6,0,L|299:167,1,176.000005371094,2|0,3:2|0:0,0:0:0:0:
286,65,69973,1,8,0:0:0:0:
190,109,70317,2,0,P|182:69|189:23,2,88.000002685547,0|8|2,3:0|0:0|0:0,0:0:0:0:
279,166,71352,1,10,0:0:0:0:
219,253,71697,6,0,L|34:236,1,176.000005371094,4|2,3:2|0:0,0:0:0:0:
4,138,72731,1,10,0:0:0:0:
96,68,73076,2,0,P|101:114|90:166,1,88.000002685547,2|8,3:2|0:0,0:0:0:0:
43,236,73766,2,0,P|38:282|49:334,1,88.000002685547,2|8,0:0|0:0,0:0:0:0:
140,277,74455,6,0,B|268:271|268:271|339:305|339:305|499:300,1,352.000010742188,2|2,3:2|0:3,0:0:0:0:
378,129,76524,5,2,0:3:0:0:
378,129,76869,1,8,0:0:0:0:
289,167,77214,6,0,L|202:159,2,80,6|10|2,3:2|0:0|0:0,0:0:0:0:
165,313,78593,2,0,L|244:305,2,80,2|10|2,3:2|0:0|0:0,0:0:0:0:
23,182,79973,6,0,P|14:144|22:103,1,80,2|10,3:2|0:0,0:0:0:0:
93,40,80662,2,0,P|169:40|225:104,1,160,2|2,0:0|3:2,0:0:0:0:
205,192,81697,5,10,0:0:0:0:
112,217,82041,2,0,L|31:212,1,80,2|10,0:0|0:0,0:0:0:0:
64,302,82731,1,2,3:2:0:0:
160,299,83076,2,0,L|329:283,1,160,10|8,0:0|0:0,0:0:0:0:
399,231,84110,6,0,P|414:288|411:316,2,80,2|10|2,3:2|0:0|0:0,0:0:0:0:
313,186,85145,1,10,0:0:0:0:
229,138,85490,2,0,B|293:165|343:115|343:115|390:74|456:107,1,240,2|10,3:2|0:0,0:0:0:0:
504,185,86869,2,0,L|480:351,1,160,2|2,3:2|0:0,0:0:0:0:
390,374,87904,1,10,0:0:0:0:
307,326,88248,6,0,P|268:320|221:330,2,80,6|10|2,3:2|0:0|0:0,0:0:0:0:
431,179,89628,2,0,P|470:185|517:175,2,80,2|10|2,3:2|0:0|0:0,0:0:0:0:
288,50,91007,6,0,L|298:144,1,80,2|10,3:2|0:0,0:0:0:0:
250,214,91697,2,0,P|288:249|289:354,1,160,2|2,0:0|3:2,0:0:0:0:
208,300,92731,1,10,0:0:0:0:
123,345,93076,2,0,P|111:304|122:257,1,80,2|10,0:0|0:0,0:0:0:0:
171,188,93766,1,2,3:2:0:0:
97,126,94110,6,0,L|350:144,1,240,10|2,0:0|3:2,0:0:0:0:
432,143,95490,1,10,0:0:0:0:
490,219,95835,2,0,P|491:264|480:305,1,80,2|10,0:0|0:0,0:0:0:0:
404,351,96524,2,0,L|164:332,1,240,2|2,3:2|0:0,0:0:0:0:
83,280,97904,6,0,P|93:219|63:159,2,120,2|2|8,0:3|0:3|0:0,0:0:0:0:
14,347,99283,5,4,0:0:0:0:
48,157,110317,6,0,P|122:138|208:172,1,160,2|0,0:0|0:0,0:0:0:0:
256,241,111352,2,0,P|330:260|416:226,1,160,2|0,0:0|0:0,0:0:0:0:
458,152,112386,6,0,L|468:64,1,80,2|2,0:0|0:0,0:0:0:0:
380,30,113076,2,0,L|365:165,1,120,2|2,0:0|0:0,0:0:0:0:
404,288,114110,2,0,P|305:307|374:378,1,240,2|0,0:0|0:0,0:0:0:0:
431,196,115835,6,0,B|345:155|273:202|273:202|203:175|203:175|114:194,1,320,2|0,0:0|0:0,0:0:0:0:
96,282,117559,2,0,P|109:312|108:360,1,80,2|0,0:0|0:0,0:0:0:0:
15,334,118248,1,2,0:0:0:0:
256,192,118593,12,4,121352,0:0:0:0:
47,81,132386,6,0,B|113:76|113:76|140:86|140:86|207:80,1,160,4|0,1:2|1:0,0:0:0:0:
276,15,133421,1,0,1:0:0:0:
346,79,133766,2,0,P|355:123|346:165,1,80,0|0,1:0|1:0,0:0:0:0:
283,227,134455,2,0,P|274:265|279:305,1,80,0|0,1:0|1:0,0:0:0:0:
340,379,135145,6,0,P|271:339|181:360,1,160,0|0,1:0|1:0,0:0:0:0:
104,383,136179,1,0,1:0:0:0:
40,311,136524,2,0,L|36:222,1,80,0|0,1:0|1:0,0:0:0:0:
115,175,137214,2,0,L|119:86,1,80,0|0,1:0|1:0,0:0:0:0:
71,11,137904,6,0,P|147:61|224:48,1,160,0|0,1:0|1:0,0:0:0:0:
296,7,138938,1,0,1:0:0:0:
357,80,139283,2,0,P|363:130|356:170,1,80,0|0,1:0|1:0,0:0:0:0:
309,241,139973,2,0,P|303:291|310:331,1,80,0|0,1:0|1:0,0:0:0:0:
389,370,140662,6,0,L|439:369,2,40,0|0|0,3:0|3:0|3:0,0:0:0:0:
388,273,141352,2,0,L|424:255,2,40,0|0|0,3:0|3:0|3:0,0:0:0:0:
300,233,142041,2,0,P|326:125|445:89,1,240,0|8,1:0|0:0,0:0:0:0:
510,178,143421,6,0,L|499:317,2,132.00000402832,4|2|10,3:2|3:2|0:0,0:0:0:0:
429,109,144800,2,0,P|384:99|344:109,1,88.000002685547,2|8,3:2|0:0,0:0:0:0:
263,178,145490,2,0,P|218:188|178:178,1,88.000002685547,2|8,0:0|0:0,0:0:0:0:
125,86,146179,2,0,P|151:20|209:-1,2,132.00000402832,2|0|8,3:2|3:0|0:0,0:0:0:0:
166,183,147559,6,0,L|160:275,1,88.000002685547,0|8,3:0|0:0,0:0:0:0:
263,292,148248,2,0,L|257:204,1,88.000002685547,2|10,0:0|0:0,0:0:0:0:
361,225,148938,2,0,L|353:372,2,132.00000402832,4|2|10,3:2|3:2|0:0,0:0:0:0:
437,151,150317,6,0,P|445:104|435:58,1,88.000002685547,2|8,3:2|0:0,0:0:0:0:
340,22,151007,2,0,P|332:65|340:108,1,88.000002685547,2|8,0:0|0:0,0:0:0:0:
437,151,151697,2,0,P|360:143|304:218,1,176.000005371094,2|0,3:2|0:0,0:0:0:0:
353,308,152731,1,8,0:0:0:0:
253,343,153076,2,0,L|73:329,1,176.000005371094,2|2,3:2|0:3,0:0:0:0:
6,251,154110,1,8,0:0:0:0:
70,167,154455,6,0,P|89:105|59:34,2,132.00000402832,4|2|10,3:2|3:2|0:0,0:0:0:0:
135,250,155835,2,0,L|235:243,1,88.000002685547,2|8,3:2|0:0,0:0:0:0:
319,201,156524,2,0,L|406:207,1,88.000002685547,2|10,0:0|0:0,0:0:0:0:
427,311,157214,6,0,L|290:321,2,132.00000402832,2|0|8,3:2|3:0|0:0,0:0:0:0:
501,235,158593,2,0,P|506:190|493:140,1,88.000002685547,0|8,3:0|0:0,0:0:0:0:
401,98,159283,2,0,P|391:141|397:185,1,88.000002685547,2|10,0:0|0:0,0:0:0:0:
469,260,159973,6,0,P|492:327|462:397,2,132.00000402832,4|2|10,3:2|3:2|0:0,0:0:0:0:
375,297,161352,2,0,L|272:300,1,88.000002685547,2|8,3:2|0:0,0:0:0:0:
198,241,162041,2,0,L|110:238,1,88.000002685547,2|8,0:0|0:0,0:0:0:0:
12,279,162731,6,0,P|73:238|68:143,1,176.000005371094,2|2,3:2|0:0,0:0:0:0:
5,58,163766,1,2,0:0:0:0:
97,7,164110,2,0,B|175:52|175:52|268:22,1,176.000005371094,2|2,0:3|0:3,0:0:0:0:
399,154,165490,6,0,L|406:247,2,80,6|10|2,3:2|0:0|0:0,0:0:0:0:
271,297,166869,2,0,L|277:217,2,80,2|10|2,3:2|0:0|0:0,0:0:0:0:
194,120,168249,6,0,P|185:82|193:41,1,80,2|10,3:2|0:0,0:0:0:0:
280,79,168938,2,0,L|263:242,1,160,2|2,0:0|3:2,0:0:0:0:
204,314,169973,5,10,0:0:0:0:
138,246,170317,2,0,P|102:236|57:241,1,80,2|10,0:0|0:0,0:0:0:0:
93,330,171007,1,2,3:2:0:0:
188,326,171352,2,0,L|357:310,1,160,10|8,0:0|0:0,0:0:0:0:
428,258,172386,6,0,P|443:315|440:343,2,80,2|10|0,3:2|0:0|0:0,0:0:0:0:
370,180,173421,1,10,0:0:0:0:
297,242,173766,2,0,B|233:269|183:219|183:219|136:178|70:211,1,240,2|10,3:2|0:0,0:0:0:0:
34,295,175145,2,0,L|11:136,1,160,2|2,3:2|0:0,0:0:0:0:
52,49,176180,1,10,0:0:0:0:
133,99,176524,6,0,P|172:105|219:95,2,80,6|10|2,3:2|0:0|0:0,0:0:0:0:
83,285,177904,2,0,P|44:279|-3:289,2,80,2|10|2,3:2|0:0|0:0,0:0:0:0:
264,349,179283,6,0,L|356:334,1,80,2|10,3:2|0:0,0:0:0:0:
414,271,179973,2,0,P|422:193|373:133,1,160,2|2,0:0|3:2,0:0:0:0:
334,221,181007,1,10,0:0:0:0:
250,269,181352,2,0,P|238:228|249:181,1,80,2|10,0:0|0:0,0:0:0:0:
302,115,182042,1,2,3:2:0:0:
389,154,182386,6,0,L|136:172,1,240,10|2,0:0|3:2,0:0:0:0:
64,125,183766,1,10,0:0:0:0:
15,207,184111,2,0,P|11:251|25:293,1,80,2|10,0:0|0:0,0:0:0:0:
100,338,184800,2,0,P|165:321|181:159,1,240,2|2,3:2|0:0,0:0:0:0:
103,129,186180,6,0,L|83:8,2,120,2|2|8,0:3|0:3|0:0,0:0:0:0:
59,214,187559,5,4,0:0:0:0:
