osu file format v14

[General]
AudioFilename: audio.mp3
AudioLeadIn: 0
PreviewTime: 55116
Countdown: 0
SampleSet: Soft
StackLeniency: 0.7
Mode: 0
LetterboxInBreaks: 0
EpilepsyWarning: 1
WidescreenStoryboard: 1

[Editor]
Bookmarks: 187552
DistanceSpacing: 0.5
BeatDivisor: 4
GridSize: 32
TimelineZoom: 2.9

[Metadata]
Title:Living in a Dream (feat. Natalie Major) (Feint Remix)
TitleUnicode:Living in a Dream (feat. Natalie Major) (Feint Remix)
Artist:Quinn Karter
ArtistUnicode:Quinn Karter
Creator:Asphyxia
Version:Kyshiro's Extra
Source:
Tags:Liquicity dnb d&b drum and bass collab collaboration Apis035 -Ady koleiker kolikiscool riffy kyshiro bakari electronic english
BeatmapID:3336618
BeatmapSetID:1602640

[Difficulty]
HPDrainRate:5
CircleSize:4
OverallDifficulty:8.8
ApproachRate:9
SliderMultiplier:1.72
SliderTickRate:1

[Events]
//Background and Video events
0,0,"newbg.png",0,0
//Break Periods
2,33766,40752
2,100317,109717
2,122041,129028
//Storyboard Layer 0 (Background)
//Storyboard Layer 1 (Fail)
//Storyboard Layer 2 (Pass)
//Storyboard Layer 3 (Foreground)
Sprite,Foreground,Centre,"sb/p.png",0,0 M,0,45490,,487,162 R,0,45490,,1.001713 V,13,45490,46866,1400,52.5,1400,0 F,19,45490,46866,0.3,0.05 M,0,46869,,420,381 R,0,46869,,1.897539 V,13,46869,48245,1400,52.5,1400,0 F,19,46869,48245,0.3,0.05 M,0,48248,,185,270 R,0,48248,,-0.8329813 V,13,48248,49624,1400,52.5,1400,0 F,19,48248,49624,0.3,0.05 M,0,49628,,508,251 R,0,49628,,1.318806 V,13,49628,51004,1400,52.5,1400,0 F,19,49628,51004,0.3,0.05 M,0,51007,,499,115 R,0,51007,,0.9012563 V,13,51007,52383,1400,52.5,1400,0 F,19,51007,52383,0.3,0.05 M,0,52386,,231,243 R,0,52386,,1.706542 V,13,52386,53762,1400,35,1400,0 F,19,52386,53762,0.4,0.05 M,0,57904,,206,138 R,0,57904,,1.857326 V,13,57904,59280,1400,35,1400,0 F,19,57904,59280,0.4,0.05 M,0,59283,,328,260 R,0,59283,,1.788218 V,13,59283,60659,1400,52.5,1400,0 F,19,59283,60659,0.7200001,0.05 M,0,60662,,337,83 R,0,60662,,1.760941 V,13,60662,62038,1400,52.5,1400,0 F,19,60662,62038,0.8,0.05 M,0,63421,,248,349 R,0,63421,,1.779627 V,13,63421,64797,1400,35,1400,0 F,19,63421,64797,0.4,0.05 M,0,64800,,163,291 R,0,64800,,1.319462 V,13,64800,66176,1400,52.5,1400,0 F,19,64800,66176,0.7200001,0.05 M,0,66179,,468,328 R,0,66179,,1.70038 V,13,66179,67555,1400,52.5,1400,0 F,19,66179,67555,0.8,0.05 M,0,68938,,435,157 R,0,68938,,1.342171 V,13,68938,70314,1400,35,1400,0 F,19,68938,70314,0.4,0.05 M,0,70317,,467,255 R,0,70317,,1.51684 V,13,70317,71693,1400,52.5,1400,0 F,19,70317,71693,0.7200001,0.05 M,0,71697,,280,228 R,0,71697,,1.785728 V,13,71697,73073,1400,52.5,1400,0 F,19,71697,73073,0.8,0.05 M,0,74455,,399,232 R,0,74455,,1.678646 V,13,74455,75831,1400,35,1400,0 F,19,74455,75831,0.4,0.05 P,0,45490,,A
Sprite,Foreground,Centre,"sb/p.png",0,0 M,0,45835,,533,235 R,0,45835,,1.288445 V,13,45835,47211,1400,52.5,1400,0 F,19,45835,47211,0.3,0.05 M,0,48593,,213,228 R,0,48593,,-0.2854629 V,13,48593,49969,1400,52.5,1400,0 F,19,48593,49969,0.3,0.05 M,0,51352,,406,98 R,0,51352,,0.6420581 V,13,51352,52728,1400,52.5,1400,0 F,19,51352,52728,0.3,0.05 M,0,52731,,243,157 R,0,52731,,1.73161 V,13,52731,54107,1400,43.75,1400,0 F,19,52731,54107,0.48,0.05 M,0,58076,,253,311 R,0,58076,,1.435019 V,13,58076,59452,1400,39.375,1400,0 F,19,58076,59452,0.44,0.05 M,0,59455,,328,260 R,0,59455,,1.688218 V,13,59455,60831,1400,52.5,1400,0 F,19,59455,60831,0.7600001,0.05 M,0,63593,,306,193 R,0,63593,,1.865938 V,13,63593,64969,1400,39.375,1400,0 F,19,63593,64969,0.44,0.05 M,0,64973,,360,259 R,0,64973,,1.383071 V,13,64973,66349,1400,52.5,1400,0 F,19,64973,66349,0.7600001,0.05 M,0,69110,,284,191 R,0,69110,,1.434867 V,13,69110,70486,1400,39.375,1400,0 F,19,69110,70486,0.44,0.05 M,0,70490,,520,104 R,0,70490,,1.702032 V,13,70490,71866,1400,52.5,1400,0 F,19,70490,71866,0.7600001,0.05 M,0,74628,,322,207 R,0,74628,,1.645716 V,13,74628,76004,1400,39.375,1400,0 F,19,74628,76004,0.44,0.05 P,0,45835,,A
Sprite,Foreground,Centre,"sb/p.png",0,0 M,0,46179,,486,311 R,0,46179,,1.534227 V,13,46179,47555,1400,52.5,1400,0 F,19,46179,47555,0.3,0.05 M,0,48938,,353,260 R,0,48938,,1.082678 V,13,48938,50314,1400,52.5,1400,0 F,19,48938,50314,0.3,0.05 M,0,51697,,336,174 R,0,51697,,0.5816535 V,13,51697,53073,1400,52.5,1400,0 F,19,51697,53073,0.3,0.05 M,0,53076,,401,262 R,0,53076,,1.394416 V,13,53076,54452,1400,52.5,1400,0 F,19,53076,54452,0.56,0.05 M,0,58248,,226,149 R,0,58248,,1.44594 V,13,58248,59624,1400,43.75,1400,0 F,19,58248,59624,0.48,0.05 M,0,59628,,133,198 R,0,59628,,1.868005 V,13,59628,61004,1400,52.5,1400,0 F,19,59628,61004,0.8,0.05 M,0,63766,,248,349 R,0,63766,,1.290371 V,13,63766,65142,1400,43.75,1400,0 F,19,63766,65142,0.48,0.05 M,0,65145,,396,253 R,0,65145,,1.449099 V,13,65145,66521,1400,52.5,1400,0 F,19,65145,66521,0.8,0.05 M,0,69283,,435,157 R,0,69283,,1.815055 V,13,69283,70659,1400,43.75,1400,0 F,19,69283,70659,0.48,0.05 M,0,70662,,364,200 R,0,70662,,1.642694 V,13,70662,72038,1400,52.5,1400,0 F,19,70662,72038,0.8,0.05 M,0,74714,,322,207 R,0,74714,,1.545716 V,13,74714,76090,1400,43.75,1400,0 F,19,74714,76090,0.48,0.05 P,0,46179,,A
Sprite,Foreground,Centre,"sb/p.png",0,0 M,0,46524,,532,384 R,0,46524,,1.786563 V,13,46524,47900,1400,52.5,1400,0 F,19,46524,47900,0.3,0.05 M,0,49283,,381,218 R,0,49283,,0.9445349 V,13,49283,50659,1400,52.5,1400,0 F,19,49283,50659,0.3,0.05 M,0,52042,,243,157 R,0,52042,,0.01840283 V,13,52042,53418,1400,52.5,1400,0 F,19,52042,53418,0.3,0.05 M,0,53421,,413,176 R,0,53421,,1.814413 V,13,53421,54797,1400,52.5,1400,0 F,19,53421,54797,0.64,0.05 M,0,58420,,232,299 R,0,58420,,1.551185 V,13,58420,59796,1400,48.125,1400,0 F,19,58420,59796,0.52,0.05 M,0,59800,,133,198 R,0,59800,,1.768005 V,13,59800,61176,1400,52.5,1400,0 F,19,59800,61176,0.8,0.05 M,0,63938,,306,193 R,0,63938,,1.690762 V,13,63938,65314,1400,48.125,1400,0 F,19,63938,65314,0.52,0.05 M,0,65317,,191,180 R,0,65317,,1.863923 V,13,65317,66693,1400,52.5,1400,0 F,19,65317,66693,0.8,0.05 M,0,69455,,284,191 R,0,69455,,1.747656 V,13,69455,70831,1400,48.125,1400,0 F,19,69455,70831,0.52,0.05 M,0,70835,,417,351 R,0,70835,,1.563577 V,13,70835,72211,1400,52.5,1400,0 F,19,70835,72211,0.8,0.05 M,0,74800,,322,207 R,0,74800,,1.445716 V,13,74800,76176,1400,48.125,1400,0 F,19,74800,76176,0.52,0.05 P,0,46524,,A
Sprite,Foreground,Centre,"sb/p.png",0,0 M,0,52559,,148,235 R,0,52559,,1.761192 V,13,52559,53935,1400,39.375,1400,0 F,19,52559,53935,0.44,0.05 M,0,58593,,242,171 R,0,58593,,1.650392 V,13,58593,59969,1400,52.5,1400,0 F,19,58593,59969,0.56,0.05 M,0,59973,,231,293 R,0,59973,,1.677105 V,13,59973,61349,1400,52.5,1400,0 F,19,59973,61349,0.8,0.05 M,0,64110,,248,349 R,0,64110,,1.586567 V,13,64110,65486,1400,52.5,1400,0 F,19,64110,65486,0.56,0.05 M,0,65490,,228,182 R,0,65490,,1.728575 V,13,65490,66866,1400,52.5,1400,0 F,19,65490,66866,0.8,0.05 M,0,69628,,435,157 R,0,69628,,1.473093 V,13,69628,71004,1400,52.5,1400,0 F,19,69628,71004,0.56,0.05 M,0,71007,,443,176 R,0,71007,,1.387744 V,13,71007,72383,1400,52.5,1400,0 F,19,71007,72383,0.8,0.05 M,0,74973,,322,127 R,0,74973,,1.40184 V,13,74973,76349,1400,52.5,1400,0 F,19,74973,76349,0.56,0.05 P,0,52559,,A
Sprite,Foreground,Centre,"sb/p.png",0,0 M,0,52904,,326,165 R,0,52904,,1.605693 V,13,52904,54280,1400,48.125,1400,0 F,19,52904,54280,0.52,0.05 M,0,58765,,216,277 R,0,58765,,1.552503 V,13,58765,60141,1400,52.5,1400,0 F,19,58765,60141,0.6,0.05 M,0,60145,,231,293 R,0,60145,,1.577105 V,13,60145,61521,1400,52.5,1400,0 F,19,60145,61521,0.8,0.05 M,0,64282,,306,193 R,0,64282,,1.831208 V,13,64282,65658,1400,52.5,1400,0 F,19,64282,65658,0.6,0.05 M,0,65662,,264,184 R,0,65662,,1.499399 V,13,65662,67038,1400,52.5,1400,0 F,19,65662,67038,0.8,0.05 M,0,69800,,284,191 R,0,69800,,1.545122 V,13,69800,71176,1400,52.5,1400,0 F,19,69800,71176,0.6,0.05 M,0,71180,,292,123 R,0,71180,,1.797711 V,13,71180,72556,1400,52.5,1400,0 F,19,71180,72556,0.8,0.05 M,0,75146,,399,102 R,0,75146,,1.808014 V,13,75146,76522,1400,52.5,1400,0 F,19,75146,76522,0.6,0.05 P,0,52904,,A
Sprite,Foreground,Centre,"sb/p.png",0,0 M,0,53249,,318,254 R,0,53249,,1.606127 V,13,53249,54625,1400,52.5,1400,0 F,19,53249,54625,0.6,0.05 M,0,58938,,254,196 R,0,58938,,1.860087 V,13,58938,60314,1400,52.5,1400,0 F,19,58938,60314,0.64,0.05 M,0,60318,,426,231 R,0,60318,,1.459551 V,13,60318,61694,1400,52.5,1400,0 F,19,60318,61694,0.8,0.05 M,0,64455,,248,349 R,0,64455,,1.683368 V,13,64455,65831,1400,52.5,1400,0 F,19,64455,65831,0.64,0.05 M,0,65835,,336,362 R,0,65835,,1.476681 V,13,65835,67211,1400,52.5,1400,0 F,19,65835,67211,0.8,0.05 M,0,69973,,435,157 R,0,69973,,1.358891 V,13,69973,71349,1400,52.5,1400,0 F,19,69973,71349,0.64,0.05 M,0,71352,,388,279 R,0,71352,,1.76605 V,13,71352,72728,1400,52.5,1400,0 F,19,71352,72728,0.8,0.05 M,0,75231,,399,102 R,0,75231,,1.708014 V,13,75231,76607,1400,52.5,1400,0 F,19,75231,76607,0.64,0.05 P,0,53249,,A
Sprite,Foreground,Centre,"sb/p.png",0,0 M,0,53594,,496,184 R,0,53594,,1.536103 V,13,53594,54970,1400,52.5,1400,0 F,19,53594,54970,0.6800001,0.05 M,0,59110,,204,252 R,0,59110,,1.289016 V,13,59110,60486,1400,52.5,1400,0 F,19,59110,60486,0.6800001,0.05 M,0,60490,,426,231 R,0,60490,,1.359551 V,13,60490,61866,1400,52.5,1400,0 F,19,60490,61866,0.8,0.05 M,0,64627,,306,193 R,0,64627,,1.598886 V,13,64627,66003,1400,52.5,1400,0 F,19,64627,66003,0.6800001,0.05 M,0,66007,,434,332 R,0,66007,,1.845269 V,13,66007,67383,1400,52.5,1400,0 F,19,66007,67383,0.8,0.05 M,0,70145,,284,191 R,0,70145,,1.403585 V,13,70145,71521,1400,52.5,1400,0 F,19,70145,71521,0.6800001,0.05 M,0,71525,,539,226 R,0,71525,,1.712035 V,13,71525,72901,1400,52.5,1400,0 F,19,71525,72901,0.8,0.05 M,0,75317,,399,102 R,0,75317,,1.608014 V,13,75317,76693,1400,52.5,1400,0 F,19,75317,76693,0.6800001,0.05 P,0,53594,,A
Sprite,Foreground,Centre,"sb/p.png",0,0 M,0,65059,,378,256 R,0,65059,,1.542793 V,13,65059,66435,1400,52.5,1400,0 F,19,65059,66435,0.8,0.05 M,0,75490,,446,167 R,0,75490,,1.80866 V,13,75490,76866,1400,52.5,1400,0 F,19,75490,76866,0.7200001,0.05 P,0,65059,,A
Sprite,Foreground,Centre,"sb/p.png",0,0 M,0,65404,,210,181 R,0,65404,,1.656415 V,13,65404,66780,1400,52.5,1400,0 F,19,65404,66780,0.8,0.05 M,0,75662,,399,232 R,0,75662,,1.322744 V,13,75662,77038,1400,52.5,1400,0 F,19,75662,77038,0.7600001,0.05 P,0,65404,,A
Sprite,Foreground,Centre,"sb/p.png",0,0 M,0,65576,,246,183 R,0,65576,,1.289033 V,13,65576,66952,1400,52.5,1400,0 F,19,65576,66952,0.8,0.05 P,0,65576,,A
Sprite,Foreground,Centre,"sb/p.png",0,0 M,0,66093,,451,330 R,0,66093,,1.573874 V,13,66093,67469,1400,52.5,1400,0 F,19,66093,67469,0.8,0.05 P,0,66093,,A
Sprite,Foreground,Centre,"sb/p.png",0,0 M,0,133766,,389,177 R,0,133766,,0.8059432 V,13,133766,135142,1400,52.5,1400,0 F,19,133766,135142,0.3,0.05 M,0,135145,,349,394 R,0,135145,,2.16722 V,13,135145,136521,1400,52.5,1400,0 F,19,135145,136521,0.3,0.05 M,0,136524,,299,261 R,0,136524,,0.7853982 V,13,136524,137900,1400,52.5,1400,0 F,19,136524,137900,0.3,0.05 M,0,137904,,491,217 R,0,137904,,1.181392 V,13,137904,139280,1400,52.5,1400,0 F,19,137904,139280,0.3,0.05 M,0,139283,,173,241 R,0,139283,,-0.7033907 V,13,139283,140659,1400,52.5,1400,0 F,19,139283,140659,0.3,0.05 M,0,140662,,487,221 R,0,140662,,1.773944 V,13,140662,142038,1400,35,1400,0 F,19,140662,142038,0.4,0.05 M,0,146179,,282,267 R,0,146179,,1.702632 V,13,146179,147555,1400,35,1400,0 F,19,146179,147555,0.4,0.05 M,0,147559,,425,229 R,0,147559,,1.556882 V,13,147559,148935,1400,52.5,1400,0 F,19,147559,148935,0.7200001,0.05 M,0,148938,,277,249 R,0,148938,,1.551835 V,13,148938,150314,1400,52.5,1400,0 F,19,148938,150314,0.8,0.05 M,0,151697,,239,350 R,0,151697,,1.770895 V,13,151697,153073,1400,35,1400,0 F,19,151697,153073,0.4,0.05 M,0,153076,,417,260 R,0,153076,,1.47035 V,13,153076,154452,1400,52.5,1400,0 F,19,153076,154452,0.7200001,0.05 M,0,154455,,184,207 R,0,154455,,1.449033 V,13,154455,155831,1400,52.5,1400,0 F,19,154455,155831,0.8,0.05 M,0,157214,,182,203 R,0,157214,,1.827379 V,13,157214,158590,1400,35,1400,0 F,19,157214,158590,0.4,0.05 M,0,158593,,212,116 R,0,158593,,1.33498 V,13,158593,159969,1400,52.5,1400,0 F,19,158593,159969,0.7200001,0.05 M,0,159973,,262,99 R,0,159973,,1.641706 V,13,159973,161349,1400,52.5,1400,0 F,19,159973,161349,0.8,0.05 M,0,162731,,99,379 R,0,162731,,1.273846 V,13,162731,164107,1400,35,1400,0 F,19,162731,164107,0.4,0.05 P,0,133766,,A
Sprite,Foreground,Centre,"sb/p.png",0,0 M,0,134110,,517,206 R,0,134110,,1.180371 V,13,134110,135486,1400,52.5,1400,0 F,19,134110,135486,0.3,0.05 M,0,136869,,345,342 R,0,136869,,1.777332 V,13,136869,138245,1400,52.5,1400,0 F,19,136869,138245,0.3,0.05 M,0,139628,,191,277 R,0,139628,,-0.8505234 V,13,139628,141004,1400,52.5,1400,0 F,19,139628,141004,0.3,0.05 M,0,141007,,410,257 R,0,141007,,1.657266 V,13,141007,142383,1400,43.75,1400,0 F,19,141007,142383,0.48,0.05 M,0,146352,,299,107 R,0,146352,,1.756474 V,13,146352,147728,1400,39.375,1400,0 F,19,146352,147728,0.44,0.05 M,0,147731,,425,229 R,0,147731,,1.456882 V,13,147731,149107,1400,52.5,1400,0 F,19,147731,149107,0.7600001,0.05 M,0,151869,,186,189 R,0,151869,,1.756319 V,13,151869,153245,1400,39.375,1400,0 F,19,151869,153245,0.44,0.05 M,0,153335,,275,253 R,0,153335,,1.44283 V,13,153335,154711,1400,52.5,1400,0 F,19,153335,154711,0.7600001,0.05 M,0,157386,,355,249 R,0,157386,,1.403602 V,13,157386,158762,1400,39.375,1400,0 F,19,157386,158762,0.44,0.05 M,0,158766,,153,289 R,0,158766,,1.636719 V,13,158766,160142,1400,52.5,1400,0 F,19,158766,160142,0.7600001,0.05 M,0,162904,,232,207 R,0,162904,,1.48736 V,13,162904,164280,1400,39.375,1400,0 F,19,162904,164280,0.44,0.05 P,0,134110,,A
Sprite,Foreground,Centre,"sb/p.png",0,0 M,0,134455,,348,270 R,0,134455,,1.137215 V,13,134455,135831,1400,52.5,1400,0 F,19,134455,135831,0.3,0.05 M,0,137214,,454,347 R,0,137214,,1.696301 V,13,137214,138590,1400,52.5,1400,0 F,19,137214,138590,0.3,0.05 M,0,139973,,341,217 R,0,139973,,0.7755945 V,13,139973,141349,1400,52.5,1400,0 F,19,139973,141349,0.3,0.05 M,0,141352,,251,234 R,0,141352,,1.402309 V,13,141352,142728,1400,52.5,1400,0 F,19,141352,142728,0.56,0.05 M,0,146524,,294,257 R,0,146524,,1.331358 V,13,146524,147900,1400,43.75,1400,0 F,19,146524,147900,0.48,0.05 M,0,147904,,299,335 R,0,147904,,1.595273 V,13,147904,149280,1400,52.5,1400,0 F,19,147904,149280,0.8,0.05 M,0,152041,,239,350 R,0,152041,,1.746975 V,13,152041,153417,1400,43.75,1400,0 F,19,152041,153417,0.48,0.05 M,0,153421,,275,253 R,0,153421,,1.34283 V,13,153421,154797,1400,52.5,1400,0 F,19,153421,154797,0.8,0.05 M,0,157559,,182,203 R,0,157559,,1.828021 V,13,157559,158935,1400,43.75,1400,0 F,19,157559,158935,0.48,0.05 M,0,158938,,259,268 R,0,158938,,1.842622 V,13,158938,160314,1400,52.5,1400,0 F,19,158938,160314,0.8,0.05 M,0,162990,,234,224 R,0,162990,,1.781087 V,13,162990,164366,1400,43.75,1400,0 F,19,162990,164366,0.48,0.05 P,0,134455,,A
Sprite,Foreground,Centre,"sb/p.png",0,0 M,0,134800,,476,299 R,0,134800,,1.482047 V,13,134800,136176,1400,52.5,1400,0 F,19,134800,136176,0.3,0.05 M,0,137559,,408,266 R,0,137559,,1.259798 V,13,137559,138935,1400,52.5,1400,0 F,19,137559,138935,0.3,0.05 M,0,140318,,359,253 R,0,140318,,1.058008 V,13,140318,141694,1400,52.5,1400,0 F,19,140318,141694,0.3,0.05 M,0,141697,,174,198 R,0,141697,,1.559616 V,13,141697,143073,1400,52.5,1400,0 F,19,141697,143073,0.64,0.05 M,0,146697,,286,116 R,0,146697,,1.708253 V,13,146697,148073,1400,48.125,1400,0 F,19,146697,148073,0.52,0.05 M,0,148076,,299,335 R,0,148076,,1.495273 V,13,148076,149452,1400,52.5,1400,0 F,19,148076,149452,0.8,0.05 M,0,152213,,186,189 R,0,152213,,1.7295 V,13,152213,153589,1400,48.125,1400,0 F,19,152213,153589,0.52,0.05 M,0,153593,,402,153 R,0,153593,,1.763162 V,13,153593,154969,1400,52.5,1400,0 F,19,153593,154969,0.8,0.05 M,0,157731,,355,249 R,0,157731,,1.310709 V,13,157731,159107,1400,48.125,1400,0 F,19,157731,159107,0.52,0.05 M,0,159111,,86,209 R,0,159111,,1.565171 V,13,159111,160487,1400,52.5,1400,0 F,19,159111,160487,0.8,0.05 M,0,163076,,236,241 R,0,163076,,1.308181 V,13,163076,164452,1400,48.125,1400,0 F,19,163076,164452,0.52,0.05 P,0,134800,,A
Sprite,Foreground,Centre,"sb/p.png",0,0 M,0,140835,,418,147 R,0,140835,,1.372882 V,13,140835,142211,1400,39.375,1400,0 F,19,140835,142211,0.44,0.05 M,0,146869,,302,243 R,0,146869,,1.701867 V,13,146869,148245,1400,52.5,1400,0 F,19,146869,148245,0.56,0.05 M,0,148248,,369,118 R,0,148248,,1.466097 V,13,148248,149624,1400,52.5,1400,0 F,19,148248,149624,0.8,0.05 M,0,152386,,239,350 R,0,152386,,1.833321 V,13,152386,153762,1400,52.5,1400,0 F,19,152386,153762,0.56,0.05 M,0,153766,,450,148 R,0,153766,,1.382919 V,13,153766,155142,1400,52.5,1400,0 F,19,153766,155142,0.8,0.05 M,0,157904,,182,203 R,0,157904,,1.810859 V,13,157904,159280,1400,52.5,1400,0 F,19,157904,159280,0.56,0.05 M,0,159283,,229,355 R,0,159283,,1.35963 V,13,159283,160659,1400,52.5,1400,0 F,19,159283,160659,0.8,0.05 M,0,163248,,339,138 R,0,163248,,1.439785 V,13,163248,164624,1400,52.5,1400,0 F,19,163248,164624,0.56,0.05 P,0,140835,,A
Sprite,Foreground,Centre,"sb/p.png",0,0 M,0,141180,,341,331 R,0,141180,,1.766885 V,13,141180,142556,1400,48.125,1400,0 F,19,141180,142556,0.52,0.05 M,0,147042,,278,130 R,0,147042,,1.346113 V,13,147042,148418,1400,52.5,1400,0 F,19,147042,148418,0.6,0.05 M,0,148421,,369,118 R,0,148421,,1.366097 V,13,148421,149797,1400,52.5,1400,0 F,19,148421,149797,0.8,0.05 M,0,152558,,186,189 R,0,152558,,1.447794 V,13,152558,153934,1400,52.5,1400,0 F,19,152558,153934,0.6,0.05 M,0,153938,,496,144 R,0,153938,,1.64557 V,13,153938,155314,1400,52.5,1400,0 F,19,153938,155314,0.8,0.05 M,0,158076,,355,249 R,0,158076,,1.6779 V,13,158076,159452,1400,52.5,1400,0 F,19,158076,159452,0.6,0.05 M,0,159456,,288,182 R,0,159456,,1.677363 V,13,159456,160832,1400,52.5,1400,0 F,19,159456,160832,0.8,0.05 M,0,163421,,382,345 R,0,163421,,1.693782 V,13,163421,164797,1400,52.5,1400,0 F,19,163421,164797,0.6,0.05 P,0,141180,,A
Sprite,Foreground,Centre,"sb/p.png",0,0 M,0,141525,,182,308 R,0,141525,,1.87078 V,13,141525,142901,1400,52.5,1400,0 F,19,141525,142901,0.6,0.05 M,0,147214,,308,229 R,0,147214,,1.813902 V,13,147214,148590,1400,52.5,1400,0 F,19,147214,148590,0.64,0.05 M,0,148593,,474,328 R,0,148593,,1.673418 V,13,148593,149969,1400,52.5,1400,0 F,19,148593,149969,0.8,0.05 M,0,152730,,239,350 R,0,152730,,1.584468 V,13,152730,154106,1400,52.5,1400,0 F,19,152730,154106,0.64,0.05 M,0,154110,,281,75 R,0,154110,,1.686623 V,13,154110,155486,1400,52.5,1400,0 F,19,154110,155486,0.8,0.05 M,0,158249,,182,203 R,0,158249,,1.327183 V,13,158249,159625,1400,52.5,1400,0 F,19,158249,159625,0.64,0.05 M,0,159628,,182,203 R,0,159628,,1.612713 V,13,159628,161004,1400,52.5,1400,0 F,19,159628,161004,0.8,0.05 M,0,163507,,384,328 R,0,163507,,1.845945 V,13,163507,164883,1400,52.5,1400,0 F,19,163507,164883,0.64,0.05 P,0,141525,,A
Sprite,Foreground,Centre,"sb/p.png",0,0 M,0,141870,,105,124 R,0,141870,,1.66212 V,13,141870,143246,1400,52.5,1400,0 F,19,141870,143246,0.6800001,0.05 M,0,147387,,272,144 R,0,147387,,1.384271 V,13,147387,148763,1400,52.5,1400,0 F,19,147387,148763,0.6800001,0.05 M,0,148766,,474,328 R,0,148766,,1.573418 V,13,148766,150142,1400,52.5,1400,0 F,19,148766,150142,0.8,0.05 M,0,152904,,186,189 R,0,152904,,1.668832 V,13,152904,154280,1400,52.5,1400,0 F,19,152904,154280,0.6800001,0.05 M,0,154283,,184,207 R,0,154283,,1.649033 V,13,154283,155659,1400,52.5,1400,0 F,19,154283,155659,0.8,0.05 M,0,158421,,355,249 R,0,158421,,1.360255 V,13,158421,159797,1400,52.5,1400,0 F,19,158421,159797,0.6800001,0.05 M,0,159801,,355,262 R,0,159801,,1.406038 V,13,159801,161177,1400,52.5,1400,0 F,19,159801,161177,0.8,0.05 M,0,163593,,386,311 R,0,163593,,1.864084 V,13,163593,164969,1400,52.5,1400,0 F,19,163593,164969,0.6800001,0.05 P,0,141870,,A
Sprite,Foreground,Centre,"sb/p.png",0,0 M,0,153679,,426,151 R,0,153679,,1.404307 V,13,153679,155055,1400,52.5,1400,0 F,19,153679,155055,0.8,0.05 M,0,163766,,485,415 R,0,163766,,1.503078 V,13,163766,165142,1400,52.5,1400,0 F,19,163766,165142,0.7200001,0.05 P,0,153679,,A
Sprite,Foreground,Centre,"sb/p.png",0,0 M,0,153852,,473,146 R,0,153852,,1.311908 V,13,153852,155228,1400,52.5,1400,0 F,19,153852,155228,0.8,0.05 M,0,163938,,530,234 R,0,163938,,1.58444 V,13,163938,165314,1400,52.5,1400,0 F,19,163938,165314,0.7600001,0.05 P,0,153852,,A
Sprite,Foreground,Centre,"sb/p.png",0,0 M,0,154369,,184,207 R,0,154369,,1.549033 V,13,154369,155745,1400,52.5,1400,0 F,19,154369,155745,0.8,0.05 P,0,154369,,A
Sprite,Foreground,Centre,"sb/f/_007.png",320,0 S,0,193076,,0.5 MY,26,193076,194828,354,374 MY,18,194828,195828,374,354 F,7,193076,194076,0,1 F,6,194828,195828,1,0
//Storyboard Layer 4 (Overlay)
Sprite,Overlay,Centre,"sb/4.png",0,0 M,0,44110,,170,191 S,0,44110,44798,0.875,1.05 F,1,44368,45056,0.6,0 C,0,44110,,255,128,128 M,0,44110,44153,170,191,164.7696,165.799 M,0,44153,44196,164.7696,165.799,159.5392,140.5979 M,0,44196,44239,159.5392,140.5979,164.7193,165.5565 M,0,44239,44282,164.7193,165.5565,169.9497,190.7575 M,0,44282,44325,169.9497,190.7575,164.8199,166.0415 M,0,44325,44368,164.8199,166.0415,159.514,140.4767 M,0,45059,,371,138 S,0,45059,45747,0.875,1.05 F,1,45059,45747,0.4,0 M,0,46524,,532,384 S,0,46524,47212,0.875,1.05 F,0,46524,,0.6 F,1,46782,47470,0.6,0 C,0,46524,,154,78,78 M,0,46524,46567,532,384,513.8013,366.049 M,0,46567,46610,513.8013,366.049,501.531,343.7076 M,0,46610,46653,501.531,343.7076,513.6533,365.851 M,0,46653,46696,513.6533,365.851,531.8131,383.8383 M,0,46696,46739,531.8131,383.8383,513.9492,366.247 M,0,46739,46782,513.9492,366.247,501.4923,343.5902 M,0,47473,,212,371 S,0,47473,48161,0.875,1.05 F,1,47473,48161,0.4,0 C,0,47473,,89,172,255 M,0,48938,,353,260 S,0,48938,49626,0.875,1.05 F,0,48938,,0.6 F,1,49196,49884,0.6,0 C,0,48938,,0,128,128 M,0,48938,48981,353,260,327.312,261.6055 M,0,48981,49024,327.312,261.6055,301.6241,263.211 M,0,49024,49067,301.6241,263.211,327.0648,261.6209 M,0,49067,49110,327.0648,261.6209,352.7528,260.0154 M,0,49110,49153,352.7528,260.0154,327.5592,261.59 M,0,49153,49196,327.5592,261.59,301.5005,263.2187 M,0,49886,,520,188 S,0,49886,50574,0.875,1.05 F,1,49886,50574,0.4,0 C,0,49886,,255,128,128 M,0,51352,,406,98 S,0,51352,52040,0.875,1.05 F,0,51352,,0.6 F,1,51610,52298,0.6,0 C,0,51352,,154,78,78 M,0,51352,51395,406,98,429.5187,108.357 M,0,51395,51438,429.5187,108.357,451.3924,121.8151 M,0,51438,51481,451.3924,121.8151,429.7375,108.473 M,0,51481,51524,429.7375,108.473,406.2295,98.09283 M,0,51524,51567,406.2295,98.09283,429.3,108.2411 M,0,51567,51610,429.3,108.2411,451.4915,121.8892 M,0,52386,,231,243 S,0,52386,53074,0.875,1.05 F,0,52386,,0.6 F,1,52472,53160,0.6,0 C,0,52386,,89,172,255 M,0,52386,52429,231,243,228.1124,268.5756 M,0,52429,52472,228.1124,268.5756,225.211,294.2742 M,0,53249,,318,254 S,0,53249,53937,0.875,1.05 F,0,53249,,0.6 F,1,53335,54023,0.6,0 M,0,53249,53292,318,254,315.1124,279.5756 M,0,53292,53335,315.1124,279.5756,312.211,305.2742 M,0,54024,,407,315 S,0,54024,54712,0.875,1.05 F,1,54024,54712,0.4,0 C,0,54024,,0,128,128 M,0,55490,,357,240 S,0,55490,56178,0.875,1.05 F,1,55490,56178,0.6,0 C,0,55490,,154,78,78 M,0,56869,,129,162 S,0,56869,57557,0.875,1.05 F,1,56869,57557,0.6,0 C,0,56869,,89,172,255 M,0,58248,,226,149 S,0,58248,58936,0.875,1.05 F,1,58248,58936,0.6,0 C,0,58248,,255,128,128 M,0,59628,,133,198 S,0,59628,60316,0.875,1.05 F,1,59628,60316,0.6,0 C,0,59628,,154,78,78 M,0,61007,,217,130 S,0,61007,61695,0.875,1.05 F,1,61007,61695,0.6,0 C,0,61007,,0,128,128 M,0,62386,,309,154 S,0,62386,63074,0.875,1.05 F,1,62386,63074,0.6,0 C,0,62386,,255,128,128 M,0,63766,,248,349 S,0,63766,64454,0.875,1.05 F,1,63766,64454,0.6,0 C,0,63766,,154,78,78 M,0,65145,,396,253 S,0,65145,65833,0.875,1.05 F,1,65145,65833,0.6,0 C,0,65145,,89,172,255 M,0,66524,,474,85 S,0,66524,67212,0.875,1.05 F,1,66524,67212,0.6,0 C,0,66524,,0,128,128 M,0,67904,,298,150 S,0,67904,68592,0.875,1.05 F,1,67904,68592,0.6,0 C,0,67904,,255,128,128 M,0,69283,,435,157 S,0,69283,69971,0.875,1.05 F,1,69283,69971,0.6,0 C,0,69283,,154,78,78 M,0,70662,,364,200 S,0,70662,71350,0.875,1.05 F,1,70662,71350,0.6,0 C,0,70662,,89,172,255 M,0,72041,,159,226 S,0,72041,72729,0.875,1.05 F,1,72041,72729,0.6,0 C,0,72041,,0,128,128 M,0,73421,,258,204 S,0,73421,74109,0.875,1.05 F,1,73421,74109,0.6,0 C,0,73421,,255,128,128 M,0,74800,,322,207 S,0,74800,75488,0.875,1.05 F,1,74800,75488,0.6,0 C,0,74800,,154,78,78 M,0,76179,,313,218 S,0,76179,76867,0.875,1.05 F,1,76179,76867,0.6,0 C,0,76179,,89,172,255 M,0,77559,,532,348 S,0,77559,78247,0.875,1.05 F,1,77559,78247,0.5,0 C,0,77559,,0,128,128 M,0,78938,,363,348 S,0,78938,79626,0.875,1.05 F,1,78938,79626,0.5,0 C,0,78938,,255,128,128 M,0,80317,,429,373 S,0,80317,81005,0.875,1.05 F,1,80317,81005,0.5,0 C,0,80317,,154,78,78 M,0,81697,,408,224 S,0,81697,82385,0.875,1.05 F,1,81697,82385,0.5,0 C,0,81697,,89,172,255 M,0,83076,,149,285 S,0,83076,83764,0.875,1.05 F,1,83076,83764,0.5,0 C,0,83076,,0,128,128 M,0,84455,,333,150 S,0,84455,85143,0.875,1.05 F,1,84455,85143,0.5,0 C,0,84455,,255,128,128 M,0,85835,,341,88 S,0,85835,86523,0.875,1.05 F,1,85835,86523,0.5,0 C,0,85835,,154,78,78 M,0,87214,,501,258 S,0,87214,87902,0.875,1.05 F,1,87214,87902,0.5,0 C,0,87214,,89,172,255 M,0,88593,,448,178 S,0,88593,89281,0.875,1.05 F,1,88593,89281,0.5,0 C,0,88593,,0,128,128 M,0,89973,,236,242 S,0,89973,90661,0.875,1.05 F,1,89973,90661,0.5,0 C,0,89973,,255,128,128 M,0,91352,,316,121 S,0,91352,92040,0.875,1.05 F,1,91352,92040,0.5,0 C,0,91352,,154,78,78 M,0,92731,,486,111 S,0,92731,93419,0.875,1.05 F,1,92731,93419,0.5,0 C,0,92731,,89,172,255 M,0,94110,,325,201 S,0,94110,94798,0.875,1.05 F,1,94110,94798,0.5,0 C,0,94110,,0,128,128 M,0,95490,,225,266 S,0,95490,96178,0.875,1.05 F,1,95490,96178,0.5,0 C,0,95490,,255,128,128 M,0,96869,,258,151 S,0,96869,97557,0.875,1.05 F,1,96869,97557,0.5,0 C,0,96869,,154,78,78 M,0,98248,,415,299 S,0,98248,98936,0.875,1.05 F,0,98248,,0.7 F,1,98334,99022,0.7,0 C,0,98248,,89,172,255 M,0,98248,98291,415,299,391.6918,302.6562 M,0,98291,98334,391.6918,302.6562,368.2714,306.33 P,0,44110,,A
Sprite,Overlay,Centre,"sb/4.png",0,0 M,0,44455,,246,231 S,0,44455,45143,0.875,1.05 F,1,44713,45401,0.6,0 C,0,44455,,255,128,128 M,0,44455,44498,246,231,251.2304,256.201 M,0,44498,44541,251.2304,256.201,256.4608,281.402 M,0,44541,44584,256.4608,281.402,251.2807,256.4435 M,0,44584,44627,251.2807,256.4435,246.0503,231.2425 M,0,44627,44670,246.0503,231.2425,251.1801,255.9585 M,0,44670,44713,251.1801,255.9585,256.486,281.5233 M,0,45404,,464,173 S,0,45404,46092,0.875,1.05 F,1,45404,46092,0.4,0 M,0,46869,,420,381 S,0,46869,47557,0.875,1.05 F,1,46869,47557,0.4,0 C,0,46869,,89,172,255 M,0,48248,,185,270 S,0,48248,48936,0.875,1.05 F,0,48248,,0.6 F,1,48506,49194,0.6,0 C,0,48248,,0,128,128 M,0,48248,48291,185,270,159.312,271.6055 M,0,48291,48334,159.312,271.6055,133.6241,273.211 M,0,48334,48377,133.6241,273.211,159.0648,271.6209 M,0,48377,48420,159.0648,271.6209,184.7528,270.0154 M,0,48420,48463,184.7528,270.0154,159.5592,271.59 M,0,48463,48506,159.5592,271.59,133.5005,273.2187 M,0,49283,,381,218 S,0,49283,49971,0.875,1.05 F,0,49283,,0.6 F,1,49541,50229,0.6,0 M,0,49283,49326,381,218,406.688,216.3945 M,0,49326,49369,406.688,216.3945,432.3759,214.789 M,0,49369,49412,432.3759,214.789,406.9352,216.3791 M,0,49412,49455,406.9352,216.3791,381.2472,217.9845 M,0,49455,49498,381.2472,217.9845,406.4408,216.41 M,0,49498,49541,406.4408,216.41,432.4995,214.7813 M,0,50231,,432,171 S,0,50231,50919,0.875,1.05 F,1,50231,50919,0.4,0 C,0,50231,,255,128,128 M,0,51697,,336,174 S,0,51697,52385,0.875,1.05 F,0,51697,,0.6 F,1,51955,52643,0.6,0 C,0,51697,,154,78,78 M,0,51697,51740,336,174,346.3571,150.4813 M,0,51740,51783,346.3571,150.4813,359.8151,128.6076 M,0,51783,51826,359.8151,128.6076,346.473,150.2625 M,0,51826,51869,346.473,150.2625,336.0928,173.7705 M,0,51869,51912,336.0928,173.7705,346.2411,150.7 M,0,51912,51955,346.2411,150.7,359.8892,128.5085 M,0,52731,,243,157 S,0,52731,53419,0.875,1.05 F,0,52731,,0.6 F,1,52817,53505,0.6,0 C,0,52731,,89,172,255 M,0,52731,52774,243,157,245.8876,131.4244 M,0,52774,52817,245.8876,131.4244,248.789,105.7258 M,0,53594,,496,184 S,0,53594,54282,0.875,1.05 F,0,53594,,0.6 F,1,53680,54368,0.6,0 M,0,53594,53637,496,184,498.8876,158.4244 M,0,53637,53680,498.8876,158.4244,501.789,132.7258 M,0,54369,,460,276 S,0,54369,55057,0.875,1.05 F,1,54369,55057,0.4,0 C,0,54369,,0,128,128 M,0,55835,,404,160 S,0,55835,56523,0.875,1.05 F,1,55835,56523,0.6,0 C,0,55835,,154,78,78 M,0,57214,,229,222 S,0,57214,57902,0.875,1.05 F,1,57214,57902,0.6,0 C,0,57214,,0,128,128 M,0,58593,,242,171 S,0,58593,59281,0.875,1.05 F,1,58593,59281,0.6,0 C,0,58593,,255,128,128 M,0,59973,,231,293 S,0,59973,60661,0.875,1.05 F,1,59973,60661,0.6,0 C,0,59973,,89,172,255 M,0,61352,,325,251 S,0,61352,62040,0.875,1.05 F,1,61352,62040,0.6,0 C,0,61352,,0,128,128 M,0,62731,,190,199 S,0,62731,63419,0.875,1.05 F,1,62731,63419,0.6,0 C,0,62731,,255,128,128 M,0,64110,,248,349 S,0,64110,64798,0.875,1.05 F,1,64110,64798,0.6,0 C,0,64110,,154,78,78 M,0,65490,,228,182 S,0,65490,66178,0.875,1.05 F,1,65490,66178,0.6,0 C,0,65490,,89,172,255 M,0,66869,,401,319 S,0,66869,67557,0.875,1.05 F,1,66869,67557,0.6,0 C,0,66869,,0,128,128 M,0,68248,,426,244 S,0,68248,68936,0.875,1.05 F,1,68248,68936,0.6,0 C,0,68248,,255,128,128 M,0,69628,,435,157 S,0,69628,70316,0.875,1.05 F,1,69628,70316,0.6,0 C,0,69628,,154,78,78 M,0,71007,,443,176 S,0,71007,71695,0.875,1.05 F,1,71007,71695,0.6,0 C,0,71007,,89,172,255 M,0,72386,,89,302 S,0,72386,73074,0.875,1.05 F,1,72386,73074,0.6,0 C,0,72386,,0,128,128 M,0,73766,,168,122 S,0,73766,74454,0.875,1.05 F,1,73766,74454,0.6,0 C,0,73766,,255,128,128 M,0,75146,,399,102 S,0,75146,75834,0.875,1.05 F,1,75146,75834,0.6,0 C,0,75146,,154,78,78 M,0,76524,,189,263 S,0,76524,77212,0.875,1.05 F,1,76524,77212,0.6,0 C,0,76524,,89,172,255 M,0,77904,,483,125 S,0,77904,78592,0.875,1.05 F,0,77904,,0.7 F,1,78076,78764,0.7,0 C,0,77904,,0,128,128 M,0,77904,77947,483,125,492.0689,146.7405 M,0,77947,77990,492.0689,146.7405,497.9712,169.5288 M,0,77990,78033,497.9712,169.5288,500.3924,192.9444 M,0,78033,78076,500.3924,192.9444,499.2478,216.684 M,0,79110,,230,254 S,0,79110,79798,0.875,1.05 F,1,79110,79798,0.5,0 C,0,79110,,255,128,128 M,0,80490,,408,224 S,0,80490,81178,0.875,1.05 F,1,80490,81178,0.5,0 C,0,80490,,154,78,78 M,0,81869,,517,342 S,0,81869,82557,0.875,1.05 F,1,81869,82557,0.5,0 C,0,81869,,89,172,255 M,0,83248,,354,237 S,0,83248,83936,0.875,1.05 F,1,83248,83936,0.5,0 C,0,83248,,0,128,128 M,0,84628,,181,248 S,0,84628,85316,0.875,1.05 F,1,84628,85316,0.5,0 C,0,84628,,255,128,128 M,0,86007,,311,230 S,0,86007,86695,0.875,1.05 F,1,86007,86695,0.5,0 C,0,86007,,154,78,78 M,0,87386,,356,364 S,0,87386,88074,0.875,1.05 F,1,87386,88074,0.5,0 C,0,87386,,89,172,255 M,0,88766,,568,232 S,0,88766,89454,0.875,1.05 F,1,88766,89454,0.5,0 C,0,88766,,0,128,128 M,0,90145,,182,368 S,0,90145,90833,0.875,1.05 F,1,90145,90833,0.5,0 C,0,90145,,255,128,128 M,0,91524,,505,203 S,0,91524,92212,0.875,1.05 F,1,91524,92212,0.5,0 C,0,91524,,154,78,78 M,0,92904,,375,252 S,0,92904,93592,0.875,1.05 F,1,92904,93592,0.5,0 C,0,92904,,89,172,255 M,0,94282,,521,166 S,0,94282,94970,0.875,1.05 F,1,94282,94970,0.5,0 C,0,94282,,0,128,128 M,0,95662,,391,188 S,0,95662,96350,0.875,1.05 F,1,95662,96350,0.5,0 C,0,95662,,255,128,128 M,0,97041,,317,302 S,0,97041,97729,0.875,1.05 F,1,97041,97729,0.5,0 C,0,97041,,154,78,78 M,0,98421,,248,279 S,0,98421,99109,0.875,1.05 F,0,98421,,0.7 F,1,98507,99195,0.7,0 C,0,98421,,89,172,255 M,0,98421,98464,248,279,271.3358,275.5244 M,0,98464,98507,271.3358,275.5244,294.784,272.0322 P,0,44455,,A
Sprite,Overlay,Centre,"sb/4.png",0,0 M,0,44800,,300,159 S,0,44800,45488,0.875,1.05 F,1,44800,45488,0.4,0 C,0,44800,,255,128,128 M,0,46179,,486,311 S,0,46179,46867,0.875,1.05 F,0,46179,,0.6 F,1,46437,47125,0.6,0 C,0,46179,,154,78,78 M,0,46179,46222,486,311,504.1988,293.049 M,0,46222,46265,504.1988,293.049,516.469,270.7075 M,0,46265,46308,516.469,270.7075,504.3467,292.851 M,0,46308,46351,504.3467,292.851,486.1869,310.8383 M,0,46351,46394,486.1869,310.8383,504.0508,293.2469 M,0,46394,46437,504.0508,293.2469,516.5077,270.5901 M,0,47128,,337,314 S,0,47128,47816,0.875,1.05 F,1,47128,47816,0.4,0 C,0,47128,,89,172,255 M,0,48593,,213,228 S,0,48593,49281,0.875,1.05 F,0,48593,,0.6 F,1,48851,49539,0.6,0 C,0,48593,,0,128,128 M,0,48593,48636,213,228,238.688,226.3945 M,0,48636,48679,238.688,226.3945,264.3759,224.789 M,0,48679,48722,264.3759,224.789,238.9352,226.3791 M,0,48722,48765,238.9352,226.3791,213.2472,227.9845 M,0,48765,48808,213.2472,227.9845,238.4408,226.41 M,0,48808,48851,238.4408,226.41,264.4995,224.7813 M,0,49628,,508,251 S,0,49628,50316,0.875,1.05 F,1,49628,50316,0.4,0 C,0,49628,,255,128,128 M,0,51007,,499,115 S,0,51007,51695,0.875,1.05 F,0,51007,,0.6 F,1,51265,51953,0.6,0 C,0,51007,,154,78,78 M,0,51007,51050,499,115,509.3571,91.48126 M,0,51050,51093,509.3571,91.48126,522.8151,69.60764 M,0,51093,51136,522.8151,69.60764,509.473,91.26253 M,0,51136,51179,509.473,91.26253,499.0928,114.7705 M,0,51179,51222,499.0928,114.7705,509.2411,91.69998 M,0,51222,51265,509.2411,91.69998,522.8892,69.50851 M,0,52042,,243,157 S,0,52042,52730,0.875,1.05 F,0,52042,,0.6 F,1,52300,52988,0.6,0 M,0,52042,52085,243,157,266.5187,167.3571 M,0,52085,52128,266.5187,167.3571,288.3924,180.8151 M,0,52128,52171,288.3924,180.8151,266.7375,167.473 M,0,52171,52214,266.7375,167.473,243.2295,157.0928 M,0,52214,52257,243.2295,157.0928,266.3,167.2411 M,0,52257,52300,266.3,167.2411,288.4915,180.8892 M,0,53076,,401,262 S,0,53076,53764,0.875,1.05 F,0,53076,,0.6 F,1,53162,53850,0.6,0 C,0,53076,,89,172,255 M,0,53076,53119,401,262,398.1124,287.5756 M,0,53119,53162,398.1124,287.5756,395.211,313.2742 M,0,53852,,509,303 S,0,53852,54540,0.875,1.05 F,1,53852,54540,0.4,0 C,0,53852,,0,128,128 M,0,55317,,269,343 S,0,55317,56005,0.875,1.05 F,0,55317,,0.8 F,1,55403,56091,0.8,0 C,0,55317,,154,78,78 M,0,55317,55360,269,343,297.3232,339.6012 M,0,55360,55403,297.3232,339.6012,325.7826,336.1861 M,0,56179,,129,162 S,0,56179,56867,0.875,1.05 F,1,56179,56867,0.6,0 C,0,56179,,89,172,255 M,0,57559,,229,222 S,0,57559,58247,0.875,1.05 F,1,57559,58247,0.6,0 C,0,57559,,0,128,128 M,0,58938,,254,196 S,0,58938,59626,0.875,1.05 F,1,58938,59626,0.6,0 C,0,58938,,255,128,128 M,0,60318,,426,231 S,0,60318,61006,0.875,1.05 F,1,60318,61006,0.6,0 C,0,60318,,89,172,255 M,0,61697,,263,367 S,0,61697,62385,0.875,1.05 F,1,61697,62385,0.6,0 C,0,61697,,0,128,128 M,0,63076,,369,278 S,0,63076,63764,0.875,1.05 F,1,63076,63764,0.6,0 C,0,63076,,255,128,128 M,0,64455,,248,349 S,0,64455,65143,0.875,1.05 F,1,64455,65143,0.6,0 C,0,64455,,154,78,78 M,0,65835,,336,362 S,0,65835,66523,0.875,1.05 F,0,65835,,0.8 F,1,65921,66609,0.8,0 C,0,65835,,89,172,255 M,0,65835,65878,336,362,307.8156,357.5962 M,0,65878,65921,307.8156,357.5962,279.4956,353.1712 M,0,66697,,310,163 S,0,66697,67385,0.875,1.05 F,1,66697,67385,0.6,0 C,0,66697,,0,128,128 M,0,68076,,296,161 S,0,68076,68764,0.875,1.05 F,1,68076,68764,0.6,0 C,0,68076,,255,128,128 M,0,69455,,284,191 S,0,69455,70143,0.875,1.05 F,1,69455,70143,0.6,0 C,0,69455,,154,78,78 M,0,70835,,417,351 S,0,70835,71523,0.875,1.05 F,1,70835,71523,0.6,0 C,0,70835,,89,172,255 M,0,72214,,327,345 S,0,72214,72902,0.875,1.05 F,1,72214,72902,0.6,0 C,0,72214,,0,128,128 M,0,73594,,199,366 S,0,73594,74282,0.875,1.05 F,1,73594,74282,0.6,0 C,0,73594,,255,128,128 M,0,74973,,322,127 S,0,74973,75661,0.875,1.05 F,1,74973,75661,0.6,0 C,0,74973,,154,78,78 M,0,76352,,195,231 S,0,76352,77040,0.875,1.05 F,1,76352,77040,0.6,0 C,0,76352,,89,172,255 M,0,77731,,379,263 S,0,77731,78419,0.875,1.05 F,1,77731,78419,0.5,0 C,0,77731,,0,128,128 M,0,79283,,159,391 S,0,79283,79971,0.875,1.05 F,1,79283,79971,0.5,0 C,0,79283,,255,128,128 M,0,80662,,260,201 S,0,80662,81350,0.875,1.05 F,0,80662,,0.7 F,1,80834,81522,0.7,0 C,0,80662,,154,78,78 M,0,80662,80705,260,201,261.5451,224.464 M,0,80705,80748,261.5451,224.464,267.7701,247.1058 M,0,80748,80791,267.7701,247.1058,278.696,267.8959 M,0,80791,80834,278.696,267.8959,293.9904,286.0232 M,0,82041,,297,399 S,0,82041,82729,0.875,1.05 F,0,82041,,0.7 F,1,82213,82901,0.7,0 C,0,82041,,89,172,255 M,0,82041,82084,297,399,273.9143,394.2826 M,0,82084,82127,273.9143,394.2826,251.5831,386.7966 M,0,82127,82170,251.5831,386.7966,230.4097,376.4623 M,0,82170,82213,230.4097,376.4623,210.5772,363.3071 M,0,83421,,181,220 S,0,83421,84109,0.875,1.05 F,1,83421,84109,0.5,0 C,0,83421,,0,128,128 M,0,84800,,402,248 S,0,84800,85488,0.875,1.05 F,0,84800,,0.7 F,1,84972,85660,0.7,0 C,0,84800,,255,128,128 M,0,84800,84843,402,248,423.9456,239.4496 M,0,84843,84886,423.9456,239.4496,444.3744,227.7638 M,0,84886,84929,444.3744,227.7638,462.7223,213.0234 M,0,84929,84972,462.7223,213.0234,478.8042,195.5084 M,0,85662,,307,248 S,0,85662,86350,0.875,1.05 F,1,85662,86350,0.5,0 C,0,85662,,154,78,78 M,0,87041,,428,314 S,0,87041,87729,0.875,1.05 F,1,87041,87729,0.5,0 C,0,87041,,89,172,255 M,0,88507,,448,178 S,0,88507,89195,0.875,1.05 F,1,88507,89195,0.5,0 C,0,88507,,0,128,128 M,0,90317,,112,187 S,0,90317,91005,0.875,1.05 F,0,90317,,0.7 F,1,90489,91177,0.7,0 C,0,90317,,255,128,128 M,0,90317,90360,112,187,120.817,208.829 M,0,90360,90403,120.817,208.829,126.0673,231.7595 M,0,90403,90446,126.0673,231.7595,127.3665,255.2577 M,0,90446,90489,127.3665,255.2577,124.6501,278.8813 M,0,91697,,427,255 S,0,91697,92385,0.875,1.05 F,1,91697,92385,0.5,0 C,0,91697,,154,78,78 M,0,93076,,249,235 S,0,93076,93764,0.875,1.05 F,0,93076,,0.7 F,1,93248,93936,0.7,0 C,0,93076,,89,172,255 M,0,93076,93119,249,235,225.5337,232.5556 M,0,93119,93162,225.5337,232.5556,202.0675,230.1112 M,0,93162,93205,202.0675,230.1112,178.6012,227.6668 M,0,93205,93248,178.6012,227.6668,154.9091,225.1989 M,0,93938,,438,284 S,0,93938,94626,0.875,1.05 F,1,93938,94626,0.5,0 C,0,93938,,0,128,128 M,0,95404,,225,266 S,0,95404,96092,0.875,1.05 F,1,95404,96092,0.5,0 C,0,95404,,255,128,128 M,0,96783,,245,148 S,0,96783,97471,0.875,1.05 F,1,96783,97471,0.5,0 C,0,96783,,154,78,78 M,0,98162,,412,313 S,0,98162,98850,0.875,1.05 F,1,98162,98850,0.5,0 C,0,98162,,89,172,255 P,0,44800,,A
Sprite,Overlay,Centre,"sb/4.png",0,0 M,0,44886,,321,144 S,0,44886,45574,0.875,1.05 F,1,44886,45574,0.4,0 C,0,44886,,255,128,128 M,0,46955,,401,349 S,0,46955,47643,0.875,1.05 F,1,46955,47643,0.4,0 C,0,46955,,89,172,255 M,0,49714,,512,230 S,0,49714,50402,0.875,1.05 F,1,49714,50402,0.4,0 C,0,49714,,255,128,128 M,0,52559,,148,235 S,0,52559,53247,0.875,1.05 F,0,52559,,0.6 F,1,52645,53333,0.6,0 C,0,52559,,89,172,255 M,0,52559,52602,148,235,145.1124,260.5756 M,0,52602,52645,145.1124,260.5756,142.211,286.2742 M,0,53421,,413,176 S,0,53421,54109,0.875,1.05 F,0,53421,,0.6 F,1,53507,54195,0.6,0 M,0,53421,53464,413,176,415.8876,150.4244 M,0,53464,53507,415.8876,150.4244,418.789,124.7258 M,0,54197,,391,273 S,0,54197,54885,0.875,1.05 F,1,54197,54885,0.4,0 C,0,54197,,0,128,128 M,0,55662,,214,203 S,0,55662,56350,0.875,1.05 F,1,55662,56350,0.6,0 C,0,55662,,154,78,78 M,0,57042,,298,171 S,0,57042,57730,0.875,1.05 F,1,57042,57730,0.6,0 C,0,57042,,89,172,255 M,0,58420,,232,299 S,0,58420,59108,0.875,1.05 F,1,58420,59108,0.6,0 C,0,58420,,255,128,128 M,0,59800,,133,198 S,0,59800,60488,0.875,1.05 F,1,59800,60488,0.6,0 C,0,59800,,154,78,78 M,0,61179,,145,288 S,0,61179,61867,0.875,1.05 F,1,61179,61867,0.6,0 C,0,61179,,0,128,128 M,0,62559,,313,131 S,0,62559,63247,0.875,1.05 F,1,62559,63247,0.6,0 C,0,62559,,255,128,128 M,0,63938,,306,193 S,0,63938,64626,0.875,1.05 F,1,63938,64626,0.6,0 C,0,63938,,154,78,78 M,0,65317,,191,180 S,0,65317,66005,0.875,1.05 F,1,65317,66005,0.6,0 C,0,65317,,89,172,255 M,0,67041,,432,203 S,0,67041,67729,0.875,1.05 F,1,67041,67729,0.6,0 C,0,67041,,0,128,128 M,0,68420,,173,375 S,0,68420,69108,0.875,1.05 F,1,68420,69108,0.6,0 C,0,68420,,255,128,128 M,0,69800,,284,191 S,0,69800,70488,0.875,1.05 F,1,69800,70488,0.6,0 C,0,69800,,154,78,78 M,0,71180,,292,123 S,0,71180,71868,0.875,1.05 F,1,71180,71868,0.6,0 C,0,71180,,89,172,255 M,0,72559,,129,136 S,0,72559,73247,0.875,1.05 F,1,72559,73247,0.6,0 C,0,72559,,0,128,128 M,0,73939,,227,284 S,0,73939,74627,0.875,1.05 F,1,73939,74627,0.6,0 C,0,73939,,255,128,128 M,0,75317,,399,102 S,0,75317,76005,0.875,1.05 F,1,75317,76005,0.6,0 C,0,75317,,154,78,78 M,0,76697,,185,297 S,0,76697,77385,0.875,1.05 F,1,76697,77385,0.6,0 C,0,76697,,89,172,255 M,0,78162,,490,240 S,0,78162,78850,0.875,1.05 F,1,78162,78850,0.5,0 C,0,78162,,0,128,128 M,0,79541,,260,343 S,0,79541,80229,0.875,1.05 F,1,79541,80229,0.5,0 C,0,79541,,255,128,128 M,0,81007,,511,231 S,0,81007,81695,0.875,1.05 F,1,81007,81695,0.5,0 C,0,81007,,154,78,78 M,0,82386,,434,218 S,0,82386,83074,0.875,1.05 F,0,82386,,0.7 F,1,82558,83246,0.7,0 C,0,82386,,89,172,255 M,0,82386,82429,434,218,457.0857,213.2826 M,0,82429,82472,457.0857,213.2826,479.4169,205.7966 M,0,82472,82515,479.4169,205.7966,500.5903,195.4623 M,0,82515,82558,500.5903,195.4623,520.4228,182.3071 M,0,83593,,321,301 S,0,83593,84281,0.875,1.05 F,1,83593,84281,0.5,0 C,0,83593,,0,128,128 M,0,85145,,332,382 S,0,85145,85833,0.875,1.05 F,0,85145,,0.7 F,1,85317,86005,0.7,0 C,0,85145,,255,128,128 M,0,85145,85188,332,382,310.0543,373.4496 M,0,85188,85231,310.0543,373.4496,289.6256,361.7638 M,0,85231,85274,289.6256,361.7638,271.2777,347.0234 M,0,85274,85317,271.2777,347.0234,255.1958,329.5084 M,0,86179,,406,126 S,0,86179,86867,0.875,1.05 F,1,86179,86867,0.5,0 C,0,86179,,154,78,78 M,0,87559,,440,417 S,0,87559,88247,0.875,1.05 F,1,87559,88247,0.5,0 C,0,87559,,89,172,255 M,0,88938,,343,105 S,0,88938,89626,0.875,1.05 F,0,88938,,0.7 F,1,89110,89798,0.7,0 C,0,88938,,0,128,128 M,0,88938,88981,343,105,340.2287,128.4299 M,0,88981,89024,340.2287,128.4299,337.4574,151.8598 M,0,89024,89067,337.4574,151.8598,334.6862,175.2897 M,0,89067,89110,334.6862,175.2897,332,198 M,0,90576,,117,303 S,0,90576,91264,0.875,1.05 F,1,90576,91264,0.5,0 C,0,90576,,255,128,128 M,0,92041,,541,288 S,0,92041,92729,0.875,1.05 F,1,92041,92729,0.5,0 C,0,92041,,154,78,78 M,0,93421,,290,421 S,0,93421,94109,0.875,1.05 F,0,93421,,0.7 F,1,93593,94281,0.7,0 C,0,93421,,89,172,255 M,0,93421,93464,290,421,292.2022,397.5098 M,0,93464,93507,292.2022,397.5098,294.4044,374.0195 M,0,93507,93550,294.4044,374.0195,296.6066,350.5293 M,0,93550,93593,296.6066,350.5293,298.83,326.813 M,0,94455,,347,196 S,0,94455,95143,0.875,1.05 F,1,94455,95143,0.5,0 C,0,94455,,0,128,128 M,0,95835,,415,392 S,0,95835,96523,0.875,1.05 F,0,95835,,0.7 F,1,96007,96695,0.7,0 C,0,95835,,255,128,128 M,0,95835,95878,415,392,438.5338,391.3736 M,0,95878,95921,438.5338,391.3736,461.6594,387.0576 M,0,95921,95964,461.6594,387.0576,483.7409,378.9051 M,0,95964,96007,483.7409,378.9051,504.3336,367.0048 M,0,96697,,232,145 S,0,96697,97385,0.875,1.05 F,1,96697,97385,0.5,0 C,0,96697,,154,78,78 M,0,98076,,409,327 S,0,98076,98764,0.875,1.05 F,1,98076,98764,0.5,0 C,0,98076,,89,172,255 P,0,44886,,A
Sprite,Overlay,Centre,"sb/4.png",0,0 M,0,44973,,346,137 S,0,44973,45661,0.875,1.05 F,1,44973,45661,0.4,0 C,0,44973,,255,128,128 M,0,47041,,372,326 S,0,47041,47729,0.875,1.05 F,1,47041,47729,0.4,0 C,0,47041,,89,172,255 M,0,49800,,516,209 S,0,49800,50488,0.875,1.05 F,1,49800,50488,0.4,0 C,0,49800,,255,128,128 M,0,52904,,326,165 S,0,52904,53592,0.875,1.05 F,0,52904,,0.6 F,1,52990,53678,0.6,0 C,0,52904,,89,172,255 M,0,52904,52947,326,165,328.8876,139.4244 M,0,52947,52990,328.8876,139.4244,331.789,113.7258 M,0,53766,,547,268 S,0,53766,54454,0.875,1.05 F,1,53766,54454,0.4,0 C,0,53766,,0,128,128 M,0,55145,,437,419 S,0,55145,55833,0.875,1.05 F,0,55145,,0.8 F,1,55231,55919,0.8,0 C,0,55145,,154,78,78 M,0,55145,55188,437,419,408.6768,415.6012 M,0,55188,55231,408.6768,415.6012,380.2174,412.1861 M,0,56007,,325,336 S,0,56007,56695,0.875,1.05 F,1,56007,56695,0.6,0 M,0,57387,,364,120 S,0,57387,58075,0.875,1.05 F,1,57387,58075,0.6,0 C,0,57387,,0,128,128 M,0,58765,,216,277 S,0,58765,59453,0.875,1.05 F,1,58765,59453,0.6,0 C,0,58765,,255,128,128 M,0,60145,,231,293 S,0,60145,60833,0.875,1.05 F,1,60145,60833,0.6,0 C,0,60145,,89,172,255 M,0,61524,,125,189 S,0,61524,62212,0.875,1.05 F,1,61524,62212,0.6,0 C,0,61524,,0,128,128 M,0,62904,,197,220 S,0,62904,63592,0.875,1.05 F,1,62904,63592,0.6,0 C,0,62904,,255,128,128 M,0,64282,,306,193 S,0,64282,64970,0.875,1.05 F,1,64282,64970,0.6,0 C,0,64282,,154,78,78 M,0,65662,,264,184 S,0,65662,66350,0.875,1.05 F,1,65662,66350,0.6,0 C,0,65662,,89,172,255 M,0,67214,,279,288 S,0,67214,67902,0.875,1.05 F,1,67214,67902,0.6,0 C,0,67214,,255,128,128 M,0,68593,,280,272 S,0,68593,69281,0.875,1.05 F,1,68593,69281,0.6,0 M,0,69973,,435,157 S,0,69973,70661,0.875,1.05 F,1,69973,70661,0.6,0 C,0,69973,,154,78,78 M,0,71352,,388,279 S,0,71352,72040,0.875,1.05 F,1,71352,72040,0.6,0 C,0,71352,,89,172,255 M,0,72731,,258,204 S,0,72731,73419,0.875,1.05 F,1,72731,73419,0.6,0 C,0,72731,,255,128,128 M,0,74110,,168,122 S,0,74110,74798,0.875,1.05 F,1,74110,74798,0.6,0 M,0,75490,,446,167 S,0,75490,76178,0.875,1.05 F,1,75490,76178,0.6,0 C,0,75490,,154,78,78 M,0,76869,,122,153 S,0,76869,77557,0.875,1.05 F,1,76869,77557,0.6,0 C,0,76869,,89,172,255 M,0,78248,,490,240 S,0,78248,78936,0.875,1.05 F,1,78248,78936,0.5,0 C,0,78248,,0,128,128 M,0,79628,,260,343 S,0,79628,80316,0.875,1.05 F,1,79628,80316,0.5,0 C,0,79628,,255,128,128 M,0,81179,,326,102 S,0,81179,81867,0.875,1.05 F,1,81179,81867,0.5,0 C,0,81179,,154,78,78 M,0,82731,,253,98 S,0,82731,83419,0.875,1.05 F,0,82731,,0.7 F,1,82903,83591,0.7,0 C,0,82731,,0,128,128 M,0,82731,82774,253,98,254.0522,121.5698 M,0,82774,82817,254.0522,121.5698,255.1044,145.1395 M,0,82817,82860,255.1044,145.1395,256.1567,168.7093 M,0,82860,82903,256.1567,168.7093,257.219,192.5059 M,0,83766,,249,198 S,0,83766,84454,0.875,1.05 F,1,83766,84454,0.5,0 M,0,85490,,261,86 S,0,85490,86178,0.875,1.05 F,1,85490,86178,0.5,0 C,0,85490,,154,78,78 M,0,86869,,535,351 S,0,86869,87557,0.875,1.05 F,1,86869,87557,0.5,0 C,0,86869,,89,172,255 M,0,88248,,456,293 S,0,88248,88936,0.875,1.05 F,0,88248,,0.7 F,1,88420,89108,0.7,0 C,0,88248,,0,128,128 M,0,88248,88291,456,293,453.3142,269.5601 M,0,88291,88334,453.3142,269.5601,450.6284,246.1203 M,0,88334,88377,450.6284,246.1203,447.9425,222.6804 M,0,88377,88420,447.9425,222.6804,445.2309,199.015 M,0,89283,,228,143 S,0,89283,89971,0.875,1.05 F,1,89283,89971,0.5,0 M,0,90662,,117,303 S,0,90662,91350,0.875,1.05 F,1,90662,91350,0.5,0 C,0,90662,,255,128,128 M,0,92214,,323,128 S,0,92214,92902,0.875,1.05 F,1,92214,92902,0.5,0 C,0,92214,,154,78,78 M,0,93766,,403,88 S,0,93766,94454,0.875,1.05 F,1,93766,94454,0.5,0 C,0,93766,,0,128,128 M,0,95145,,328,305 S,0,95145,95833,0.875,1.05 F,0,95145,,0.7 F,1,95317,96005,0.7,0 C,0,95145,,255,128,128 M,0,95145,95188,328,305,304.4662,304.3736 M,0,95188,95231,304.4662,304.3736,281.3406,300.0576 M,0,95231,95274,281.3406,300.0576,259.2591,291.9051 M,0,95274,95317,259.2591,291.9051,238.6665,280.0048 M,0,96179,,424,82 S,0,96179,96867,0.875,1.05 F,0,96179,,0.7 F,1,96351,97039,0.7,0 M,0,96179,96222,424,82,423.3736,105.5338 M,0,96222,96265,423.3736,105.5338,419.0576,128.6594 M,0,96265,96308,419.0576,128.6594,410.9051,150.7409 M,0,96308,96351,410.9051,150.7409,399.0048,171.3335 M,0,97214,,391,208 S,0,97214,97902,0.875,1.05 F,1,97214,97902,0.5,0 C,0,97214,,154,78,78 M,0,98593,,375,189 S,0,98593,99281,0.875,1.05 F,0,98593,,0.7 F,1,98679,99367,0.7,0 C,0,98593,,89,172,255 M,0,98593,98636,375,189,351.7557,193.0425 M,0,98636,98679,351.7557,193.0425,329,197 P,0,44973,,A
Sprite,Overlay,Centre,"sb/4.png",0,0 M,0,45145,,394,147 S,0,45145,45833,0.875,1.05 F,1,45145,45833,0.4,0 C,0,45145,,255,128,128 M,0,47214,,300,314 S,0,47214,47902,0.875,1.05 F,1,47214,47902,0.4,0 C,0,47214,,89,172,255 M,0,49973,,525,167 S,0,49973,50661,0.875,1.05 F,1,49973,50661,0.4,0 C,0,49973,,255,128,128 M,0,53938,,459,318 S,0,53938,54626,0.875,1.05 F,1,53938,54626,0.4,0 C,0,53938,,0,128,128 M,0,56352,,298,171 S,0,56352,57040,0.875,1.05 F,1,56352,57040,0.6,0 C,0,56352,,89,172,255 M,0,57732,,364,120 S,0,57732,58420,0.875,1.05 F,1,57732,58420,0.6,0 C,0,57732,,0,128,128 M,0,59110,,204,252 S,0,59110,59798,0.875,1.05 F,1,59110,59798,0.6,0 C,0,59110,,255,128,128 M,0,60490,,426,231 S,0,60490,61178,0.875,1.05 F,1,60490,61178,0.6,0 C,0,60490,,89,172,255 M,0,61869,,422,298 S,0,61869,62557,0.875,1.05 F,1,61869,62557,0.6,0 C,0,61869,,0,128,128 M,0,63249,,362,299 S,0,63249,63937,0.875,1.05 F,1,63249,63937,0.6,0 C,0,63249,,255,128,128 M,0,64627,,306,193 S,0,64627,65315,0.875,1.05 F,1,64627,65315,0.6,0 C,0,64627,,154,78,78 M,0,66007,,434,332 S,0,66007,66695,0.875,1.05 F,1,66007,66695,0.6,0 C,0,66007,,89,172,255 M,0,67386,,277,299 S,0,67386,68074,0.875,1.05 F,1,67386,68074,0.6,0 C,0,67386,,255,128,128 M,0,68766,,194,135 S,0,68766,69454,0.875,1.05 F,1,68766,69454,0.6,0 M,0,70145,,284,191 S,0,70145,70833,0.875,1.05 F,1,70145,70833,0.6,0 C,0,70145,,154,78,78 M,0,71525,,539,226 S,0,71525,72213,0.875,1.05 F,1,71525,72213,0.6,0 C,0,71525,,89,172,255 M,0,72904,,199,366 S,0,72904,73592,0.875,1.05 F,1,72904,73592,0.6,0 C,0,72904,,255,128,128 M,0,74283,,227,284 S,0,74283,74971,0.875,1.05 F,1,74283,74971,0.6,0 M,0,75662,,399,232 S,0,75662,76350,0.875,1.05 F,1,75662,76350,0.6,0 C,0,75662,,154,78,78 M,0,77041,,289,316 S,0,77041,77729,0.875,1.05 F,0,77041,,0.8 F,1,77127,77815,0.8,0 C,0,77041,,89,172,255 M,0,77041,77084,289,316,295.6573,343.7387 M,0,77084,77127,295.6573,343.7387,302.3466,371.6108 M,0,78421,,266,146 S,0,78421,79109,0.875,1.05 F,1,78421,79109,0.5,0 C,0,78421,,0,128,128 M,0,79800,,95,278 S,0,79800,80488,0.875,1.05 F,1,79800,80488,0.5,0 C,0,79800,,255,128,128 M,0,81352,,395,385 S,0,81352,82040,0.875,1.05 F,0,81352,,0.7 F,1,81610,82298,0.7,0 C,0,81352,,89,172,255 M,0,81352,81395,395,385,396.7726,361.4734 M,0,81395,81438,396.7726,361.4734,398.5451,337.9469 M,0,81438,81481,398.5451,337.9469,400.3177,314.4203 M,0,81481,81524,400.3177,314.4203,402.0902,290.8938 M,0,81524,81567,402.0902,290.8938,403.8627,267.3672 M,0,81567,81610,403.8627,267.3672,405.6609,243.501 M,0,83938,,253,323 S,0,83938,84626,0.875,1.05 F,1,83938,84626,0.5,0 C,0,83938,,0,128,128 M,0,86351,,328,219 S,0,86351,87039,0.875,1.05 F,1,86351,87039,0.5,0 C,0,86351,,154,78,78 M,0,87731,,283,310 S,0,87731,88419,0.875,1.05 F,1,87731,88419,0.5,0 C,0,87731,,89,172,255 M,0,89455,,450,81 S,0,89455,90143,0.875,1.05 F,1,89455,90143,0.5,0 C,0,89455,,0,128,128 M,0,90835,,195,122 S,0,90835,91523,0.875,1.05 F,1,90835,91523,0.5,0 C,0,90835,,255,128,128 M,0,92300,,323,128 S,0,92300,92988,0.875,1.05 F,1,92300,92988,0.5,0 C,0,92300,,154,78,78 M,0,94627,,498,170 S,0,94627,95315,0.875,1.05 F,1,94627,95315,0.5,0 C,0,94627,,0,128,128 M,0,96524,,161,232 S,0,96524,97212,0.875,1.05 F,1,96524,97212,0.5,0 C,0,96524,,154,78,78 M,0,97904,,352,134 S,0,97904,98592,0.875,1.05 F,1,97904,98592,0.5,0 C,0,97904,,89,172,255 P,0,45145,,A
Sprite,Overlay,Centre,"sb/4.png",0,0 M,0,45231,,414,163 S,0,45231,45919,0.875,1.05 F,1,45231,45919,0.4,0 C,0,45231,,255,128,128 M,0,47300,,264,321 S,0,47300,47988,0.875,1.05 F,1,47300,47988,0.4,0 C,0,47300,,89,172,255 M,0,50059,,494,168 S,0,50059,50747,0.875,1.05 F,1,50059,50747,0.4,0 C,0,50059,,255,128,128 M,0,54110,,360,292 S,0,54110,54798,0.875,1.05 F,1,54110,54798,0.4,0 C,0,54110,,0,128,128 M,0,56524,,129,162 S,0,56524,57212,0.875,1.05 F,1,56524,57212,0.6,0 C,0,56524,,89,172,255 M,0,57904,,206,138 S,0,57904,58592,0.875,1.05 F,1,57904,58592,0.6,0 C,0,57904,,255,128,128 M,0,59283,,328,260 S,0,59283,59971,0.875,1.05 F,1,59283,59971,0.6,0 C,0,59283,,154,78,78 M,0,60662,,337,83 S,0,60662,61350,0.875,1.05 F,0,60662,,0.8 F,1,60748,61436,0.8,0 C,0,60662,,0,128,128 M,0,60662,60705,337,83,328.1595,110.0701 M,0,60705,60748,328.1595,110.0701,323.95,138.3596 M,0,62041,,292,135 S,0,62041,62729,0.875,1.05 F,1,62041,62729,0.6,0 C,0,62041,,255,128,128 M,0,63421,,248,349 S,0,63421,64109,0.875,1.05 F,1,63421,64109,0.6,0 C,0,63421,,154,78,78 M,0,64800,,163,291 S,0,64800,65488,0.875,1.05 F,1,64800,65488,0.6,0 C,0,64800,,89,172,255 M,0,66179,,468,328 S,0,66179,66867,0.875,1.05 F,0,66179,,0.8 F,1,66265,66953,0.8,0 C,0,66179,,0,128,128 M,0,66179,66222,468,328,476.1354,355.3052 M,0,66222,66265,476.1354,355.3052,480.3028,383.6187 M,0,67559,,153,215 S,0,67559,68247,0.875,1.05 F,1,67559,68247,0.6,0 C,0,67559,,255,128,128 M,0,68938,,435,157 S,0,68938,69626,0.875,1.05 F,1,68938,69626,0.6,0 C,0,68938,,154,78,78 M,0,70317,,467,255 S,0,70317,71005,0.875,1.05 F,1,70317,71005,0.6,0 C,0,70317,,89,172,255 M,0,71697,,280,228 S,0,71697,72385,0.875,1.05 F,0,71697,,0.8 F,1,71783,72471,0.8,0 C,0,71697,,0,128,128 M,0,71697,71740,280,228,268.7849,254.1961 M,0,71740,71783,268.7849,254.1961,261.3662,281.8427 M,0,73076,,258,204 S,0,73076,73764,0.875,1.05 F,1,73076,73764,0.6,0 C,0,73076,,255,128,128 M,0,74455,,399,232 S,0,74455,75143,0.875,1.05 F,1,74455,75143,0.6,0 C,0,74455,,154,78,78 M,0,75835,,243,90 S,0,75835,76523,0.875,1.05 F,1,75835,76523,0.6,0 C,0,75835,,89,172,255 M,0,77214,,392,413 S,0,77214,77902,0.875,1.05 F,0,77214,,0.7 F,1,77472,78160,0.7,0 C,0,77214,,0,128,128 M,0,77214,77257,392,413,406.5078,394.4492 M,0,77257,77300,406.5078,394.4492,423.571,378.2422 M,0,77300,77343,423.571,378.2422,442.9699,364.9077 M,0,77343,77386,442.9699,364.9077,464.2287,354.7761 M,0,77386,77429,464.2287,354.7761,486.8257,348.1003 M,0,77429,77472,486.8257,348.1003,510.5558,345.3516 M,0,78593,,379,184 S,0,78593,79281,0.875,1.05 F,0,78593,,0.7 F,1,78851,79539,0.7,0 C,0,78593,,255,128,128 M,0,78593,78636,379,184,376.9216,207.5015 M,0,78636,78679,376.9216,207.5015,374.8433,231.003 M,0,78679,78722,374.8433,231.003,372.7649,254.5045 M,0,78722,78765,372.7649,254.5045,370.6865,278.0061 M,0,78765,78808,370.6865,278.0061,368.6082,301.5076 M,0,78808,78851,368.6082,301.5076,366.4998,325.3483 M,0,79973,,322,414 S,0,79973,80661,0.875,1.05 F,0,79973,,0.7 F,1,80145,80833,0.7,0 C,0,79973,,154,78,78 M,0,79973,80016,322,414,345.5136,412.6791 M,0,80016,80059,345.5136,412.6791,368.5467,407.8572 M,0,80059,80102,368.5467,407.8572,390.5211,399.4329 M,0,80102,80145,390.5211,399.4329,411.0615,387.4865 M,0,84110,,189,119 S,0,84110,84798,0.875,1.05 F,0,84110,,0.7 F,1,84368,85056,0.7,0 C,0,84110,,255,128,128 M,0,84110,84153,189,119,210.5477,109.5875 M,0,84153,84196,210.5477,109.5875,233.5076,104.6592 M,0,84196,84239,233.5076,104.6592,257.0014,104.7183 M,0,84239,84282,257.0014,104.7183,279.9627,109.7683 M,0,84282,84325,279.9627,109.7683,301.3477,119.5883 M,0,84325,84368,301.3477,119.5883,320.1484,134.2626 M,0,86524,,443,192 S,0,86524,87212,0.875,1.05 F,1,86524,87212,0.5,0 C,0,86524,,154,78,78 M,0,87904,,355,245 S,0,87904,88592,0.875,1.05 F,1,87904,88592,0.5,0 C,0,87904,,89,172,255 M,0,89628,,373,300 S,0,89628,90316,0.875,1.05 F,0,89628,,0.7 F,1,89886,90574,0.7,0 C,0,89628,,255,128,128 M,0,89628,89671,373,300,350.1128,305.4081 M,0,89671,89714,350.1128,305.4081,326.639,306.1321 M,0,89714,89757,326.639,306.1321,303.5439,301.8604 M,0,89757,89800,303.5439,301.8604,281.8779,292.7861 M,0,89800,89843,281.8779,292.7861,262.6267,279.3207 M,0,89843,89886,262.6267,279.3207,246.4738,261.7945 M,0,91007,,283,275 S,0,91007,91695,0.875,1.05 F,0,91007,,0.7 F,1,91265,91953,0.7,0 C,0,91007,,154,78,78 M,0,91007,91050,283,275,277.6674,252.0543 M,0,91050,91093,277.6674,252.0543,275.4839,228.613 M,0,91093,91136,275.4839,228.613,276.7001,205.0973 M,0,91136,91179,276.7001,205.0973,281.2921,181.9958 M,0,91179,91222,281.2921,181.9958,289.1669,159.7888 M,0,91222,91265,289.1669,159.7888,300.5425,138.7756 M,0,92386,,323,128 S,0,92386,93074,0.875,1.05 F,0,92386,,0.7 F,1,92644,93332,0.7,0 C,0,92386,,89,172,255 M,0,92386,92429,323,128,346.4717,125.608 M,0,92429,92472,346.4717,125.608,369.9433,123.216 M,0,92472,92515,369.9433,123.216,393.415,120.824 M,0,92515,92558,393.415,120.824,416.8867,118.4319 M,0,92558,92601,416.8867,118.4319,440.3583,116.0399 M,0,92601,92644,440.3583,116.0399,464.1688,113.6134 M,0,94800,,367,193 S,0,94800,95488,0.875,1.05 F,1,94800,95488,0.5,0 C,0,94800,,0,128,128 M,0,97300,,405,204 S,0,97300,97988,0.875,1.05 F,1,97300,97988,0.5,0 C,0,97300,,154,78,78 M,0,98766,,229,147 S,0,98766,99454,0.875,1.05 F,0,98766,,0.7 F,1,98852,99540,0.7,0 C,0,98766,,89,172,255 M,0,98766,98809,229,147,252.3358,143.5244 M,0,98809,98852,252.3358,143.5244,275.784,140.0322 P,0,45231,,A
Sprite,Overlay,Centre,"sb/4.png",0,0 M,0,45317,,438,172 S,0,45317,46005,0.875,1.05 F,1,45317,46005,0.4,0 C,0,45317,,255,128,128 M,0,47386,,234,342 S,0,47386,48074,0.875,1.05 F,1,47386,48074,0.4,0 C,0,47386,,89,172,255 M,0,50145,,463,169 S,0,50145,50833,0.875,1.05 F,1,50145,50833,0.4,0 C,0,50145,,255,128,128 M,0,54283,,426,267 S,0,54283,54971,0.875,1.05 F,1,54283,54971,0.4,0 C,0,54283,,0,128,128 M,0,56697,,298,171 S,0,56697,57385,0.875,1.05 F,1,56697,57385,0.6,0 C,0,56697,,89,172,255 M,0,58076,,253,311 S,0,58076,58764,0.875,1.05 F,1,58076,58764,0.6,0 C,0,58076,,255,128,128 M,0,59455,,328,260 S,0,59455,60143,0.875,1.05 F,1,59455,60143,0.6,0 C,0,59455,,154,78,78 M,0,60835,,231,293 S,0,60835,61523,0.875,1.05 F,0,60835,,0.8 F,1,60921,61609,0.8,0 C,0,60835,,0,128,128 M,0,60835,60878,231,293,222.1595,265.9299 M,0,60878,60921,222.1595,265.9299,217.95,237.6404 M,0,62214,,287,157 S,0,62214,62902,0.875,1.05 F,1,62214,62902,0.6,0 C,0,62214,,255,128,128 M,0,63593,,306,193 S,0,63593,64281,0.875,1.05 F,1,63593,64281,0.6,0 C,0,63593,,154,78,78 M,0,64973,,360,259 S,0,64973,65661,0.875,1.05 F,1,64973,65661,0.6,0 C,0,64973,,89,172,255 M,0,66352,,541,231 S,0,66352,67040,0.875,1.05 F,0,66352,,0.8 F,1,66438,67126,0.8,0 C,0,66352,,0,128,128 M,0,66352,66395,541,231,548.9851,203.6471 M,0,66395,66438,548.9851,203.6471,553.1871,175.3347 M,0,67731,,155,226 S,0,67731,68419,0.875,1.05 F,1,67731,68419,0.6,0 C,0,67731,,255,128,128 M,0,69110,,284,191 S,0,69110,69798,0.875,1.05 F,1,69110,69798,0.6,0 C,0,69110,,154,78,78 M,0,70490,,520,104 S,0,70490,71178,0.875,1.05 F,1,70490,71178,0.6,0 C,0,70490,,89,172,255 M,0,71869,,194,403 S,0,71869,72557,0.875,1.05 F,0,71869,,0.8 F,1,71955,72643,0.8,0 C,0,71869,,0,128,128 M,0,71869,71912,194,403,182.7849,376.8039 M,0,71912,71955,182.7849,376.8039,175.3662,349.1573 M,0,73249,,199,366 S,0,73249,73937,0.875,1.05 F,1,73249,73937,0.6,0 C,0,73249,,255,128,128 M,0,74628,,322,207 S,0,74628,75316,0.875,1.05 F,1,74628,75316,0.6,0 C,0,74628,,154,78,78 M,0,76007,,307,186 S,0,76007,76695,0.875,1.05 F,1,76007,76695,0.6,0 C,0,76007,,89,172,255 M,0,79455,,260,343 S,0,79455,80143,0.875,1.05 F,1,79455,80143,0.5,0 C,0,79455,,255,128,128 M,0,86696,,354,223 S,0,86696,87384,0.875,1.05 F,1,86696,87384,0.5,0 C,0,86696,,154,78,78 M,0,88076,,210,372 S,0,88076,88764,0.875,1.05 F,1,88076,88764,0.5,0 C,0,88076,,89,172,255 M,0,91869,,486,111 S,0,91869,92557,0.875,1.05 F,1,91869,92557,0.5,0 C,0,91869,,154,78,78 M,0,94972,,478,173 S,0,94972,95660,0.875,1.05 F,1,94972,95660,0.5,0 C,0,94972,,0,128,128 M,0,97386,,418,200 S,0,97386,98074,0.875,1.05 F,1,97386,98074,0.5,0 C,0,97386,,154,78,78 M,0,98938,,232,359 S,0,98938,99626,0.875,1.05 F,1,98938,99626,0.5,0 C,0,98938,,89,172,255 P,0,45317,,A
Sprite,Overlay,Centre,"sb/4.png",0,0 M,0,45490,,487,162 S,0,45490,46178,0.875,1.05 F,1,45748,46436,0.6,0 C,0,45490,,154,78,78 M,0,45490,45533,487,162,505.1988,144.049 M,0,45533,45576,505.1988,144.049,517.469,121.7075 M,0,45576,45619,517.469,121.7075,505.3467,143.851 M,0,45619,45662,505.3467,143.851,487.1869,161.8382 M,0,45662,45705,487.1869,161.8382,505.0508,144.247 M,0,45705,45748,505.0508,144.247,517.5077,121.5902 M,0,47559,,205,406 S,0,47559,48247,0.875,1.05 F,1,47559,48247,0.4,0 C,0,47559,,89,172,255 M,0,50317,,401,173 S,0,50317,51005,0.875,1.05 F,1,50317,51005,0.4,0 C,0,50317,,255,128,128 M,0,54455,,488,298 S,0,54455,55143,0.875,1.05 F,1,54455,55143,0.4,0 C,0,54455,,0,128,128 M,0,65059,,378,256 S,0,65059,65747,0.875,1.05 F,1,65059,65747,0.6,0 C,0,65059,,89,172,255 M,0,74714,,322,207 S,0,74714,75402,0.875,1.05 F,1,74714,75402,0.6,0 C,0,74714,,154,78,78 M,0,76093,,310,202 S,0,76093,76781,0.875,1.05 F,1,76093,76781,0.6,0 C,0,76093,,89,172,255 M,0,80231,,429,373 S,0,80231,80919,0.875,1.05 F,1,80231,80919,0.5,0 C,0,80231,,154,78,78 M,0,97559,,522,263 S,0,97559,98247,0.875,1.05 F,1,97559,98247,0.5,0 P,0,45490,,A
Sprite,Overlay,Centre,"sb/4.png",0,0 M,0,45835,,533,235 S,0,45835,46523,0.875,1.05 F,1,46093,46781,0.6,0 C,0,45835,,154,78,78 M,0,45835,45878,533,235,514.8013,217.049 M,0,45878,45921,514.8013,217.049,502.531,194.7076 M,0,45921,45964,502.531,194.7076,514.6533,216.851 M,0,45964,46007,514.6533,216.851,532.8131,234.8382 M,0,46007,46050,532.8131,234.8382,514.9492,217.247 M,0,46050,46093,514.9492,217.247,502.4923,194.5902 M,0,47645,,222,395 S,0,47645,48333,0.875,1.05 F,1,47645,48333,0.4,0 C,0,47645,,89,172,255 M,0,50404,,418,210 S,0,50404,51092,0.875,1.05 F,1,50404,51092,0.4,0 C,0,50404,,255,128,128 M,0,54541,,479,316 S,0,54541,55229,0.875,1.05 F,1,54541,55229,0.4,0 C,0,54541,,0,128,128 M,0,65404,,210,181 S,0,65404,66092,0.875,1.05 F,1,65404,66092,0.6,0 C,0,65404,,89,172,255 M,0,75231,,399,102 S,0,75231,75919,0.875,1.05 F,1,75231,75919,0.6,0 C,0,75231,,154,78,78 M,0,76610,,187,280 S,0,76610,77298,0.875,1.05 F,1,76610,77298,0.6,0 C,0,76610,,89,172,255 M,0,97731,,573,144 S,0,97731,98419,0.875,1.05 F,1,97731,98419,0.5,0 C,0,97731,,154,78,78 P,0,45835,,A
Sprite,Overlay,Centre,"sb/4.png",0,0 M,0,47731,,231,376 S,0,47731,48419,0.875,1.05 F,1,47731,48419,0.4,0 C,0,47731,,89,172,255 M,0,50490,,435,247 S,0,50490,51178,0.875,1.05 F,1,50490,51178,0.4,0 C,0,50490,,255,128,128 M,0,54628,,460,325 S,0,54628,55316,0.875,1.05 F,1,54628,55316,0.4,0 C,0,54628,,0,128,128 M,0,65576,,246,183 S,0,65576,66264,0.875,1.05 F,1,65576,66264,0.6,0 C,0,65576,,89,172,255 M,0,76438,,192,247 S,0,76438,77126,0.875,1.05 F,1,76438,77126,0.6,0 P,0,47731,,A
Sprite,Overlay,Centre,"sb/4.png",0,0 M,0,47817,,235,355 S,0,47817,48505,0.875,1.05 F,1,47817,48505,0.4,0 C,0,47817,,89,172,255 M,0,50576,,452,284 S,0,50576,51264,0.875,1.05 F,1,50576,51264,0.4,0 C,0,50576,,255,128,128 M,0,54714,,439,329 S,0,54714,55402,0.875,1.05 F,1,54714,55402,0.4,0 C,0,54714,,0,128,128 M,0,66093,,451,330 S,0,66093,66781,0.875,1.05 F,1,66093,66781,0.6,0 C,0,66093,,89,172,255 P,0,47817,,A
Sprite,Overlay,Centre,"sb/4.png",0,0 M,0,47904,,235,334 S,0,47904,48592,0.875,1.05 F,1,47904,48592,0.4,0 C,0,47904,,89,172,255 M,0,50662,,470,320 S,0,50662,51350,0.875,1.05 F,1,50662,51350,0.4,0 C,0,50662,,255,128,128 M,0,54800,,418,331 S,0,54800,55488,0.875,1.05 F,0,54800,,0.6 F,1,55058,55746,0.6,0 M,0,54800,54843,418,331,425.1127,316.6118 M,0,54843,54886,425.1127,316.6118,433.8034,303.1437 M,0,54886,54929,433.8034,303.1437,425.1902,316.478 M,0,54929,54972,425.1902,316.478,418.0669,330.8605 M,0,54972,55015,418.0669,330.8605,425.0352,316.7457 M,0,55015,55058,425.0352,316.7457,433.852,303.0836 P,0,47904,,A
Sprite,Overlay,Centre,"sb/4.png",0,0 M,0,47990,,229,314 S,0,47990,48678,0.875,1.05 F,1,47990,48678,0.4,0 C,0,47990,,89,172,255 M,0,50748,,477,269 S,0,50748,51436,0.875,1.05 F,1,50748,51436,0.4,0 C,0,50748,,255,128,128 P,0,47990,,A
Sprite,Overlay,Centre,"sb/4.png",0,0 M,0,48076,,219,295 S,0,48076,48764,0.875,1.05 F,1,48076,48764,0.4,0 C,0,48076,,89,172,255 M,0,50835,,484,217 S,0,50835,51523,0.875,1.05 F,1,50835,51523,0.4,0 C,0,50835,,255,128,128 P,0,48076,,A
Sprite,Overlay,Centre,"sb/4.png",0,0 M,0,48162,,204,280 S,0,48162,48850,0.875,1.05 F,1,48162,48850,0.4,0 C,0,48162,,89,172,255 M,0,50921,,491,166 S,0,50921,51609,0.875,1.05 F,1,50921,51609,0.4,0 C,0,50921,,255,128,128 P,0,48162,,A
Sprite,Overlay,Centre,"sb/4.png",0,0 M,0,132386,,195,199 S,0,132386,133074,0.875,1.05 F,1,132644,133332,0.6,0 C,0,132386,,255,128,128 M,0,132386,132429,195,199,173.0945,185.6671 M,0,132429,132472,173.0945,185.6671,155.5347,167.0062 M,0,132472,132515,155.5347,167.0062,172.9139,185.498 M,0,132515,132558,172.9139,185.498,194.7823,198.8826 M,0,132558,132601,194.7823,198.8826,173.2751,185.8362 M,0,132601,132644,173.2751,185.8362,155.469,166.9014 M,0,133335,,316,164 S,0,133335,134023,0.875,1.05 F,1,133335,134023,0.4,0 M,0,134800,,476,299 S,0,134800,135488,0.875,1.05 F,0,134800,,0.6 F,1,135058,135746,0.6,0 C,0,134800,,154,78,78 M,0,134800,134843,476,299,450.3733,301.3918 M,0,134843,134886,450.3733,301.3918,424.7466,303.7836 M,0,134886,134929,424.7466,303.7836,450.1267,301.4149 M,0,134929,134972,450.1267,301.4149,475.7534,299.023 M,0,134972,135015,475.7534,299.023,450.6199,301.3688 M,0,135015,135058,450.6199,301.3688,424.6233,303.7952 M,0,135748,,162,329 S,0,135748,136436,0.875,1.05 F,1,135748,136436,0.4,0 C,0,135748,,89,172,255 M,0,137214,,454,347 S,0,137214,137902,0.875,1.05 F,0,137214,,0.6 F,1,137472,138160,0.6,0 C,0,137214,,0,128,128 M,0,137214,137257,454,347,441.1484,369.1558 M,0,137257,137300,441.1484,369.1558,434.2456,393.7654 M,0,137300,137343,434.2456,393.7654,440.7136,369.2372 M,0,137343,137386,440.7136,369.2372,453.8635,347.2062 M,0,137386,137429,453.8635,347.2062,441.2461,368.9285 M,0,137429,137472,441.2461,368.9285,434.2285,393.8879 M,0,138162,,441,178 S,0,138162,138850,0.875,1.05 F,1,138162,138850,0.4,0 C,0,138162,,255,128,128 M,0,139628,,191,277 S,0,139628,140316,0.875,1.05 F,0,139628,,0.6 F,1,139886,140574,0.6,0 C,0,139628,,154,78,78 M,0,139628,139671,191,277,216.6206,279.4568 M,0,139671,139714,216.6206,279.4568,242.2411,281.9135 M,0,139714,139757,242.2411,281.9135,216.8671,279.4804 M,0,139757,139800,216.8671,279.4804,191.2466,277.0236 M,0,139800,139843,191.2466,277.0236,216.374,279.4331 M,0,139843,139886,216.374,279.4331,242.3644,281.9254 M,0,140662,,487,221 S,0,140662,141350,0.875,1.05 F,0,140662,,0.6 F,1,140748,141436,0.6,0 C,0,140662,,89,172,255 M,0,140662,140705,487,221,504.1857,201.9633 M,0,140705,140748,504.1857,201.9633,515.3972,178.7717 M,0,141525,,182,308 S,0,141525,142213,0.875,1.05 F,0,141525,,0.6 F,1,141611,142299,0.6,0 C,0,141525,,0,128,128 M,0,141525,141568,182,308,178.4085,333.3828 M,0,141568,141611,178.4085,333.3828,167.5632,356.7291 M,0,142301,,102,223 S,0,142301,142989,0.875,1.05 F,1,142301,142989,0.4,0 M,0,143766,,202,215 S,0,143766,144454,0.875,1.05 F,1,143766,144454,0.6,0 C,0,143766,,154,78,78 M,0,145145,,521,268 S,0,145145,145833,0.875,1.05 F,1,145145,145833,0.6,0 C,0,145145,,89,172,255 M,0,146524,,294,257 S,0,146524,147212,0.875,1.05 F,1,146524,147212,0.6,0 C,0,146524,,255,128,128 M,0,147904,,299,335 S,0,147904,148592,0.875,1.05 F,1,147904,148592,0.6,0 C,0,147904,,154,78,78 M,0,149283,,268,143 S,0,149283,149971,0.875,1.05 F,1,149283,149971,0.6,0 C,0,149283,,0,128,128 M,0,150662,,472,237 S,0,150662,151350,0.875,1.05 F,1,150662,151350,0.6,0 C,0,150662,,255,128,128 M,0,152041,,239,350 S,0,152041,152729,0.875,1.05 F,1,152041,152729,0.6,0 C,0,152041,,154,78,78 M,0,153421,,275,253 S,0,153421,154109,0.875,1.05 F,1,153421,154109,0.6,0 C,0,153421,,89,172,255 M,0,154800,,204,327 S,0,154800,155488,0.875,1.05 F,1,154800,155488,0.6,0 C,0,154800,,0,128,128 M,0,156179,,529,156 S,0,156179,156867,0.875,1.05 F,1,156179,156867,0.6,0 C,0,156179,,255,128,128 M,0,157559,,182,203 S,0,157559,158247,0.875,1.05 F,1,157559,158247,0.6,0 C,0,157559,,154,78,78 M,0,158938,,259,268 S,0,158938,159626,0.875,1.05 F,1,158938,159626,0.6,0 C,0,158938,,89,172,255 M,0,160317,,552,87 S,0,160317,161005,0.875,1.05 F,1,160317,161005,0.6,0 C,0,160317,,0,128,128 M,0,161697,,390,351 S,0,161697,162385,0.875,1.05 F,1,161697,162385,0.6,0 C,0,161697,,255,128,128 M,0,163076,,236,241 S,0,163076,163764,0.875,1.05 F,1,163076,163764,0.6,0 C,0,163076,,89,172,255 M,0,164455,,374,130 S,0,164455,165143,0.875,1.05 F,1,164455,165143,0.6,0 C,0,164455,,0,128,128 M,0,165835,,345,388 S,0,165835,166523,0.875,1.05 F,1,165835,166523,0.5,0 C,0,165835,,255,128,128 M,0,167214,,89,270 S,0,167214,167902,0.875,1.05 F,1,167214,167902,0.5,0 C,0,167214,,154,78,78 M,0,168593,,191,197 S,0,168593,169281,0.875,1.05 F,1,168593,169281,0.5,0 C,0,168593,,89,172,255 M,0,169973,,527,257 S,0,169973,170661,0.875,1.05 F,1,169973,170661,0.5,0 C,0,169973,,0,128,128 M,0,171352,,201,344 S,0,171352,172040,0.875,1.05 F,1,171352,172040,0.5,0 C,0,171352,,255,128,128 M,0,172731,,196,276 S,0,172731,173419,0.875,1.05 F,1,172731,173419,0.5,0 C,0,172731,,154,78,78 M,0,174110,,293,311 S,0,174110,174798,0.875,1.05 F,1,174110,174798,0.5,0 C,0,174110,,89,172,255 M,0,175490,,311,408 S,0,175490,176178,0.875,1.05 F,1,175490,176178,0.5,0 C,0,175490,,0,128,128 M,0,176869,,298,289 S,0,176869,177557,0.875,1.05 F,1,176869,177557,0.5,0 C,0,176869,,255,128,128 M,0,178248,,229,283 S,0,178248,178936,0.875,1.05 F,1,178248,178936,0.5,0 C,0,178248,,154,78,78 M,0,179628,,487,203 S,0,179628,180316,0.875,1.05 F,1,179628,180316,0.5,0 C,0,179628,,89,172,255 M,0,181007,,93,182 S,0,181007,181695,0.875,1.05 F,1,181007,181695,0.5,0 C,0,181007,,0,128,128 M,0,182386,,533,242 S,0,182386,183074,0.875,1.05 F,1,182386,183074,0.5,0 C,0,182386,,255,128,128 M,0,183766,,199,143 S,0,183766,184454,0.875,1.05 F,1,183766,184454,0.5,0 C,0,183766,,154,78,78 M,0,185145,,434,280 S,0,185145,185833,0.875,1.05 F,1,185145,185833,0.5,0 C,0,185145,,89,172,255 M,0,186524,,533,131 S,0,186524,187212,0.875,1.05 F,1,186524,187212,0.5,0 C,0,186524,,0,128,128 P,0,132386,,A
Sprite,Overlay,Centre,"sb/4.png",0,0 M,0,132731,,250,264 S,0,132731,133419,0.875,1.05 F,1,132989,133677,0.6,0 C,0,132731,,255,128,128 M,0,132731,132774,250,264,248.5085,289.6163 M,0,132774,132817,248.5085,289.6163,240.9622,314.1211 M,0,132817,132860,240.9622,314.1211,248.4503,289.8568 M,0,132860,132903,248.4503,289.8568,249.9976,264.2474 M,0,132903,132946,249.9976,264.2474,248.5667,289.3758 M,0,132946,132989,248.5667,289.3758,240.9067,314.2316 M,0,133679,,375,168 S,0,133679,134367,0.875,1.05 F,1,133679,134367,0.4,0 M,0,135145,,349,394 S,0,135145,135833,0.875,1.05 F,1,135145,135833,0.4,0 C,0,135145,,89,172,255 M,0,136524,,299,261 S,0,136524,137212,0.875,1.05 F,0,136524,,0.6 F,1,136782,137470,0.6,0 C,0,136524,,0,128,128 M,0,136524,136567,299,261,311.8516,238.8443 M,0,136567,136610,311.8516,238.8443,318.7544,214.2345 M,0,136610,136653,318.7544,214.2345,312.2864,238.7628 M,0,136653,136696,312.2864,238.7628,299.1365,260.7938 M,0,136696,136739,299.1365,260.7938,311.7538,239.0715 M,0,136739,136782,311.7538,239.0715,318.7715,214.1121 M,0,137559,,408,266 S,0,137559,138247,0.875,1.05 F,0,137559,,0.6 F,1,137817,138505,0.6,0 M,0,137559,137602,408,266,420.8516,288.1558 M,0,137602,137645,420.8516,288.1558,427.7544,312.7655 M,0,137645,137688,427.7544,312.7655,421.2864,288.2372 M,0,137688,137731,421.2864,288.2372,408.1365,266.2062 M,0,137731,137774,408.1365,266.2062,420.7539,287.9285 M,0,137774,137817,420.7539,287.9285,427.7715,312.8879 M,0,138507,,364,204 S,0,138507,139195,0.875,1.05 F,1,138507,139195,0.4,0 C,0,138507,,255,128,128 M,0,139973,,341,217 S,0,139973,140661,0.875,1.05 F,0,139973,,0.6 F,1,140231,140919,0.6,0 C,0,139973,,154,78,78 M,0,139973,140016,341,217,315.3795,214.5432 M,0,140016,140059,315.3795,214.5432,289.7589,212.0865 M,0,140059,140102,289.7589,212.0865,315.1329,214.5196 M,0,140102,140145,315.1329,214.5196,340.7534,216.9764 M,0,140145,140188,340.7534,216.9764,315.626,214.5669 M,0,140188,140231,315.626,214.5669,289.6356,212.0746 M,0,141007,,410,257 S,0,141007,141695,0.875,1.05 F,0,141007,,0.6 F,1,141093,141781,0.6,0 C,0,141007,,89,172,255 M,0,141007,141050,410,257,427.1857,276.0367 M,0,141050,141093,427.1857,276.0367,438.3972,299.2283 M,0,141870,,105,124 S,0,141870,142558,0.875,1.05 F,0,141870,,0.6 F,1,141956,142644,0.6,0 C,0,141870,,0,128,128 M,0,141870,141913,105,124,101.7212,98.56786 M,0,141913,141956,101.7212,98.56786,91.15933,75.07468 M,0,142646,,98,234 S,0,142646,143334,0.875,1.05 F,1,142646,143334,0.4,0 M,0,144110,,397,356 S,0,144110,144798,0.875,1.05 F,1,144110,144798,0.6,0 C,0,144110,,154,78,78 M,0,145490,,399,192 S,0,145490,146178,0.875,1.05 F,1,145490,146178,0.6,0 C,0,145490,,0,128,128 M,0,146869,,302,243 S,0,146869,147557,0.875,1.05 F,1,146869,147557,0.6,0 C,0,146869,,255,128,128 M,0,148248,,369,118 S,0,148248,148936,0.875,1.05 F,1,148248,148936,0.6,0 C,0,148248,,89,172,255 M,0,149628,,175,301 S,0,149628,150316,0.875,1.05 F,1,149628,150316,0.6,0 C,0,149628,,0,128,128 M,0,151007,,502,359 S,0,151007,151695,0.875,1.05 F,1,151007,151695,0.6,0 C,0,151007,,255,128,128 M,0,152386,,239,350 S,0,152386,153074,0.875,1.05 F,1,152386,153074,0.6,0 C,0,152386,,154,78,78 M,0,153766,,450,148 S,0,153766,154454,0.875,1.05 F,1,153766,154454,0.6,0 C,0,153766,,89,172,255 M,0,155145,,493,215 S,0,155145,155833,0.875,1.05 F,1,155145,155833,0.6,0 C,0,155145,,0,128,128 M,0,156524,,457,272 S,0,156524,157212,0.875,1.05 F,1,156524,157212,0.6,0 C,0,156524,,255,128,128 M,0,157904,,182,203 S,0,157904,158592,0.875,1.05 F,1,157904,158592,0.6,0 C,0,157904,,154,78,78 M,0,159283,,229,355 S,0,159283,159971,0.875,1.05 F,1,159283,159971,0.6,0 C,0,159283,,89,172,255 M,0,160662,,374,79 S,0,160662,161350,0.875,1.05 F,1,160662,161350,0.6,0 C,0,160662,,0,128,128 M,0,162041,,151,260 S,0,162041,162729,0.875,1.05 F,1,162041,162729,0.6,0 C,0,162041,,154,78,78 M,0,163421,,382,345 S,0,163421,164109,0.875,1.05 F,1,163421,164109,0.6,0 C,0,163421,,89,172,255 M,0,164800,,237,157 S,0,164800,165488,0.875,1.05 F,1,164800,165488,0.6,0 C,0,164800,,0,128,128 M,0,166179,,385,260 S,0,166179,166867,0.875,1.05 F,0,166179,,0.7 F,1,166351,167039,0.7,0 C,0,166179,,255,128,128 M,0,166179,166222,385,260,363.7579,249.7737 M,0,166222,166265,363.7579,249.7737,343.6247,237.5223 M,0,166265,166308,343.6247,237.5223,324.8716,223.2474 M,0,166308,166351,324.8716,223.2474,307.5455,206.9378 M,0,167386,,290,415 S,0,167386,168074,0.875,1.05 F,1,167386,168074,0.5,0 C,0,167386,,154,78,78 M,0,168766,,169,375 S,0,168766,169454,0.875,1.05 F,1,168766,169454,0.5,0 C,0,168766,,89,172,255 M,0,170145,,349,168 S,0,170145,170833,0.875,1.05 F,1,170145,170833,0.5,0 C,0,170145,,0,128,128 M,0,171524,,190,142 S,0,171524,172212,0.875,1.05 F,1,171524,172212,0.5,0 C,0,171524,,255,128,128 M,0,172904,,330,344 S,0,172904,173592,0.875,1.05 F,1,172904,173592,0.5,0 C,0,172904,,154,78,78 M,0,174282,,441,236 S,0,174282,174970,0.875,1.05 F,1,174282,174970,0.5,0 C,0,174282,,89,172,255 M,0,175662,,486,354 S,0,175662,176350,0.875,1.05 F,1,175662,176350,0.5,0 C,0,175662,,0,128,128 M,0,177041,,455,288 S,0,177041,177729,0.875,1.05 F,1,177041,177729,0.5,0 C,0,177041,,255,128,128 M,0,178421,,71,215 S,0,178421,179109,0.875,1.05 F,1,178421,179109,0.5,0 C,0,178421,,154,78,78 M,0,179800,,565,331 S,0,179800,180488,0.875,1.05 F,1,179800,180488,0.5,0 C,0,179800,,89,172,255 M,0,181179,,208,84 S,0,181179,181867,0.875,1.05 F,1,181179,181867,0.5,0 C,0,181179,,0,128,128 M,0,182559,,445,97 S,0,182559,183247,0.875,1.05 F,1,182559,183247,0.5,0 C,0,182559,,255,128,128 M,0,183938,,157,303 S,0,183938,184626,0.875,1.05 F,1,183938,184626,0.5,0 C,0,183938,,154,78,78 M,0,185317,,527,179 S,0,185317,186005,0.875,1.05 F,1,185317,186005,0.5,0 C,0,185317,,89,172,255 M,0,186697,,307,223 S,0,186697,187385,0.875,1.05 F,1,186697,187385,0.5,0 C,0,186697,,0,128,128 P,0,132731,,A
Sprite,Overlay,Centre,"sb/4.png",0,0 M,0,133076,,277,187 S,0,133076,133764,0.875,1.05 F,1,133076,133764,0.4,0 C,0,133076,,255,128,128 M,0,134455,,348,270 S,0,134455,135143,0.875,1.05 F,0,134455,,0.6 F,1,134713,135401,0.6,0 C,0,134455,,154,78,78 M,0,134455,134498,348,270,373.6267,267.6082 M,0,134498,134541,373.6267,267.6082,399.2534,265.2164 M,0,134541,134584,399.2534,265.2164,373.8733,267.5851 M,0,134584,134627,373.8733,267.5851,348.2466,269.977 M,0,134627,134670,348.2466,269.977,373.3801,267.6312 M,0,134670,134713,373.3801,267.6312,399.3767,265.2048 M,0,135404,,261,401 S,0,135404,136092,0.875,1.05 F,1,135404,136092,0.4,0 C,0,135404,,89,172,255 M,0,136869,,345,342 S,0,136869,137557,0.875,1.05 F,0,136869,,0.6 F,1,137127,137815,0.6,0 C,0,136869,,0,128,128 M,0,136869,136912,345,342,332.1484,319.8442 M,0,136912,136955,332.1484,319.8442,325.2456,295.2346 M,0,136955,136998,325.2456,295.2346,331.7136,319.7628 M,0,136998,137041,331.7136,319.7628,344.8635,341.7938 M,0,137041,137084,344.8635,341.7938,332.2461,320.0715 M,0,137084,137127,332.2461,320.0715,325.2285,295.1121 M,0,137904,,491,217 S,0,137904,138592,0.875,1.05 F,1,137904,138592,0.4,0 C,0,137904,,255,128,128 M,0,139283,,173,241 S,0,139283,139971,0.875,1.05 F,0,139283,,0.6 F,1,139541,140229,0.6,0 C,0,139283,,154,78,78 M,0,139283,139326,173,241,147.3794,238.5432 M,0,139326,139369,147.3794,238.5432,121.7589,236.0865 M,0,139369,139412,121.7589,236.0865,147.1329,238.5196 M,0,139412,139455,147.1329,238.5196,172.7534,240.9764 M,0,139455,139498,172.7534,240.9764,147.626,238.5669 M,0,139498,139541,147.626,238.5669,121.6356,236.0746 M,0,140318,,359,253 S,0,140318,141006,0.875,1.05 F,0,140318,,0.6 F,1,140576,141264,0.6,0 M,0,140318,140361,359,253,384.6205,255.4568 M,0,140361,140404,384.6205,255.4568,410.2411,257.9135 M,0,140404,140447,410.2411,257.9135,384.8671,255.4804 M,0,140447,140490,384.8671,255.4804,359.2466,253.0236 M,0,140490,140533,359.2466,253.0236,384.374,255.4331 M,0,140533,140576,384.374,255.4331,410.3644,257.9254 M,0,141352,,251,234 S,0,141352,142040,0.875,1.05 F,0,141352,,0.6 F,1,141438,142126,0.6,0 C,0,141352,,0,128,128 M,0,141352,141395,251,234,268.1857,253.0367 M,0,141395,141438,268.1857,253.0367,279.3972,276.2283 M,0,142128,,86,270 S,0,142128,142816,0.875,1.05 F,1,142128,142816,0.4,0 M,0,143593,,338,276 S,0,143593,144281,0.875,1.05 F,0,143593,,0.8 F,1,143679,144367,0.8,0 C,0,143593,,154,78,78 M,0,143593,143636,338,276,310.7823,288.5149 M,0,143636,143679,310.7823,288.5149,281.5057,295.4238 M,0,144455,,521,268 S,0,144455,145143,0.875,1.05 F,1,144455,145143,0.6,0 C,0,144455,,89,172,255 M,0,145835,,399,192 S,0,145835,146523,0.875,1.05 F,1,145835,146523,0.6,0 C,0,145835,,0,128,128 M,0,147214,,308,229 S,0,147214,147902,0.875,1.05 F,1,147214,147902,0.6,0 C,0,147214,,255,128,128 M,0,148593,,474,328 S,0,148593,149281,0.875,1.05 F,1,148593,149281,0.6,0 C,0,148593,,89,172,255 M,0,149973,,423,375 S,0,149973,150661,0.875,1.05 F,1,149973,150661,0.6,0 C,0,149973,,0,128,128 M,0,151352,,359,236 S,0,151352,152040,0.875,1.05 F,1,151352,152040,0.6,0 C,0,151352,,255,128,128 M,0,152730,,239,350 S,0,152730,153418,0.875,1.05 F,1,152730,153418,0.6,0 C,0,152730,,154,78,78 M,0,154110,,281,75 S,0,154110,154798,0.875,1.05 F,0,154110,,0.8 F,1,154196,154884,0.8,0 C,0,154110,,89,172,255 M,0,154110,154153,281,75,284.0307,104.8744 M,0,154153,154196,284.0307,104.8744,287.076,134.8926 M,0,154973,,335,394 S,0,154973,155661,0.875,1.05 F,1,154973,155661,0.6,0 C,0,154973,,0,128,128 M,0,156351,,532,141 S,0,156351,157039,0.875,1.05 F,1,156351,157039,0.6,0 C,0,156351,,255,128,128 M,0,157731,,355,249 S,0,157731,158419,0.875,1.05 F,1,157731,158419,0.6,0 C,0,157731,,154,78,78 M,0,159111,,86,209 S,0,159111,159799,0.875,1.05 F,1,159111,159799,0.6,0 C,0,159111,,89,172,255 M,0,160490,,444,253 S,0,160490,161178,0.875,1.05 F,1,160490,161178,0.6,0 C,0,160490,,0,128,128 M,0,161869,,321,196 S,0,161869,162557,0.875,1.05 F,1,161869,162557,0.6,0 C,0,161869,,255,128,128 M,0,163248,,339,138 S,0,163248,163936,0.875,1.05 F,1,163248,163936,0.6,0 C,0,163248,,89,172,255 M,0,164628,,283,77 S,0,164628,165316,0.875,1.05 F,1,164628,165316,0.6,0 C,0,164628,,0,128,128 M,0,166007,,494,342 S,0,166007,166695,0.875,1.05 F,1,166007,166695,0.5,0 C,0,166007,,255,128,128 M,0,167559,,382,329 S,0,167559,168247,0.875,1.05 F,0,167559,,0.7 F,1,167731,168419,0.7,0 C,0,167559,,154,78,78 M,0,167559,167602,382,329,404.7831,322.9235 M,0,167602,167645,404.7831,322.9235,427.9858,318.7539 M,0,167645,167688,427.9858,318.7539,451.4686,316.6522 M,0,167688,167731,451.4686,316.6522,475.2772,316.6243 M,0,168507,,191,197 S,0,168507,169195,0.875,1.05 F,1,168507,169195,0.5,0 C,0,168507,,89,172,255 M,0,170317,,308,362 S,0,170317,171005,0.875,1.05 F,0,170317,,0.7 F,1,170489,171177,0.7,0 C,0,170317,,0,128,128 M,0,170317,170360,308,362,331.409,359.6186 M,0,170360,170403,331.409,359.6186,354.0226,353.192 M,0,170403,170446,354.0226,353.192,375.0512,342.6413 M,0,170446,170489,375.0512,342.6413,393.7031,327.9406 M,0,171697,,138,311 S,0,171697,172385,0.875,1.05 F,1,171697,172385,0.5,0 C,0,171697,,255,128,128 M,0,173076,,215,165 S,0,173076,173764,0.875,1.05 F,0,173076,,0.7 F,1,173248,173936,0.7,0 C,0,173076,,154,78,78 M,0,173076,173119,215,165,191.4639,165.3656 M,0,173119,173162,191.4639,165.3656,168.3201,169.5544 M,0,173162,173205,168.3201,169.5544,146.2478,177.7139 M,0,173205,173248,146.2478,177.7139,125.7417,189.7453 M,0,173938,,454,268 S,0,173938,174626,0.875,1.05 F,1,173938,174626,0.5,0 C,0,173938,,89,172,255 M,0,175317,,309,228 S,0,175317,176005,0.875,1.05 F,1,175317,176005,0.5,0 C,0,175317,,0,128,128 M,0,176783,,298,289 S,0,176783,177471,0.875,1.05 F,1,176783,177471,0.5,0 C,0,176783,,255,128,128 M,0,178593,,325,125 S,0,178593,179281,0.875,1.05 F,0,178593,,0.7 F,1,178765,179453,0.7,0 C,0,178593,,154,78,78 M,0,178593,178636,325,125,327.7567,148.4316 M,0,178636,178679,327.7567,148.4316,330.5133,171.8633 M,0,178679,178722,330.5133,171.8633,333.27,195.2949 M,0,178722,178765,333.27,195.2949,336.0532,218.9521 M,0,179973,,348,409 S,0,179973,180661,0.875,1.05 F,0,179973,,0.7 F,1,180145,180833,0.7,0 C,0,179973,,89,172,255 M,0,179973,180016,348,409,327.2378,397.8716 M,0,180016,180059,327.2378,397.8716,308.1351,384.106 M,0,180059,180102,308.1351,384.106,291.1659,367.7633 M,0,180102,180145,291.1659,367.7633,276.6337,348.9208 M,0,180921,,93,182 S,0,180921,181609,0.875,1.05 F,1,180921,181609,0.5,0 C,0,180921,,0,128,128 M,0,182731,,431,264 S,0,182731,183419,0.875,1.05 F,1,182731,183419,0.5,0 C,0,182731,,255,128,128 M,0,184110,,85,194 S,0,184110,184798,0.875,1.05 F,0,184110,,0.7 F,1,184282,184970,0.7,0 C,0,184110,,154,78,78 M,0,184110,184153,85,194,77.82936,171.5516 M,0,184153,184196,77.82936,171.5516,73.3399,148.4281 M,0,184196,184239,73.3399,148.4281,71.77758,124.9206 M,0,184239,184282,71.77758,124.9206,73.15569,101.1646 M,0,184973,,439,253 S,0,184973,185661,0.875,1.05 F,1,184973,185661,0.5,0 C,0,184973,,89,172,255 M,0,186352,,525,159 S,0,186352,187040,0.875,1.05 F,1,186352,187040,0.5,0 C,0,186352,,0,128,128 P,0,133076,,A
Sprite,Overlay,Centre,"sb/4.png",0,0 M,0,133162,,288,176 S,0,133162,133850,0.875,1.05 F,1,133162,133850,0.4,0 C,0,133162,,255,128,128 M,0,135231,,324,402 S,0,135231,135919,0.875,1.05 F,1,135231,135919,0.4,0 C,0,135231,,89,172,255 M,0,137990,,473,206 S,0,137990,138678,0.875,1.05 F,1,137990,138678,0.4,0 C,0,137990,,255,128,128 M,0,140835,,418,147 S,0,140835,141523,0.875,1.05 F,0,140835,,0.6 F,1,140921,141609,0.6,0 C,0,140835,,89,172,255 M,0,140835,140878,418,147,414.7212,121.5679 M,0,140878,140921,414.7212,121.5679,404.1593,98.07469 M,0,141697,,174,198 S,0,141697,142385,0.875,1.05 F,0,141697,,0.6 F,1,141783,142471,0.6,0 C,0,141697,,0,128,128 M,0,141697,141740,174,198,191.1857,178.9633 M,0,141740,141783,191.1857,178.9633,202.3972,155.7717 M,0,142473,,90,258 S,0,142473,143161,0.875,1.05 F,1,142473,143161,0.4,0 M,0,143938,,418,227 S,0,143938,144626,0.875,1.05 F,1,143938,144626,0.6,0 C,0,143938,,154,78,78 M,0,145318,,538,108 S,0,145318,146006,0.875,1.05 F,1,145318,146006,0.6,0 C,0,145318,,89,172,255 M,0,146697,,286,116 S,0,146697,147385,0.875,1.05 F,1,146697,147385,0.6,0 C,0,146697,,255,128,128 M,0,148076,,299,335 S,0,148076,148764,0.875,1.05 F,1,148076,148764,0.6,0 C,0,148076,,154,78,78 M,0,149455,,346,308 S,0,149455,150143,0.875,1.05 F,1,149455,150143,0.6,0 C,0,149455,,0,128,128 M,0,150835,,480,208 S,0,150835,151523,0.875,1.05 F,1,150835,151523,0.6,0 C,0,150835,,255,128,128 M,0,152213,,186,189 S,0,152213,152901,0.875,1.05 F,1,152213,152901,0.6,0 C,0,152213,,154,78,78 M,0,153593,,402,153 S,0,153593,154281,0.875,1.05 F,1,153593,154281,0.6,0 C,0,153593,,89,172,255 M,0,155317,,358,256 S,0,155317,156005,0.875,1.05 F,1,155317,156005,0.6,0 C,0,155317,,0,128,128 M,0,156696,,251,221 S,0,156696,157384,0.875,1.05 F,1,156696,157384,0.6,0 C,0,156696,,255,128,128 M,0,158076,,355,249 S,0,158076,158764,0.875,1.05 F,1,158076,158764,0.6,0 C,0,158076,,154,78,78 M,0,159456,,288,182 S,0,159456,160144,0.875,1.05 F,1,159456,160144,0.6,0 C,0,159456,,89,172,255 M,0,160835,,563,209 S,0,160835,161523,0.875,1.05 F,1,160835,161523,0.6,0 C,0,160835,,0,128,128 M,0,162214,,309,294 S,0,162214,162902,0.875,1.05 F,1,162214,162902,0.6,0 C,0,162214,,154,78,78 M,0,163593,,386,311 S,0,163593,164281,0.875,1.05 F,1,163593,164281,0.6,0 C,0,163593,,89,172,255 M,0,164973,,235,169 S,0,164973,165661,0.875,1.05 F,1,164973,165661,0.6,0 C,0,164973,,0,128,128 M,0,166438,,295,186 S,0,166438,167126,0.875,1.05 F,1,166438,167126,0.5,0 C,0,166438,,255,128,128 M,0,167904,,340,207 S,0,167904,168592,0.875,1.05 F,1,167904,168592,0.5,0 C,0,167904,,154,78,78 M,0,169283,,448,185 S,0,169283,169971,0.875,1.05 F,1,169283,169971,0.5,0 C,0,169283,,89,172,255 M,0,170662,,215,236 S,0,170662,171350,0.875,1.05 F,0,170662,,0.7 F,1,170834,171522,0.7,0 C,0,170662,,0,128,128 M,0,170662,170705,215,236,191.591,233.6186 M,0,170705,170748,191.591,233.6186,168.9774,227.192 M,0,170748,170791,168.9774,227.192,147.9488,216.6413 M,0,170791,170834,147.9488,216.6413,129.2969,201.9406 M,0,171869,,252,174 S,0,171869,172557,0.875,1.05 F,1,171869,172557,0.5,0 C,0,171869,,255,128,128 M,0,173421,,341,202 S,0,173421,174109,0.875,1.05 F,0,173421,,0.7 F,1,173593,174281,0.7,0 C,0,173421,,154,78,78 M,0,173421,173464,341,202,343.5797,178.5482 M,0,173464,173507,343.5797,178.5482,346.1594,155.0964 M,0,173507,173550,346.1594,155.0964,348.7391,131.6447 M,0,173550,173593,348.7391,131.6447,351.3436,107.9672 M,0,174455,,315,313 S,0,174455,175143,0.875,1.05 F,1,174455,175143,0.5,0 C,0,174455,,89,172,255 M,0,175835,,256,319 S,0,175835,176523,0.875,1.05 F,1,175835,176523,0.5,0 C,0,175835,,0,128,128 M,0,177214,,341,98 S,0,177214,177902,0.875,1.05 F,0,177214,,0.7 F,1,177386,178074,0.7,0 C,0,177214,,255,128,128 M,0,177214,177257,341,98,363.971,92.97475 M,0,177257,177300,363.971,92.97475,387.4507,92.66052 M,0,177300,177343,387.4507,92.66052,410.4622,97.36922 M,0,177343,177386,410.4622,97.36922,432.1369,107.0105 M,0,178852,,343,246 S,0,178852,179540,0.875,1.05 F,1,178852,179540,0.5,0 C,0,178852,,154,78,78 M,0,180317,,224,219 S,0,180317,181005,0.875,1.05 F,1,180317,181005,0.5,0 C,0,180317,,89,172,255 M,0,181697,,405,295 S,0,181697,182385,0.875,1.05 F,0,181697,,0.7 F,1,181869,182557,0.7,0 C,0,181697,,0,128,128 M,0,181697,181740,405,295,424.5236,308.1891 M,0,181740,181783,424.5236,308.1891,445.569,318.7528 M,0,181783,181826,445.569,318.7528,467.8651,326.3362 M,0,181826,181869,467.8651,326.3362,491.2192,330.8167 M,0,182904,,541,137 S,0,182904,183592,0.875,1.05 F,1,182904,183592,0.5,0 C,0,182904,,255,128,128 M,0,184455,,268,239 S,0,184455,185143,0.875,1.05 F,0,184455,,0.7 F,1,184627,185315,0.7,0 C,0,184455,,154,78,78 M,0,184455,184498,268,239,275.1707,261.4484 M,0,184498,184541,275.1707,261.4484,279.6601,284.572 M,0,184541,184584,279.6601,284.572,281.2224,308.0794 M,0,184584,184627,281.2224,308.0794,279.8443,331.8354 M,0,185490,,330,256 S,0,185490,186178,0.875,1.05 F,1,185490,186178,0.5,0 C,0,185490,,89,172,255 M,0,186869,,566,277 S,0,186869,187557,0.875,1.05 F,1,186869,187557,0.5,0 C,0,186869,,0,128,128 P,0,133162,,A
Sprite,Overlay,Centre,"sb/4.png",0,0 M,0,133248,,302,169 S,0,133248,133936,0.875,1.05 F,1,133248,133936,0.4,0 C,0,133248,,255,128,128 M,0,135317,,293,404 S,0,135317,136005,0.875,1.05 F,1,135317,136005,0.4,0 C,0,135317,,89,172,255 M,0,138076,,456,193 S,0,138076,138764,0.875,1.05 F,1,138076,138764,0.4,0 C,0,138076,,255,128,128 M,0,141180,,341,331 S,0,141180,141868,0.875,1.05 F,0,141180,,0.6 F,1,141266,141954,0.6,0 C,0,141180,,89,172,255 M,0,141180,141223,341,331,337.4085,356.3828 M,0,141223,141266,337.4085,356.3828,326.5632,379.7291 M,0,142041,,70,238 S,0,142041,142729,0.875,1.05 F,1,142041,142729,0.4,0 C,0,142041,,0,128,128 M,0,143421,,153,347 S,0,143421,144109,0.875,1.05 F,0,143421,,0.8 F,1,143507,144195,0.8,0 C,0,143421,,154,78,78 M,0,143421,143464,153,347,180.2177,359.5149 M,0,143464,143507,180.2177,359.5149,209.4943,366.4238 M,0,144283,,315,163 S,0,144283,144971,0.875,1.05 F,1,144283,144971,0.6,0 M,0,145663,,416,352 S,0,145663,146351,0.875,1.05 F,1,145663,146351,0.6,0 C,0,145663,,0,128,128 M,0,147042,,278,130 S,0,147042,147730,0.875,1.05 F,1,147042,147730,0.6,0 C,0,147042,,255,128,128 M,0,148421,,369,118 S,0,148421,149109,0.875,1.05 F,1,148421,149109,0.6,0 C,0,148421,,89,172,255 M,0,149800,,358,203 S,0,149800,150488,0.875,1.05 F,1,149800,150488,0.6,0 C,0,149800,,0,128,128 M,0,151179,,480,357 S,0,151179,151867,0.875,1.05 F,1,151179,151867,0.6,0 C,0,151179,,255,128,128 M,0,152558,,186,189 S,0,152558,153246,0.875,1.05 F,1,152558,153246,0.6,0 C,0,152558,,154,78,78 M,0,153938,,496,144 S,0,153938,154626,0.875,1.05 F,1,153938,154626,0.6,0 C,0,153938,,89,172,255 M,0,155490,,519,366 S,0,155490,156178,0.875,1.05 F,1,155490,156178,0.6,0 C,0,155490,,255,128,128 M,0,156869,,361,149 S,0,156869,157557,0.875,1.05 F,1,156869,157557,0.6,0 M,0,158249,,182,203 S,0,158249,158937,0.875,1.05 F,1,158249,158937,0.6,0 C,0,158249,,154,78,78 M,0,159628,,182,203 S,0,159628,160316,0.875,1.05 F,1,159628,160316,0.6,0 C,0,159628,,89,172,255 M,0,161007,,390,351 S,0,161007,161695,0.875,1.05 F,1,161007,161695,0.6,0 C,0,161007,,255,128,128 M,0,162386,,151,260 S,0,162386,163074,0.875,1.05 F,1,162386,163074,0.6,0 C,0,162386,,154,78,78 M,0,163766,,485,415 S,0,163766,164454,0.875,1.05 F,1,163766,164454,0.6,0 C,0,163766,,89,172,255 M,0,165145,,233,181 S,0,165145,165833,0.875,1.05 F,1,165145,165833,0.6,0 C,0,165145,,0,128,128 M,0,166524,,295,186 S,0,166524,167212,0.875,1.05 F,1,166524,167212,0.5,0 C,0,166524,,255,128,128 M,0,168076,,448,404 S,0,168076,168764,0.875,1.05 F,1,168076,168764,0.5,0 C,0,168076,,154,78,78 M,0,169455,,498,414 S,0,169455,170143,0.875,1.05 F,1,169455,170143,0.5,0 C,0,169455,,89,172,255 M,0,171007,,355,73 S,0,171007,171695,0.875,1.05 F,0,171007,,0.7 F,1,171179,171867,0.7,0 C,0,171007,,255,128,128 M,0,171007,171050,355,73,353.4156,96.53998 M,0,171050,171093,353.4156,96.53998,351.8311,120.08 M,0,171093,171136,351.8311,120.08,350.2467,143.6199 M,0,171136,171179,350.2467,143.6199,348.6471,167.3864 M,0,172041,,120,239 S,0,172041,172729,0.875,1.05 F,1,172041,172729,0.5,0 M,0,173766,,263,304 S,0,173766,174454,0.875,1.05 F,1,173766,174454,0.5,0 C,0,173766,,89,172,255 M,0,175145,,402,385 S,0,175145,175833,0.875,1.05 F,1,175145,175833,0.5,0 C,0,175145,,0,128,128 M,0,176524,,371,200 S,0,176524,177212,0.875,1.05 F,0,176524,,0.7 F,1,176696,177384,0.7,0 C,0,176524,,255,128,128 M,0,176524,176567,371,200,361.8158,221.699 M,0,176567,176610,361.8158,221.699,349.9774,242.0569 M,0,176610,176653,349.9774,242.0569,335.5148,260.6451 M,0,176653,176696,335.5148,260.6451,318.5121,277.2711 M,0,177559,,246,176 S,0,177559,178247,0.875,1.05 F,0,177559,,0.7 F,1,177731,178419,0.7,0 M,0,177559,177602,246,176,222.7278,172.1213 M,0,177602,177645,222.7278,172.1213,199.4555,168.2426 M,0,177645,177688,199.4555,168.2426,176.1833,164.3639 M,0,177688,177731,176.1833,164.3639,152.6871,160.4478 M,0,178938,,343,246 S,0,178938,179626,0.875,1.05 F,1,178938,179626,0.5,0 C,0,178938,,154,78,78 M,0,180490,,169,419 S,0,180490,181178,0.875,1.05 F,1,180490,181178,0.5,0 C,0,180490,,89,172,255 M,0,182041,,464,183 S,0,182041,182729,0.875,1.05 F,1,182041,182729,0.5,0 C,0,182041,,255,128,128 M,0,183421,,345,87 S,0,183421,184109,0.875,1.05 F,0,183421,,0.7 F,1,183679,184367,0.7,0 C,0,183421,,154,78,78 M,0,183421,183464,345,87,321.5446,84.81821 M,0,183464,183507,321.5446,84.81821,298.0296,85.92156 M,0,183507,183550,298.0296,85.92156,274.9351,90.48951 M,0,183550,183593,274.9351,90.48951,252.7683,98.42213 M,0,183593,183636,252.7683,98.42213,232.0161,109.5458 M,0,183636,183679,232.0161,109.5458,212.8836,123.847 M,0,184800,,357,155 S,0,184800,185488,0.875,1.05 F,1,184800,185488,0.5,0 C,0,184800,,89,172,255 M,0,186179,,425,355 S,0,186179,186867,0.875,1.05 F,1,186179,186867,0.5,0 C,0,186179,,0,128,128 P,0,133248,,A
Sprite,Overlay,Centre,"sb/4.png",0,0 M,0,133421,,331,161 S,0,133421,134109,0.875,1.05 F,1,133421,134109,0.4,0 C,0,133421,,255,128,128 M,0,135490,,231,392 S,0,135490,136178,0.875,1.05 F,1,135490,136178,0.4,0 C,0,135490,,89,172,255 M,0,138248,,428,161 S,0,138248,138936,0.875,1.05 F,1,138248,138936,0.4,0 C,0,138248,,255,128,128 M,0,142214,,118,255 S,0,142214,142902,0.875,1.05 F,1,142214,142902,0.4,0 C,0,142214,,0,128,128 M,0,144628,,538,108 S,0,144628,145316,0.875,1.05 F,1,144628,145316,0.6,0 C,0,144628,,89,172,255 M,0,146008,,416,352 S,0,146008,146696,0.875,1.05 F,1,146008,146696,0.6,0 C,0,146008,,0,128,128 M,0,147387,,272,144 S,0,147387,148075,0.875,1.05 F,1,147387,148075,0.6,0 C,0,147387,,255,128,128 M,0,148766,,474,328 S,0,148766,149454,0.875,1.05 F,1,148766,149454,0.6,0 C,0,148766,,89,172,255 M,0,150145,,262,247 S,0,150145,150833,0.875,1.05 F,1,150145,150833,0.6,0 C,0,150145,,0,128,128 M,0,151524,,337,238 S,0,151524,152212,0.875,1.05 F,1,151524,152212,0.6,0 C,0,151524,,255,128,128 M,0,152904,,186,189 S,0,152904,153592,0.875,1.05 F,1,152904,153592,0.6,0 C,0,152904,,154,78,78 M,0,154283,,184,207 S,0,154283,154971,0.875,1.05 F,1,154283,154971,0.6,0 C,0,154283,,89,172,255 M,0,155662,,522,351 S,0,155662,156350,0.875,1.05 F,1,155662,156350,0.6,0 C,0,155662,,255,128,128 M,0,157041,,302,339 S,0,157041,157729,0.875,1.05 F,1,157041,157729,0.6,0 M,0,158421,,355,249 S,0,158421,159109,0.875,1.05 F,1,158421,159109,0.6,0 C,0,158421,,154,78,78 M,0,159801,,355,262 S,0,159801,160489,0.875,1.05 F,1,159801,160489,0.6,0 C,0,159801,,89,172,255 M,0,161179,,321,196 S,0,161179,161867,0.875,1.05 F,1,161179,161867,0.6,0 C,0,161179,,255,128,128 M,0,162559,,309,294 S,0,162559,163247,0.875,1.05 F,1,162559,163247,0.6,0 C,0,162559,,154,78,78 M,0,163938,,530,234 S,0,163938,164626,0.875,1.05 F,1,163938,164626,0.6,0 C,0,163938,,89,172,255 M,0,165317,,153,291 S,0,165317,166005,0.875,1.05 F,0,165317,,0.8 F,1,165403,166091,0.8,0 C,0,165317,,0,128,128 M,0,165317,165360,153,291,160.6839,320.028 M,0,165360,165403,160.6839,320.028,168.4047,349.1956 M,0,166697,,507,227 S,0,166697,167385,0.875,1.05 F,1,166697,167385,0.5,0 C,0,166697,,255,128,128 M,0,168248,,252,295 S,0,168248,168936,0.875,1.05 F,0,168248,,0.7 F,1,168420,169108,0.7,0 C,0,168248,,89,172,255 M,0,168248,168291,252,295,234.2299,279.5347 M,0,168291,168334,234.2299,279.5347,218.6681,261.8657 M,0,168334,168377,218.6681,261.8657,205.758,242.1651 M,0,168377,168420,205.758,242.1651,195.6783,220.6118 M,0,169541,,498,414 S,0,169541,170229,0.875,1.05 F,1,169541,170229,0.5,0 M,0,172213,,270,246 S,0,172213,172901,0.875,1.05 F,1,172213,172901,0.5,0 C,0,172213,,255,128,128 M,0,174627,,419,234 S,0,174627,175315,0.875,1.05 F,1,174627,175315,0.5,0 C,0,174627,,89,172,255 M,0,176007,,402,385 S,0,176007,176695,0.875,1.05 F,1,176007,176695,0.5,0 C,0,176007,,0,128,128 M,0,177904,,83,334 S,0,177904,178592,0.875,1.05 F,0,177904,,0.7 F,1,178162,178850,0.7,0 C,0,177904,,154,78,78 M,0,177904,177947,83,334,98.73734,316.4867 M,0,177947,177990,98.73734,316.4867,117.0556,301.7271 M,0,177990,178033,117.0556,301.7271,137.613,290.2885 M,0,178033,178076,137.613,290.2885,159.8141,282.5027 M,0,178076,178119,159.8141,282.5027,183.0159,278.5955 M,0,178119,178162,183.0159,278.5955,206.8845,278.72 M,0,179110,,430,117 S,0,179110,179798,0.875,1.05 F,1,179110,179798,0.5,0 M,0,180662,,111,295 S,0,180662,181350,0.875,1.05 F,0,180662,,0.7 F,1,180834,181522,0.7,0 C,0,180662,,0,128,128 M,0,180662,180705,111,295,107.054,271.7391 M,0,180705,180748,107.054,271.7391,103.1079,248.4782 M,0,180748,180791,103.1079,248.4782,99.16187,225.2173 M,0,180791,180834,99.16187,225.2173,95.17784,201.7325 M,0,182214,,281,311 S,0,182214,182902,0.875,1.05 F,1,182214,182902,0.5,0 C,0,182214,,255,128,128 M,0,185059,,436,266 S,0,185059,185747,0.875,1.05 F,1,185059,185747,0.5,0 C,0,185059,,89,172,255 M,0,186438,,529,145 S,0,186438,187126,0.875,1.05 F,1,186438,187126,0.5,0 C,0,186438,,0,128,128 P,0,133421,,A
Sprite,Overlay,Centre,"sb/4.png",0,0 M,0,133507,,346,161 S,0,133507,134195,0.875,1.05 F,1,133507,134195,0.4,0 C,0,133507,,255,128,128 M,0,135576,,204,376 S,0,135576,136264,0.875,1.05 F,1,135576,136264,0.4,0 C,0,135576,,89,172,255 M,0,138335,,409,179 S,0,138335,139023,0.875,1.05 F,1,138335,139023,0.4,0 C,0,138335,,255,128,128 M,0,142386,,82,242 S,0,142386,143074,0.875,1.05 F,1,142386,143074,0.4,0 C,0,142386,,0,128,128 M,0,144800,,521,268 S,0,144800,145488,0.875,1.05 F,1,144800,145488,0.6,0 C,0,144800,,89,172,255 M,0,146179,,282,267 S,0,146179,146867,0.875,1.05 F,1,146179,146867,0.6,0 C,0,146179,,255,128,128 M,0,147559,,425,229 S,0,147559,148247,0.875,1.05 F,1,147559,148247,0.6,0 C,0,147559,,154,78,78 M,0,148938,,277,249 S,0,148938,149626,0.875,1.05 F,0,148938,,0.8 F,1,149024,149712,0.8,0 C,0,148938,,0,128,128 M,0,148938,148981,277,249,247.6113,242.8379 M,0,148981,149024,247.6113,242.8379,218.0812,236.6461 M,0,150317,,507,225 S,0,150317,151005,0.875,1.05 F,1,150317,151005,0.6,0 C,0,150317,,255,128,128 M,0,151697,,239,350 S,0,151697,152385,0.875,1.05 F,1,151697,152385,0.6,0 C,0,151697,,154,78,78 M,0,153076,,417,260 S,0,153076,153764,0.875,1.05 F,0,153076,,0.8 F,1,153248,153936,0.8,0 C,0,153076,,89,172,255 M,0,153076,153119,417,260,387.0368,258.0316 M,0,153119,153162,387.0368,258.0316,357.0736,256.0632 M,0,153162,153205,357.0736,256.0632,327.1105,254.0948 M,0,153205,153248,327.1105,254.0948,296.8589,252.1075 M,0,154369,,184,207 S,0,154369,155057,0.875,1.05 F,1,154369,155057,0.6,0 M,0,155835,,358,256 S,0,155835,156523,0.875,1.05 F,1,155835,156523,0.6,0 C,0,155835,,255,128,128 M,0,157214,,182,203 S,0,157214,157902,0.875,1.05 F,1,157214,157902,0.6,0 C,0,157214,,154,78,78 M,0,158593,,212,116 S,0,158593,159281,0.875,1.05 F,1,158593,159281,0.6,0 C,0,158593,,89,172,255 M,0,159973,,262,99 S,0,159973,160661,0.875,1.05 F,0,159973,,0.8 F,1,160059,160747,0.8,0 C,0,159973,,0,128,128 M,0,159973,160016,262,99,232.3214,94.43407 M,0,160016,160059,232.3214,94.43407,202.5,89.84616 M,0,161352,,390,351 S,0,161352,162040,0.875,1.05 F,1,161352,162040,0.6,0 C,0,161352,,255,128,128 M,0,162731,,99,379 S,0,162731,163419,0.875,1.05 F,1,162731,163419,0.6,0 C,0,162731,,89,172,255 M,0,164110,,327,228 S,0,164110,164798,0.875,1.05 F,1,164110,164798,0.6,0 C,0,164110,,0,128,128 M,0,165490,,193,434 S,0,165490,166178,0.875,1.05 F,0,165490,,0.7 F,1,165748,166436,0.7,0 C,0,165490,,255,128,128 M,0,165490,165533,193,434,211.6124,419.5427 M,0,165533,165576,211.6124,419.5427,231.7579,407.3327 M,0,165576,165619,231.7579,407.3327,253.2507,397.6857 M,0,165619,165662,253.2507,397.6857,275.7668,390.7476 M,0,165662,165705,275.7668,390.7476,298.967,386.6236 M,0,165705,165748,298.967,386.6236,322.8419,385.3914 M,0,166869,,248,300 S,0,166869,167557,0.875,1.05 F,0,166869,,0.7 F,1,167127,167815,0.7,0 C,0,166869,,154,78,78 M,0,166869,166912,248,300,224.5908,302.8068 M,0,166912,166955,224.5908,302.8068,201.0297,303.4688 M,0,166955,166998,201.0297,303.4688,177.514,301.8371 M,0,166998,167041,177.514,301.8371,154.2653,297.9267 M,0,167041,167084,154.2653,297.9267,131.5031,291.7737 M,0,167084,167127,131.5031,291.7737,109.195,283.1523 M,0,168938,,358,255 S,0,168938,169626,0.875,1.05 F,0,168938,,0.7 F,1,169110,169798,0.7,0 C,0,168938,,89,172,255 M,0,168938,168981,358,255,356.6146,278.5525 M,0,168981,169024,356.6146,278.5525,355.2291,302.105 M,0,169024,169067,355.2291,302.105,353.8437,325.6576 M,0,169067,169110,353.8437,325.6576,352.4449,349.4368 M,0,172386,,222,433 S,0,172386,173074,0.875,1.05 F,0,172386,,0.7 F,1,172644,173332,0.7,0 C,0,172386,,154,78,78 M,0,172386,172429,222,433,209.0856,413.2934 M,0,172429,172472,209.0856,413.2934,198.7887,392.1154 M,0,172472,172515,198.7887,392.1154,191.4595,369.7325 M,0,172515,172558,191.4595,369.7325,187.2341,346.5566 M,0,172558,172601,187.2341,346.5566,186.1924,323.0143 M,0,172601,172644,186.1924,323.0143,188.6274,299.2395 M,0,174800,,339,314 S,0,174800,175488,0.875,1.05 F,1,174800,175488,0.5,0 C,0,174800,,89,172,255 M,0,176179,,208,417 S,0,176179,176867,0.875,1.05 F,1,176179,176867,0.5,0 C,0,176179,,0,128,128 M,0,179283,,442,354 S,0,179283,179971,0.875,1.05 F,0,179283,,0.7 F,1,179541,180229,0.7,0 C,0,179283,,89,172,255 M,0,179283,179326,442,354,438.9905,330.6285 M,0,179326,179369,438.9905,330.6285,438.8885,307.0766 M,0,179369,179412,438.8885,307.0766,441.8755,283.7139 M,0,179412,179455,441.8755,283.7139,447.9003,260.9432 M,0,179455,179498,447.9003,260.9432,456.8596,239.1575 M,0,179498,179541,456.8596,239.1575,468.7205,218.4021 M,0,181352,,337,179 S,0,181352,182040,0.875,1.05 F,0,181352,,0.7 F,1,181524,182212,0.7,0 C,0,181352,,0,128,128 M,0,181352,181395,337,179,317.4764,192.1891 M,0,181395,181438,317.4764,192.1891,296.431,202.7528 M,0,181438,181481,296.431,202.7528,274.1349,210.3361 M,0,181481,181524,274.1349,210.3361,250.7808,214.8167 M,0,183076,,377,175 S,0,183076,183764,0.875,1.05 F,1,183076,183764,0.5,0 C,0,183076,,255,128,128 M,0,185576,,316,253 S,0,185576,186264,0.875,1.05 F,1,185576,186264,0.5,0 C,0,185576,,89,172,255 M,0,186955,,543,271 S,0,186955,187643,0.875,1.05 F,1,186955,187643,0.5,0 C,0,186955,,0,128,128 P,0,133507,,A
Sprite,Overlay,Centre,"sb/4.png",0,0 M,0,133593,,361,164 S,0,133593,134281,0.875,1.05 F,1,133593,134281,0.4,0 C,0,133593,,255,128,128 M,0,135662,,180,355 S,0,135662,136350,0.875,1.05 F,1,135662,136350,0.4,0 C,0,135662,,89,172,255 M,0,138421,,388,194 S,0,138421,139109,0.875,1.05 F,1,138421,139109,0.4,0 C,0,138421,,255,128,128 M,0,142559,,106,250 S,0,142559,143247,0.875,1.05 F,1,142559,143247,0.4,0 C,0,142559,,0,128,128 M,0,144973,,538,108 S,0,144973,145661,0.875,1.05 F,1,144973,145661,0.6,0 C,0,144973,,89,172,255 M,0,146352,,299,107 S,0,146352,147040,0.875,1.05 F,1,146352,147040,0.6,0 C,0,146352,,255,128,128 M,0,147731,,425,229 S,0,147731,148419,0.875,1.05 F,1,147731,148419,0.6,0 C,0,147731,,154,78,78 M,0,149110,,448,203 S,0,149110,149798,0.875,1.05 F,0,149110,,0.8 F,1,149196,149884,0.8,0 C,0,149110,,0,128,128 M,0,149110,149153,448,203,477.3887,196.8379 M,0,149153,149196,477.3887,196.8379,506.9188,190.6461 M,0,150490,,497,252 S,0,150490,151178,0.875,1.05 F,1,150490,151178,0.6,0 C,0,150490,,255,128,128 M,0,151869,,186,189 S,0,151869,152557,0.875,1.05 F,1,151869,152557,0.6,0 C,0,151869,,154,78,78 M,0,153335,,275,253 S,0,153335,154023,0.875,1.05 F,1,153335,154023,0.6,0 C,0,153335,,89,172,255 M,0,156007,,355,241 S,0,156007,156695,0.875,1.05 F,1,156007,156695,0.6,0 C,0,156007,,255,128,128 M,0,157386,,355,249 S,0,157386,158074,0.875,1.05 F,1,157386,158074,0.6,0 C,0,157386,,154,78,78 M,0,158766,,153,289 S,0,158766,159454,0.875,1.05 F,1,158766,159454,0.6,0 C,0,158766,,89,172,255 M,0,160145,,397,161 S,0,160145,160833,0.875,1.05 F,0,160145,,0.8 F,1,160231,160919,0.8,0 C,0,160145,,0,128,128 M,0,160145,160188,397,161,426.6786,156.4341 M,0,160188,160231,426.6786,156.4341,456.5,151.8462 M,0,161524,,321,196 S,0,161524,162212,0.875,1.05 F,1,161524,162212,0.6,0 C,0,161524,,255,128,128 M,0,162904,,232,207 S,0,162904,163592,0.875,1.05 F,1,162904,163592,0.6,0 C,0,162904,,89,172,255 M,0,164283,,370,142 S,0,164283,164971,0.875,1.05 F,1,164283,164971,0.6,0 C,0,164283,,0,128,128 M,0,169628,,498,414 S,0,169628,170316,0.875,1.05 F,0,169628,,0.7 F,1,169886,170574,0.7,0 M,0,169628,169671,498,414,510.5868,394.0724 M,0,169671,169714,510.5868,394.0724,520.8721,372.8764 M,0,169714,169757,520.8721,372.8764,528.5774,350.6115 M,0,169757,169800,528.5774,350.6115,533.5944,327.5902 M,0,169800,169843,533.5944,327.5902,535.8523,304.1356 M,0,169843,169886,535.8523,304.1356,535.3618,280.2297 M,0,174972,,395,233 S,0,174972,175660,0.875,1.05 F,1,174972,175660,0.5,0 C,0,174972,,89,172,255 M,0,176352,,183,239 S,0,176352,177040,0.875,1.05 F,1,176352,177040,0.5,0 C,0,176352,,0,128,128 M,0,183248,,533,242 S,0,183248,183936,0.875,1.05 F,1,183248,183936,0.5,0 C,0,183248,,255,128,128 M,0,185662,,302,250 S,0,185662,186350,0.875,1.05 F,1,185662,186350,0.5,0 C,0,185662,,89,172,255 M,0,187041,,519,265 S,0,187041,187729,0.875,1.05 F,1,187041,187729,0.5,0 C,0,187041,,0,128,128 P,0,133593,,A
Sprite,Overlay,Centre,"sb/4.png",0,0 M,0,133766,,389,177 S,0,133766,134454,0.875,1.05 F,1,134024,134712,0.6,0 C,0,133766,,154,78,78 M,0,133766,133809,389,177,414.6267,174.6082 M,0,133809,133852,414.6267,174.6082,440.2534,172.2163 M,0,133852,133895,440.2534,172.2163,414.8733,174.5852 M,0,133895,133938,414.8733,174.5852,389.2466,176.977 M,0,133938,133981,389.2466,176.977,414.3801,174.6312 M,0,133981,134024,414.3801,174.6312,440.3767,172.2048 M,0,135835,,150,299 S,0,135835,136523,0.875,1.05 F,1,135835,136523,0.4,0 C,0,135835,,89,172,255 M,0,138593,,338,209 S,0,138593,139281,0.875,1.05 F,1,138593,139281,0.4,0 C,0,138593,,255,128,128 M,0,142731,,88,244 S,0,142731,143419,0.875,1.05 F,1,142731,143419,0.4,0 C,0,142731,,0,128,128 M,0,153679,,426,151 S,0,153679,154367,0.875,1.05 F,1,153679,154367,0.6,0 C,0,153679,,89,172,255 M,0,162990,,234,224 S,0,162990,163678,0.875,1.05 F,1,162990,163678,0.6,0 M,0,164369,,372,136 S,0,164369,165057,0.875,1.05 F,1,164369,165057,0.6,0 C,0,164369,,0,128,128 M,0,185835,,535,277 S,0,185835,186523,0.875,1.05 F,1,185835,186523,0.5,0 C,0,185835,,89,172,255 M,0,187214,,471,254 S,0,187214,187902,0.875,1.05 F,1,187214,187902,0.5,0 C,0,187214,,0,128,128 P,0,133766,,A
Sprite,Overlay,Centre,"sb/4.png",0,0 M,0,134110,,517,206 S,0,134110,134798,0.875,1.05 F,1,134368,135056,0.6,0 C,0,134110,,154,78,78 M,0,134110,134153,517,206,491.3733,208.3918 M,0,134153,134196,491.3733,208.3918,465.7466,210.7836 M,0,134196,134239,465.7466,210.7836,491.1267,208.4148 M,0,134239,134282,491.1267,208.4148,516.7534,206.023 M,0,134282,134325,516.7534,206.023,491.6199,208.3688 M,0,134325,134368,491.6199,208.3688,465.6233,210.7952 M,0,135921,,169,304 S,0,135921,136609,0.875,1.05 F,1,135921,136609,0.4,0 C,0,135921,,89,172,255 M,0,138679,,324,181 S,0,138679,139367,0.875,1.05 F,1,138679,139367,0.4,0 C,0,138679,,255,128,128 M,0,142818,,92,252 S,0,142818,143506,0.875,1.05 F,1,142818,143506,0.4,0 C,0,142818,,0,128,128 M,0,153852,,473,146 S,0,153852,154540,0.875,1.05 F,1,153852,154540,0.6,0 C,0,153852,,89,172,255 M,0,163507,,384,328 S,0,163507,164195,0.875,1.05 F,1,163507,164195,0.6,0 M,0,164886,,236,163 S,0,164886,165574,0.875,1.05 F,1,164886,165574,0.6,0 C,0,164886,,0,128,128 M,0,186007,,401,143 S,0,186007,186695,0.875,1.05 F,1,186007,186695,0.5,0 C,0,186007,,89,172,255 P,0,134110,,A
Sprite,Overlay,Centre,"sb/4.png",0,0 M,0,136007,,189,306 S,0,136007,136695,0.875,1.05 F,1,136007,136695,0.4,0 C,0,136007,,89,172,255 M,0,138766,,302,158 S,0,138766,139454,0.875,1.05 F,1,138766,139454,0.4,0 C,0,138766,,255,128,128 M,0,142904,,100,248 S,0,142904,143592,0.875,1.05 F,1,142904,143592,0.4,0 C,0,142904,,0,128,128 M,0,154455,,184,207 S,0,154455,155143,0.875,1.05 F,0,154455,,0.8 F,1,154541,155229,0.8,0 M,0,154455,154498,184,207,154.9291,199.8556 M,0,154498,154541,154.9291,199.8556,128.0793,186.3514 M,0,165059,,234,175 S,0,165059,165747,0.875,1.05 F,1,165059,165747,0.6,0 M,0,187128,,495,259 S,0,187128,187816,0.875,1.05 F,1,187128,187816,0.5,0 P,0,136007,,A
Sprite,Overlay,Centre,"sb/4.png",0,0 M,0,136093,,209,305 S,0,136093,136781,0.875,1.05 F,1,136093,136781,0.4,0 C,0,136093,,89,172,255 M,0,138852,,275,141 S,0,138852,139540,0.875,1.05 F,1,138852,139540,0.4,0 C,0,138852,,255,128,128 M,0,142991,,96,240 S,0,142991,143679,0.875,1.05 F,1,142991,143679,0.4,0 C,0,142991,,0,128,128 M,0,154628,,304,263 S,0,154628,155316,0.875,1.05 F,0,154628,,0.8 F,1,154714,155402,0.8,0 M,0,154628,154671,304,263,333.0709,255.8556 M,0,154671,154714,333.0709,255.8556,359.9207,242.3514 P,0,136093,,A
Sprite,Overlay,Centre,"sb/4.png",0,0 M,0,136179,,229,301 S,0,136179,136867,0.875,1.05 F,1,136179,136867,0.4,0 C,0,136179,,89,172,255 M,0,138938,,245,132 S,0,138938,139626,0.875,1.05 F,1,138938,139626,0.4,0 C,0,138938,,255,128,128 M,0,143076,,92,252 S,0,143076,143764,0.875,1.05 F,0,143076,,0.6 F,1,143334,144022,0.6,0 M,0,143076,143119,92,252,94.50887,267.8895 M,0,143119,143162,94.50887,267.8895,97.01772,283.7789 M,0,143162,143205,97.01772,283.7789,94.533,268.0424 M,0,143205,143248,94.533,268.0424,92.02414,252.1529 M,0,143248,143291,92.02414,252.1529,94.48472,267.7365 M,0,143291,143334,94.48472,267.7365,97.02979,283.8553 P,0,136179,,A
Sprite,Overlay,Centre,"sb/4.png",0,0 M,0,136266,,249,295 S,0,136266,136954,0.875,1.05 F,1,136266,136954,0.4,0 C,0,136266,,89,172,255 M,0,139024,,244,168 S,0,139024,139712,0.875,1.05 F,1,139024,139712,0.4,0 C,0,139024,,255,128,128 P,0,136266,,A
Sprite,Overlay,Centre,"sb/4.png",0,0 M,0,136352,,267,286 S,0,136352,137040,0.875,1.05 F,1,136352,137040,0.4,0 C,0,136352,,89,172,255 M,0,139110,,233,202 S,0,139110,139798,0.875,1.05 F,1,139110,139798,0.4,0 C,0,139110,,255,128,128 P,0,136352,,A
Sprite,Overlay,Centre,"sb/4.png",0,0 M,0,136438,,284,275 S,0,136438,137126,0.875,1.05 F,1,136438,137126,0.4,0 C,0,136438,,89,172,255 M,0,139197,,207,227 S,0,139197,139885,0.875,1.05 F,1,139197,139885,0.4,0 C,0,139197,,255,128,128 P,0,136438,,A
Sprite,Overlay,Centre,"sb/5.png",0,0 M,0,44110,,170,191 S,1,44110,50990,0.2,3 F,19,44110,52366,1,0 M,0,55145,,437,419 S,1,55145,62025,0.2,3 F,19,55145,63401,1,0 M,0,66179,,468,328 S,1,66179,73059,0.2,3 F,19,66179,74435,1,0 M,0,77214,,392,413 S,1,77214,84094,0.2,3 F,19,77214,85470,1,0 M,0,88248,,456,293 S,7,88248,93752,0.2,2 F,19,88248,93752,1,0 P,0,44110,,A
Sprite,Overlay,Centre,"sb/5.png",0,0 M,0,132386,,195,199 S,1,132386,139266,0.2,3 F,19,132386,140642,1,0 M,0,143421,,153,347 S,1,143421,150301,0.2,3 F,19,143421,151677,1,0 M,0,154455,,184,207 S,1,154455,161335,0.2,3 F,19,154455,162711,1,0 M,0,165490,,193,434 S,1,165490,172370,0.2,3 F,19,165490,173746,1,0 M,0,187559,,168,364 S,1,187559,194439,0.2,3 F,19,187559,195815,1,0 P,0,132386,,A
Sprite,Overlay,Centre,"sb/5.png",0,0 M,0,60662,,337,83 S,7,60662,66166,0.2,2 F,19,60662,66166,1,0 M,0,71697,,280,228 S,7,71697,77201,0.2,2 F,19,71697,77201,1,0 P,0,60662,,A
Sprite,Overlay,Centre,"sb/5.png",0,0 M,0,148938,,277,249 S,7,148938,154442,0.2,2 F,19,148938,154442,1,0 M,0,159973,,262,99 S,7,159973,165477,0.2,2 F,19,159973,165477,1,0 M,0,176524,,371,200 S,7,176524,182028,0.2,2 F,19,176524,182028,1,0 P,0,148938,,A
//Storyboard Sound Samples

[TimingPoints]
-27,344.827586206897,4,1,0,100,1,0
11007,-125,4,2,1,50,0,0
33076,-125,4,2,1,60,0,0
44110,-83.3333333333333,4,2,1,70,0,0
54800,-133.333333333333,4,2,1,70,0,0
55145,-75.187969924812,4,2,2,90,0,1
77214,-90.9090909090909,4,2,2,80,0,0
110317,-125,4,2,1,50,0,0
121352,-125,4,2,1,60,0,0
132386,-83.3333333333333,4,2,1,70,0,0
143076,-133.333333333333,4,2,1,70,0,0
143421,-71.4285714285714,4,2,2,90,0,1
165490,-90.9090909090909,4,2,2,80,0,0

[Colours]
Combo1 : 0,128,128
Combo2 : 255,128,128
Combo3 : 154,78,78
Combo4 : 89,172,255

[HitObjects]
73,131,11007,6,0,P|66:91|141:157,1,275.2,6|8,0:0|0:0,0:0:0:0:
294,290,12041,1,2,0:0:0:0:
294,290,12386,2,0,P|281:251|301:140,1,137.6,0|0,3:0|0:0,0:0:0:0:
427,48,13076,2,0,L|421:131,1,68.8,2|2,0:0|0:0,0:0:0:0:
413,226,13421,1,2,0:0:0:0:
413,226,13766,6,0,B|367:286|291:271|291:195|214:180|169:226,1,275.2,2|8,3:2|0:0,0:0:0:0:
54,102,14800,1,2,0:0:0:0:
42,284,15145,2,0,L|48:212,1,68.8,0|0,3:0|0:0,0:0:0:0:
54,102,15490,1,2,0:0:0:0:
162,266,15835,2,0,L|177:373,2,103.2,2|0|2,0:0|0:0|0:0,0:0:0:0:
202,160,16524,6,0,P|259:137|388:278,1,275.2,2|8,3:2|0:0,0:0:0:0:
43,292,17559,1,2,0:0:0:0:
37,215,17731,1,0,0:0:0:0:
108,184,17904,1,2,3:2:0:0:
159,243,18076,1,0,0:0:0:0:
119,309,18248,1,2,0:0:0:0:
175,364,18421,1,0,0:0:0:0:
246,330,18593,2,0,P|298:318|325:318,1,68.8,10|0,0:0|0:0,0:0:0:0:
418,265,18938,2,0,P|366:253|339:253,1,68.8,2|0,0:0|0:0,0:0:0:0:
224,172,19283,6,0,B|300:182|345:234|345:234|361:164|437:134,1,275.2,2|0,3:2|0:0,0:0:0:0:
146,173,20317,2,0,P|111:165|73:148,1,68.8
195,73,20662,1,0,3:0:0:0:
195,73,20835,2,0,P|259:73|330:104,1,137.6,0|0,3:0|0:0,0:0:0:0:
412,70,21352,1,8,0:0:0:0:
392,161,21524,2,0,L|418:299,1,137.6,0|0,3:0|0:0,0:0:0:0:
300,353,22041,6,0,P|307:313|232:379,1,275.2,2|8,3:2|0:0,0:0:0:0:
51,244,23076,1,2,0:0:0:0:
51,244,23421,2,0,P|81:205|98:112,1,137.6,0|0,3:0|0:0,0:0:0:0:
270,19,24110,2,0,P|262:61|265:92,1,68.8,10|2,0:0|0:0,0:0:0:0:
340,212,24455,2,0,P|332:178|333:144,1,68.8,2|2,0:0|0:0,0:0:0:0:
414,90,24800,6,0,P|437:135|390:343,1,275.2,2|8,3:2|0:0,0:0:0:0:
239,355,25835,1,2,0:0:0:0:
174,234,26179,1,0,3:0:0:0:
174,234,26352,2,0,L|333:251,1,137.6,0|0,3:0|0:0,0:0:0:0:
279,135,26869,2,0,L|396:171,2,103.2,10|0|0,0:0|0:0|0:0,0:0:0:0:
149,59,27559,6,0,B|89:105|104:181|180:181|195:258|149:303,1,275.2,2|8,3:2|0:0,0:0:0:0:
310,286,28593,2,0,P|344:276|381:272,1,68.8,2|0,0:0|0:0,0:0:0:0:
465,274,28938,1,2,3:2:0:0:
318,155,29283,2,0,P|284:145|247:141,1,68.8,2|2,0:0|0:0,0:0:0:0:
163,143,29628,1,8,0:0:0:0:
48,325,29973,2,0,L|123:313,1,68.8,2|0,0:0|0:0,0:0:0:0:
203,243,30317,6,0,B|266:264|303:334|303:334|362:292|435:300,2,275.2,0|8|0,3:0|0:0|3:0,0:0:0:0:
330,213,33076,1,4,0:0:0:0:
256,192,41352,12,0,43766,0:0:0:0:
106,135,44110,6,0,L|95:82,3,51.599998425293,4|0|0|0,1:2|0:0|0:0|0:0,0:0:0:0:
182,175,44455,2,0,L|193:228,3,51.599998425293,0|0|0|0,1:0|0:0|0:0|0:0,0:0:0:0:
236,103,44800,1,0,1:0:0:0:
257,88,44886,1,0,0:0:0:0:
282,81,44973,1,0,0:0:0:0:
307,82,45059,1,0,0:0:0:0:
330,91,45145,1,0,1:0:0:0:
350,107,45231,1,0,0:0:0:0:
374,116,45317,1,0,0:0:0:0:
400,117,45404,1,0,0:0:0:0:
423,106,45490,6,0,P|446:82|457:55,3,51.599998425293,0|0|0|0,1:0|0:0|0:0|0:0,0:0:0:0:
469,179,45835,2,0,P|446:155|435:128,3,51.599998425293,0|0|0|0,1:0|0:0|0:0|0:0,0:0:0:0:
422,255,46179,2,0,P|445:231|456:204,3,51.599998425293,0|0|0|0,1:0|0:0|0:0|0:0,0:0:0:0:
468,328,46524,2,0,P|445:304|434:277,3,51.599998425293,0|0|0|0,1:0|0:0|0:0|0:0,0:0:0:0:
356,325,46869,5,0,1:0:0:0:
337,293,46955,1,0,0:0:0:0:
308,270,47041,1,0,0:0:0:0:
273,258,47128,1,0,0:0:0:0:
236,258,47214,1,0,1:0:0:0:
200,265,47300,1,0,0:0:0:0:
170,286,47386,1,0,0:0:0:0:
148,315,47473,1,0,0:0:0:0:
141,350,47559,1,0,1:0:0:0:
158,339,47645,1,0,0:0:0:0:
167,320,47731,1,0,0:0:0:0:
171,299,47817,1,0,0:0:0:0:
171,278,47904,1,0,1:0:0:0:
165,258,47990,1,0,0:0:0:0:
155,239,48076,1,0,0:0:0:0:
140,224,48162,1,0,0:0:0:0:
121,214,48248,6,0,L|57:218,3,51.599998425293,0|0|0|0,1:0|0:0|0:0|0:0,0:0:0:0:
149,172,48593,2,0,L|213:168,3,51.599998425293,0|0|0|0,1:0|0:0|0:0|0:0,0:0:0:0:
289,204,48938,2,0,L|225:208,3,51.599998425293,0|0|0|0,1:0|0:0|0:0|0:0,0:0:0:0:
317,162,49283,2,0,L|381:158,3,51.599998425293,0|0|0|0,1:0|0:0|0:0|0:0,0:0:0:0:
444,195,49628,5,0,1:0:0:0:
448,174,49714,1,0,0:0:0:0:
452,153,49800,1,0,0:0:0:0:
456,132,49886,1,0,0:0:0:0:
461,111,49973,1,0,1:0:0:0:
430,112,50059,1,0,0:0:0:0:
399,113,50145,1,0,0:0:0:0:
368,115,50231,1,0,0:0:0:0:
337,117,50317,1,0,1:0:0:0:
354,154,50404,1,0,0:0:0:0:
371,191,50490,1,0,0:0:0:0:
388,228,50576,1,0,0:0:0:0:
406,264,50662,1,0,1:0:0:0:
413,213,50748,1,0,0:0:0:0:
420,161,50835,1,0,0:0:0:0:
427,110,50921,1,0,0:0:0:0:
435,59,51007,6,0,P|451:25|466:4,3,51.599998425293,0|0|0|0,1:0|0:0|0:0|0:0,0:0:0:0:
342,42,51352,2,0,P|376:58|397:73,3,51.599998425293,0|0|0|0,1:0|0:0|0:0|0:0,0:0:0:0:
272,118,51697,2,0,P|288:84|303:63,3,51.599998425293,0|0|0|0,1:0|0:0|0:0|0:0,0:0:0:0:
179,101,52042,2,0,P|213:117|234:132,3,51.599998425293,0|0|0|0,1:0|0:0|0:0|0:0,0:0:0:0:
167,187,52386,6,0,L|160:249,1,51.599998425293,0|0,3:0|0:0,0:0:0:0:
84,179,52559,2,0,L|77:241,1,51.599998425293,0|0,3:0|0:0,0:0:0:0:
179,101,52731,2,0,L|186:39,1,51.599998425293,0|0,3:0|0:0,0:0:0:0:
262,109,52904,2,0,L|269:47,1,51.599998425293,0|0,3:0|0:0,0:0:0:0:
337,206,53076,2,0,L|330:268,1,51.599998425293,0|0,3:0|0:0,0:0:0:0:
254,198,53249,2,0,L|247:260,1,51.599998425293,0|0,3:0|0:0,0:0:0:0:
349,120,53421,2,0,L|356:58,1,51.599998425293,0|0,3:0|0:0,0:0:0:0:
432,128,53594,2,0,L|439:66,1,51.599998425293,0|0,3:0|0:0,0:0:0:0:
483,212,53766,5,0,1:0:0:0:
445,247,53852,1,0,3:0:0:0:
395,262,53938,1,0,3:0:0:0:
343,259,54024,1,0,3:0:0:0:
296,236,54110,1,0,1:0:0:0:
327,217,54197,1,0,3:0:0:0:
362,211,54283,1,0,3:0:0:0:
396,220,54369,1,0,3:0:0:0:
424,242,54455,1,0,1:0:0:0:
415,260,54541,1,0,3:0:0:0:
396,269,54628,1,0,3:0:0:0:
375,273,54714,1,0,3:0:0:0:
354,275,54800,6,0,P|366:252|378:237,3,32.2500012302399,8|8|8|8,0:0|0:0|0:0|0:0,0:0:0:0:
373,363,55145,6,0,L|298:354,1,57.1899976438447,4|0,3:2|0:0,0:0:0:0:
205,287,55317,2,0,L|280:278,1,57.1899976438447
293,184,55490,1,10,0:0:0:0:
150,147,55662,1,2,0:0:0:0:
340,104,55835,1,2,0:0:0:0:
261,280,56007,1,2,3:2:0:0:
65,106,56179,5,10,0:0:0:0:
234,115,56352,1,2,0:0:0:0:
65,106,56524,1,2,3:2:0:0:
234,115,56697,1,0,0:0:0:0:
65,106,56869,1,8,0:0:0:0:
234,115,57042,1,0,0:0:0:0:
165,166,57214,5,2,0:0:0:0:
300,64,57387,1,0,3:0:0:0:
165,166,57559,1,8,0:0:0:0:
300,64,57732,1,0,0:0:0:0:
142,82,57904,5,2,3:2:0:0:
189,255,58076,1,0,0:0:0:0:
162,93,58248,1,8,0:0:0:0:
168,243,58420,1,0,0:0:0:0:
178,115,58593,1,0,0:0:0:0:
152,221,58765,1,0,3:0:0:0:
190,140,58938,1,8,0:0:0:0:
140,196,59110,1,0,0:0:0:0:
264,204,59283,5,0,3:0:0:0:
264,204,59455,1,0,0:0:0:0:
69,142,59628,1,8,0:0:0:0:
69,142,59800,1,0,0:0:0:0:
167,237,59973,5,2,0:0:0:0:
167,237,60145,1,2,3:2:0:0:
362,175,60318,1,10,0:0:0:0:
362,175,60490,1,2,0:0:0:0:
273,27,60662,6,0,P|261:70|260:107,1,57.1899976438447,4|0,0:0|0:0,0:0:0:0:
167,237,60835,2,0,P|155:194|154:157,1,57.1899976438447
153,74,61007,1,10,0:0:0:0:
81,232,61179,1,2,0:0:0:0:
261,195,61352,1,2,0:0:0:0:
61,133,61524,1,2,3:2:0:0:
199,311,61697,1,10,0:0:0:0:
358,242,61869,1,2,0:0:0:0:
228,79,62041,5,2,3:2:0:0:
223,101,62214,1,0,0:0:0:0:
245,98,62386,1,8,0:0:0:0:
249,75,62559,1,0,0:0:0:0:
126,143,62731,1,2,0:0:0:0:
133,164,62904,1,0,3:0:0:0:
305,222,63076,1,8,0:0:0:0:
298,243,63249,1,0,0:0:0:0:
184,293,63421,5,2,3:2:0:0:
242,137,63593,1,0,0:0:0:0:
184,293,63766,1,8,0:0:0:0:
242,137,63938,1,0,0:0:0:0:
184,293,64110,1,0,0:0:0:0:
242,137,64282,1,0,3:0:0:0:
184,293,64455,1,8,0:0:0:0:
242,137,64627,1,0,0:0:0:0:
99,235,64800,5,2,3:2:0:0:
296,203,64973,1,2,0:3:0:0:
314,200,65059,1,0,0:0:0:0:
332,197,65145,1,8,0:0:0:0:
127,124,65317,1,2,0:3:0:0:
146,125,65404,1,0,0:0:0:0:
164,126,65490,1,2,0:0:0:0:
182,127,65576,1,0,0:0:0:0:
200,128,65662,1,2,3:3:0:0:
272,306,65835,2,0,L|208:296,1,57.1899976438447,10|0,0:0|0:0,0:0:0:0:
370,276,66007,1,0,0:0:0:0:
387,274,66093,1,0,0:0:0:0:
404,272,66179,6,0,P|414:308|417:346,1,57.1899976438447,4|0,3:2|0:0,0:0:0:0:
477,175,66352,2,0,P|487:138|490:101,1,57.1899976438447
410,29,66524,1,10,0:0:0:0:
246,107,66697,1,2,0:0:0:0:
337,263,66869,1,2,0:0:0:0:
368,147,67041,1,2,3:2:0:0:
215,232,67214,5,10,0:0:0:0:
213,243,67386,1,2,0:0:0:0:
89,159,67559,1,2,3:2:0:0:
91,170,67731,1,0,0:0:0:0:
234,94,67904,1,8,0:0:0:0:
232,105,68076,1,0,0:0:0:0:
362,188,68248,1,2,0:0:0:0:
109,319,68420,1,2,3:2:0:0:
216,216,68593,1,10,0:0:0:0:
130,79,68766,1,2,0:0:0:0:
371,101,68938,5,2,3:2:0:0:
220,135,69110,1,0,0:0:0:0:
371,101,69283,1,8,0:0:0:0:
220,135,69455,1,0,0:0:0:0:
371,101,69628,1,0,0:0:0:0:
220,135,69800,1,0,3:0:0:0:
371,101,69973,1,8,0:0:0:0:
220,135,70145,1,0,0:0:0:0:
403,199,70317,5,0,3:0:0:0:
456,48,70490,1,0,0:0:0:0:
300,144,70662,1,8,0:0:0:0:
353,295,70835,1,0,0:0:0:0:
379,120,71007,1,2,0:0:0:0:
228,67,71180,1,2,3:2:0:0:
324,223,71352,1,10,0:0:0:0:
475,170,71525,1,2,0:0:0:0:
216,172,71697,6,0,P|201:210|195:240,1,57.1899976438447,4|0,3:2|0:0,0:0:0:0:
130,347,71869,2,0,P|115:309|109:279,1,57.1899976438447
95,170,72041,1,10,0:0:0:0:
263,289,72214,1,2,0:0:0:0:
25,246,72386,1,2,0:0:0:0:
65,80,72559,1,2,3:2:0:0:
194,148,72731,5,10,0:0:0:0:
135,310,72904,1,2,0:0:0:0:
194,148,73076,1,2,3:2:0:0:
135,310,73249,1,0,0:0:0:0:
194,148,73421,1,8,0:0:0:0:
135,310,73594,1,0,0:0:0:0:
104,66,73766,1,2,0:0:0:0:
163,228,73939,1,0,3:0:0:0:
104,66,74110,1,8,0:0:0:0:
163,228,74283,1,0,0:0:0:0:
335,176,74455,5,2,3:2:0:0:
258,151,74628,1,0,0:0:0:0:
258,151,74714,1,0,0:0:0:0:
258,151,74800,1,2,0:0:0:0:
258,71,74973,1,2,0:0:0:0:
335,46,75146,1,2,0:0:0:0:
335,46,75231,1,0,0:0:0:0:
335,46,75317,1,2,0:0:0:0:
382,111,75490,1,2,0:0:0:0:
335,176,75662,1,2,0:0:0:0:
179,34,75835,5,2,0:3:0:0:
243,130,76007,1,2,0:3:0:0:
246,146,76093,1,2,0:3:0:0:
249,162,76179,1,2,0:3:0:0:
131,175,76352,1,2,0:3:0:0:
128,191,76438,1,0,0:0:0:0:
125,207,76524,1,2,0:3:0:0:
123,224,76610,1,2,0:3:0:0:
121,241,76697,1,2,0:3:0:0:
58,97,76869,1,8,0:0:0:0:
225,260,77041,2,0,L|243:335,1,57.1899976438447,2|2,0:3|0:3,0:0:0:0:
328,357,77214,6,0,P|390:303|456:289,1,141.900004330444,6|2,3:2|0:0,0:0:0:0:
468,292,77559,1,10,0:0:0:0:
315,207,77731,1,0,0:0:0:0:
419,69,77904,2,0,P|436:127|434:170,1,94.600002886963,2|0,0:0|3:0,0:0:0:0:
426,184,78162,1,0,0:0:0:0:
426,184,78248,1,8,0:0:0:0:
202,90,78421,1,0,0:0:0:0:
315,128,78593,6,0,L|302:275,1,141.900004330444,2|2,3:2|0:0,0:0:0:0:
299,292,78938,1,10,0:0:0:0:
166,198,79110,1,0,0:0:0:0:
95,335,79283,1,2,0:0:0:0:
196,287,79455,1,0,3:0:0:0:
196,287,79541,1,0,0:0:0:0:
196,287,79628,1,8,0:0:0:0:
31,222,79800,1,0,0:0:0:0:
258,358,79973,6,0,P|319:347|356:325,1,94.600002886963,2|0,3:2|0:0,0:0:0:0:
365,317,80231,1,2,0:0:0:0:
365,317,80317,1,10,0:0:0:0:
344,168,80490,1,0,0:0:0:0:
196,145,80662,2,0,P|209:203|239:238,1,94.600002886963,2|0,0:0|3:0,0:0:0:0:
447,175,81007,1,8,0:0:0:0:
262,46,81179,1,0,0:0:0:0:
331,329,81352,6,0,L|342:183,1,141.900004330444,2|2,3:2|0:0,0:0:0:0:
344,168,81697,1,10,0:0:0:0:
453,286,81869,1,0,0:0:0:0:
233,343,82041,2,0,P|183:329|140:302,1,94.600002886963,2|0,0:0|3:0,0:0:0:0:
370,162,82386,2,0,P|420:148|463:121,1,94.600002886963,10|0,0:0|0:0,0:0:0:0:
189,42,82731,6,0,L|194:154,1,94.600002886963,2|0,3:2|0:0,0:0:0:0:
85,229,83076,1,10,0:0:0:0:
290,181,83248,1,0,0:0:0:0:
117,164,83421,1,0,0:0:0:0:
257,245,83593,1,0,3:0:0:0:
185,142,83766,1,8,0:0:0:0:
189,267,83938,1,0,0:0:0:0:
125,63,84110,6,0,P|207:51|268:91,1,141.900004330444,2|2,3:2|0:0,0:0:0:0:
269,94,84455,1,10,0:0:0:0:
117,192,84628,1,0,0:0:0:0:
338,192,84800,2,0,P|386:168|416:138,1,94.600002886963,2|0,0:0|3:0,0:0:0:0:
268,326,85145,2,0,P|220:302|190:272,1,94.600002886963,10|0,0:0|0:0,0:0:0:0:
197,30,85490,5,2,3:2:0:0:
243,192,85662,1,0,0:0:0:0:
277,32,85835,1,8,0:0:0:0:
247,174,86007,1,0,0:0:0:0:
342,70,86179,1,0,0:0:0:0:
264,163,86351,1,0,3:0:0:0:
379,136,86524,1,10,0:0:0:0:
290,167,86696,1,0,0:0:0:0:
471,295,86869,5,2,3:2:0:0:
364,258,87041,1,0,0:0:0:0:
437,202,87214,1,8,0:0:0:0:
292,308,87386,1,0,0:0:0:0:
376,361,87559,1,2,0:0:0:0:
219,254,87731,1,0,3:0:0:0:
291,189,87904,1,10,0:0:0:0:
146,316,88076,1,0,0:0:0:0:
392,237,88248,6,0,L|381:141,1,94.600002886963,6|0,3:2|0:0,0:0:0:0:
384,122,88507,1,2,0:0:0:0:
384,122,88593,1,10,0:0:0:0:
504,176,88766,1,0,0:0:0:0:
279,49,88938,2,0,L|268:142,1,94.600002886963,2|0,0:0|3:0,0:0:0:0:
164,87,89283,1,8,0:0:0:0:
386,25,89455,1,0,0:0:0:0:
309,244,89628,6,0,P|228:242|172:189,1,141.900004330444,2|2,3:2|0:0,0:0:0:0:
172,186,89973,1,10,0:0:0:0:
118,312,90145,1,0,0:0:0:0:
48,131,90317,2,0,P|63:182|59:230,1,94.600002886963,2|0,0:0|3:0,0:0:0:0:
53,247,90576,1,0,0:0:0:0:
53,247,90662,1,8,0:0:0:0:
131,66,90835,1,0,0:0:0:0:
219,219,91007,6,0,P|212:154|246:69,1,141.900004330444,2|2,3:2|0:0,0:0:0:0:
252,65,91352,1,10,0:0:0:0:
441,147,91524,1,0,0:0:0:0:
363,199,91697,1,2,0:0:0:0:
422,55,91869,1,0,3:0:0:0:
477,232,92041,1,8,0:0:0:0:
259,72,92214,1,0,0:0:0:0:
259,72,92300,1,0,0:0:0:0:
259,72,92386,6,0,L|416:56,1,141.900004330444,2|2,3:2|0:0,0:0:0:0:
422,55,92731,1,10,0:0:0:0:
311,196,92904,1,0,0:0:0:0:
185,179,93076,2,0,L|89:169,1,94.600002886963,2|0,0:0|3:0,0:0:0:0:
226,365,93421,2,0,L|235:269,1,94.600002886963,10|0,0:0|0:0,0:0:0:0:
339,32,93766,5,2,3:2:0:0:
374,228,93938,1,0,0:0:0:0:
261,145,94110,1,10,0:0:0:0:
457,110,94282,1,0,0:0:0:0:
283,140,94455,1,0,0:0:0:0:
434,114,94627,1,0,3:0:0:0:
303,137,94800,1,8,0:0:0:0:
414,117,94972,1,0,0:0:0:0:
264,249,95145,6,0,P|210:242|168:219,1,94.600002886963,2|0,3:2|0:0,0:0:0:0:
161,210,95404,1,2,0:0:0:0:
161,210,95490,1,10,0:0:0:0:
327,132,95662,1,0,0:0:0:0:
351,336,95835,2,0,P|405:329|447:306,1,94.600002886963,2|0,0:0|3:0,0:0:0:0:
360,26,96179,2,0,P|353:80|330:122,1,94.600002886963,10|0,0:0|0:0,0:0:0:0:
97,176,96524,5,2,3:2:0:0:
168,89,96697,1,0,0:0:0:0:
181,92,96783,1,0,0:0:0:0:
194,95,96869,1,2,0:0:0:0:
253,246,97041,1,2,0:0:0:0:
327,152,97214,1,2,0:0:0:0:
341,148,97300,1,0,0:0:0:0:
354,144,97386,1,0,0:0:0:0:
458,207,97559,1,2,0:0:0:0:
509,88,97731,1,2,0:0:0:0:
288,78,97904,5,2,0:3:0:0:
345,271,98076,1,2,0:3:0:0:
348,257,98162,1,2,0:3:0:0:
351,243,98248,2,0,L|300:251,1,47.3000014434815,2|2,0:3|0:3,0:0:0:0:
184,223,98421,2,0,L|231:216,1,47.3000014434815,2|2,0:3|0:3,0:0:0:0:
311,133,98593,2,0,L|265:141,1,47.3000014434815,2|2,0:3|0:3,0:0:0:0:
165,91,98766,2,0,L|212:84,1,47.3000014434815,2|2,0:3|0:3,0:0:0:0:
168,303,98938,1,8,0:0:0:0:
168,303,99283,5,4,0:0:0:0:
46,113,110317,6,0,B|111:75|175:119|146:189|211:233|270:208,1,275.2,2|0,0:0|0:0,0:0:0:0:
472,296,111352,2,0,P|469:244|396:328,1,275.2,2|0,0:0|0:0,0:0:0:0:
247,84,112386,6,0,P|281:105|317:116,1,68.8,2|2,0:0|0:0,0:0:0:0:
170,162,112731,2,0,P|136:183|100:194,1,68.8,2|2,0:0|0:0,0:0:0:0:
208,290,113076,2,0,P|276:235|402:231,2,206.4,2|2|2,0:0|0:0|0:0,0:0:0:0:
79,186,114800,6,0,L|65:111,1,68.8
48,32,115145,1,0,0:0:0:0:
231,166,115490,2,0,L|217:241,1,68.8
200,320,115835,1,2,0:0:0:0:
482,115,116179,2,0,L|407:101,1,68.8
328,84,116524,1,0,0:0:0:0:
240,337,116869,6,0,P|302:349|401:260,1,206.4,2|0,0:0|0:0,0:0:0:0:
344,143,117559,2,0,P|282:131|183:220,1,206.4,2|0,0:0|0:0,0:0:0:0:
294,240,118248,1,2,0:0:0:0:
256,192,118421,12,4,121352,0:0:0:0:
256,192,129628,12,0,132041,0:0:0:0:
131,143,132386,6,0,P|96:117|84:99,3,51.599998425293,4|0|0|0,1:2|0:0|0:0|0:0,0:0:0:0:
186,208,132731,2,0,P|180:251|171:270,3,51.599998425293,0|0|0|0,1:0|0:0|0:0|0:0,0:0:0:0:
213,131,133076,1,0,1:0:0:0:
224,120,133162,1,0,0:0:0:0:
238,113,133248,1,0,0:0:0:0:
252,108,133335,1,0,0:0:0:0:
267,105,133421,1,0,1:0:0:0:
282,105,133507,1,0,0:0:0:0:
297,108,133593,1,0,0:0:0:0:
311,112,133679,1,0,0:0:0:0:
325,121,133766,6,0,L|400:114,3,51.599998425293,0|0|0|0,1:0|0:0|0:0|0:0,0:0:0:0:
453,150,134110,2,0,L|378:157,3,51.599998425293,0|0|0|0,1:0|0:0|0:0|0:0,0:0:0:0:
284,214,134455,2,0,L|359:207,3,51.599998425293,0|0|0|0,1:0|0:0|0:0|0:0,0:0:0:0:
412,243,134800,2,0,L|337:250,3,51.599998425293,0|0|0|0,1:0|0:0|0:0|0:0,0:0:0:0:
285,338,135145,5,0,1:0:0:0:
260,346,135231,1,0,0:0:0:0:
229,348,135317,1,0,0:0:0:0:
197,345,135404,1,0,0:0:0:0:
167,336,135490,1,0,1:0:0:0:
140,320,135576,1,0,0:0:0:0:
116,299,135662,1,0,0:0:0:0:
98,273,135748,1,0,0:0:0:0:
86,243,135835,1,0,1:0:0:0:
105,248,135921,1,0,0:0:0:0:
125,250,136007,1,0,0:0:0:0:
145,249,136093,1,0,0:0:0:0:
165,245,136179,1,0,1:0:0:0:
185,239,136266,1,0,0:0:0:0:
203,230,136352,1,0,0:0:0:0:
220,219,136438,1,0,0:0:0:0:
235,205,136524,6,0,P|253:169|256:141,3,51.599998425293,0|0|0|0,1:0|0:0|0:0|0:0,0:0:0:0:
281,286,136869,2,0,P|263:250|260:222,3,51.599998425293,0|0|0|0,1:0|0:0|0:0|0:0,0:0:0:0:
390,291,137214,2,0,P|372:327|369:355,3,51.599998425293,0|0|0|0,1:0|0:0|0:0|0:0,0:0:0:0:
344,210,137559,2,0,P|362:246|365:274,3,51.599998425293,0|0|0|0,1:0|0:0|0:0|0:0,0:0:0:0:
427,161,137904,5,0,1:0:0:0:
409,150,137990,1,0,0:0:0:0:
392,137,138076,1,0,0:0:0:0:
377,122,138162,1,0,0:0:0:0:
364,105,138248,1,0,1:0:0:0:
345,123,138335,1,0,0:0:0:0:
324,138,138421,1,0,0:0:0:0:
300,148,138507,1,0,0:0:0:0:
274,153,138593,1,0,1:0:0:0:
260,125,138679,1,0,0:0:0:0:
238,102,138766,1,0,0:0:0:0:
211,85,138852,1,0,0:0:0:0:
181,76,138938,1,0,1:0:0:0:
180,112,139024,1,0,0:0:0:0:
169,146,139110,1,0,0:0:0:0:
143,171,139197,1,0,0:0:0:0:
109,185,139283,6,0,L|36:178,3,51.599998425293,0|0|0|0,1:0|0:0|0:0|0:0,0:0:0:0:
127,221,139628,2,0,L|200:228,3,51.599998425293,0|0|0|0,1:0|0:0|0:0|0:0,0:0:0:0:
277,161,139973,2,0,L|204:154,3,51.599998425293,0|0|0|0,1:0|0:0|0:0|0:0,0:0:0:0:
295,197,140318,2,0,L|368:204,3,51.599998425293,0|0|0|0,1:0|0:0|0:0|0:0,0:0:0:0:
423,165,140662,6,0,P|450:127|455:107,1,51.599998425293,0|0,3:0|0:0,0:0:0:0:
354,91,140835,2,0,P|342:45|330:29,1,51.599998425293,0|0,3:0|0:0,0:0:0:0:
346,201,141007,2,0,P|373:239|378:259,1,51.599998425293,0|0,3:0|0:0,0:0:0:0:
277,275,141180,2,0,P|265:320|253:336,1,51.599998425293,0|0,3:0|0:0,0:0:0:0:
187,178,141352,6,0,P|214:216|219:236,1,51.599998425293,0|0,3:0|0:0,0:0:0:0:
118,252,141525,2,0,P|106:297|94:313,1,51.599998425293,0|0,3:0|0:0,0:0:0:0:
110,142,141697,2,0,P|137:104|142:84,1,51.599998425293,0|0,3:0|0:0,0:0:0:0:
41,68,141870,2,0,P|29:22|17:6,1,51.599998425293,0|0,3:0|0:0,0:0:0:0:
6,182,142041,1,0,1:0:0:0:
22,214,142128,1,0,3:0:0:0:
54,199,142214,1,0,3:0:0:0:
38,167,142301,1,0,3:0:0:0:
18,186,142386,1,0,1:0:0:0:
26,202,142473,1,0,3:0:0:0:
42,194,142559,1,0,3:0:0:0:
34,178,142646,1,0,3:0:0:0:
24,188,142731,1,0,1:0:0:0:
28,196,142818,1,0,3:0:0:0:
36,192,142904,1,0,3:0:0:0:
32,184,142991,1,0,3:0:0:0:
28,196,143076,6,0,L|34:234,3,32.2500012302399,8|8|8|8,0:0|0:0|0:0|0:0,0:0:0:0:
89,291,143421,6,0,P|131:308|165:312,1,60.1999981628419,4|0,3:2|0:0,0:0:0:0:
274,220,143593,2,0,P|232:237|198:241,1,60.1999981628419
138,159,143766,1,10,0:0:0:0:
354,171,143938,1,2,3:2:0:0:
333,300,144110,1,2,0:0:0:0:
251,107,144283,1,2,0:0:0:0:
457,212,144455,5,10,0:0:0:0:
474,52,144628,1,2,0:0:0:0:
457,212,144800,1,2,3:2:0:0:
474,52,144973,1,0,3:0:0:0:
457,212,145145,1,8,0:0:0:0:
474,52,145318,1,0,3:0:0:0:
335,136,145490,5,2,0:0:0:0:
352,296,145663,1,0,0:0:0:0:
335,136,145835,1,8,0:0:0:0:
352,296,146008,1,0,0:0:0:0:
218,211,146179,5,2,3:2:0:0:
235,51,146352,1,0,0:0:0:0:
230,201,146524,1,8,0:0:0:0:
222,60,146697,1,0,3:0:0:0:
238,187,146869,1,0,0:0:0:0:
214,74,147042,1,0,0:0:0:0:
244,173,147214,1,8,0:0:0:0:
208,88,147387,1,0,0:0:0:0:
361,173,147559,5,0,3:0:0:0:
361,173,147731,1,0,3:0:0:0:
235,279,147904,1,8,0:0:0:0:
235,279,148076,1,0,3:0:0:0:
305,62,148248,5,2,0:0:0:0:
305,62,148421,1,2,0:0:0:0:
410,272,148593,1,10,0:0:0:0:
410,272,148766,1,2,0:0:0:0:
213,193,148938,6,0,L|151:180,1,60.1999981628419,4|0,3:2|0:0,0:0:0:0:
384,147,149110,2,0,L|446:134,1,60.1999981628419
204,87,149283,1,10,0:0:0:0:
282,252,149455,1,2,3:2:0:0:
111,245,149628,1,2,0:0:0:0:
294,147,149800,1,2,0:0:0:0:
359,319,149973,1,10,0:0:0:0:
198,191,150145,1,2,0:0:0:0:
443,169,150317,5,2,3:2:0:0:
433,196,150490,1,0,3:0:0:0:
408,181,150662,1,8,0:0:0:0:
416,152,150835,1,0,3:0:0:0:
438,303,151007,1,2,0:0:0:0:
416,301,151179,1,0,0:0:0:0:
295,180,151352,1,8,0:0:0:0:
273,182,151524,1,0,0:0:0:0:
175,294,151697,5,2,3:2:0:0:
122,133,151869,1,2,0:3:0:0:
175,294,152041,1,8,0:0:0:0:
122,133,152213,1,0,3:0:0:0:
175,294,152386,1,0,0:0:0:0:
122,133,152558,1,2,0:3:0:0:
175,294,152730,1,8,0:0:0:0:
122,133,152904,1,0,0:0:0:0:
353,204,153076,6,0,L|216:195,1,120.399996325684,2|0,3:2|3:0,0:0:0:0:
211,197,153335,1,0,0:0:0:0:
211,197,153421,1,8,0:0:0:0:
338,97,153593,1,0,3:0:0:0:
362,95,153679,1,0,0:0:0:0:
386,92,153766,1,2,0:3:0:0:
409,90,153852,1,2,0:3:0:0:
432,88,153938,1,0,0:0:0:0:
217,19,154110,2,0,L|224:88,1,60.1999981628419,8|0,0:0|0:0,0:0:0:0:
120,151,154283,1,0,3:0:0:0:
120,151,154369,1,0,0:0:0:0:
120,151,154455,6,0,P|81:140|56:125,1,60.1999981628419,4|0,3:2|0:0,0:0:0:0:
240,207,154628,2,0,P|279:196|304:181,1,60.1999981628419
140,271,154800,1,10,0:0:0:0:
271,338,154973,1,2,3:2:0:0:
429,159,155145,1,2,0:0:0:0:
294,200,155317,1,2,0:0:0:0:
455,310,155490,5,10,0:0:0:0:
458,295,155662,1,2,0:0:0:0:
294,200,155835,1,2,3:2:0:0:
291,185,156007,1,0,3:0:0:0:
465,100,156179,1,8,0:0:0:0:
468,85,156351,1,0,3:0:0:0:
393,216,156524,1,2,0:0:0:0:
187,165,156696,1,2,0:0:0:0:
297,93,156869,1,10,0:0:0:0:
238,283,157041,1,2,0:0:0:0:
118,147,157214,5,2,3:2:0:0:
291,193,157386,1,0,0:0:0:0:
118,147,157559,1,8,0:0:0:0:
291,193,157731,1,0,3:0:0:0:
118,147,157904,1,0,0:0:0:0:
291,193,158076,1,0,0:0:0:0:
118,147,158249,1,8,0:0:0:0:
291,193,158421,1,0,0:0:0:0:
148,60,158593,5,0,3:0:0:0:
89,233,158766,1,0,3:0:0:0:
195,212,158938,1,8,0:0:0:0:
22,153,159111,1,0,3:0:0:0:
165,299,159283,1,2,0:0:0:0:
224,126,159456,1,2,0:0:0:0:
118,147,159628,1,10,0:0:0:0:
291,206,159801,1,2,0:0:0:0:
198,43,159973,6,0,L|120:31,1,60.1999981628419,4|0,3:2|0:0,0:0:0:0:
333,105,160145,2,0,L|411:93,1,60.1999981628419
488,31,160317,1,10,0:0:0:0:
380,197,160490,1,2,3:2:0:0:
310,23,160662,1,2,0:0:0:0:
499,153,160835,1,2,0:0:0:0:
326,295,161007,5,10,0:0:0:0:
257,140,161179,1,2,0:0:0:0:
326,295,161352,1,2,3:2:0:0:
257,140,161524,1,0,3:0:0:0:
326,295,161697,1,8,0:0:0:0:
257,140,161869,1,0,3:0:0:0:
87,204,162041,5,2,0:0:0:0:
245,238,162214,1,0,0:0:0:0:
87,204,162386,1,8,0:0:0:0:
245,238,162559,1,0,0:0:0:0:
35,323,162731,5,2,3:2:0:0:
168,151,162904,1,0,0:0:0:0:
170,168,162990,1,0,0:0:0:0:
172,185,163076,1,2,0:0:0:0:
275,82,163248,1,2,0:0:0:0:
318,289,163421,1,2,0:0:0:0:
320,272,163507,1,0,0:0:0:0:
322,255,163593,1,2,0:0:0:0:
421,359,163766,1,2,0:0:0:0:
466,178,163938,1,2,0:0:0:0:
263,172,164110,5,2,0:3:0:0:
306,86,164283,1,2,0:3:0:0:
308,80,164369,1,2,0:3:0:0:
310,74,164455,1,2,0:3:0:0:
219,21,164628,1,2,0:3:0:0:
173,101,164800,1,2,0:3:0:0:
172,107,164886,1,2,0:3:0:0:
171,113,164973,1,2,0:3:0:0:
170,119,165059,1,2,0:3:0:0:
169,125,165145,1,8,0:0:0:0:
89,235,165317,2,0,L|107:303,1,60.1999981628419,2|2,0:3|0:3,0:0:0:0:
129,378,165490,6,0,P|188:342|273:330,1,141.900004330444,6|2,3:2|0:0,0:0:0:0:
281,332,165835,1,10,0:0:0:0:
430,286,166007,1,0,0:0:0:0:
321,204,166179,2,0,P|273:177|237:144,1,94.600002886963,2|0,0:0|3:0,0:0:0:0:
231,130,166438,1,0,0:0:0:0:
231,130,166524,1,8,0:0:0:0:
443,171,166697,1,0,0:0:0:0:
184,244,166869,6,0,P|114:246|30:220,1,141.900004330444,2|2,3:2|0:0,0:0:0:0:
25,214,167214,1,10,0:0:0:0:
226,359,167386,1,0,0:0:0:0:
318,273,167559,2,0,P|380:261|418:261,1,94.600002886963,2|0,0:0|3:0,0:0:0:0:
276,151,167904,1,8,0:0:0:0:
384,348,168076,1,0,0:0:0:0:
188,239,168248,6,0,P|141:185|129:157,1,94.600002886963,2|0,3:2|0:0,0:0:0:0:
127,141,168507,1,2,0:0:0:0:
127,141,168593,1,10,0:0:0:0:
105,319,168766,1,0,0:0:0:0:
294,199,168938,2,0,L|288:301,1,94.600002886963,2|0,0:0|3:0,0:0:0:0:
384,129,169283,1,8,0:0:0:0:
434,358,169455,1,0,0:0:0:0:
434,358,169541,1,0,0:0:0:0:
434,358,169628,6,0,P|469:276|471:220,1,141.900004330444,2|2,3:2|0:0,0:0:0:0:
463,201,169973,1,10,0:0:0:0:
285,112,170145,1,0,0:0:0:0:
244,306,170317,2,0,P|300:293|336:266,1,94.600002886963,2|0,0:0|3:0,0:0:0:0:
151,180,170662,2,0,P|95:167|59:140,1,94.600002886963,10|0,0:0|0:0,0:0:0:0:
291,17,171007,6,0,L|284:121,1,94.600002886963,2|0,3:2|0:0,0:0:0:0:
137,288,171352,1,10,0:0:0:0:
126,86,171524,1,0,0:0:0:0:
74,255,171697,1,0,0:0:0:0:
188,118,171869,1,0,3:0:0:0:
56,183,172041,1,8,0:0:0:0:
206,190,172213,1,0,0:0:0:0:
158,377,172386,6,0,P|133:332|126:235,1,141.900004330444,2|2,3:2|0:0,0:0:0:0:
132,220,172731,1,10,0:0:0:0:
266,288,172904,1,0,0:0:0:0:
151,109,173076,2,0,P|93:117|43:150,1,94.600002886963,0|0,0:0|3:0,0:0:0:0:
277,146,173421,2,0,L|288:46,1,94.600002886963,10|0,0:0|0:0,0:0:0:0:
199,248,173766,5,2,3:2:0:0:
390,212,173938,1,0,0:0:0:0:
229,255,174110,1,8,0:0:0:0:
377,180,174282,1,0,0:0:0:0:
251,257,174455,1,0,0:0:0:0:
355,178,174627,1,0,3:0:0:0:
275,258,174800,1,10,0:0:0:0:
331,177,174972,1,0,0:0:0:0:
338,329,175145,5,2,3:2:0:0:
245,172,175317,1,0,0:0:0:0:
247,352,175490,1,8,0:0:0:0:
422,298,175662,1,0,0:0:0:0:
192,263,175835,1,2,0:0:0:0:
338,329,176007,1,0,3:0:0:0:
144,361,176179,1,10,0:0:0:0:
119,183,176352,1,0,0:0:0:0:
307,144,176524,6,0,P|282:192|245:229,1,94.600002886963,6|0,3:2|0:0,0:0:0:0:
234,233,176783,1,2,0:0:0:0:
234,233,176869,1,10,0:0:0:0:
391,232,177041,1,0,0:0:0:0:
277,42,177214,2,0,P|339:39|379:58,1,94.600002886963,2|0,0:0|3:0,0:0:0:0:
182,120,177559,2,0,L|80:103,1,94.600002886963,8|0,0:0|0:0,0:0:0:0:
19,278,177904,6,0,P|76:233|154:224,1,141.900004330444,2|2,3:2|0:0,0:0:0:0:
165,227,178248,1,10,0:0:0:0:
7,159,178421,1,0,0:0:0:0:
261,69,178593,2,0,L|273:171,1,94.600002886963,2|0,0:0|3:0,0:0:0:0:
279,190,178852,1,0,0:0:0:0:
279,190,178938,1,8,0:0:0:0:
366,61,179110,1,0,0:0:0:0:
378,298,179283,6,0,P|376:238|407:159,1,141.900004330444,2|2,3:2|0:0,0:0:0:0:
423,147,179628,1,10,0:0:0:0:
501,275,179800,1,0,0:0:0:0:
284,353,179973,2,0,P|231:316|212:292,1,94.600002886963,2|0,0:0|3:0,0:0:0:0:
160,163,180317,1,8,0:0:0:0:
105,363,180490,1,0,0:0:0:0:
47,239,180662,6,0,L|28:127,1,94.600002886963,2|0,3:2|0:0,0:0:0:0:
29,126,180921,1,2,0:0:0:0:
29,126,181007,1,10,0:0:0:0:
144,28,181179,1,0,0:0:0:0:
273,123,181352,2,0,P|212:154|174:160,1,94.600002886963,2|0,0:0|3:0,0:0:0:0:
341,239,181697,2,0,P|402:270|440:276,1,94.600002886963,10|0,0:0|0:0,0:0:0:0:
400,127,182041,5,2,3:2:0:0:
217,255,182214,1,0,0:0:0:0:
469,186,182386,1,10,0:0:0:0:
381,41,182559,1,0,0:0:0:0:
367,208,182731,1,0,0:0:0:0:
477,81,182904,1,0,3:0:0:0:
313,119,183076,1,8,0:0:0:0:
469,186,183248,1,0,0:0:0:0:
281,31,183421,6,0,P|212:34|140:76,1,141.900004330444,2|2,3:2|0:0,0:0:0:0:
135,87,183766,1,10,0:0:0:0:
93,247,183938,1,0,0:0:0:0:
21,138,184110,2,0,P|9:91|10:39,1,94.600002886963,2|0,0:0|3:0,0:0:0:0:
204,183,184455,2,0,P|216:230|215:282,1,94.600002886963,10|0,0:0|0:0,0:0:0:0:
293,99,184800,5,2,3:2:0:0:
375,197,184973,1,0,0:0:0:0:
372,210,185059,1,0,0:0:0:0:
370,224,185145,1,2,0:0:0:0:
463,123,185317,1,2,0:0:0:0:
266,200,185490,1,2,0:0:0:0:
252,197,185576,1,0,0:0:0:0:
238,194,185662,1,2,0:0:0:0:
471,221,185835,1,2,0:0:0:0:
337,87,186007,1,2,0:0:0:0:
361,299,186179,5,2,0:3:0:0:
461,103,186352,1,2,0:3:0:0:
465,89,186438,1,2,0:3:0:0:
469,75,186524,1,2,0:3:0:0:
243,167,186697,1,2,0:3:0:0:
502,221,186869,1,2,0:3:0:0:
479,215,186955,1,2,0:3:0:0:
455,209,187041,1,2,0:3:0:0:
431,203,187128,1,2,0:3:0:0:
407,198,187214,1,8,0:0:0:0:
104,308,187559,5,4,0:0:0:0:
