osu file format v14

[General]
AudioFilename: audio.mp3
AudioLeadIn: 0
PreviewTime: 55116
Countdown: 0
SampleSet: Soft
StackLeniency: 0.7
Mode: 0
LetterboxInBreaks: 0
EpilepsyWarning: 1
WidescreenStoryboard: 1

[Editor]
Bookmarks: 187552
DistanceSpacing: 0.5
BeatDivisor: 4
GridSize: 32
TimelineZoom: 1.8

[Metadata]
Title:Living in a Dream (feat. Natalie Major) (Feint Remix)
TitleUnicode:Living in a Dream (feat. Natalie Major) (Feint Remix)
Artist:Quinn Karter
ArtistUnicode:Quinn Karter
Creator:Asphyxia
Version:Insane
Source:
Tags:Liquicity dnb d&b drum and bass collab collaboration Apis035 -Ady koleiker kolikiscool riffy kyshiro bakari electronic english
BeatmapID:3349030
BeatmapSetID:1602640

[Difficulty]
HPDrainRate:5
CircleSize:3.8
OverallDifficulty:8
ApproachRate:8.7
SliderMultiplier:1.4
SliderTickRate:1

[Events]
//Background and Video events
0,0,"newbg.png",0,0
//Break Periods
2,33766,41396
2,100317,109672
2,122041,129672
//Storyboard Layer 0 (Background)
//Storyboard Layer 1 (Fail)
//Storyboard Layer 2 (Pass)
//Storyboard Layer 3 (Foreground)
Sprite,Foreground,Centre,"sb\p.png",0,0 M,0,45490,,381,90 R,0,45490,,0.5499551 P,0,45490,,A F,19,45490,46866,0.3,0.05 V,13,45490,46866,1400,55.26316,1400,0 M,0,46869,,135,394 R,0,46869,,4.098474 F,19,46869,48245,0.3,0.05 V,13,46869,48245,1400,55.26316,1400,0 M,0,48248,,423,366 R,0,48248,,1.81706 F,19,48248,49624,0.3,0.05 V,13,48248,49624,1400,55.26316,1400,0 M,0,49628,,315,291 R,0,49628,,1.201837 F,19,49628,51004,0.3,0.05 V,13,49628,51004,1400,55.26316,1400,0 M,0,51007,,326,76 R,0,51007,,0.3388638 F,19,51007,52383,0.3,0.05 V,13,51007,52383,1400,55.26316,1400,0 M,0,52386,,345,348 R,0,52386,,1.706542 F,19,52386,53762,0.4,0.05 V,13,52386,53762,1400,36.84211,1400,0 M,0,57904,,348,244 R,0,57904,,1.857326 F,19,57904,59280,0.4,0.05 V,13,57904,59280,1400,36.84211,1400,0 M,0,59283,,268,183 R,0,59283,,1.650392 F,19,59283,60659,0.56,0.05 V,13,59283,60659,1400,55.26316,1400,0 M,0,60662,,254,392 R,0,60662,,1.868005 F,19,60662,62038,0.8,0.05 V,13,60662,62038,1400,55.26316,1400,0 M,0,63421,,75,436 R,0,63421,,1.677105 F,19,63421,64797,0.4,0.05 V,13,63421,64797,1400,36.84211,1400,0 M,0,64800,,364,192 R,0,64800,,1.865938 F,19,64800,66176,0.64,0.05 V,13,64800,66176,1400,55.26316,1400,0 M,0,66179,,198,421 R,0,66179,,1.583369 F,19,66179,67555,0.8,0.05 V,13,66179,67555,1400,55.26316,1400,0 M,0,68938,,237,291 R,0,68938,,1.598886 F,19,68938,70314,0.4,0.05 V,13,68938,70314,1400,36.84211,1400,0 M,0,70317,,429,108 R,0,70317,,1.449099 F,19,70317,71693,0.64,0.05 V,13,70317,71693,1400,55.26316,1400,0 M,0,71697,,235,337 R,0,71697,,1.573874 F,19,71697,73073,0.8,0.05 V,13,71697,73073,1400,55.26316,1400,0 M,0,74455,,333,311 R,0,74455,,1.70038 F,19,74455,75831,0.4,0.05 V,13,74455,75831,1400,36.84211,1400,0
Sprite,Foreground,Centre,"sb\p.png",0,0 M,0,45835,,230,160 R,0,45835,,-0.06241881 P,0,45835,,A F,19,45835,47211,0.3,0.05 V,13,45835,47211,1400,55.26316,1400,0 M,0,48593,,337,405 R,0,48593,,2.290356 F,19,48593,49969,0.3,0.05 V,13,48593,49969,1400,55.26316,1400,0 M,0,51352,,166,144 R,0,51352,,-0.3980143 F,19,51352,52728,0.3,0.05 V,13,51352,52728,1400,55.26316,1400,0 M,0,52731,,240,369 R,0,52731,,1.73161 F,19,52731,54107,0.48,0.05 V,13,52731,54107,1400,46.05263,1400,0 M,0,58248,,473,422 R,0,58248,,1.435019 F,19,58248,59624,0.44,0.05 V,13,58248,59624,1400,41.44737,1400,0 M,0,59800,,356,125 R,0,59800,,1.552503 F,19,59800,61176,0.6,0.05 V,13,59800,61176,1400,55.26316,1400,0 M,0,63766,,425,365 R,0,63766,,1.459551 F,19,63766,65142,0.44,0.05 V,13,63766,65142,1400,41.44737,1400,0 M,0,65145,,517,86 R,0,65145,,1.090371 F,19,65145,66521,0.7600001,0.05 V,13,65145,66521,1400,55.26316,1400,0 M,0,69110,,237,291 R,0,69110,,1.498886 F,19,69110,70486,0.44,0.05 V,13,69110,70486,1400,41.44737,1400,0 M,0,70490,,507,76 R,0,70490,,1.863923 F,19,70490,71866,0.6800001,0.05 V,13,70490,71866,1400,55.26316,1400,0 M,0,74628,,297,222 R,0,74628,,1.342171 F,19,74628,76004,0.44,0.05 V,13,74628,76004,1400,41.44737,1400,0
Sprite,Foreground,Centre,"sb\p.png",0,0 M,0,46179,,317,283 R,0,46179,,1.122854 P,0,46179,,A F,19,46179,47555,0.3,0.05 V,13,46179,47555,1400,55.26316,1400,0 M,0,48938,,99,368 R,0,48938,,4.384269 F,19,48938,50314,0.3,0.05 V,13,48938,50314,1400,55.26316,1400,0 M,0,51697,,258,210 R,0,51697,,0.1621988 F,19,51697,53073,0.3,0.05 V,13,51697,53073,1400,55.26316,1400,0 M,0,53076,,266,94 R,0,53076,,1.394416 F,19,53076,54452,0.56,0.05 V,13,53076,54452,1400,55.26316,1400,0 M,0,58593,,576,172 R,0,58593,,1.44594 F,19,58593,59969,0.48,0.05 V,13,58593,59969,1400,46.05263,1400,0 M,0,59973,,220,295 R,0,59973,,1.860087 F,19,59973,61349,0.64,0.05 V,13,59973,61349,1400,55.26316,1400,0 M,0,63938,,425,365 R,0,63938,,1.359551 F,19,63938,65314,0.48,0.05 V,13,63938,65314,1400,46.05263,1400,0 M,0,65317,,466,176 R,0,65317,,1.690762 F,19,65317,66693,0.8,0.05 V,13,65317,66693,1400,55.26316,1400,0 M,0,69283,,144,241 R,0,69283,,1.319462 F,19,69283,70659,0.48,0.05 V,13,69283,70659,1400,46.05263,1400,0 M,0,70662,,506,159 R,0,70662,,1.656415 F,19,70662,72038,0.7200001,0.05 V,13,70662,72038,1400,55.26316,1400,0 M,0,74714,,297,222 R,0,74714,,1.242171 F,19,74714,76090,0.48,0.05 V,13,74714,76090,1400,46.05263,1400,0
Sprite,Foreground,Centre,"sb\p.png",0,0 M,0,46524,,76,235 R,0,46524,,-1.092622 P,0,46524,,A F,19,46524,47900,0.3,0.05 V,13,46524,47900,1400,55.26316,1400,0 M,0,52041,,417,283 R,0,52041,,1.364724 F,19,52041,53417,0.3,0.05 V,13,52041,53417,1400,55.26316,1400,0 M,0,53421,,429,161 R,0,53421,,1.814413 F,19,53421,54797,0.64,0.05 V,13,53421,54797,1400,55.26316,1400,0 M,0,58938,,277,349 R,0,58938,,1.551185 F,19,58938,60314,0.52,0.05 V,13,58938,60314,1400,50.65789,1400,0 M,0,60317,,170,140 R,0,60317,,1.289016 F,19,60317,61693,0.7200001,0.05 V,13,60317,61693,1400,55.26316,1400,0 M,0,64110,,262,267 R,0,64110,,1.760941 F,19,64110,65486,0.52,0.05 V,13,64110,65486,1400,50.65789,1400,0 M,0,65490,,571,338 R,0,65490,,1.586567 F,19,65490,66866,0.8,0.05 V,13,65490,66866,1400,55.26316,1400,0 M,0,69455,,144,241 R,0,69455,,1.219462 F,19,69455,70831,0.52,0.05 V,13,69455,70831,1400,50.65789,1400,0 M,0,70835,,425,199 R,0,70835,,1.728575 F,19,70835,72211,0.7600001,0.05 V,13,70835,72211,1400,55.26316,1400,0 M,0,74800,,297,222 R,0,74800,,1.142171 F,19,74800,76176,0.52,0.05 V,13,74800,76176,1400,50.65789,1400,0
Sprite,Foreground,Centre,"sb\p.png",0,0 M,0,52559,,188,278 R,0,52559,,1.761192 P,0,52559,,A F,19,52559,53935,0.44,0.05 V,13,52559,53935,1400,41.44737,1400,0 M,0,60145,,220,295 R,0,60145,,1.760087 F,19,60145,61521,0.6800001,0.05 V,13,60145,61521,1400,55.26316,1400,0 M,0,64455,,516,317 R,0,64455,,1.779627 F,19,64455,65831,0.56,0.05 V,13,64455,65831,1400,55.26316,1400,0 M,0,65835,,414,418 R,0,65835,,1.831208 F,19,65835,67211,0.8,0.05 V,13,65835,67211,1400,55.26316,1400,0 M,0,69628,,237,191 R,0,69628,,1.383071 F,19,69628,71004,0.56,0.05 V,13,69628,71004,1400,55.26316,1400,0 M,0,71007,,319,101 R,0,71007,,1.289033 F,19,71007,72383,0.8,0.05 V,13,71007,72383,1400,55.26316,1400,0 M,0,74973,,211,283 R,0,74973,,1.434867 F,19,74973,76349,0.56,0.05 V,13,74973,76349,1400,55.26316,1400,0
Sprite,Foreground,Centre,"sb\p.png",0,0 M,0,52904,,355,243 R,0,52904,,1.605693 P,0,52904,,A F,19,52904,54280,0.52,0.05 V,13,52904,54280,1400,50.65789,1400,0 M,0,60490,,364,242 R,0,60490,,1.788218 F,19,60490,61866,0.7600001,0.05 V,13,60490,61866,1400,55.26316,1400,0 M,0,64628,,516,317 R,0,64628,,1.679627 F,19,64628,66004,0.6,0.05 V,13,64628,66004,1400,55.26316,1400,0 M,0,66093,,198,421 R,0,66093,,1.683368 F,19,66093,67469,0.8,0.05 V,13,66093,67469,1400,55.26316,1400,0 M,0,69973,,425,199 R,0,69973,,1.542793 F,19,69973,71349,0.6,0.05 V,13,69973,71349,1400,55.26316,1400,0 M,0,71352,,473,280 R,0,71352,,1.476681 F,19,71352,72728,0.8,0.05 V,13,71352,72728,1400,55.26316,1400,0 M,0,75145,,426,337 R,0,75145,,1.815055 F,19,75145,76521,0.6,0.05 V,13,75145,76521,1400,55.26316,1400,0
Sprite,Foreground,Centre,"sb\p.png",0,0 M,0,53248,,258,200 R,0,53248,,1.606127 P,0,53248,,A F,19,53248,54624,0.6,0.05 V,13,53248,54624,1400,55.26316,1400,0 M,0,64973,,517,86 R,0,64973,,1.290371 F,19,64973,66349,0.6800001,0.05 V,13,64973,66349,1400,55.26316,1400,0 M,0,71179,,507,76 R,0,71179,,1.499399 F,19,71179,72555,0.8,0.05 V,13,71179,72555,1400,55.26316,1400,0 M,0,75231,,426,337 R,0,75231,,1.715055 F,19,75231,76607,0.64,0.05 V,13,75231,76607,1400,55.26316,1400,0
Sprite,Foreground,Centre,"sb\p.png",0,0 M,0,53593,,372,69 R,0,53593,,1.536103 P,0,53593,,A F,19,53593,54969,0.6800001,0.05 V,13,53593,54969,1400,55.26316,1400,0 M,0,65059,,517,86 R,0,65059,,1.190371 F,19,65059,66435,0.7200001,0.05 V,13,65059,66435,1400,55.26316,1400,0 M,0,71524,,338,195 R,0,71524,,1.845269 F,19,71524,72900,0.8,0.05 V,13,71524,72900,1400,55.26316,1400,0 M,0,75317,,426,337 R,0,75317,,1.615055 F,19,75317,76693,0.6800001,0.05 V,13,75317,76693,1400,55.26316,1400,0
Sprite,Foreground,Centre,"sb\p.png",0,0 M,0,65576,,571,338 R,0,65576,,1.486567 P,0,65576,,A F,19,65576,66952,0.8,0.05 V,13,65576,66952,1400,55.26316,1400,0 M,0,75490,,351,411 R,0,75490,,1.747656 F,19,75490,76866,0.7200001,0.05 V,13,75490,76866,1400,55.26316,1400,0
Sprite,Foreground,Centre,"sb\p.png",0,0 M,0,65662,,571,338 R,0,65662,,1.386567 P,0,65662,,A F,19,65662,67038,0.8,0.05 V,13,65662,67038,1400,55.26316,1400,0 M,0,75662,,333,311 R,0,75662,,1.473093 F,19,75662,77038,0.7600001,0.05 V,13,75662,77038,1400,55.26316,1400,0
Sprite,Foreground,Centre,"sb\p.png",0,0 M,0,133766,,336,123 R,0,133766,,0.4534439 P,0,133766,,A F,19,133766,135142,0.3,0.05 V,13,133766,135142,1400,55.26316,1400,0 M,0,135145,,208,408 R,0,135145,,3.490364 F,19,135145,136521,0.3,0.05 V,13,135145,136521,1400,55.26316,1400,0 M,0,136524,,347,286 R,0,136524,,1.263129 F,19,136524,137900,0.3,0.05 V,13,136524,137900,1400,55.26316,1400,0 M,0,137904,,219,421 R,0,137904,,3.346593 F,19,137904,139280,0.3,0.05 V,13,137904,139280,1400,55.26316,1400,0 M,0,139283,,530,432 R,0,139283,,1.939356 F,19,139283,140659,0.3,0.05 V,13,139283,140659,1400,55.26316,1400,0 M,0,140662,,79,81 R,0,140662,,1.545122 F,19,140662,142038,0.4,0.05 V,13,140662,142038,1400,36.84211,1400,0 M,0,146179,,317,363 R,0,146179,,1.797711 F,19,146179,147555,0.4,0.05 V,13,146179,147555,1400,36.84211,1400,0 M,0,147559,,262,405 R,0,147559,,1.645716 F,19,147559,148935,0.64,0.05 V,13,147559,148935,1400,55.26316,1400,0 M,0,148938,,442,232 R,0,148938,,1.372882 F,19,148938,150314,0.8,0.05 V,13,148938,150314,1400,55.26316,1400,0 M,0,151697,,119,103 R,0,151697,,1.657266 F,19,151697,153073,0.4,0.05 V,13,151697,153073,1400,36.84211,1400,0 M,0,153076,,556,378 R,0,153076,,1.702632 F,19,153076,154452,0.8,0.05 V,13,153076,154452,1400,55.26316,1400,0 M,0,154455,,84,147 R,0,154455,,1.713902 F,19,154455,155831,0.8,0.05 V,13,154455,155831,1400,55.26316,1400,0 M,0,157214,,240,300 R,0,157214,,1.384271 F,19,157214,158590,0.4,0.05 V,13,157214,158590,1400,36.84211,1400,0 M,0,158593,,563,266 R,0,158593,,1.551835 F,19,158593,159969,0.6800001,0.05 V,13,158593,159969,1400,55.26316,1400,0 M,0,159973,,263,304 R,0,159973,,1.833321 F,19,159973,161349,0.8,0.05 V,13,159973,161349,1400,55.26316,1400,0 M,0,162731,,549,72 R,0,162731,,1.447794 F,19,162731,164107,0.4,0.05 V,13,162731,164107,1400,36.84211,1400,0
Sprite,Foreground,Centre,"sb\p.png",0,0 M,0,134110,,436,259 R,0,134110,,1.269074 P,0,134110,,A F,19,134110,135486,0.3,0.05 V,13,134110,135486,1400,55.26316,1400,0 M,0,136869,,437,105 R,0,136869,,0.7417366 F,19,136869,138245,0.3,0.05 V,13,136869,138245,1400,55.26316,1400,0 M,0,139628,,489,177 R,0,139628,,1.04949 F,19,139628,141004,0.3,0.05 V,13,139628,141004,1400,55.26316,1400,0 M,0,141007,,159,112 R,0,141007,,1.403585 F,19,141007,142383,0.48,0.05 V,13,141007,142383,1400,46.05263,1400,0 M,0,146352,,180,302 R,0,146352,,1.76605 F,19,146352,147728,0.44,0.05 V,13,146352,147728,1400,41.44737,1400,0 M,0,147731,,262,405 R,0,147731,,1.545716 F,19,147731,149107,0.6800001,0.05 V,13,147731,149107,1400,55.26316,1400,0 M,0,151869,,208,256 R,0,151869,,1.766885 F,19,151869,153245,0.44,0.05 V,13,151869,153245,1400,41.44737,1400,0 M,0,153335,,485,340 R,0,153335,,1.756474 F,19,153335,154711,0.8,0.05 V,13,153335,154711,1400,55.26316,1400,0 M,0,157386,,240,300 R,0,157386,,1.284271 F,19,157386,158762,0.44,0.05 V,13,157386,158762,1400,41.44737,1400,0 M,0,158766,,563,266 R,0,158766,,1.451835 F,19,158766,160142,0.7200001,0.05 V,13,158766,160142,1400,55.26316,1400,0 M,0,162904,,373,93 R,0,162904,,1.584468 F,19,162904,164280,0.44,0.05 V,13,162904,164280,1400,41.44737,1400,0
Sprite,Foreground,Centre,"sb\p.png",0,0 M,0,134455,,265,274 R,0,134455,,0.4978223 P,0,134455,,A F,19,134455,135831,0.3,0.05 V,13,134455,135831,1400,55.26316,1400,0 M,0,137214,,509,326 R,0,137214,,1.593097 F,19,137214,138590,0.3,0.05 V,13,137214,138590,1400,55.26316,1400,0 M,0,139973,,380,154 R,0,139973,,0.7006344 F,19,139973,141349,0.3,0.05 V,13,139973,141349,1400,55.26316,1400,0 M,0,141352,,83,166 R,0,141352,,1.702032 F,19,141352,142728,0.56,0.05 V,13,141352,142728,1400,55.26316,1400,0 M,0,146524,,324,271 R,0,146524,,1.712035 F,19,146524,147900,0.48,0.05 V,13,146524,147900,1400,46.05263,1400,0 M,0,147904,,205,274 R,0,147904,,1.40184 F,19,147904,149280,0.7200001,0.05 V,13,147904,149280,1400,55.26316,1400,0 M,0,151955,,208,256 R,0,151955,,1.666885 F,19,151955,153331,0.48,0.05 V,13,151955,153331,1400,46.05263,1400,0 M,0,153421,,468,346 R,0,153421,,1.331358 F,19,153421,154797,0.8,0.05 V,13,153421,154797,1400,55.26316,1400,0 M,0,157559,,328,333 R,0,157559,,1.556882 F,19,157559,158935,0.48,0.05 V,13,157559,158935,1400,46.05263,1400,0 M,0,158938,,416,175 R,0,158938,,1.770895 F,19,158938,160314,0.7600001,0.05 V,13,158938,160314,1400,55.26316,1400,0 M,0,162990,,373,93 R,0,162990,,1.484468 F,19,162990,164366,0.48,0.05 V,13,162990,164366,1400,46.05263,1400,0
Sprite,Foreground,Centre,"sb\p.png",0,0 M,0,134800,,406,423 R,0,134800,,2.12614 P,0,134800,,A F,19,134800,136176,0.3,0.05 V,13,134800,136176,1400,55.26316,1400,0 M,0,140317,,284,98 R,0,140317,,0.1956625 F,19,140317,141693,0.3,0.05 V,13,140317,141693,1400,55.26316,1400,0 M,0,141697,,190,233 R,0,141697,,1.563577 F,19,141697,143073,0.64,0.05 V,13,141697,143073,1400,55.26316,1400,0 M,0,146869,,501,185 R,0,146869,,1.785728 F,19,146869,148245,0.52,0.05 V,13,146869,148245,1400,50.65789,1400,0 M,0,148248,,305,314 R,0,148248,,1.808014 F,19,148248,149624,0.7600001,0.05 V,13,148248,149624,1400,55.26316,1400,0 M,0,152041,,208,256 R,0,152041,,1.566885 F,19,152041,153417,0.52,0.05 V,13,152041,153417,1400,50.65789,1400,0 M,0,153766,,172,287 R,0,153766,,1.708253 F,19,153766,155142,0.8,0.05 V,13,153766,155142,1400,55.26316,1400,0 M,0,157731,,395,267 R,0,157731,,1.595273 F,19,157731,159107,0.52,0.05 V,13,157731,159107,1400,50.65789,1400,0 M,0,159283,,142,91 R,0,159283,,1.756319 F,19,159283,160659,0.8,0.05 V,13,159283,160659,1400,55.26316,1400,0 M,0,163076,,373,93 R,0,163076,,1.384467 F,19,163076,164452,0.52,0.05 V,13,163076,164452,1400,50.65789,1400,0
Sprite,Foreground,Centre,"sb\p.png",0,0 M,0,140835,,96,266 R,0,140835,,1.358891 P,0,140835,,A F,19,140835,142211,0.44,0.05 V,13,140835,142211,1400,41.44737,1400,0 M,0,147041,,501,185 R,0,147041,,1.685728 F,19,147041,148417,0.56,0.05 V,13,147041,148417,1400,55.26316,1400,0 M,0,148421,,173,175 R,0,148421,,1.80866 F,19,148421,149797,0.8,0.05 V,13,148421,149797,1400,55.26316,1400,0 M,0,152214,,339,150 R,0,152214,,1.402309 F,19,152214,153590,0.56,0.05 V,13,152214,153590,1400,55.26316,1400,0 M,0,153938,,281,249 R,0,153938,,1.701867 F,19,153938,155314,0.8,0.05 V,13,153938,155314,1400,55.26316,1400,0 M,0,157904,,468,327 R,0,157904,,1.466097 F,19,157904,159280,0.56,0.05 V,13,157904,159280,1400,55.26316,1400,0 M,0,159628,,416,175 R,0,159628,,1.746975 F,19,159628,161004,0.8,0.05 V,13,159628,161004,1400,55.26316,1400,0 M,0,163248,,480,125 R,0,163248,,1.668832 F,19,163248,164624,0.56,0.05 V,13,163248,164624,1400,55.26316,1400,0
Sprite,Foreground,Centre,"sb\p.png",0,0 M,0,141179,,165,315 R,0,141179,,1.51684 P,0,141179,,A F,19,141179,142555,0.52,0.05 V,13,141179,142555,1400,50.65789,1400,0 M,0,147214,,419,299 R,0,147214,,1.678646 F,19,147214,148590,0.6,0.05 V,13,147214,148590,1400,55.26316,1400,0 M,0,148593,,349,238 R,0,148593,,1.322744 F,19,148593,149969,0.8,0.05 V,13,148593,149969,1400,55.26316,1400,0 M,0,152386,,250,173 R,0,152386,,1.87078 F,19,152386,153762,0.6,0.05 V,13,152386,153762,1400,55.26316,1400,0 M,0,154110,,236,114 R,0,154110,,1.346113 F,19,154110,155486,0.8,0.05 V,13,154110,155486,1400,55.26316,1400,0 M,0,158248,,501,133 R,0,158248,,1.673418 F,19,158248,159624,0.6,0.05 V,13,158248,159624,1400,55.26316,1400,0 M,0,159800,,245,108 R,0,159800,,1.7295 F,19,159800,161176,0.8,0.05 V,13,159800,161176,1400,55.26316,1400,0 M,0,163421,,294,220 R,0,163421,,1.47035 F,19,163421,164797,0.6,0.05 V,13,163421,164797,1400,55.26316,1400,0
Sprite,Foreground,Centre,"sb\p.png",0,0 M,0,141524,,64,357 R,0,141524,,1.642694 P,0,141524,,A F,19,141524,142900,0.6,0.05 V,13,141524,142900,1400,55.26316,1400,0 M,0,148766,,334,66 R,0,148766,,1.773944 F,19,148766,150142,0.8,0.05 V,13,148766,150142,1400,55.26316,1400,0 M,0,152473,,250,173 R,0,152473,,1.77078 F,19,152473,153849,0.64,0.05 V,13,152473,153849,1400,55.26316,1400,0 M,0,154369,,84,147 R,0,154369,,1.813902 F,19,154369,155745,0.8,0.05 V,13,154369,155745,1400,55.26316,1400,0 M,0,158421,,501,133 R,0,158421,,1.573418 F,19,158421,159797,0.64,0.05 V,13,158421,159797,1400,55.26316,1400,0 M,0,163507,,294,220 R,0,163507,,1.37035 F,19,163507,164883,0.64,0.05 V,13,163507,164883,1400,55.26316,1400,0
Sprite,Foreground,Centre,"sb\p.png",0,0 M,0,141869,,223,406 R,0,141869,,1.387744 P,0,141869,,A F,19,141869,143245,0.6800001,0.05 V,13,141869,143245,1400,55.26316,1400,0 M,0,152559,,250,173 R,0,152559,,1.67078 F,19,152559,153935,0.6800001,0.05 V,13,152559,153935,1400,55.26316,1400,0 M,0,163593,,294,220 R,0,163593,,1.27035 F,19,163593,164969,0.6800001,0.05 V,13,163593,164969,1400,55.26316,1400,0
Sprite,Foreground,Centre,"sb\p.png",0,0 M,0,152731,,333,330 R,0,152731,,1.559616 P,0,152731,,A F,19,152731,154107,0.7200001,0.05 V,13,152731,154107,1400,55.26316,1400,0 M,0,163766,,382,253 R,0,163766,,1.44283 F,19,163766,165142,0.7200001,0.05 V,13,163766,165142,1400,55.26316,1400,0
Sprite,Foreground,Centre,"sb\p.png",0,0 M,0,152904,,465,225 R,0,152904,,1.66212 P,0,152904,,A F,19,152904,154280,0.7600001,0.05 V,13,152904,154280,1400,55.26316,1400,0 M,0,163938,,308,311 R,0,163938,,1.763162 F,19,163938,165314,0.7600001,0.05 V,13,163938,165314,1400,55.26316,1400,0
Sprite,Foreground,Centre,"sb\f\_003.png",320,0 S,0,193076,,0.5 F,7,193076,194076,0,1 MY,26,193076,194828,354,374 F,6,194828,195828,1,0 MY,18,194828,195828,374,354
//Storyboard Layer 4 (Overlay)
Sprite,Overlay,Centre,"sb\4.png",0,0 M,0,44110,,522,383 C,0,44110,,255,128,128 P,0,44110,,A M,0,44110,44153,522,383,502.9507,380.5688 S,0,44110,44798,0.9210526,1.105263 M,0,44153,44196,502.9507,380.5688,483.8929,378.2056 M,0,44196,44239,483.8929,378.2056,464.8268,375.9103 M,0,44239,44282,464.8268,375.9103,445.5696,373.6573 F,1,44282,44970,0.6,0 M,0,45317,,381,90 F,1,45317,46005,0.4,0 S,0,45317,46005,0.9210526,1.105263 M,0,46869,,135,394 C,0,46869,,89,172,255 F,1,46869,47557,0.4,0 S,0,46869,47557,0.9210526,1.105263 M,0,48248,,423,366 F,0,48248,,0.6 C,0,48248,,0,128,128 M,0,48248,48291,423,366,441.9449,362.8618 S,0,48248,48936,0.9210526,1.105263 M,0,48291,48334,441.9449,362.8618,460.9577,360.1675 M,0,48334,48377,460.9577,360.1675,480.028,357.9183 M,0,48377,48420,480.028,357.9183,499.3264,356.0585 F,1,48420,49108,0.6,0 M,0,49455,,315,291 F,1,49455,50143,0.4,0 S,0,49455,50143,0.9210526,1.105263 M,0,50835,,326,76 C,0,50835,,255,128,128 F,1,50835,51523,0.4,0 S,0,50835,51523,0.9210526,1.105263 M,0,52386,,345,348 C,0,52386,,89,172,255 F,1,52386,53074,0.4,0 S,0,52386,53074,0.9210526,1.105263 M,0,53766,,538,104 C,0,53766,,0,128,128 F,1,53766,54454,0.4,0 S,0,53766,54454,0.9210526,1.105263 M,0,55145,,322,247 F,0,55145,,0.8 C,0,55145,,154,78,78 M,0,55145,55188,322,247,318.3264,221.0719 S,0,55145,55833,0.9210526,1.105263 M,0,55188,55231,318.3264,221.0719,314.6006,195.1514 M,0,55231,55274,314.6006,195.1514,310.8217,169.2385 M,0,55274,55317,310.8217,169.2385,306.9536,143.084 F,1,55317,56005,0.8,0 M,0,56179,,259,355 F,0,56179,,0.8 M,0,56179,56222,259,355,239.5696,372.4129 S,0,56179,56867,0.9210526,1.105263 M,0,56222,56265,239.5696,372.4129,216.2638,384.0924 M,0,56265,56308,216.2638,384.0924,190.7245,389.2273 M,0,56308,56351,190.7245,389.2273,164.5027,387.4072 F,1,56351,57039,0.8,0 M,0,57214,,423,184 C,0,57214,,89,172,255 F,1,57214,57902,0.6,0 S,0,57214,57902,0.9210526,1.105263 M,0,58593,,576,172 F,0,58593,,0.8 C,0,58593,,0,128,128 M,0,58593,58636,576,172,550.0417,169.4996 S,0,58593,59281,0.9210526,1.105263 M,0,58636,58679,550.0417,169.4996,524.4072,174.1282 M,0,58679,58722,524.4072,174.1282,501.0076,185.5278 M,0,58722,58765,501.0076,185.5278,481.1683,202.8168 F,1,58765,59453,0.8,0 M,0,59800,,356,125 C,0,59800,,255,128,128 F,1,59800,60488,0.6,0 S,0,59800,60488,0.9210526,1.105263 M,0,61179,,342,342 C,0,61179,,154,78,78 F,1,61179,61867,0.6,0 S,0,61179,61867,0.9210526,1.105263 M,0,62559,,147,193 C,0,62559,,89,172,255 F,1,62559,63247,0.6,0 S,0,62559,63247,0.9210526,1.105263 M,0,63938,,425,365 C,0,63938,,0,128,128 F,1,63938,64626,0.6,0 S,0,63938,64626,0.9210526,1.105263 M,0,65317,,466,176 C,0,65317,,255,128,128 F,1,65317,66005,0.6,0 S,0,65317,66005,0.9210526,1.105263 M,0,66697,,290,153 C,0,66697,,154,78,78 F,1,66697,67385,0.6,0 S,0,66697,67385,0.9210526,1.105263 M,0,68248,,532,398 C,0,68248,,89,172,255 F,1,68248,68936,0.6,0 S,0,68248,68936,0.9210526,1.105263 M,0,69628,,237,191 F,0,69628,,0.8 C,0,69628,,0,128,128 M,0,69628,69671,237,191,232.6504,165.1769 S,0,69628,70316,0.9210526,1.105263 M,0,69671,69714,232.6504,165.1769,228.0639,139.3948 M,0,69714,69757,228.0639,139.3948,223.2412,113.6559 M,0,69757,69800,223.2412,113.6559,218.143,87.71323 F,1,69800,70488,0.8,0 M,0,70490,,507,76 C,0,70490,,255,128,128 F,1,70490,71178,0.6,0 S,0,70490,71178,0.9210526,1.105263 M,0,72041,,463,376 F,0,72041,,0.8 C,0,72041,,154,78,78 M,0,72041,72084,463,376,437.1966,371.534 S,0,72041,72729,0.9210526,1.105263 M,0,72084,72127,437.1966,371.534,411.3932,367.0681 M,0,72127,72170,411.3932,367.0681,385.5899,362.6021 M,0,72170,72213,385.5899,362.6021,359.5382,358.0931 F,1,72213,72901,0.8,0 M,0,72904,,252,182 F,1,72904,73592,0.6,0 S,0,72904,73592,0.9210526,1.105263 M,0,74283,,450,162 C,0,74283,,89,172,255 F,1,74283,74971,0.6,0 S,0,74283,74971,0.9210526,1.105263 M,0,75662,,333,311 C,0,75662,,0,128,128 F,1,75662,76350,0.6,0 S,0,75662,76350,0.9210526,1.105263 M,0,77128,,403,188 C,0,77128,,255,128,128 F,1,77128,77816,0.6,0 S,0,77128,77816,0.9210526,1.105263 M,0,78593,,191,405 F,0,78593,,0.7 C,0,78593,,89,172,255 M,0,78593,78636,191,405,216.9019,408.8509 S,0,78593,79281,0.9210526,1.105263 M,0,78636,78679,216.9019,408.8509,242.7339,413.1446 M,0,78679,78722,242.7339,413.1446,268.4886,417.8797 M,0,78722,78765,268.4886,417.8797,294,423 F,1,78765,79453,0.7,0 M,0,79455,,98,142 F,1,79455,80143,0.5,0 S,0,79455,80143,0.9210526,1.105263 M,0,80835,,287,151 C,0,80835,,0,128,128 F,1,80835,81523,0.5,0 S,0,80835,81523,0.9210526,1.105263 M,0,82214,,408,285 C,0,82214,,255,128,128 F,1,82214,82902,0.5,0 S,0,82214,82902,0.9210526,1.105263 M,0,83593,,239,205 F,0,83593,,0.7 C,0,83593,,154,78,78 M,0,83593,83636,239,205,242.7489,179.0832 S,0,83593,84281,0.9210526,1.105263 M,0,83636,83679,242.7489,179.0832,246.9749,153.2401 M,0,83679,83722,246.9749,153.2401,251.6766,127.4793 M,0,83722,83765,251.6766,127.4793,256.8834,101.5587 F,1,83765,84453,0.7,0 M,0,84455,,568,187 F,0,84455,,0.7 C,0,84455,,89,172,255 M,0,84455,84498,568,187,563.6504,161.1769 S,0,84455,85143,0.9210526,1.105263 M,0,84498,84541,563.6504,161.1769,559.0638,135.3948 M,0,84541,84584,559.0638,135.3948,554.2412,109.6559 M,0,84584,84627,554.2412,109.6559,549.143,83.71323 F,1,84627,85315,0.7,0 M,0,85490,,217,72 F,0,85490,,0.7 C,0,85490,,0,128,128 M,0,85490,85533,217,72,241.9793,79.38984 S,0,85490,86178,0.9210526,1.105263 M,0,85533,85576,241.9793,79.38984,263.4922,94.0129 M,0,85576,85619,263.4922,94.0129,279.5149,114.4718 M,0,85619,85662,279.5149,114.4718,288.5411,138.8247 M,0,85662,85705,288.5411,138.8247,289.981,164.7847 M,0,85705,85748,289.981,164.7847,282.8486,190.1937 F,1,85748,86436,0.7,0 M,0,86524,,68,384 F,0,86524,,0.7 M,0,86524,86567,68,384,93.67072,378.8266 S,0,86524,87212,0.9210526,1.105263 M,0,86567,86610,93.67072,378.8266,119.397,373.9374 M,0,86610,86653,119.397,373.9374,145.1757,369.3327 M,0,86653,86696,145.1757,369.3327,171,365 F,1,86696,87384,0.7,0 M,0,87559,,396,377 C,0,87559,,255,128,128 F,1,87559,88247,0.5,0 S,0,87559,88247,0.9210526,1.105263 M,0,88938,,71,90 C,0,88938,,154,78,78 F,1,88938,89626,0.5,0 S,0,88938,89626,0.9210526,1.105263 M,0,90317,,316,72 C,0,90317,,89,172,255 F,1,90317,91005,0.5,0 S,0,90317,91005,0.9210526,1.105263 M,0,91697,,356,294 F,0,91697,,0.7 C,0,91697,,0,128,128 M,0,91697,91740,356,294,351.6504,268.1769 S,0,91697,92385,0.9210526,1.105263 M,0,91740,91783,351.6504,268.1769,347.0638,242.3948 M,0,91783,91826,347.0638,242.3948,342.2412,216.6559 M,0,91826,91869,342.2412,216.6559,337.143,190.7132 F,1,91869,92557,0.7,0 M,0,92904,,424,235 C,0,92904,,255,128,128 F,1,92904,93592,0.5,0 S,0,92904,93592,0.9210526,1.105263 M,0,94455,,335,145 C,0,94455,,154,78,78 F,1,94455,95143,0.5,0 S,0,94455,95143,0.9210526,1.105263 M,0,95835,,254,56 C,0,95835,,89,172,255 F,1,95835,96523,0.5,0 S,0,95835,96523,0.9210526,1.105263 M,0,97214,,530,440 C,0,97214,,0,128,128 F,1,97214,97902,0.5,0 S,0,97214,97902,0.9210526,1.105263 M,0,98593,,274,220 F,0,98593,,0.7 C,0,98593,,255,128,128 M,0,98593,98636,274,220,277.9813,194.1178 S,0,98593,99281,0.9210526,1.105263 M,0,98636,98679,277.9813,194.1178,282.4344,168.1848 F,1,98679,99367,0.7,0
Sprite,Overlay,Centre,"sb\4.png",0,0 M,0,44455,,355,277 C,0,44455,,255,128,128 P,0,44455,,A M,0,44455,44498,355,277,374.1095,278.8981 S,0,44455,45143,0.9210526,1.105263 M,0,44498,44541,374.1095,278.8981,393.193,281.0417 M,0,44541,44584,393.193,281.0417,412.2473,283.4304 M,0,44584,44627,412.2473,283.4304,431,286 F,1,44627,45315,0.6,0 M,0,45404,,381,90 F,1,45404,46092,0.4,0 S,0,45404,46092,0.9210526,1.105263 M,0,46955,,165,400 C,0,46955,,89,172,255 F,1,46955,47643,0.4,0 S,0,46955,47643,0.9210526,1.105263 M,0,48593,,337,405 F,0,48593,,0.6 C,0,48593,,0,128,128 M,0,48593,48636,337,405,318.0551,408.1381 S,0,48593,49281,0.9210526,1.105263 M,0,48636,48679,318.0551,408.1381,299.0423,410.8325 M,0,48679,48722,299.0423,410.8325,279.972,413.0816 M,0,48722,48765,279.972,413.0816,260.6736,414.9415 F,1,48765,49453,0.6,0 M,0,49541,,315,291 F,1,49541,50229,0.4,0 S,0,49541,50229,0.9210526,1.105263 M,0,50921,,326,76 C,0,50921,,255,128,128 F,1,50921,51609,0.4,0 S,0,50921,51609,0.9210526,1.105263 M,0,52559,,188,278 C,0,52559,,89,172,255 F,1,52559,53247,0.4,0 S,0,52559,53247,0.9210526,1.105263 M,0,53938,,570,163 C,0,53938,,0,128,128 F,1,53938,54626,0.4,0 S,0,53938,54626,0.9210526,1.105263 M,0,55490,,404,182 C,0,55490,,154,78,78 F,1,55490,56178,0.6,0 S,0,55490,56178,0.9210526,1.105263 M,0,56869,,197,88 F,0,56869,,0.8 C,0,56869,,89,172,255 M,0,56869,56912,197,88,222.8853,84.03708 S,0,56869,57557,0.9210526,1.105263 M,0,56912,56955,222.8853,84.03708,248.7386,79.87045 M,0,56955,56998,248.7386,79.87045,274.5583,75.50069 M,0,56998,57041,274.5583,75.50069,300,71 F,1,57041,57729,0.8,0 M,0,57731,,404,87 F,1,57731,58419,0.6,0 S,0,57731,58419,0.9210526,1.105263 M,0,59283,,268,183 F,0,59283,,0.8 C,0,59283,,255,128,128 M,0,59283,59326,268,183,263.5546,157.193 S,0,59283,59971,0.9210526,1.105263 M,0,59326,59369,263.5546,157.193,259.0669,131.3934 M,0,59369,59412,259.0669,131.3934,254.5372,105.6012 M,0,59412,59455,254.5372,105.6012,250,80 M,0,59455,59498,250,80,254.4495,105.1049 M,0,59498,59541,254.4495,105.1049,258.98,130.8969 M,0,59541,59584,258.98,130.8969,263.4685,156.6964 M,0,59584,59627,263.4685,156.6964,268,183 F,1,59627,60315,0.8,0 M,0,60317,,170,140 F,1,60317,61005,0.6,0 S,0,60317,61005,0.9210526,1.105263 M,0,61697,,553,150 F,0,61697,,0.8 C,0,61697,,154,78,78 M,0,61697,61740,553,150,555.5004,124.0417 S,0,61697,62385,0.9210526,1.105263 M,0,61740,61783,555.5004,124.0417,550.8718,98.40717 M,0,61783,61826,550.8718,98.40717,539.4722,75.00761 M,0,61826,61869,539.4722,75.00761,522.1832,55.16831 F,1,61869,62557,0.8,0 M,0,62731,,82,110 C,0,62731,,89,172,255 F,1,62731,63419,0.6,0 S,0,62731,63419,0.9210526,1.105263 M,0,64110,,262,267 F,0,64110,,0.8 C,0,64110,,0,128,128 M,0,64110,64153,262,267,287.8853,270.9629 S,0,64110,64798,0.9210526,1.105263 M,0,64153,64196,287.8853,270.9629,313.7386,275.1295 M,0,64196,64239,313.7386,275.1295,339.5583,279.4993 M,0,64239,64282,339.5583,279.4993,365,284 F,1,64282,64970,0.8,0 M,0,64973,,517,86 C,0,64973,,255,128,128 F,1,64973,65661,0.6,0 S,0,64973,65661,0.9210526,1.105263 M,0,66524,,290,153 C,0,66524,,154,78,78 F,1,66524,67212,0.6,0 S,0,66524,67212,0.9210526,1.105263 M,0,67904,,452,259 F,0,67904,,0.8 C,0,67904,,89,172,255 M,0,67904,67947,452,259,447.4294,284.7851 S,0,67904,68592,0.9210526,1.105263 M,0,67947,67990,447.4294,284.7851,442.9009,310.5775 M,0,67990,68033,442.9009,310.5775,438.415,336.3774 M,0,68033,68076,438.415,336.3774,434,362 F,1,68076,68764,0.8,0 M,0,68766,,154,355 F,1,68766,69454,0.6,0 S,0,68766,69454,0.9210526,1.105263 M,0,70317,,429,108 C,0,70317,,255,128,128 F,1,70317,71005,0.6,0 S,0,70317,71005,0.9210526,1.105263 M,0,71697,,235,337 F,0,71697,,0.8 C,0,71697,,154,78,78 M,0,71697,71740,235,337,238.9629,362.8853 S,0,71697,72385,0.9210526,1.105263 M,0,71740,71783,238.9629,362.8853,243.1295,388.7386 M,0,71783,71826,243.1295,388.7386,247.4993,414.5583 M,0,71826,71869,247.4993,414.5583,252,440 F,1,71869,72557,0.8,0 M,0,72559,,314,267 F,1,72559,73247,0.6,0 S,0,72559,73247,0.9210526,1.105263 M,0,74455,,333,311 C,0,74455,,0,128,128 F,1,74455,75143,0.6,0 S,0,74455,75143,0.9210526,1.105263 M,0,75835,,220,400 F,0,75835,,0.8 C,0,75835,,255,128,128 M,0,75835,75878,220,400,193.9381,401.267 S,0,75835,76523,0.9210526,1.105263 M,0,75878,75921,193.9381,401.267,168.4289,395.9032 M,0,75921,75964,168.4289,395.9032,145.1233,384.2662 M,0,75964,76007,145.1233,384.2662,125.127,367.1338 F,1,76007,76695,0.8,0 M,0,76697,,176,100 F,1,76697,77385,0.6,0 S,0,76697,77385,0.9210526,1.105263 M,0,78076,,375,348 C,0,78076,,154,78,78 F,1,78076,78764,0.5,0 S,0,78076,78764,0.9210526,1.105263 M,0,79628,,236,65 F,0,79628,,0.7 C,0,79628,,89,172,255 M,0,79628,79671,236,65,239.8509,90.90187 S,0,79628,80316,0.9210526,1.105263 M,0,79671,79714,239.8509,90.90187,244.1446,116.7339 M,0,79714,79757,244.1446,116.7339,248.8797,142.4886 M,0,79757,79800,248.8797,142.4886,254,168 F,1,79800,80488,0.7,0 M,0,80490,,480,254 C,0,80490,,0,128,128 F,1,80490,81178,0.5,0 S,0,80490,81178,0.9210526,1.105263 M,0,81869,,408,285 C,0,81869,,255,128,128 F,1,81869,82557,0.5,0 S,0,81869,82557,0.9210526,1.105263 M,0,83421,,104,67 C,0,83421,,154,78,78 F,1,83421,84109,0.5,0 S,0,83421,84109,0.9210526,1.105263 M,0,84800,,358,311 F,0,84800,,0.7 C,0,84800,,89,172,255 M,0,84800,84843,358,311,352.8266,336.6707 S,0,84800,85488,0.9210526,1.105263 M,0,84843,84886,352.8266,336.6707,347.9374,362.397 M,0,84886,84929,347.9374,362.397,343.3327,388.1757 M,0,84929,84972,343.3327,388.1757,339,414 F,1,84972,85660,0.7,0 M,0,85835,,225,263 F,0,85835,,0.7 C,0,85835,,0,128,128 M,0,85835,85878,225,263,199.307,257.938 S,0,85835,86523,0.9210526,1.105263 M,0,85878,85921,199.307,257.938,173.5687,253.112 M,0,85921,85964,173.5687,253.112,147.7872,248.5225 M,0,85964,86007,147.7872,248.5225,121.7177,244.1184 F,1,86007,86695,0.7,0 M,0,86869,,424,294 F,0,86869,,0.7 C,0,86869,,255,128,128 M,0,86869,86912,424,294,413.8019,270.0284 S,0,86869,87557,0.9210526,1.105263 M,0,86912,86955,413.8019,270.0284,396.907,250.2489 M,0,86955,86998,396.907,250.2489,374.8762,236.4629 M,0,86998,87041,374.8762,236.4629,349.7717,229.5974 M,0,87041,87084,349.7717,229.5974,323.7745,231.1033 M,0,87084,87127,323.7745,231.1033,299.1373,240.5242 F,1,87127,87815,0.7,0 M,0,87904,,382,217 F,1,87904,88592,0.5,0 S,0,87904,88592,0.9210526,1.105263 M,0,89283,,64,290 F,0,89283,,0.7 C,0,89283,,154,78,78 M,0,89283,89326,64,290,89.82311,294.3496 S,0,89283,89971,0.9210526,1.105263 M,0,89326,89369,89.82311,294.3496,115.6052,298.9362 M,0,89369,89412,115.6052,298.9362,141.3441,303.7588 M,0,89412,89455,141.3441,303.7588,167.2868,308.857 F,1,89455,90143,0.7,0 M,0,90490,,523,135 C,0,90490,,89,172,255 F,1,90490,91178,0.5,0 S,0,90490,91178,0.9210526,1.105263 M,0,92041,,265,290 F,0,92041,,0.7 C,0,92041,,0,128,128 M,0,92041,92084,265,290,268.8509,315.9019 S,0,92041,92729,0.9210526,1.105263 M,0,92084,92127,268.8509,315.9019,273.1446,341.7339 M,0,92127,92170,273.1446,341.7339,277.8797,367.4886 M,0,92170,92213,277.8797,367.4886,283,393 F,1,92213,92901,0.7,0 M,0,93076,,362,118 C,0,93076,,255,128,128 F,1,93076,93764,0.5,0 S,0,93076,93764,0.9210526,1.105263 M,0,94628,,96,290 F,0,94628,,0.7 C,0,94628,,154,78,78 M,0,94628,94671,96,290,121.8046,285.5415 S,0,94628,95316,0.9210526,1.105263 M,0,94671,94714,121.8046,285.5415,147.5744,280.8868 M,0,94714,94757,147.5744,280.8868,173.3082,276.036 M,0,94757,94800,173.3082,276.036,199,271 F,1,94800,95488,0.7,0 M,0,95490,,301,295 F,0,95490,,0.7 C,0,95490,,89,172,255 M,0,95490,95533,301,295,296.6504,269.1769 S,0,95490,96178,0.9210526,1.105263 M,0,95533,95576,296.6504,269.1769,292.0638,243.3948 M,0,95576,95619,292.0638,243.3948,287.2412,217.6559 M,0,95619,95662,287.2412,217.6559,282.143,191.7132 F,1,95662,96350,0.7,0 M,0,96352,,454,82 F,1,96352,97040,0.5,0 S,0,96352,97040,0.9210526,1.105263 M,0,97904,,258,317 F,0,97904,,0.7 C,0,97904,,255,128,128 M,0,97904,97947,258,317,232.1966,321.466 S,0,97904,98592,0.9210526,1.105263 M,0,97947,97990,232.1966,321.466,206.3932,325.9319 M,0,97990,98033,206.3932,325.9319,180.5899,330.3979 M,0,98033,98076,180.5899,330.3979,154.5382,334.9069 F,1,98076,98764,0.7,0 M,0,98766,,373,224 F,0,98766,,0.7 M,0,98766,98809,373,224,378.1327,249.679 S,0,98766,99454,0.9210526,1.105263 M,0,98809,98852,378.1327,249.679,383,275 F,1,98852,99540,0.7,0
Sprite,Overlay,Centre,"sb\4.png",0,0 M,0,44800,,530,242 C,0,44800,,255,128,128 P,0,44800,,A M,0,44800,44843,530,242,541.2112,226.5421 S,0,44800,45488,0.9210526,1.105263 M,0,44843,44886,541.2112,226.5421,547.9562,208.7226 M,0,44886,44929,547.9562,208.7226,550.1624,189.7695 M,0,44929,44972,550.1624,189.7695,546.6128,171.0202 M,0,44972,45015,546.6128,171.0202,538.2808,153.8929 M,0,45015,45058,538.2808,153.8929,525.9546,139.3544 M,0,45058,45101,525.9546,139.3544,509.8896,129.0777 M,0,45101,45144,509.8896,129.0777,491.3541,123.3293 F,1,45144,45832,0.6,0 M,0,45835,,230,160 F,0,45835,,0.6 C,0,45835,,154,78,78 M,0,45835,45878,230,160,210.9502,157.5734 S,0,45835,46523,0.9210526,1.105263 M,0,45878,45921,210.9502,157.5734,191.9043,155.1157 M,0,45921,45964,191.9043,155.1157,172.8624,152.6269 M,0,45964,46007,172.8624,152.6269,153.6411,150.0852 F,1,46007,46695,0.6,0 M,0,47041,,195,398 C,0,47041,,89,172,255 F,1,47041,47729,0.4,0 S,0,47041,47729,0.9210526,1.105263 M,0,48938,,99,368 F,0,48938,,0.6 C,0,48938,,0,128,128 M,0,48938,48981,99,368,87.78883,352.5421 S,0,48938,49626,0.9210526,1.105263 M,0,48981,49024,87.78883,352.5421,81.0438,334.7226 M,0,49024,49067,81.0438,334.7226,78.83768,315.7695 M,0,49067,49110,78.83768,315.7695,82.38719,297.0201 M,0,49110,49153,82.38719,297.0201,90.71928,279.8929 M,0,49153,49196,90.71928,279.8929,103.0454,265.3544 M,0,49196,49239,103.0454,265.3544,119.1105,255.0777 M,0,49239,49282,119.1105,255.0777,137.6459,249.3293 F,1,49282,49970,0.6,0 M,0,49973,,202,80 F,0,49973,,0.6 C,0,49973,,255,128,128 M,0,49973,50016,202,80,205.1382,98.94489 S,0,49973,50661,0.9210526,1.105263 M,0,50016,50059,205.1382,98.94489,207.8325,117.9577 M,0,50059,50102,207.8325,117.9577,210.0817,137.028 M,0,50102,50145,210.0817,137.028,211.9415,156.3264 F,1,50145,50833,0.6,0 M,0,51007,,326,76 F,0,51007,,0.6 C,0,51007,,154,78,78 M,0,51007,51050,326,76,307.0551,79.13815 S,0,51007,51695,0.9210526,1.105263 M,0,51050,51093,307.0551,79.13815,288.0424,81.83252 M,0,51093,51136,288.0424,81.83252,268.972,84.08167 M,0,51136,51179,268.972,84.08167,249.6736,85.94146 F,1,51179,51867,0.6,0 M,0,52041,,417,283 F,0,52041,,0.6 M,0,52041,52084,417,283,435.9449,286.1382 S,0,52041,52729,0.9210526,1.105263 M,0,52084,52127,435.9449,286.1382,454.9577,288.8325 M,0,52127,52170,454.9577,288.8325,474.028,291.0817 M,0,52170,52213,474.028,291.0817,493.3264,292.9415 F,1,52213,52901,0.6,0 M,0,52904,,355,243 C,0,52904,,89,172,255 F,1,52904,53592,0.4,0 S,0,52904,53592,0.9210526,1.105263 M,0,54283,,500,365 F,0,54283,,0.6 C,0,54283,,0,128,128 M,0,54283,54326,500,365,486.2367,351.7002 S,0,54283,54971,0.9210526,1.105263 M,0,54326,54369,486.2367,351.7002,474.3768,336.562 F,1,54369,55057,0.6,0 M,0,55662,,404,182 C,0,55662,,154,78,78 F,1,55662,56350,0.6,0 S,0,55662,56350,0.9210526,1.105263 M,0,57386,,423,184 C,0,57386,,89,172,255 F,1,57386,58074,0.6,0 S,0,57386,58074,0.9210526,1.105263 M,0,58938,,277,349 F,0,58938,,0.8 C,0,58938,,0,128,128 M,0,58938,58981,277,349,302.7851,353.5706 S,0,58938,59626,0.9210526,1.105263 M,0,58981,59024,302.7851,353.5706,328.5774,358.0991 M,0,59024,59067,328.5774,358.0991,354.3774,362.585 M,0,59067,59110,354.3774,362.585,380,367 F,1,59110,59798,0.8,0 M,0,59973,,220,295 C,0,59973,,255,128,128 F,1,59973,60661,0.6,0 S,0,59973,60661,0.9210526,1.105263 M,0,61352,,268,183 C,0,61352,,154,78,78 F,1,61352,62040,0.6,0 S,0,61352,62040,0.9210526,1.105263 M,0,62904,,268,183 C,0,62904,,89,172,255 F,1,62904,63592,0.6,0 S,0,62904,63592,0.9210526,1.105263 M,0,64455,,516,317 C,0,64455,,0,128,128 F,1,64455,65143,0.6,0 S,0,64455,65143,0.9210526,1.105263 M,0,65835,,414,418 F,0,65835,,0.8 C,0,65835,,255,128,128 M,0,65835,65878,414,418,383.0656,412.4723 S,0,65835,66523,0.9210526,1.105263 M,0,65878,65921,383.0656,412.4723,352.1064,407.0853 M,0,65921,65964,352.1064,407.0853,321.1223,401.8441 M,0,65964,66007,321.1223,401.8441,289.8152,396.7006 F,1,66007,66695,0.8,0 M,0,66869,,203,211 C,0,66869,,154,78,78 F,1,66869,67557,0.6,0 S,0,66869,67557,0.9210526,1.105263 M,0,68421,,356,298 C,0,68421,,89,172,255 F,1,68421,69109,0.6,0 S,0,68421,69109,0.9210526,1.105263 M,0,69973,,425,199 F,0,69973,,0.8 C,0,69973,,0,128,128 M,0,69973,70016,425,199,406.1311,217.0184 S,0,69973,70661,0.9210526,1.105263 M,0,70016,70059,406.1311,217.0184,383.3143,229.6163 M,0,70059,70102,383.3143,229.6163,358.0562,235.9737 M,0,70102,70145,358.0562,235.9737,332,236 F,1,70145,70833,0.8,0 M,0,70835,,425,199 C,0,70835,,255,128,128 F,1,70835,71523,0.6,0 S,0,70835,71523,0.9210526,1.105263 M,0,72386,,235,337 C,0,72386,,154,78,78 F,1,72386,73074,0.6,0 S,0,72386,73074,0.9210526,1.105263 M,0,73766,,434,262 F,0,73766,,0.8 C,0,73766,,89,172,255 M,0,73766,73809,434,262,437.9629,287.8853 S,0,73766,74454,0.9210526,1.105263 M,0,73809,73852,437.9629,287.8853,442.1295,313.7386 M,0,73852,73895,442.1295,313.7386,446.4993,339.5583 M,0,73895,73938,446.4993,339.5583,451,365 M,0,73938,73981,451,365,446.5856,340.0549 M,0,73981,74024,446.5856,340.0549,442.2122,314.2358 M,0,74024,74067,442.2122,314.2358,438.042,288.3831 M,0,74067,74110,438.042,288.3831,434,262 F,1,74110,74798,0.8,0 M,0,74800,,297,222 C,0,74800,,0,128,128 F,1,74800,75488,0.6,0 S,0,74800,75488,0.9210526,1.105263 M,0,76179,,150,272 F,0,76179,,0.8 C,0,76179,,255,128,128 M,0,76179,76222,150,272,145.534,246.1966 S,0,76179,76867,0.9210526,1.105263 M,0,76222,76265,145.534,246.1966,141.0681,220.3932 M,0,76265,76308,141.0681,220.3932,136.6021,194.5899 M,0,76308,76351,136.6021,194.5899,132.0931,168.5382 F,1,76351,77039,0.8,0 M,0,77214,,403,188 F,0,77214,,0.7 C,0,77214,,154,78,78 M,0,77214,77257,403,188,422.5576,170.7661 S,0,77214,77902,0.9210526,1.105263 M,0,77257,77300,422.5576,170.7661,446.3175,160.1069 M,0,77300,77343,446.3175,160.1069,472.1466,156.9647 M,0,77343,77386,472.1466,156.9647,497.9645,161.7009 F,1,77386,78074,0.7,0 M,0,78248,,563,404 F,0,78248,,0.7 M,0,78248,78291,563,404,542.7186,420.3729 S,0,78248,78936,0.9210526,1.105263 M,0,78291,78334,542.7186,420.3729,518.4875,429.9081 M,0,78334,78377,518.4875,429.9081,492.5346,431.7437 M,0,78377,78420,492.5346,431.7437,467.0129,425.6176 F,1,78420,79108,0.7,0 M,0,79283,,98,142 C,0,79283,,89,172,255 F,1,79283,79971,0.5,0 S,0,79283,79971,0.9210526,1.105263 M,0,80662,,287,151 C,0,80662,,0,128,128 F,1,80662,81350,0.5,0 S,0,80662,81350,0.9210526,1.105263 M,0,82041,,222,339 C,0,82041,,255,128,128 F,1,82041,82729,0.5,0 S,0,82041,82729,0.9210526,1.105263 M,0,83938,,257,101 C,0,83938,,154,78,78 F,1,83938,84626,0.5,0 S,0,83938,84626,0.9210526,1.105263 M,0,86179,,315,338 C,0,86179,,0,128,128 F,1,86179,86867,0.5,0 S,0,86179,86867,0.9210526,1.105263 M,0,87731,,515,326 C,0,87731,,255,128,128 F,1,87731,88419,0.5,0 S,0,87731,88419,0.9210526,1.105263 M,0,89110,,174,209 C,0,89110,,154,78,78 F,1,89110,89798,0.5,0 S,0,89110,89798,0.9210526,1.105263 M,0,90662,,316,72 F,0,90662,,0.7 C,0,90662,,89,172,255 M,0,90662,90705,316,72,290.0833,75.74893 S,0,90662,91350,0.9210526,1.105263 M,0,90705,90748,290.0833,75.74893,264.2401,79.97491 M,0,90748,90791,264.2401,79.97491,238.4793,84.67661 M,0,90791,90834,238.4793,84.67661,212.5587,89.88335 F,1,90834,91522,0.7,0 M,0,91524,,186,351 C,0,91524,,0,128,128 F,1,91524,92212,0.5,0 S,0,91524,92212,0.9210526,1.105263 M,0,93248,,362,118 C,0,93248,,255,128,128 F,1,93248,93936,0.5,0 S,0,93248,93936,0.9210526,1.105263 M,0,94973,,218,165 C,0,94973,,154,78,78 F,1,94973,95661,0.5,0 S,0,94973,95661,0.9210526,1.105263 M,0,96524,,487,216 C,0,96524,,0,128,128 F,1,96524,97212,0.5,0 S,0,96524,97212,0.9210526,1.105263 M,0,98162,,85,256 C,0,98162,,255,128,128 F,1,98162,98850,0.5,0 S,0,98162,98850,0.9210526,1.105263
Sprite,Overlay,Centre,"sb\4.png",0,0 M,0,45490,,381,90 C,0,45490,,154,78,78 P,0,45490,,A M,0,45490,45533,381,90,382.8981,109.1095 S,0,45490,46178,0.9210526,1.105263 M,0,45533,45576,382.8981,109.1095,385.0417,128.193 M,0,45576,45619,385.0417,128.193,387.4304,147.2473 M,0,45619,45662,387.4304,147.2473,390,166 F,1,45662,46350,0.6,0 M,0,46524,,76,235 F,0,46524,,0.6 M,0,46524,46567,76,235,95.10953,236.8981 S,0,46524,47212,0.9210526,1.105263 M,0,46567,46610,95.10953,236.8981,114.193,239.0417 M,0,46610,46653,114.193,239.0417,133.2473,241.4304 M,0,46653,46696,133.2473,241.4304,152,244 F,1,46696,47384,0.6,0 M,0,47559,,352,176 C,0,47559,,89,172,255 F,1,47559,48247,0.4,0 S,0,47559,48247,0.9210526,1.105263 M,0,49628,,315,291 F,0,49628,,0.6 C,0,49628,,255,128,128 M,0,49628,49671,315,291,311.8618,272.0551 S,0,49628,50316,0.9210526,1.105263 M,0,49671,49714,311.8618,272.0551,309.1675,253.0423 M,0,49714,49757,309.1675,253.0423,306.9183,233.972 M,0,49757,49800,306.9183,233.972,305.0585,214.6736 F,1,49800,50488,0.6,0 M,0,51352,,166,144 F,0,51352,,0.6 C,0,51352,,154,78,78 M,0,51352,51395,166,144,147.0551,147.1382 S,0,51352,52040,0.9210526,1.105263 M,0,51395,51438,147.0551,147.1382,128.0423,149.8325 M,0,51438,51481,128.0423,149.8325,108.972,152.0817 M,0,51481,51524,108.972,152.0817,89.67363,153.9415 F,1,51524,52212,0.6,0 M,0,52731,,240,369 C,0,52731,,89,172,255 F,1,52731,53419,0.4,0 S,0,52731,53419,0.9210526,1.105263 M,0,54110,,560,230 F,0,54110,,0.6 C,0,54110,,0,128,128 M,0,54110,54153,560,230,548.6394,245.448 S,0,54110,54798,0.9210526,1.105263 M,0,54153,54196,548.6394,245.448,534.5778,258.6197 F,1,54196,54884,0.6,0 M,0,55835,,197,88 F,0,55835,,0.8 C,0,55835,,154,78,78 M,0,55835,55878,197,88,192.924,113.8677 S,0,55835,56523,0.9210526,1.105263 M,0,55878,55921,192.924,113.8677,188.8855,139.7415 M,0,55921,55964,188.8855,139.7415,184.8857,165.6213 M,0,55964,56007,184.8857,165.6213,181,191 F,1,56007,56695,0.8,0 M,0,56697,,185,296 C,0,56697,,89,172,255 F,1,56697,57385,0.6,0 S,0,56697,57385,0.9210526,1.105263 M,0,58248,,473,422 F,0,58248,,0.8 C,0,58248,,0,128,128 M,0,58248,58291,473,422,498.7851,417.4294 S,0,58248,58936,0.9210526,1.105263 M,0,58291,58334,498.7851,417.4294,524.5774,412.9009 M,0,58334,58377,524.5774,412.9009,550.3774,408.415 M,0,58377,58420,550.3774,408.415,576,404 F,1,58420,59108,0.8,0 M,0,60145,,220,295 C,0,60145,,255,128,128 F,1,60145,60833,0.6,0 S,0,60145,60833,0.9210526,1.105263 M,0,61524,,449,292 C,0,61524,,154,78,78 F,1,61524,62212,0.6,0 S,0,61524,62212,0.9210526,1.105263 M,0,63076,,103,285 C,0,63076,,89,172,255 F,1,63076,63764,0.6,0 S,0,63076,63764,0.9210526,1.105263 M,0,64628,,516,317 C,0,64628,,0,128,128 F,1,64628,65316,0.6,0 S,0,64628,65316,0.9210526,1.105263 M,0,66093,,198,421 C,0,66093,,255,128,128 F,1,66093,66781,0.6,0 S,0,66093,66781,0.9210526,1.105263 M,0,67559,,329,188 F,0,67559,,0.8 C,0,67559,,89,172,255 M,0,67559,67602,329,188,325.0371,162.1147 S,0,67559,68247,0.9210526,1.105263 M,0,67602,67645,325.0371,162.1147,320.8705,136.2614 M,0,67645,67688,320.8705,136.2614,316.5007,110.4417 M,0,67688,67731,316.5007,110.4417,312,85 F,1,67731,68419,0.8,0 M,0,68593,,250,400 F,1,68593,69281,0.6,0 S,0,68593,69281,0.9210526,1.105263 M,0,70662,,506,159 C,0,70662,,255,128,128 F,1,70662,71350,0.6,0 S,0,70662,71350,0.9210526,1.105263 M,0,72731,,252,182 C,0,72731,,154,78,78 F,1,72731,73419,0.6,0 S,0,72731,73419,0.9210526,1.105263 M,0,74628,,297,222 C,0,74628,,0,128,128 F,1,74628,75316,0.6,0 S,0,74628,75316,0.9210526,1.105263 M,0,76093,,150,272 C,0,76093,,255,128,128 F,1,76093,76781,0.6,0 S,0,76093,76781,0.9210526,1.105263 M,0,77473,,554,224 C,0,77473,,154,78,78 F,1,77473,78161,0.5,0 S,0,77473,78161,0.9210526,1.105263 M,0,78852,,255,327 C,0,78852,,89,172,255 F,1,78852,79540,0.5,0 S,0,78852,79540,0.9210526,1.105263 M,0,80231,,540,122 C,0,80231,,0,128,128 F,1,80231,80919,0.5,0 S,0,80231,80919,0.9210526,1.105263 M,0,82386,,297,224 F,0,82386,,0.7 C,0,82386,,255,128,128 M,0,82386,82429,297,224,301.5706,249.7851 S,0,82386,83074,0.9210526,1.105263 M,0,82429,82472,301.5706,249.7851,306.0991,275.5775 M,0,82472,82515,306.0991,275.5775,310.585,301.3774 M,0,82515,82558,310.585,301.3774,315,327 F,1,82558,83246,0.7,0 M,0,84110,,357,217 F,0,84110,,0.7 C,0,84110,,89,172,255 M,0,84110,84153,357,217,382.7287,221.8779 S,0,84110,84798,0.9210526,1.105263 M,0,84153,84196,382.7287,221.8779,408.4641,226.7197 M,0,84196,84239,408.4641,226.7197,434.2064,231.5249 M,0,84239,84282,434.2064,231.5249,459.9556,236.2943 M,0,84282,84325,459.9556,236.2943,485.7116,241.025 M,0,84325,84368,485.7116,241.025,511.8458,245.7901 F,1,84368,85056,0.7,0 M,0,85145,,121,244 F,0,85145,,0.7 M,0,85145,85188,121,244,116.6504,218.1769 S,0,85145,85833,0.9210526,1.105263 M,0,85188,85231,116.6504,218.1769,112.0639,192.3948 M,0,85231,85274,112.0639,192.3948,107.2412,166.6559 M,0,85274,85317,107.2412,166.6559,102.143,140.7132 F,1,85317,86005,0.7,0 M,0,86352,,315,338 C,0,86352,,0,128,128 F,1,86352,87040,0.5,0 S,0,86352,87040,0.9210526,1.105263 M,0,88076,,509,77 C,0,88076,,255,128,128 F,1,88076,88764,0.5,0 S,0,88076,88764,0.9210526,1.105263 M,0,89628,,238,400 F,0,89628,,0.7 C,0,89628,,89,172,255 M,0,89628,89671,238,400,263.4278,405.6897 S,0,89628,90316,0.9210526,1.105263 M,0,89671,89714,263.4278,405.6897,289.3667,403.6292 M,0,89714,89757,289.3667,403.6292,313.5214,394.0174 M,0,89757,89800,313.5214,394.0174,334,378 F,1,89800,90488,0.7,0 M,0,91007,,84,262 F,0,91007,,0.7 C,0,91007,,0,128,128 M,0,91007,91050,84,262,88.98766,236.4369 S,0,91007,91695,0.9210526,1.105263 M,0,91050,91093,88.98766,236.4369,101.9271,213.8684 M,0,91093,91136,101.9271,213.8684,121.4265,196.6872 M,0,91136,91179,121.4265,196.6872,145.4015,186.7106 M,0,91179,91222,145.4015,186.7106,171.2959,184.9897 M,0,91222,91265,171.2959,184.9897,196.854,191.5253 F,1,91265,91953,0.7,0 M,0,92386,,528,332 F,0,92386,,0.7 C,0,92386,,255,128,128 M,0,92386,92429,528,332,523.7321,306.1631 S,0,92386,93074,0.9210526,1.105263 M,0,92429,92472,523.7321,306.1631,519.3474,280.3459 M,0,92472,92515,519.3474,280.3459,514.8461,254.5487 M,0,92515,92558,514.8461,254.5487,510.2278,228.7722 M,0,92558,92601,510.2278,228.7722,505.4931,203.0169 M,0,92601,92644,505.4931,203.0169,500.6472,177.2822 M,0,92644,92687,500.6472,177.2822,495.6775,151.571 M,0,92687,92730,495.6775,151.571,490.4922,125.3886 F,1,92730,93418,0.7,0 M,0,93421,,200,272 F,0,93421,,0.7 M,0,93421,93464,200,272,204.466,246.1966 S,0,93421,94109,0.9210526,1.105263 M,0,93464,93507,204.466,246.1966,208.9319,220.3932 M,0,93507,93550,208.9319,220.3932,213.3979,194.5899 M,0,93550,93593,213.3979,194.5899,217.9068,168.5382 F,1,93593,94281,0.7,0 M,0,95145,,312,399 F,0,95145,,0.7 C,0,95145,,89,172,255 M,0,95145,95188,312,399,336.9793,391.6102 S,0,95145,95833,0.9210526,1.105263 M,0,95188,95231,336.9793,391.6102,358.4922,376.9871 M,0,95231,95274,358.4922,376.9871,374.5149,356.5282 M,0,95274,95317,374.5149,356.5282,383.5411,332.1753 M,0,95317,95360,383.5411,332.1753,384.9809,306.2153 M,0,95360,95403,384.9809,306.2153,377.8486,280.8063 F,1,95403,96091,0.7,0 M,0,96179,,384,140 F,1,96179,96867,0.5,0 S,0,96179,96867,0.9210526,1.105263 M,0,97559,,326,394 F,0,97559,,0.7 C,0,97559,,0,128,128 M,0,97559,97602,326,394,351.8046,389.5415 S,0,97559,98247,0.9210526,1.105263 M,0,97602,97645,351.8046,389.5415,377.5744,384.8868 M,0,97645,97688,377.5744,384.8868,403.3082,380.036 M,0,97688,97731,403.3082,380.036,429,375 F,1,97731,98419,0.7,0 M,0,98507,,274,220 C,0,98507,,255,128,128 F,1,98507,99195,0.5,0 S,0,98507,99195,0.9210526,1.105263
Sprite,Overlay,Centre,"sb\4.png",0,0 M,0,46179,,317,283 C,0,46179,,154,78,78 P,0,46179,,A M,0,46179,46222,317,283,315.1019,263.8905 S,0,46179,46867,0.9210526,1.105263 M,0,46222,46265,315.1019,263.8905,312.9583,244.807 M,0,46265,46308,312.9583,244.807,310.5696,225.7528 M,0,46308,46351,310.5696,225.7528,308,207 F,1,46351,47039,0.6,0 M,0,47128,,224,389 C,0,47128,,89,172,255 F,1,47128,47816,0.4,0 S,0,47128,47816,0.9210526,1.105263 M,0,50317,,385,174 F,0,50317,,0.6 C,0,50317,,255,128,128 M,0,50317,50360,385,174,404.0055,175.8246 S,0,50317,51005,0.9210526,1.105263 M,0,50360,50403,404.0055,175.8246,422.7777,172.578 M,0,50403,50446,422.7777,172.578,440.1632,164.7571 M,0,50446,50489,440.1632,164.7571,454.4521,152.127 M,0,50489,50532,454.4521,152.127,464.8857,136.1993 M,0,50532,50575,464.8857,136.1993,470.8741,118.1322 M,0,50575,50618,470.8741,118.1322,471.3951,99.08551 M,0,50618,50661,471.3951,99.08551,467.0219,80.1547 F,1,50661,51349,0.6,0 M,0,51697,,258,210 F,0,51697,,0.6 C,0,51697,,154,78,78 M,0,51697,51740,258,210,276.9449,213.1382 S,0,51697,52385,0.9210526,1.105263 M,0,51740,51783,276.9449,213.1382,295.9576,215.8325 M,0,51783,51826,295.9576,215.8325,315.028,218.0817 M,0,51826,51869,315.028,218.0817,334.3264,219.9415 F,1,51869,52557,0.6,0 M,0,53076,,266,94 C,0,53076,,89,172,255 F,1,53076,53764,0.4,0 S,0,53076,53764,0.9210526,1.105263 M,0,54455,,380,391 C,0,54455,,255,128,128 F,1,54455,55143,0.4,0 S,0,54455,55143,0.9210526,1.105263 M,0,56524,,98,239 C,0,56524,,89,172,255 F,1,56524,57212,0.6,0 S,0,56524,57212,0.9210526,1.105263 M,0,57904,,348,244 F,0,57904,,0.8 C,0,57904,,0,128,128 M,0,57904,57947,348,244,367.3992,261.4284 S,0,57904,58592,0.9210526,1.105263 M,0,57947,57990,367.3992,261.4284,390.7456,272.9809 M,0,57990,58033,390.7456,272.9809,416.3203,277.8207 M,0,58033,58076,416.3203,277.8207,442,276 F,1,58076,58764,0.8,0 M,0,60490,,364,242 C,0,60490,,255,128,128 F,1,60490,61178,0.6,0 S,0,60490,61178,0.9210526,1.105263 M,0,62041,,313,87 C,0,62041,,89,172,255 F,1,62041,62729,0.6,0 S,0,62041,62729,0.9210526,1.105263 M,0,63421,,75,436 F,0,63421,,0.8 C,0,63421,,0,128,128 M,0,63421,63464,75,436,100.7851,431.4294 S,0,63421,64109,0.9210526,1.105263 M,0,63464,63507,100.7851,431.4294,126.5774,426.9009 M,0,63507,63550,126.5774,426.9009,152.3774,422.415 M,0,63550,63593,152.3774,422.415,178,418 F,1,63593,64281,0.8,0 M,0,64800,,364,192 C,0,64800,,255,128,128 F,1,64800,65488,0.6,0 S,0,64800,65488,0.9210526,1.105263 M,0,66179,,198,421 F,0,66179,,0.8 C,0,66179,,154,78,78 M,0,66179,66222,198,421,184.4282,398.7289 S,0,66179,66867,0.9210526,1.105263 M,0,66222,66265,184.4282,398.7289,177.3412,373.6597 M,0,66265,66308,177.3412,373.6597,177.2452,347.6281 M,0,66308,66351,177.2452,347.6281,183.9333,322.1739 F,1,66351,67039,0.8,0 M,0,67041,,155,117 F,1,67041,67729,0.6,0 S,0,67041,67729,0.9210526,1.105263 M,0,68938,,237,291 C,0,68938,,0,128,128 F,1,68938,69626,0.6,0 S,0,68938,69626,0.9210526,1.105263 M,0,71007,,319,101 C,0,71007,,255,128,128 F,1,71007,71695,0.6,0 S,0,71007,71695,0.9210526,1.105263 M,0,73076,,371,78 F,0,73076,,0.8 C,0,73076,,89,172,255 M,0,73076,73119,371,78,367.0371,103.8853 S,0,73076,73764,0.9210526,1.105263 M,0,73119,73162,367.0371,103.8853,362.8705,129.7386 M,0,73162,73205,362.8705,129.7386,358.5007,155.5583 M,0,73205,73248,358.5007,155.5583,354,181 M,0,73248,73291,354,181,358.4144,156.0549 M,0,73291,73334,358.4144,156.0549,362.7878,130.2358 M,0,73334,73377,362.7878,130.2358,366.958,104.3831 M,0,73377,73420,366.958,104.3831,371,78 F,1,73420,74108,0.8,0 M,0,74714,,297,222 C,0,74714,,0,128,128 F,1,74714,75402,0.6,0 S,0,74714,75402,0.9210526,1.105263 M,0,76438,,76,102 C,0,76438,,255,128,128 F,1,76438,77126,0.6,0 S,0,76438,77126,0.9210526,1.105263 M,0,77904,,375,348 C,0,77904,,154,78,78 F,1,77904,78592,0.5,0 S,0,77904,78592,0.9210526,1.105263 M,0,79973,,406,129 F,0,79973,,0.7 C,0,79973,,0,128,128 M,0,79973,80016,406,129,426.2813,145.3729 S,0,79973,80661,0.9210526,1.105263 M,0,80016,80059,426.2813,145.3729,450.5124,154.9081 M,0,80059,80102,450.5124,154.9081,476.4654,156.7437 M,0,80102,80145,476.4654,156.7437,501.9871,150.6176 F,1,80145,80833,0.7,0 M,0,81007,,323,288 F,0,81007,,0.7 M,0,81007,81050,323,288,297.0981,291.8509 S,0,81007,81695,0.9210526,1.105263 M,0,81050,81093,297.0981,291.8509,271.2661,296.1446 M,0,81093,81136,271.2661,296.1446,245.5114,300.8797 M,0,81136,81179,245.5114,300.8797,220,306 F,1,81179,81867,0.7,0 M,0,82731,,485,211 C,0,82731,,154,78,78 F,1,82731,83419,0.5,0 S,0,82731,83419,0.9210526,1.105263 M,0,87214,,253,313 F,0,87214,,0.7 C,0,87214,,255,128,128 M,0,87214,87257,253,313,258.1734,338.6707 S,0,87214,87902,0.9210526,1.105263 M,0,87257,87300,258.1734,338.6707,263.0626,364.397 M,0,87300,87343,263.0626,364.397,267.6673,390.1757 M,0,87343,87386,267.6673,390.1757,272,416 F,1,87386,88074,0.7,0 M,0,88162,,509,77 F,1,88162,88850,0.5,0 S,0,88162,88850,0.9210526,1.105263 M,0,89886,,371,298 C,0,89886,,89,172,255 F,1,89886,90574,0.5,0 S,0,89886,90574,0.9210526,1.105263 M,0,91352,,198,192 C,0,91352,,0,128,128 F,1,91352,92040,0.5,0 S,0,91352,92040,0.9210526,1.105263 M,0,93766,,465,265 C,0,93766,,154,78,78 F,1,93766,94454,0.5,0 S,0,93766,94454,0.9210526,1.105263 M,0,96007,,254,56 C,0,96007,,89,172,255 F,1,96007,96695,0.5,0 S,0,96007,96695,0.9210526,1.105263 M,0,97386,,530,440 C,0,97386,,0,128,128 F,1,97386,98074,0.5,0 S,0,97386,98074,0.9210526,1.105263 M,0,98938,,408,351 C,0,98938,,255,128,128 F,1,98938,99626,0.5,0 S,0,98938,99626,0.9210526,1.105263
Sprite,Overlay,Centre,"sb\4.png",0,0 M,0,47214,,245,367 C,0,47214,,89,172,255 P,0,47214,,A M,0,47214,47257,245,367,241.8618,348.0551 S,0,47214,47902,0.9210526,1.105263 M,0,47257,47300,241.8618,348.0551,239.1675,329.0423 M,0,47300,47343,239.1675,329.0423,236.9183,309.972 M,0,47343,47386,236.9183,309.972,235.0585,290.6736 F,1,47386,48074,0.6,0 M,0,53248,,258,200 F,1,53248,53936,0.4,0 S,0,53248,53936,0.9210526,1.105263 M,0,54628,,288,378 C,0,54628,,255,128,128 F,1,54628,55316,0.4,0 S,0,54628,55316,0.9210526,1.105263 M,0,57559,,505,118 C,0,57559,,89,172,255 F,1,57559,58247,0.6,0 S,0,57559,58247,0.9210526,1.105263 M,0,60662,,254,392 F,0,60662,,0.8 C,0,60662,,154,78,78 M,0,60662,60705,254,392,228.1769,387.6504 S,0,60662,61350,0.9210526,1.105263 M,0,60705,60748,228.1769,387.6504,202.3948,383.0638 M,0,60748,60791,202.3948,383.0638,176.6559,378.2412 M,0,60791,60834,176.6559,378.2412,150.7132,373.143 F,1,60834,61522,0.8,0 M,0,62214,,268,183 C,0,62214,,89,172,255 F,1,62214,62902,0.6,0 S,0,62214,62902,0.9210526,1.105263 M,0,63766,,425,365 C,0,63766,,0,128,128 F,1,63766,64454,0.6,0 S,0,63766,64454,0.9210526,1.105263 M,0,65145,,517,86 C,0,65145,,255,128,128 F,1,65145,65833,0.6,0 S,0,65145,65833,0.9210526,1.105263 M,0,67214,,99,254 C,0,67214,,154,78,78 F,1,67214,67902,0.6,0 S,0,67214,67902,0.9210526,1.105263 M,0,69110,,237,291 C,0,69110,,0,128,128 F,1,69110,69798,0.6,0 S,0,69110,69798,0.9210526,1.105263 M,0,71179,,507,76 C,0,71179,,255,128,128 F,1,71179,71867,0.6,0 S,0,71179,71867,0.9210526,1.105263 M,0,73593,,532,222 C,0,73593,,89,172,255 F,1,73593,74281,0.6,0 S,0,73593,74281,0.9210526,1.105263 M,0,74973,,211,283 C,0,74973,,0,128,128 F,1,74973,75661,0.6,0 S,0,74973,75661,0.9210526,1.105263 M,0,76524,,76,102 C,0,76524,,255,128,128 F,1,76524,77212,0.6,0 S,0,76524,77212,0.9210526,1.105263 M,0,78938,,255,327 F,0,78938,,0.7 C,0,78938,,89,172,255 M,0,78938,78981,255,327,229.307,321.938 S,0,78938,79626,0.9210526,1.105263 M,0,78981,79024,229.307,321.938,203.5687,317.112 M,0,79024,79067,203.5687,317.112,177.7872,312.5225 M,0,79067,79110,177.7872,312.5225,151.7177,308.1184 F,1,79110,79798,0.7,0 M,0,80317,,540,122 C,0,80317,,0,128,128 F,1,80317,81005,0.5,0 S,0,80317,81005,0.9210526,1.105263 M,0,83076,,125,282 F,0,83076,,0.7 C,0,83076,,154,78,78 M,0,83076,83119,125,282,129.466,256.1966 S,0,83076,83764,0.9210526,1.105263 M,0,83119,83162,129.466,256.1966,133.9319,230.3932 M,0,83162,83205,133.9319,230.3932,138.3979,204.5899 M,0,83205,83248,138.3979,204.5899,142.9069,178.5382 F,1,83248,83936,0.7,0 M,0,88248,,509,77 F,0,88248,,0.7 M,0,88248,88291,509,77,483.0981,80.85089 S,0,88248,88936,0.9210526,1.105263 M,0,88291,88334,483.0981,80.85089,457.2661,85.14458 M,0,88334,88377,457.2661,85.14458,431.5114,89.87973 M,0,88377,88420,431.5114,89.87973,406,95 F,1,88420,89108,0.7,0 M,0,89973,,371,298 F,0,89973,,0.7 C,0,89973,,89,172,255 M,0,89973,90016,371,298,366.6504,272.1769 S,0,89973,90661,0.9210526,1.105263 M,0,90016,90059,366.6504,272.1769,362.0638,246.3948 M,0,90059,90102,362.0638,246.3948,357.2412,220.6559 M,0,90102,90145,357.2412,220.6559,352.143,194.7132 F,1,90145,90833,0.7,0 M,0,94110,,140,83 F,0,94110,,0.7 C,0,94110,,154,78,78 M,0,94110,94153,140,83,134.8266,108.6707 S,0,94110,94798,0.9210526,1.105263 M,0,94153,94196,134.8266,108.6707,129.9374,134.397 M,0,94196,94239,129.9374,134.397,125.3327,160.1757 M,0,94239,94282,125.3327,160.1757,121,186 F,1,94282,94970,0.7,0 M,0,96697,,430,376 C,0,96697,,0,128,128 F,1,96697,97385,0.5,0 S,0,96697,97385,0.9210526,1.105263 M,0,98248,,85,256 F,0,98248,,0.7 C,0,98248,,255,128,128 M,0,98248,98291,85,256,110.8046,251.5415 S,0,98248,98936,0.9210526,1.105263 M,0,98291,98334,110.8046,251.5415,136.5744,246.8868 M,0,98334,98377,136.5744,246.8868,162.3082,242.036 M,0,98377,98420,162.3082,242.036,188,237 F,1,98420,99108,0.7,0 M,0,99110,,544,187 F,1,99110,99798,0.5,0 S,0,99110,99798,0.9210526,1.105263
Sprite,Overlay,Centre,"sb\4.png",0,0 M,0,47645,,376,141 C,0,47645,,89,172,255 P,0,47645,,A F,1,47645,48333,0.4,0 S,0,47645,48333,0.9210526,1.105263 M,0,53421,,429,161 F,1,53421,54109,0.4,0 S,0,53421,54109,0.9210526,1.105263 M,0,54800,,259,292 F,0,54800,,0.6 C,0,54800,,255,128,128 M,0,54800,54843,259,292,264.5852,273.6263 S,0,54800,55488,0.9210526,1.105263 M,0,54843,54886,264.5852,273.6263,270.1285,255.24 M,0,54886,54929,270.1285,255.24,264.6386,273.4494 M,0,54929,54972,264.6386,273.4494,259.0538,291.8232 M,0,54972,55015,259.0538,291.8232,264.5319,273.8033 M,0,55015,55058,264.5319,273.8033,270.155,255.1515 F,1,55058,55746,0.6,0 M,0,61007,,342,342 C,0,61007,,154,78,78 F,1,61007,61695,0.6,0 S,0,61007,61695,0.9210526,1.105263 M,0,62386,,200,102 C,0,62386,,89,172,255 F,1,62386,63074,0.6,0 S,0,62386,63074,0.9210526,1.105263 M,0,65059,,517,86 C,0,65059,,255,128,128 F,1,65059,65747,0.6,0 S,0,65059,65747,0.9210526,1.105263 M,0,67386,,255,328 C,0,67386,,154,78,78 F,1,67386,68074,0.6,0 S,0,67386,68074,0.9210526,1.105263 M,0,69283,,144,241 C,0,69283,,0,128,128 F,1,69283,69971,0.6,0 S,0,69283,69971,0.9210526,1.105263 M,0,71352,,473,280 C,0,71352,,255,128,128 F,1,71352,72040,0.6,0 S,0,71352,72040,0.9210526,1.105263 M,0,75145,,426,337 C,0,75145,,0,128,128 F,1,75145,75833,0.6,0 S,0,75145,75833,0.9210526,1.105263 M,0,76610,,126,86 C,0,76610,,255,128,128 F,1,76610,77298,0.6,0 S,0,76610,77298,0.9210526,1.105263 M,0,81352,,64,386 F,0,81352,,0.7 M,0,81352,81395,64,386,89.65646,380.9746 S,0,81352,82040,0.9210526,1.105263 M,0,81395,81438,89.65646,380.9746,115.785,381.3133 M,0,81438,81481,115.785,381.3133,140.8153,388.6074 M,0,81481,81524,140.8153,388.6074,162.2507,403.5221 M,0,81524,81567,162.2507,403.5221,183.7917,418.2768 M,0,81567,81610,183.7917,418.2768,208.8059,425.6862 M,0,81610,81653,208.8059,425.6862,234.9232,426.8992 M,0,81653,81696,234.9232,426.8992,261.3664,423.4938 F,1,81696,82384,0.7,0 M,0,88507,,333,142 C,0,88507,,154,78,78 F,1,88507,89195,0.5,0 S,0,88507,89195,0.9210526,1.105263 M,0,96783,,430,376 C,0,96783,,0,128,128 F,1,96783,97471,0.5,0 S,0,96783,97471,0.9210526,1.105263 M,0,99197,,544,187 C,0,99197,,255,128,128 F,1,99197,99885,0.5,0 S,0,99197,99885,0.9210526,1.105263
Sprite,Overlay,Centre,"sb\4.png",0,0 M,0,47731,,412,119 C,0,47731,,89,172,255 P,0,47731,,A F,1,47731,48419,0.4,0 S,0,47731,48419,0.9210526,1.105263 M,0,53593,,372,69 F,1,53593,54281,0.4,0 S,0,53593,54281,0.9210526,1.105263 M,0,63248,,198,327 F,1,63248,63936,0.6,0 S,0,63248,63936,0.9210526,1.105263 M,0,65490,,571,338 C,0,65490,,255,128,128 F,1,65490,66178,0.6,0 S,0,65490,66178,0.9210526,1.105263 M,0,69455,,144,241 C,0,69455,,0,128,128 F,1,69455,70143,0.6,0 S,0,69455,70143,0.9210526,1.105263 M,0,71524,,338,195 C,0,71524,,255,128,128 F,1,71524,72212,0.6,0 S,0,71524,72212,0.9210526,1.105263 M,0,75231,,426,337 C,0,75231,,0,128,128 F,1,75231,75919,0.6,0 S,0,75231,75919,0.9210526,1.105263 M,0,76783,,211,138 C,0,76783,,255,128,128 F,1,76783,77471,0.6,0 S,0,76783,77471,0.9210526,1.105263 M,0,88593,,333,142 F,0,88593,,0.7 C,0,88593,,154,78,78 M,0,88593,88636,333,142,307.1769,137.6504 S,0,88593,89281,0.9210526,1.105263 M,0,88636,88679,307.1769,137.6504,281.3948,133.0639 M,0,88679,88722,281.3948,133.0639,255.6559,128.2412 M,0,88722,88765,255.6559,128.2412,229.7132,123.143 F,1,88765,89453,0.7,0 M,0,96869,,430,376 C,0,96869,,0,128,128 F,1,96869,97557,0.5,0 S,0,96869,97557,0.9210526,1.105263
Sprite,Overlay,Centre,"sb\4.png",0,0 M,0,47817,,454,116 C,0,47817,,89,172,255 P,0,47817,,A F,1,47817,48505,0.4,0 S,0,47817,48505,0.9210526,1.105263 M,0,53852,,558,131 C,0,53852,,0,128,128 F,1,53852,54540,0.4,0 S,0,53852,54540,0.9210526,1.105263 M,0,65576,,571,338 C,0,65576,,255,128,128 F,1,65576,66264,0.6,0 S,0,65576,66264,0.9210526,1.105263 M,0,75317,,426,337 C,0,75317,,0,128,128 F,1,75317,76005,0.6,0 S,0,75317,76005,0.9210526,1.105263 M,0,76869,,221,189 F,0,76869,,0.8 C,0,76869,,255,128,128 M,0,76869,76912,221,189,240.9737,205.8211 S,0,76869,77557,0.9210526,1.105263 M,0,76912,76955,240.9737,205.8211,264.509,217.1204 M,0,76955,76998,264.509,217.1204,290.1144,222.185 M,0,76998,77041,290.1144,222.185,315,221 F,1,77041,77729,0.8,0 M,0,97041,,460,295 C,0,97041,,0,128,128 F,1,97041,97729,0.5,0 S,0,97041,97729,0.9210526,1.105263
Sprite,Overlay,Centre,"sb\4.png",0,0 M,0,47904,,492,135 C,0,47904,,89,172,255 P,0,47904,,A M,0,47904,47947,492,135,488.8618,153.9449 S,0,47904,48592,0.9210526,1.105263 M,0,47947,47990,488.8618,153.9449,486.1675,172.9577 M,0,47990,48033,486.1675,172.9577,483.9183,192.028 M,0,48033,48076,483.9183,192.028,482.0585,211.3264 F,1,48076,48764,0.6,0 M,0,54024,,568,197 C,0,54024,,0,128,128 F,1,54024,54712,0.4,0 S,0,54024,54712,0.9210526,1.105263 M,0,65662,,571,338 C,0,65662,,255,128,128 F,1,65662,66350,0.6,0 S,0,65662,66350,0.9210526,1.105263 M,0,75490,,351,411 C,0,75490,,0,128,128 F,1,75490,76178,0.6,0 S,0,75490,76178,0.9210526,1.105263 M,0,77559,,554,224 F,0,77559,,0.7 C,0,77559,,154,78,78 M,0,77559,77602,554,224,549.3032,249.7624 S,0,77559,78247,0.9210526,1.105263 M,0,77602,77645,549.3032,249.7624,544.7338,275.5475 M,0,77645,77688,544.7338,275.5475,540.2912,301.3549 M,0,77688,77731,540.2912,301.3549,536,327 F,1,77731,78419,0.7,0 M,0,97300,,530,440 C,0,97300,,0,128,128 F,1,97300,97988,0.5,0 S,0,97300,97988,0.9210526,1.105263
Sprite,Overlay,Centre,"sb\4.png",0,0 M,0,54541,,333,393 C,0,54541,,255,128,128 P,0,54541,,A F,1,54541,55229,0.4,0 S,0,54541,55229,0.9210526,1.105263
Sprite,Overlay,Centre,"sb\4.png",0,0 M,0,54714,,262,339 C,0,54714,,255,128,128 P,0,54714,,A F,1,54714,55402,0.4,0 S,0,54714,55402,0.9210526,1.105263
Sprite,Overlay,Centre,"sb\4.png",0,0 M,0,132386,,102,375 C,0,132386,,89,172,255 P,0,132386,,A M,0,132386,132429,102,375,121.0397,372.4948 S,0,132386,133074,0.9210526,1.105263 M,0,132429,132472,121.0397,372.4948,140.0794,369.9896 M,0,132472,132515,140.0794,369.9896,159.1191,367.4843 M,0,132515,132558,159.1191,367.4843,178,365 F,1,132558,133246,0.6,0 M,0,133593,,336,123 F,1,133593,134281,0.4,0 S,0,133593,134281,0.9210526,1.105263 M,0,135145,,208,408 C,0,135145,,255,128,128 F,1,135145,135833,0.4,0 S,0,135145,135833,0.9210526,1.105263 M,0,136524,,347,286 F,0,136524,,0.6 C,0,136524,,154,78,78 M,0,136524,136567,347,286,366.0397,283.4948 S,0,136524,137212,0.9210526,1.105263 M,0,136567,136610,366.0397,283.4948,385.0794,280.9896 M,0,136610,136653,385.0794,280.9896,404.1191,278.4843 M,0,136653,136696,404.1191,278.4843,423,276 F,1,136696,137384,0.6,0 M,0,137731,,219,421 F,1,137731,138419,0.4,0 S,0,137731,138419,0.9210526,1.105263 M,0,139110,,530,432 C,0,139110,,89,172,255 F,1,139110,139798,0.4,0 S,0,139110,139798,0.9210526,1.105263 M,0,140662,,79,81 C,0,140662,,255,128,128 F,1,140662,141350,0.4,0 S,0,140662,141350,0.9210526,1.105263 M,0,142041,,344,289 C,0,142041,,154,78,78 F,1,142041,142729,0.4,0 S,0,142041,142729,0.9210526,1.105263 M,0,143421,,158,94 F,0,143421,,0.8 C,0,143421,,0,128,128 M,0,143421,143464,158,94,183.8677,89.92403 S,0,143421,144109,0.9210526,1.105263 M,0,143464,143507,183.8677,89.92403,209.7415,85.88554 M,0,143507,143550,209.7415,85.88554,235.6213,81.88571 M,0,143550,143593,235.6213,81.88571,261,78 F,1,143593,144281,0.8,0 M,0,144455,,293,397 F,0,144455,,0.8 M,0,144455,144498,293,397,318.6552,401.8353 S,0,144455,145143,0.9210526,1.105263 M,0,144498,144541,318.6552,401.8353,344.6779,399.8136 M,0,144541,144584,344.6779,399.8136,369.2679,391.0777 M,0,144584,144627,369.2679,391.0777,390,377 F,1,144627,145315,0.8,0 M,0,145317,,299,87 C,0,145317,,255,128,128 F,1,145317,146005,0.6,0 S,0,145317,146005,0.9210526,1.105263 M,0,146869,,501,185 C,0,146869,,154,78,78 F,1,146869,147557,0.6,0 S,0,146869,147557,0.9210526,1.105263 M,0,148248,,305,314 C,0,148248,,89,172,255 F,1,148248,148936,0.6,0 S,0,148248,148936,0.9210526,1.105263 M,0,149628,,305,314 F,0,149628,,0.8 C,0,149628,,0,128,128 M,0,149628,149671,305,314,286.1851,332.0304 S,0,149628,150316,0.9210526,1.105263 M,0,149671,149714,286.1851,332.0304,262.9411,343.7356 M,0,149714,149757,262.9411,343.7356,237.31,348.1052 M,0,149757,149800,237.31,348.1052,211.1942,345.0468 F,1,149800,150488,0.8,0 M,0,150490,,497,351 C,0,150490,,255,128,128 F,1,150490,151178,0.6,0 S,0,150490,151178,0.9210526,1.105263 M,0,151869,,208,256 C,0,151869,,154,78,78 F,1,151869,152557,0.6,0 S,0,151869,152557,0.9210526,1.105263 M,0,153335,,485,340 C,0,153335,,89,172,255 F,1,153335,154023,0.6,0 S,0,153335,154023,0.9210526,1.105263 M,0,154800,,281,249 F,0,154800,,0.8 C,0,154800,,0,128,128 M,0,154800,154843,281,249,277.1042,274.8954 S,0,154800,155488,0.9210526,1.105263 M,0,154843,154886,277.1042,274.8954,272.8901,300.7408 M,0,154886,154929,272.8901,300.7408,268.3579,326.5324 M,0,154929,154972,268.3579,326.5324,263.4597,352.5134 F,1,154972,155660,0.8,0 M,0,155835,,436,397 C,0,155835,,255,128,128 F,1,155835,156523,0.6,0 S,0,155835,156523,0.9210526,1.105263 M,0,157214,,240,300 C,0,157214,,154,78,78 F,1,157214,157902,0.6,0 S,0,157214,157902,0.9210526,1.105263 M,0,158593,,563,266 C,0,158593,,89,172,255 F,1,158593,159281,0.6,0 S,0,158593,159281,0.9210526,1.105263 M,0,159973,,263,304 F,0,159973,,0.8 C,0,159973,,0,128,128 M,0,159973,160016,263,304,288.8488,307.2412 S,0,159973,160661,0.9210526,1.105263 M,0,160016,160059,288.8488,307.2412,314.4368,302.5522 M,0,160059,160102,314.4368,302.5522,337.401,290.3837 M,0,160102,160145,337.401,290.3837,356,272 F,1,160145,160833,0.8,0 M,0,160835,,309,186 F,1,160835,161523,0.6,0 S,0,160835,161523,0.9210526,1.105263 M,0,162559,,405,164 C,0,162559,,255,128,128 F,1,162559,163247,0.6,0 S,0,162559,163247,0.9210526,1.105263 M,0,163938,,308,311 C,0,163938,,154,78,78 F,1,163938,164626,0.6,0 S,0,163938,164626,0.9210526,1.105263 M,0,165404,,191,219 C,0,165404,,89,172,255 F,1,165404,166092,0.6,0 S,0,165404,166092,0.9210526,1.105263 M,0,166869,,450,338 F,0,166869,,0.7 C,0,166869,,255,128,128 M,0,166869,166912,450,338,475.8045,333.5415 S,0,166869,167557,0.9210526,1.105263 M,0,166912,166955,475.8045,333.5415,501.5744,328.8868 M,0,166955,166998,501.5744,328.8868,527.3081,324.036 M,0,166998,167041,527.3081,324.036,553,319 F,1,167041,167729,0.7,0 M,0,167731,,518,141 F,1,167731,168419,0.5,0 S,0,167731,168419,0.9210526,1.105263 M,0,169283,,486,401 C,0,169283,,154,78,78 F,1,169283,169971,0.5,0 S,0,169283,169971,0.9210526,1.105263 M,0,170662,,288,73 F,0,170662,,0.7 C,0,170662,,89,172,255 M,0,170662,170705,288,73,292.5706,98.7851 S,0,170662,171350,0.9210526,1.105263 M,0,170705,170748,292.5706,98.7851,297.0991,124.5774 M,0,170748,170791,297.0991,124.5774,301.585,150.3774 M,0,170791,170834,301.585,150.3774,306,176 F,1,170834,171522,0.7,0 M,0,171697,,218,322 C,0,171697,,0,128,128 F,1,171697,172385,0.5,0 S,0,171697,172385,0.9210526,1.105263 M,0,173076,,514,228 F,0,173076,,0.7 C,0,173076,,255,128,128 M,0,173076,173119,514,228,488.307,233.062 S,0,173076,173764,0.9210526,1.105263 M,0,173119,173162,488.307,233.062,462.5687,237.888 M,0,173162,173205,462.5687,237.888,436.7872,242.4775 M,0,173205,173248,436.7872,242.4775,410.7177,246.8816 F,1,173248,173936,0.7,0 M,0,174283,,410,246 C,0,174283,,154,78,78 F,1,174283,174971,0.5,0 S,0,174283,174971,0.9210526,1.105263 M,0,175835,,410,246 F,0,175835,,0.7 C,0,175835,,89,172,255 M,0,175835,175878,410,246,435.693,251.062 S,0,175835,176523,0.9210526,1.105263 M,0,175878,175921,435.693,251.062,461.4313,255.888 M,0,175921,175964,461.4313,255.888,487.2128,260.4775 M,0,175964,176007,487.2128,260.4775,513.2823,264.8816 F,1,176007,176695,0.7,0 M,0,176783,,304,272 C,0,176783,,0,128,128 F,1,176783,177471,0.5,0 S,0,176783,177471,0.9210526,1.105263 M,0,178162,,179,264 C,0,178162,,255,128,128 F,1,178162,178850,0.5,0 S,0,178162,178850,0.9210526,1.105263 M,0,179800,,245,399 C,0,179800,,154,78,78 F,1,179800,180488,0.5,0 S,0,179800,180488,0.9210526,1.105263 M,0,181352,,216,353 F,0,181352,,0.7 C,0,181352,,89,172,255 M,0,181352,181395,216,353,241.9019,356.8509 S,0,181352,182040,0.9210526,1.105263 M,0,181395,181438,241.9019,356.8509,267.7339,361.1446 M,0,181438,181481,267.7339,361.1446,293.4886,365.8797 M,0,181481,181524,293.4886,365.8797,319,371 F,1,181524,182212,0.7,0 M,0,182559,,543,217 C,0,182559,,0,128,128 F,1,182559,183247,0.5,0 S,0,182559,183247,0.9210526,1.105263 M,0,184110,,264,280 F,0,184110,,0.7 C,0,184110,,255,128,128 M,0,184110,184153,264,280,289.8046,284.4585 S,0,184110,184798,0.9210526,1.105263 M,0,184153,184196,289.8046,284.4585,315.5745,289.1132 M,0,184196,184239,315.5745,289.1132,341.3082,293.964 M,0,184239,184282,341.3082,293.964,367,299 F,1,184282,184970,0.7,0 M,0,184973,,224,367 C,0,184973,,154,78,78 F,1,184973,185661,0.5,0 S,0,184973,185661,0.9210526,1.105263 M,0,186352,,225,90 C,0,186352,,89,172,255 F,1,186352,187040,0.5,0 S,0,186352,187040,0.9210526,1.105263
Sprite,Overlay,Centre,"sb\4.png",0,0 M,0,132731,,299,277 C,0,132731,,89,172,255 P,0,132731,,A M,0,132731,132774,299,277,279.8838,278.8293 S,0,132731,133419,0.9210526,1.105263 M,0,132774,132817,279.8838,278.8293,260.7952,280.9266 M,0,132817,132860,260.7952,280.9266,241.7381,283.2914 M,0,132860,132903,241.7381,283.2914,222.5294,285.9244 F,1,132903,133591,0.6,0 M,0,133679,,336,123 F,1,133679,134367,0.4,0 S,0,133679,134367,0.9210526,1.105263 M,0,135231,,170,418 C,0,135231,,255,128,128 F,1,135231,135919,0.4,0 S,0,135231,135919,0.9210526,1.105263 M,0,136869,,437,105 F,0,136869,,0.6 C,0,136869,,154,78,78 M,0,136869,136912,437,105,434.4948,124.0397 S,0,136869,137557,0.9210526,1.105263 M,0,136912,136955,434.4948,124.0397,431.9896,143.0794 M,0,136955,136998,431.9896,143.0794,429.4843,162.1191 M,0,136998,137041,429.4843,162.1191,427,181 F,1,137041,137729,0.6,0 M,0,137817,,219,421 F,1,137817,138505,0.4,0 S,0,137817,138505,0.9210526,1.105263 M,0,139197,,530,432 C,0,139197,,89,172,255 F,1,139197,139885,0.4,0 S,0,139197,139885,0.9210526,1.105263 M,0,140835,,96,266 C,0,140835,,255,128,128 F,1,140835,141523,0.4,0 S,0,140835,141523,0.9210526,1.105263 M,0,142214,,427,284 C,0,142214,,154,78,78 F,1,142214,142902,0.4,0 S,0,142214,142902,0.9210526,1.105263 M,0,143766,,455,223 C,0,143766,,0,128,128 F,1,143766,144454,0.6,0 S,0,143766,144454,0.9210526,1.105263 M,0,145145,,324,271 C,0,145145,,255,128,128 F,1,145145,145833,0.6,0 S,0,145145,145833,0.9210526,1.105263 M,0,146524,,324,271 F,0,146524,,0.8 C,0,146524,,154,78,78 M,0,146524,146567,324,271,327.2596,245.0172 S,0,146524,147212,0.9210526,1.105263 M,0,146567,146610,327.2596,245.0172,331.0018,219.0995 M,0,146610,146653,331.0018,219.0995,335.2252,193.2561 M,0,146653,146696,335.2252,193.2561,339.9538,167.244 F,1,146696,147384,0.8,0 M,0,147559,,262,405 C,0,147559,,89,172,255 F,1,147559,148247,0.6,0 S,0,147559,148247,0.9210526,1.105263 M,0,148938,,442,232 F,0,148938,,0.8 C,0,148938,,0,128,128 M,0,148938,148981,442,232,467.9713,235.3504 S,0,148938,149626,0.9210526,1.105263 M,0,148981,149024,467.9713,235.3504,493.8801,239.1537 M,0,149024,149067,493.8801,239.1537,519.7185,243.4084 M,0,149067,149110,519.7185,243.4084,545,248 F,1,149110,149798,0.8,0 M,0,149973,,414,422 F,0,149973,,0.8 M,0,149973,150016,414,422,409.4167,396.2173 S,0,149973,150661,0.9210526,1.105263 M,0,150016,150059,409.4167,396.2173,405.0726,370.3933 M,0,150059,150102,405.0726,370.3933,400.9679,344.5302 M,0,150102,150145,400.9679,344.5302,397.0557,318.3824 F,1,150145,150833,0.8,0 M,0,150835,,383,238 C,0,150835,,255,128,128 F,1,150835,151523,0.6,0 S,0,150835,151523,0.9210526,1.105263 M,0,152214,,339,150 C,0,152214,,154,78,78 F,1,152214,152902,0.6,0 S,0,152214,152902,0.9210526,1.105263 M,0,153766,,172,287 F,0,153766,,0.8 C,0,153766,,89,172,255 M,0,153766,153809,172,287,178.9359,256.3566 S,0,153766,154454,0.9210526,1.105263 M,0,153809,153852,178.9359,256.3566,184.2695,225.2408 F,1,153852,154540,0.8,0 M,0,155145,,415,81 F,0,155145,,0.8 C,0,155145,,0,128,128 M,0,155145,155188,415,81,411.1043,106.8954 S,0,155145,155833,0.9210526,1.105263 M,0,155188,155231,411.1043,106.8954,406.8901,132.7409 M,0,155231,155274,406.8901,132.7409,402.3579,158.5324 M,0,155274,155317,402.3579,158.5324,397.4597,184.5134 F,1,155317,156005,0.8,0 M,0,156007,,492,190 C,0,156007,,255,128,128 F,1,156007,156695,0.6,0 S,0,156007,156695,0.9210526,1.105263 M,0,157386,,240,300 C,0,157386,,154,78,78 F,1,157386,158074,0.6,0 S,0,157386,158074,0.9210526,1.105263 M,0,158766,,563,266 C,0,158766,,89,172,255 F,1,158766,159454,0.6,0 S,0,158766,159454,0.9210526,1.105263 M,0,160317,,198,379 F,0,160317,,0.8 C,0,160317,,0,128,128 M,0,160317,160360,198,379,179.467,360.6955 S,0,160317,161005,0.9210526,1.105263 M,0,160360,160403,179.467,360.6955,167.4834,337.6082 M,0,160403,160446,167.4834,337.6082,163.1919,311.9795 M,0,160446,160489,163.1919,311.9795,166.7408,285.9424 F,1,160489,161177,0.8,0 M,0,161179,,237,90 F,1,161179,161867,0.6,0 S,0,161179,161867,0.9210526,1.105263 M,0,162731,,549,72 C,0,162731,,154,78,78 F,1,162731,163419,0.6,0 S,0,162731,163419,0.9210526,1.105263 M,0,164110,,183,186 F,0,164110,,0.8 C,0,164110,,89,172,255 M,0,164110,164153,183,186,179.0371,211.8853 S,0,164110,164798,0.9210526,1.105263 M,0,164153,164196,179.0371,211.8853,174.8705,237.7386 M,0,164196,164239,174.8705,237.7386,170.5007,263.5583 M,0,164239,164282,170.5007,263.5583,166,289 F,1,164282,164970,0.8,0 M,0,164973,,277,423 F,1,164973,165661,0.6,0 S,0,164973,165661,0.9210526,1.105263 M,0,166352,,486,174 C,0,166352,,0,128,128 F,1,166352,167040,0.5,0 S,0,166352,167040,0.9210526,1.105263 M,0,167904,,327,68 F,0,167904,,0.7 C,0,167904,,255,128,128 M,0,167904,167947,327,68,310.6271,88.28133 S,0,167904,168592,0.9210526,1.105263 M,0,167947,167990,310.6271,88.28133,301.0919,112.5124 M,0,167990,168033,301.0919,112.5124,299.2563,138.4654 M,0,168033,168076,299.2563,138.4654,305.3824,163.9871 F,1,168076,168764,0.7,0 M,0,168766,,406,177 C,0,168766,,154,78,78 F,1,168766,169454,0.5,0 S,0,168766,169454,0.9210526,1.105263 M,0,170317,,186,194 C,0,170317,,89,172,255 F,1,170317,171005,0.5,0 S,0,170317,171005,0.9210526,1.105263 M,0,171869,,430,352 F,0,171869,,0.7 C,0,171869,,0,128,128 M,0,171869,171912,430,352,424.938,326.307 S,0,171869,172557,0.9210526,1.105263 M,0,171912,171955,424.938,326.307,420.112,300.5687 M,0,171955,171998,420.112,300.5687,415.5225,274.7872 M,0,171998,172041,415.5225,274.7872,411.1184,248.7177 F,1,172041,172729,0.7,0 M,0,172731,,191,84 F,0,172731,,0.7 C,0,172731,,255,128,128 M,0,172731,172774,191,84,216.693,89.062 S,0,172731,173419,0.9210526,1.105263 M,0,172774,172817,216.693,89.062,242.4313,93.88797 M,0,172817,172860,242.4313,93.88797,268.2128,98.47749 M,0,172860,172903,268.2128,98.47749,294.2823,102.8816 F,1,172903,173591,0.7,0 M,0,173766,,525,392 F,0,173766,,0.7 C,0,173766,,154,78,78 M,0,173766,173809,525,392,499.3435,386.9745 S,0,173766,174454,0.9210526,1.105263 M,0,173809,173852,499.3435,386.9745,473.215,387.3133 M,0,173852,173895,473.215,387.3133,448.1847,394.6074 M,0,173895,173938,448.1847,394.6074,426.7493,409.5221 M,0,173938,173981,426.7493,409.5221,405.2083,424.2768 M,0,173981,174024,405.2083,424.2768,380.1941,431.6862 M,0,174024,174067,380.1941,431.6862,354.0767,432.8992 M,0,174067,174110,354.0767,432.8992,327.6336,429.4937 F,1,174110,174798,0.7,0 M,0,174800,,525,392 F,0,174800,,0.7 M,0,174800,174843,525,392,499.728,398.3148 S,0,174800,175488,0.9210526,1.105263 M,0,174843,174886,499.728,398.3148,473.7695,396.6583 M,0,174886,174929,473.7695,396.6583,449.5645,387.2043 M,0,174929,174972,449.5645,387.2043,429,371 F,1,174972,175660,0.7,0 M,0,176179,,260,354 F,0,176179,,0.7 C,0,176179,,89,172,255 M,0,176179,176222,260,354,234.307,359.062 S,0,176179,176867,0.9210526,1.105263 M,0,176222,176265,234.307,359.062,208.5687,363.888 M,0,176265,176308,208.5687,363.888,182.7872,368.4775 M,0,176308,176351,182.7872,368.4775,156.7177,372.8816 F,1,176351,177039,0.7,0 M,0,177214,,473,184 F,0,177214,,0.7 C,0,177214,,0,128,128 M,0,177214,177257,473,184,498.7851,188.5706 S,0,177214,177902,0.9210526,1.105263 M,0,177257,177300,498.7851,188.5706,524.5774,193.0991 M,0,177300,177343,524.5774,193.0991,550.3774,197.585 M,0,177343,177386,550.3774,197.585,576,202 M,0,177386,177429,576,202,550.874,197.6709 M,0,177429,177472,550.874,197.6709,525.074,193.1857 M,0,177472,177515,525.074,193.1857,499.2815,188.658 M,0,177515,177558,499.2815,188.658,473,184 F,1,177558,178246,0.7,0 M,0,178248,,179,264 F,0,178248,,0.7 C,0,178248,,255,128,128 M,0,178248,178291,179,264,182.8509,289.9019 S,0,178248,178936,0.9210526,1.105263 M,0,178291,178334,182.8509,289.9019,187.1446,315.7339 M,0,178334,178377,187.1446,315.7339,191.8797,341.4886 M,0,178377,178420,191.8797,341.4886,197,367 F,1,178420,179108,0.7,0 M,0,179283,,555,366 F,0,179283,,0.7 C,0,179283,,154,78,78 M,0,179283,179326,555,366,529.3162,360.8915 S,0,179283,179971,0.9210526,1.105263 M,0,179326,179369,529.3162,360.8915,503.611,355.8911 M,0,179369,179412,503.611,355.8911,477.8852,350.9986 M,0,179412,179455,477.8852,350.9986,452.1389,346.2146 M,0,179455,179498,452.1389,346.2146,426.3734,341.5349 M,0,179498,179541,426.3734,341.5349,400.5874,336.9698 M,0,179541,179584,400.5874,336.9698,374.7826,332.5129 M,0,179584,179627,374.7826,332.5129,348.4627,328.0772 F,1,179627,180315,0.7,0 M,0,180317,,130,374 F,0,180317,,0.7 M,0,180317,180360,130,374,113.2664,354.0336 S,0,180317,181005,0.9210526,1.105263 M,0,180360,180403,113.2664,354.0336,103.4748,329.9301 M,0,180403,180446,103.4748,329.9301,101.5492,304.0112 M,0,180446,180489,101.5492,304.0112,107.4636,278.4066 F,1,180489,181177,0.7,0 M,0,181697,,484,405 C,0,181697,,89,172,255 F,1,181697,182385,0.5,0 S,0,181697,182385,0.9210526,1.105263 M,0,183248,,543,217 C,0,183248,,0,128,128 F,1,183248,183936,0.5,0 S,0,183248,183936,0.9210526,1.105263 M,0,184800,,158,434 C,0,184800,,154,78,78 F,1,184800,185488,0.5,0 S,0,184800,185488,0.9210526,1.105263 M,0,186179,,304,144 C,0,186179,,89,172,255 F,1,186179,186867,0.5,0 S,0,186179,186867,0.9210526,1.105263
Sprite,Overlay,Centre,"sb\4.png",0,0 M,0,133076,,428,393 C,0,133076,,89,172,255 P,0,133076,,A M,0,133076,133119,428,393,446.0786,386.8461 S,0,133076,133764,0.9210526,1.105263 M,0,133119,133162,446.0786,386.8461,461.896,376.2188 M,0,133162,133205,461.896,376.2188,474.7012,362.0683 M,0,133205,133248,474.7012,362.0683,482.7389,344.7582 M,0,133248,133291,482.7389,344.7582,485.9836,325.9872 M,0,133291,133334,485.9836,325.9872,484.5237,306.978 M,0,133334,133377,484.5237,306.978,477.5676,289.2172 M,0,133377,133420,477.5676,289.2172,466.2955,273.336 F,1,133420,134108,0.6,0 M,0,134110,,436,259 F,0,134110,,0.6 C,0,134110,,0,128,128 M,0,134110,134153,436,259,437.8293,239.8838 S,0,134110,134798,0.9210526,1.105263 M,0,134153,134196,437.8293,239.8838,439.9266,220.7952 M,0,134196,134239,439.9266,220.7952,442.2914,201.7381 M,0,134239,134282,442.2914,201.7381,444.9244,182.5294 F,1,134282,134970,0.6,0 M,0,135317,,131,414 C,0,135317,,255,128,128 F,1,135317,136005,0.4,0 S,0,135317,136005,0.9210526,1.105263 M,0,137214,,509,326 F,0,137214,,0.6 C,0,137214,,154,78,78 M,0,137214,137257,509,326,502.726,344.0379 S,0,137214,137902,0.9210526,1.105263 M,0,137257,137300,502.726,344.0379,492.012,359.7979 M,0,137300,137343,492.012,359.7979,477.7949,372.5247 M,0,137343,137386,477.7949,372.5247,460.4604,380.5057 M,0,137386,137429,460.4604,380.5057,441.6826,383.7119 M,0,137429,137472,441.6826,383.7119,422.6836,382.1976 M,0,137472,137515,422.6836,382.1976,404.9246,375.2457 M,0,137515,137558,404.9246,375.2457,389.0146,364.0127 F,1,137558,138246,0.6,0 M,0,138248,,130,182 F,0,138248,,0.6 C,0,138248,,89,172,255 M,0,138248,138291,130,182,127.4948,201.0397 S,0,138248,138936,0.9210526,1.105263 M,0,138291,138334,127.4948,201.0397,124.9896,220.0794 M,0,138334,138377,124.9896,220.0794,122.4843,239.1191 M,0,138377,138420,122.4843,239.1191,120,258 F,1,138420,139108,0.6,0 M,0,139283,,530,432 F,0,139283,,0.6 C,0,139283,,0,128,128 M,0,139283,139326,530,432,532.5052,412.9603 S,0,139283,139971,0.9210526,1.105263 M,0,139326,139369,532.5052,412.9603,535.0104,393.9206 M,0,139369,139412,535.0104,393.9206,537.5156,374.8809 M,0,139412,139455,537.5156,374.8809,540,356 F,1,139455,140143,0.6,0 M,0,140317,,284,98 F,0,140317,,0.6 M,0,140317,140360,284,98,270.9327,112.0724 S,0,140317,141005,0.9210526,1.105263 M,0,140360,140403,270.9327,112.0724,257.8655,126.1448 M,0,140403,140446,257.8655,126.1448,244.7982,140.2173 M,0,140446,140489,244.7982,140.2173,232,154 F,1,140489,141177,0.6,0 M,0,141179,,165,315 C,0,141179,,255,128,128 F,1,141179,141867,0.4,0 S,0,141179,141867,0.9210526,1.105263 M,0,142559,,346,147 F,0,142559,,0.6 C,0,142559,,154,78,78 M,0,142559,142602,346,147,342.6387,128.0927 S,0,142559,143247,0.9210526,1.105263 M,0,142602,142645,342.6387,128.0927,339.2612,109.0943 F,1,142645,143333,0.6,0 M,0,143938,,455,223 C,0,143938,,0,128,128 F,1,143938,144626,0.6,0 S,0,143938,144626,0.9210526,1.105263 M,0,145490,,324,271 C,0,145490,,255,128,128 F,1,145490,146178,0.6,0 S,0,145490,146178,0.9210526,1.105263 M,0,147041,,501,185 C,0,147041,,154,78,78 F,1,147041,147729,0.6,0 S,0,147041,147729,0.9210526,1.105263 M,0,148421,,173,175 C,0,148421,,89,172,255 F,1,148421,149109,0.6,0 S,0,148421,149109,0.9210526,1.105263 M,0,150317,,497,351 C,0,150317,,255,128,128 F,1,150317,151005,0.6,0 S,0,150317,151005,0.9210526,1.105263 M,0,151697,,119,103 C,0,151697,,154,78,78 F,1,151697,152385,0.6,0 S,0,151697,152385,0.9210526,1.105263 M,0,153076,,556,378 F,0,153076,,0.8 C,0,153076,,89,172,255 M,0,153076,153119,556,378,561.3843,408.9597 S,0,153076,153764,0.9210526,1.105263 M,0,153119,153162,561.3843,408.9597,566.7686,439.9194 M,0,153162,153205,566.7686,439.9194,561.4361,409.2576 M,0,153205,153248,561.4361,409.2576,556,378 F,1,153248,153936,0.8,0 M,0,153938,,281,249 F,0,153938,,0.8 M,0,153938,153981,281,249,287.9359,218.3566 S,0,153938,154626,0.9210526,1.105263 M,0,153981,154024,287.9359,218.3566,293.2695,187.2408 F,1,154024,154712,0.8,0 M,0,155490,,550,337 F,0,155490,,0.8 C,0,155490,,0,128,128 M,0,155490,155533,550,337,546.1042,362.8954 S,0,155490,156178,0.9210526,1.105263 M,0,155533,155576,546.1042,362.8954,541.8901,388.7409 M,0,155576,155619,541.8901,388.7409,537.3579,414.5324 M,0,155619,155662,537.3579,414.5324,532.4597,440.5134 F,1,155662,156350,0.8,0 M,0,156524,,132,266 C,0,156524,,255,128,128 F,1,156524,157212,0.6,0 S,0,156524,157212,0.9210526,1.105263 M,0,157904,,468,327 F,0,157904,,0.8 C,0,157904,,154,78,78 M,0,157904,157947,468,327,471.8957,301.1046 S,0,157904,158592,0.9210526,1.105263 M,0,157947,157990,471.8957,301.1046,476.1099,275.2592 M,0,157990,158033,476.1099,275.2592,480.6421,249.4676 M,0,158033,158076,480.6421,249.4676,485.5403,223.4866 F,1,158076,158764,0.8,0 M,0,158938,,416,175 F,0,158938,,0.8 C,0,158938,,89,172,255 M,0,158938,158981,416,175,390.2173,179.5833 S,0,158938,159626,0.9210526,1.105263 M,0,158981,159024,390.2173,179.5833,364.3933,183.9274 M,0,159024,159067,364.3933,183.9274,338.5302,188.0321 M,0,159067,159110,338.5302,188.0321,312.3824,191.9443 F,1,159110,159798,0.8,0 M,0,159800,,245,108 F,1,159800,160488,0.6,0 S,0,159800,160488,0.9210526,1.105263 M,0,161352,,421,182 C,0,161352,,255,128,128 F,1,161352,162040,0.6,0 S,0,161352,162040,0.9210526,1.105263 M,0,162904,,373,93 C,0,162904,,154,78,78 F,1,162904,163592,0.6,0 S,0,162904,163592,0.9210526,1.105263 M,0,164369,,86,305 C,0,164369,,89,172,255 F,1,164369,165057,0.6,0 S,0,164369,165057,0.9210526,1.105263 M,0,165748,,363,159 C,0,165748,,0,128,128 F,1,165748,166436,0.5,0 S,0,165748,166436,0.9210526,1.105263 M,0,167128,,441,251 C,0,167128,,255,128,128 F,1,167128,167816,0.5,0 S,0,167128,167816,0.9210526,1.105263 M,0,168507,,251,258 C,0,168507,,154,78,78 F,1,168507,169195,0.5,0 S,0,168507,169195,0.9210526,1.105263 M,0,169973,,483,255 F,0,169973,,0.7 C,0,169973,,89,172,255 M,0,169973,170016,483,255,457.307,249.938 S,0,169973,170661,0.9210526,1.105263 M,0,170016,170059,457.307,249.938,431.5687,245.112 M,0,170059,170102,431.5687,245.112,405.7872,240.5225 M,0,170102,170145,405.7872,240.5225,379.7177,236.1184 F,1,170145,170833,0.7,0 M,0,171007,,84,224 C,0,171007,,0,128,128 F,1,171007,171695,0.5,0 S,0,171007,171695,0.9210526,1.105263 M,0,172386,,197,224 F,0,172386,,0.7 C,0,172386,,255,128,128 M,0,172386,172429,197,224,171.8217,230.0772 S,0,172386,173074,0.9210526,1.105263 M,0,172429,172472,171.8217,230.0772,146.5597,224.7198 M,0,172472,172515,146.5597,224.7198,126.1218,209.0225 M,0,172515,172558,126.1218,209.0225,114.4691,186.07 M,0,172558,172601,114.4691,186.07,113.5125,160.2944 M,0,172601,172644,113.5125,160.2944,124.3835,136.3726 F,1,172644,173332,0.7,0 M,0,173421,,153,368 F,0,173421,,0.7 M,0,173421,173464,153,368,178.693,373.062 S,0,173421,174109,0.9210526,1.105263 M,0,173464,173507,178.693,373.062,204.4313,377.888 M,0,173507,173550,204.4313,377.888,230.2128,382.4775 M,0,173550,173593,230.2128,382.4775,256.2823,386.8816 F,1,173593,174281,0.7,0 M,0,174455,,410,246 F,0,174455,,0.7 C,0,174455,,154,78,78 M,0,174455,174498,410,246,435.272,239.6853 S,0,174455,175143,0.9210526,1.105263 M,0,174498,174541,435.272,239.6853,461.2305,241.3417 M,0,174541,174584,461.2305,241.3417,485.4355,250.7957 M,0,174584,174627,485.4355,250.7957,506,267 F,1,174627,175315,0.7,0 M,0,175490,,260,91 F,0,175490,,0.7 C,0,175490,,89,172,255 M,0,175490,175533,260,91,234.307,96.062 S,0,175490,176178,0.9210526,1.105263 M,0,175533,175576,234.307,96.062,208.5687,100.888 M,0,175576,175619,208.5687,100.888,182.7872,105.4775 M,0,175619,175662,182.7872,105.4775,156.7177,109.8816 F,1,175662,176350,0.7,0 M,0,176524,,392,417 F,0,176524,,0.7 C,0,176524,,0,128,128 M,0,176524,176567,392,417,387.5546,391.193 S,0,176524,177212,0.9210526,1.105263 M,0,176567,176610,387.5546,391.193,383.0669,365.3934 M,0,176610,176653,383.0669,365.3934,378.5372,339.6012 M,0,176653,176696,378.5372,339.6012,374,314 F,1,176696,177384,0.7,0 M,0,177731,,380,163 F,1,177731,178419,0.5,0 S,0,177731,178419,0.9210526,1.105263 M,0,179973,,245,399 C,0,179973,,154,78,78 F,1,179973,180661,0.5,0 S,0,179973,180661,0.9210526,1.105263 M,0,181869,,484,405 C,0,181869,,89,172,255 F,1,181869,182557,0.5,0 S,0,181869,182557,0.9210526,1.105263 M,0,183421,,368,73 F,0,183421,,0.7 C,0,183421,,255,128,128 M,0,183421,183464,368,73,344.3239,62.37956 S,0,183421,184109,0.9210526,1.105263 M,0,183464,183507,344.3239,62.37956,318.4294,62.36826 M,0,183507,183550,318.4294,62.36826,294.8354,72.92924 M,0,183550,183593,294.8354,72.92924,277.6479,92.19043 M,0,183593,183636,277.6479,92.19043,269.8505,116.773 M,0,183636,183679,269.8505,116.773,272.9139,142.7348 F,1,183679,184367,0.7,0 M,0,184455,,436,381 F,0,184455,,0.7 M,0,184455,184498,436,381,410.1769,385.3496 S,0,184455,185143,0.9210526,1.105263 M,0,184498,184541,410.1769,385.3496,384.3948,389.9362 M,0,184541,184584,384.3948,389.9362,358.6559,394.7588 M,0,184584,184627,358.6559,394.7588,332.7132,399.857 F,1,184627,185315,0.7,0 M,0,185317,,138,327 C,0,185317,,154,78,78 F,1,185317,186005,0.5,0 S,0,185317,186005,0.9210526,1.105263 M,0,186697,,389,179 C,0,186697,,89,172,255 F,1,186697,187385,0.5,0 S,0,186697,187385,0.9210526,1.105263
Sprite,Overlay,Centre,"sb\4.png",0,0 M,0,133766,,336,123 C,0,133766,,0,128,128 P,0,133766,,A M,0,133766,133809,336,123,333.4948,142.0397 S,0,133766,134454,0.9210526,1.105263 M,0,133809,133852,333.4948,142.0397,330.9896,161.0794 M,0,133852,133895,330.9896,161.0794,328.4843,180.1191 M,0,133895,133938,328.4843,180.1191,326,199 F,1,133938,134626,0.6,0 M,0,134800,,406,423 F,0,134800,,0.6 M,0,134800,134843,406,423,403.5734,403.9502 S,0,134800,135488,0.9210526,1.105263 M,0,134843,134886,403.5734,403.9502,401.1157,384.9043 M,0,134886,134929,401.1157,384.9043,398.6269,365.8624 M,0,134929,134972,398.6269,365.8624,396.0852,346.6411 F,1,134972,135660,0.6,0 M,0,135835,,242,228 C,0,135835,,255,128,128 F,1,135835,136523,0.4,0 S,0,135835,136523,0.9210526,1.105263 M,0,137904,,219,421 F,0,137904,,0.6 C,0,137904,,89,172,255 M,0,137904,137947,219,421,216.4948,401.9603 S,0,137904,138592,0.9210526,1.105263 M,0,137947,137990,216.4948,401.9603,213.9896,382.9206 M,0,137990,138033,213.9896,382.9206,211.4843,363.8809 M,0,138033,138076,211.4843,363.8809,209,345 F,1,138076,138764,0.6,0 M,0,139628,,489,177 F,0,139628,,0.6 C,0,139628,,0,128,128 M,0,139628,139671,489,177,491.5052,196.0397 S,0,139628,140316,0.9210526,1.105263 M,0,139671,139714,491.5052,196.0397,494.0104,215.0794 M,0,139714,139757,494.0104,215.0794,496.5157,234.1191 M,0,139757,139800,496.5157,234.1191,499,253 F,1,139800,140488,0.6,0 M,0,141007,,159,112 C,0,141007,,255,128,128 F,1,141007,141695,0.4,0 S,0,141007,141695,0.9210526,1.105263 M,0,142386,,473,217 F,0,142386,,0.6 C,0,142386,,154,78,78 M,0,142386,142429,473,217,469.6387,198.0927 S,0,142386,143074,0.9210526,1.105263 M,0,142429,142472,469.6387,198.0927,466.2612,179.0943 F,1,142472,143160,0.6,0 M,0,144110,,221,185 F,0,144110,,0.8 C,0,144110,,0,128,128 M,0,144110,144153,221,185,203.0553,203.9072 S,0,144110,144798,0.9210526,1.105263 M,0,144153,144196,203.0553,203.9072,191.2408,227.1067 M,0,144196,144239,191.2408,227.1067,186.5141,252.6858 M,0,144239,144282,186.5141,252.6858,188.9733,278.8739 F,1,144282,144970,0.8,0 M,0,145662,,240,233 C,0,145662,,255,128,128 F,1,145662,146350,0.6,0 S,0,145662,146350,0.9210526,1.105263 M,0,147214,,419,299 F,0,147214,,0.8 C,0,147214,,154,78,78 M,0,147214,147257,419,299,423.076,324.8677 S,0,147214,147902,0.9210526,1.105263 M,0,147257,147300,423.076,324.8677,427.1145,350.7415 M,0,147300,147343,427.1145,350.7415,431.1143,376.6213 M,0,147343,147386,431.1143,376.6213,435,402 F,1,147386,148074,0.8,0 M,0,148593,,349,238 C,0,148593,,89,172,255 F,1,148593,149281,0.6,0 S,0,148593,149281,0.9210526,1.105263 M,0,150662,,300,303 C,0,150662,,255,128,128 F,1,150662,151350,0.6,0 S,0,150662,151350,0.9210526,1.105263 M,0,152041,,208,256 C,0,152041,,154,78,78 F,1,152041,152729,0.6,0 S,0,152041,152729,0.9210526,1.105263 M,0,153421,,468,346 F,0,153421,,0.8 C,0,153421,,89,172,255 M,0,153421,153464,468,346,442.9261,327.7451 S,0,153421,154109,0.9210526,1.105263 M,0,153464,153507,442.9261,327.7451,428.4578,300.4286 M,0,153507,153550,428.4578,300.4286,427.9429,269.4829 M,0,153550,153593,427.9429,269.4829,441.7525,241.4024 F,1,153593,154281,0.8,0 M,0,154369,,84,147 F,1,154369,155057,0.6,0 S,0,154369,155057,0.9210526,1.105263 M,0,156179,,408,313 F,0,156179,,0.8 C,0,156179,,255,128,128 M,0,156179,156222,408,313,382.1046,316.8957 S,0,156179,156867,0.9210526,1.105263 M,0,156222,156265,382.1046,316.8957,356.2591,321.1099 M,0,156265,156308,356.2591,321.1099,330.4676,325.6421 M,0,156308,156351,330.4676,325.6421,304.4866,330.5403 F,1,156351,157039,0.8,0 M,0,157041,,310,220 F,1,157041,157729,0.6,0 S,0,157041,157729,0.9210526,1.105263 M,0,158421,,501,133 C,0,158421,,154,78,78 F,1,158421,159109,0.6,0 S,0,158421,159109,0.9210526,1.105263 M,0,160662,,309,186 C,0,160662,,0,128,128 F,1,160662,161350,0.6,0 S,0,160662,161350,0.9210526,1.105263 M,0,162041,,576,232 F,0,162041,,0.8 C,0,162041,,255,128,128 M,0,162041,162084,576,232,550.2173,236.5833 S,0,162041,162729,0.9210526,1.105263 M,0,162084,162127,550.2173,236.5833,524.3933,240.9274 M,0,162127,162170,524.3933,240.9274,498.5302,245.0321 M,0,162170,162213,498.5302,245.0321,472.6317,248.9079 M,0,162213,162256,472.6317,248.9079,498.032,245.1084 M,0,162256,162299,498.032,245.1084,523.8958,241.008 M,0,162299,162342,523.8958,241.008,549.7205,236.6681 M,0,162342,162385,549.7205,236.6681,576,232 F,1,162385,163073,0.8,0 M,0,163076,,373,93 C,0,163076,,154,78,78 F,1,163076,163764,0.6,0 S,0,163076,163764,0.9210526,1.105263 M,0,164455,,86,305 F,0,164455,,0.8 C,0,164455,,89,172,255 M,0,164455,164498,86,305,89.35043,330.9713 S,0,164455,165143,0.9210526,1.105263 M,0,164498,164541,89.35043,330.9713,93.15366,356.8801 M,0,164541,164584,93.15366,356.8801,97.40842,382.7185 M,0,164584,164627,97.40842,382.7185,102,408 F,1,164627,165315,0.8,0 M,0,165490,,191,219 F,0,165490,,0.7 C,0,165490,,0,128,128 M,0,165490,165533,191,219,216.4672,224.4127 S,0,165490,166178,0.9210526,1.105263 M,0,165533,165576,216.4672,224.4127,242.2968,221.4887 M,0,165576,165619,242.2968,221.4887,265.8461,210.5476 M,0,165619,165662,265.8461,210.5476,285,193 F,1,165662,166350,0.7,0 M,0,166524,,333,266 F,0,166524,,0.7 M,0,166524,166567,333,266,307.1769,261.6504 S,0,166524,167212,0.9210526,1.105263 M,0,166567,166610,307.1769,261.6504,281.3948,257.0638 M,0,166610,166653,281.3948,257.0638,255.6559,252.2412 M,0,166653,166696,255.6559,252.2412,229.7132,247.143 F,1,166696,167384,0.7,0 M,0,167559,,518,141 C,0,167559,,255,128,128 F,1,167559,168247,0.5,0 S,0,167559,168247,0.9210526,1.105263 M,0,168938,,236,362 F,0,168938,,0.7 C,0,168938,,154,78,78 M,0,168938,168981,236,362,261.7851,357.4294 S,0,168938,169626,0.9210526,1.105263 M,0,168981,169024,261.7851,357.4294,287.5775,352.9009 M,0,169024,169067,287.5775,352.9009,313.3774,348.415 M,0,169067,169110,313.3774,348.415,339,344 F,1,169110,169798,0.7,0 M,0,170490,,186,194 C,0,170490,,89,172,255 F,1,170490,171178,0.5,0 S,0,170490,171178,0.9210526,1.105263 M,0,172214,,398,154 C,0,172214,,0,128,128 F,1,172214,172902,0.5,0 S,0,172214,172902,0.9210526,1.105263 M,0,175145,,316,277 F,0,175145,,0.7 C,0,175145,,89,172,255 M,0,175145,175188,316,277,318.3932,250.9226 S,0,175145,175833,0.9210526,1.105263 M,0,175188,175231,318.3932,250.9226,320.8582,224.8519 M,0,175231,175274,320.8582,224.8519,323.3942,198.788 M,0,175274,175317,323.3942,198.788,326.0006,172.731 M,0,175317,175360,326.0006,172.731,328.6744,146.6809 M,0,175360,175403,328.6744,146.6809,331.4652,120.2629 F,1,175403,176091,0.7,0 M,0,176869,,304,272 F,0,176869,,0.7 C,0,176869,,0,128,128 M,0,176869,176912,304,272,278.1769,267.6504 S,0,176869,177557,0.9210526,1.105263 M,0,176912,176955,278.1769,267.6504,252.3948,263.0638 M,0,176955,176998,252.3948,263.0638,226.6559,258.2412 M,0,176998,177041,226.6559,258.2412,200.7132,253.143 F,1,177041,177729,0.7,0 M,0,177904,,269,278 F,0,177904,,0.7 C,0,177904,,255,128,128 M,0,177904,177947,269,278,263.938,252.307 S,0,177904,178592,0.9210526,1.105263 M,0,177947,177990,263.938,252.307,259.112,226.5687 M,0,177990,178033,259.112,226.5687,254.5225,200.7872 M,0,178033,178076,254.5225,200.7872,250.1184,174.7177 F,1,178076,178764,0.7,0 M,0,178766,,250,174 F,1,178766,179454,0.5,0 S,0,178766,179454,0.9210526,1.105263 M,0,180145,,297,238 C,0,180145,,154,78,78 F,1,180145,180833,0.5,0 S,0,180145,180833,0.9210526,1.105263 M,0,182041,,464,312 F,0,182041,,0.7 C,0,182041,,0,128,128 M,0,182041,182084,464,312,458.938,286.307 S,0,182041,182729,0.9210526,1.105263 M,0,182084,182127,458.938,286.307,454.112,260.5687 M,0,182127,182170,454.112,260.5687,449.5225,234.7872 M,0,182170,182213,449.5225,234.7872,445.1595,208.9664 M,0,182213,182256,445.1595,208.9664,449.4369,234.2905 M,0,182256,182299,449.4369,234.2905,454.0222,260.0728 M,0,182299,182342,454.0222,260.0728,458.8439,285.8119 M,0,182342,182385,458.8439,285.8119,464,312 F,1,182385,183073,0.7,0 M,0,183766,,341,205 F,0,183766,,0.7 C,0,183766,,255,128,128 M,0,183766,183809,341,205,366.8046,200.5415 S,0,183766,184454,0.9210526,1.105263 M,0,183809,183852,366.8046,200.5415,392.5744,195.8868 M,0,183852,183895,392.5744,195.8868,418.3082,191.036 M,0,183895,183938,418.3082,191.036,444,186 F,1,183938,184626,0.7,0 M,0,185059,,224,367 C,0,185059,,154,78,78 F,1,185059,185747,0.5,0 S,0,185059,185747,0.9210526,1.105263 M,0,186438,,225,90 C,0,186438,,89,172,255 F,1,186438,187126,0.5,0 S,0,186438,187126,0.9210526,1.105263
Sprite,Overlay,Centre,"sb\4.png",0,0 M,0,134455,,265,274 C,0,134455,,0,128,128 P,0,134455,,A M,0,134455,134498,265,274,267.5197,293.0378 S,0,134455,135143,0.9210526,1.105263 M,0,134498,134541,267.5197,293.0378,270.0084,312.0796 M,0,134541,134584,270.0084,312.0796,272.4659,331.1255 M,0,134584,134627,272.4659,331.1255,274.9186,350.3584 F,1,134627,135315,0.6,0 M,0,135404,,97,394 C,0,135404,,255,128,128 F,1,135404,136092,0.4,0 S,0,135404,136092,0.9210526,1.105263 M,0,138593,,292,298 F,0,138593,,0.6 C,0,138593,,89,172,255 M,0,138593,138636,292,298,311.1929,298.5479 S,0,138593,139281,0.9210526,1.105263 M,0,138636,138679,311.1929,298.5479,330.2762,300.6178 M,0,138679,138722,330.2762,300.6178,348.9142,305.1583 M,0,138722,138765,348.9142,305.1583,366.7053,312.3654 M,0,138765,138808,366.7053,312.3654,384.6343,319.2085 M,0,138808,138851,384.6343,319.2085,403.367,323.3606 M,0,138851,138894,403.367,323.3606,422.4612,325.3474 M,0,138894,138937,422.4612,325.3474,442.0214,325.9884 F,1,138937,139625,0.6,0 M,0,139973,,380,154 F,0,139973,,0.6 C,0,139973,,0,128,128 M,0,139973,140016,380,154,374.0023,172.2432 S,0,139973,140661,0.9210526,1.105263 M,0,140016,140059,374.0023,172.2432,368.0045,190.4863 M,0,140059,140102,368.0045,190.4863,362.0067,208.7295 M,0,140102,140145,362.0067,208.7295,356,227 F,1,140145,140833,0.6,0 M,0,141352,,83,166 C,0,141352,,255,128,128 F,1,141352,142040,0.4,0 S,0,141352,142040,0.9210526,1.105263 M,0,142731,,236,218 C,0,142731,,89,172,255 F,1,142731,143419,0.4,0 S,0,142731,143419,0.9210526,1.105263 M,0,144800,,455,223 F,0,144800,,0.8 C,0,144800,,255,128,128 M,0,144800,144843,455,223,446.7207,198.2655 S,0,144800,145488,0.9210526,1.105263 M,0,144843,144886,446.7207,198.2655,432.2179,176.6198 M,0,144886,144929,432.2179,176.6198,412.5268,159.5866 M,0,144929,144972,412.5268,159.5866,389,148 F,1,144972,145660,0.8,0 M,0,145835,,180,302 F,1,145835,146523,0.6,0 S,0,145835,146523,0.9210526,1.105263 M,0,147731,,262,405 C,0,147731,,89,172,255 F,1,147731,148419,0.6,0 S,0,147731,148419,0.9210526,1.105263 M,0,149283,,382,151 C,0,149283,,0,128,128 F,1,149283,149971,0.6,0 S,0,149283,149971,0.9210526,1.105263 M,0,151007,,259,102 F,0,151007,,0.8 C,0,151007,,255,128,128 M,0,151007,151050,259,102,262.3504,127.9713 S,0,151007,151695,0.9210526,1.105263 M,0,151050,151093,262.3504,127.9713,266.1537,153.8801 M,0,151093,151136,266.1537,153.8801,270.4084,179.7185 M,0,151136,151179,270.4084,179.7185,275,205 F,1,151179,151867,0.8,0 M,0,151955,,208,256 C,0,151955,,154,78,78 F,1,151955,152643,0.6,0 S,0,151955,152643,0.9210526,1.105263 M,0,154110,,236,114 F,0,154110,,0.8 C,0,154110,,89,172,255 M,0,154110,154153,236,114,205.2522,120.4855 S,0,154110,154798,0.9210526,1.105263 M,0,154153,154196,205.2522,120.4855,174.4833,126.8702 M,0,154196,154239,174.4833,126.8702,143.693,133.1517 M,0,154239,154282,143.693,133.1517,112.5852,139.388 F,1,154282,154970,0.8,0 M,0,156697,,132,266 C,0,156697,,255,128,128 F,1,156697,157385,0.6,0 S,0,156697,157385,0.9210526,1.105263 M,0,158248,,501,133 C,0,158248,,154,78,78 F,1,158248,158936,0.6,0 S,0,158248,158936,0.9210526,1.105263 M,0,159628,,416,175 C,0,159628,,89,172,255 F,1,159628,160316,0.6,0 S,0,159628,160316,0.9210526,1.105263 M,0,161007,,263,304 C,0,161007,,0,128,128 F,1,161007,161695,0.6,0 S,0,161007,161695,0.9210526,1.105263 M,0,162990,,373,93 C,0,162990,,154,78,78 F,1,162990,163678,0.6,0 S,0,162990,163678,0.9210526,1.105263 M,0,164714,,186,432 C,0,164714,,89,172,255 F,1,164714,165402,0.6,0 S,0,164714,165402,0.9210526,1.105263 M,0,166179,,486,174 C,0,166179,,0,128,128 F,1,166179,166867,0.5,0 S,0,166179,166867,0.9210526,1.105263 M,0,168248,,113,215 F,0,168248,,0.7 C,0,168248,,154,78,78 M,0,168248,168291,113,215,138.6917,220.0658 S,0,168248,168936,0.9210526,1.105263 M,0,168291,168334,138.6917,220.0658,164.4872,224.5715 M,0,168334,168377,164.4872,224.5715,190.3746,228.515 M,0,168377,168420,190.3746,228.515,216.5888,231.9498 F,1,168420,169108,0.7,0 M,0,169455,,401,254 F,1,169455,170143,0.5,0 S,0,169455,170143,0.9210526,1.105263 M,0,171352,,298,416 F,0,171352,,0.7 C,0,171352,,0,128,128 M,0,171352,171395,298,416,301.7489,390.0833 S,0,171352,172040,0.9210526,1.105263 M,0,171395,171438,301.7489,390.0833,305.9749,364.2401 M,0,171438,171481,305.9749,364.2401,310.6766,338.4793 M,0,171481,171524,310.6766,338.4793,315.8834,312.5587 F,1,171524,172212,0.7,0 M,0,178593,,349,329 C,0,178593,,255,128,128 F,1,178593,179281,0.5,0 S,0,178593,179281,0.9210526,1.105263 M,0,180662,,210,56 F,0,180662,,0.7 C,0,180662,,89,172,255 M,0,180662,180705,210,56,234.913,63.63424 S,0,180662,181350,0.9210526,1.105263 M,0,180705,180748,234.913,63.63424,256.3153,78.43962 M,0,180748,180791,256.3153,78.43962,272.2095,99.01434 M,0,180791,180834,272.2095,99.01434,281.115,123.4212 M,0,180834,180877,281.115,123.4212,282.2042,149.368 M,0,180877,180920,282.2042,149.368,276,174 F,1,180920,181608,0.7,0 M,0,182731,,341,205 F,0,182731,,0.7 C,0,182731,,0,128,128 M,0,182731,182774,341,205,336.5415,230.8046 S,0,182731,183419,0.9210526,1.105263 M,0,182774,182817,336.5415,230.8046,331.8868,256.5745 M,0,182817,182860,331.8868,256.5745,327.036,282.3082 M,0,182860,182903,327.036,282.3082,322,308 M,0,182903,182946,322,308,326.9405,282.803 M,0,182946,182989,326.9405,282.803,331.7947,257.07 M,0,182989,183032,331.7947,257.07,336.453,231.3008 M,0,183032,183075,336.453,231.3008,341,205 F,1,183075,183763,0.7,0 M,0,185145,,224,367 C,0,185145,,154,78,78 F,1,185145,185833,0.5,0 S,0,185145,185833,0.9210526,1.105263 M,0,186524,,225,90 C,0,186524,,89,172,255 F,1,186524,187212,0.5,0 S,0,186524,187212,0.9210526,1.105263
Sprite,Overlay,Centre,"sb\4.png",0,0 M,0,135490,,73,363 C,0,135490,,255,128,128 P,0,135490,,A M,0,135490,135533,73,363,74.82933,343.8838 S,0,135490,136178,0.9210526,1.105263 M,0,135533,135576,74.82933,343.8838,76.92657,324.7953 M,0,135576,135619,76.92657,324.7953,79.29137,305.7381 M,0,135619,135662,79.29137,305.7381,81.92443,286.5294 F,1,135662,136350,0.6,0 M,0,141524,,64,357 F,1,141524,142212,0.4,0 S,0,141524,142212,0.9210526,1.105263 M,0,142904,,137,209 C,0,142904,,89,172,255 F,1,142904,143592,0.4,0 S,0,142904,143592,0.9210526,1.105263 M,0,146007,,225,380 C,0,146007,,255,128,128 F,1,146007,146695,0.6,0 S,0,146007,146695,0.9210526,1.105263 M,0,147904,,205,274 F,0,147904,,0.8 C,0,147904,,89,172,255 M,0,147904,147947,205,274,179.165,270.6116 S,0,147904,148592,0.9210526,1.105263 M,0,147947,147990,179.165,270.6116,153.5326,275.096 M,0,147990,148033,153.5326,275.096,130.436,287.028 M,0,148033,148076,130.436,287.028,111.549,305.312 F,1,148076,148764,0.8,0 M,0,148766,,334,66 F,1,148766,149454,0.6,0 S,0,148766,149454,0.9210526,1.105263 M,0,151352,,172,426 F,0,151352,,0.8 C,0,151352,,255,128,128 M,0,151352,151395,172,426,168.6496,400.0287 S,0,151352,152040,0.9210526,1.105263 M,0,151395,151438,168.6496,400.0287,164.8463,374.1199 M,0,151438,151481,164.8463,374.1199,160.5916,348.2815 M,0,151481,151524,160.5916,348.2815,156,323 F,1,151524,152212,0.8,0 M,0,152386,,250,173 C,0,152386,,154,78,78 F,1,152386,153074,0.6,0 S,0,152386,153074,0.9210526,1.105263 M,0,154455,,84,147 F,0,154455,,0.8 C,0,154455,,0,128,128 M,0,154455,154498,84,147,80.10426,172.8954 S,0,154455,155143,0.9210526,1.105263 M,0,154498,154541,80.10426,172.8954,75.89014,198.7409 M,0,154541,154584,75.89014,198.7409,71.35792,224.5324 M,0,154584,154627,71.35792,224.5324,66.45971,250.5134 F,1,154627,155315,0.8,0 M,0,156869,,261,402 C,0,156869,,255,128,128 F,1,156869,157557,0.6,0 S,0,156869,157557,0.9210526,1.105263 M,0,159283,,142,91 F,0,159283,,0.8 C,0,159283,,89,172,255 M,0,159283,159326,142,91,167.7645,95.68422 S,0,159283,159971,0.9210526,1.105263 M,0,159326,159369,167.7645,95.68422,193.5788,100.085 M,0,159369,159412,193.5788,100.085,219.4398,104.2022 M,0,159412,159455,219.4398,104.2022,245,108 F,1,159455,160143,0.8,0 M,0,161524,,263,304 C,0,161524,,255,128,128 F,1,161524,162212,0.6,0 S,0,161524,162212,0.9210526,1.105263 M,0,163248,,480,125 C,0,163248,,154,78,78 F,1,163248,163936,0.6,0 S,0,163248,163936,0.9210526,1.105263 M,0,164800,,186,432 C,0,164800,,89,172,255 F,1,164800,165488,0.6,0 S,0,164800,165488,0.9210526,1.105263 M,0,167214,,441,251 F,0,167214,,0.7 C,0,167214,,255,128,128 M,0,167214,167257,441,251,415.1966,255.466 S,0,167214,167902,0.9210526,1.105263 M,0,167257,167300,415.1966,255.466,389.3932,259.9319 M,0,167300,167343,389.3932,259.9319,363.5899,264.3979 M,0,167343,167386,363.5899,264.3979,337.5382,268.9069 F,1,167386,168074,0.7,0 M,0,168593,,251,258 C,0,168593,,154,78,78 F,1,168593,169281,0.5,0 S,0,168593,169281,0.9210526,1.105263 M,0,178938,,437,104 F,0,178938,,0.7 C,0,178938,,255,128,128 M,0,178938,178981,437,104,453.4146,124.2232 S,0,178938,179626,0.9210526,1.105263 M,0,178981,179024,453.4146,124.2232,462.8137,148.4736 M,0,179024,179067,462.8137,148.4736,464.3108,174.4123 M,0,179067,179110,464.3108,174.4123,458.0268,199.9301 F,1,179110,179798,0.7,0 M,0,181007,,204,208 F,0,181007,,0.7 C,0,181007,,89,172,255 M,0,181007,181050,204,208,178.307,202.938 S,0,181007,181695,0.9210526,1.105263 M,0,181050,181093,178.307,202.938,152.5687,198.112 M,0,181093,181136,152.5687,198.112,126.7872,193.5225 M,0,181136,181179,126.7872,193.5225,100.7177,189.1184 F,1,181179,181867,0.7,0 M,0,185490,,309,242 C,0,185490,,154,78,78 F,1,185490,186178,0.5,0 S,0,185490,186178,0.9210526,1.105263 M,0,186869,,440,181 C,0,186869,,89,172,255 F,1,186869,187557,0.5,0 S,0,186869,187557,0.9210526,1.105263
Sprite,Overlay,Centre,"sb\4.png",0,0 M,0,135921,,281,204 C,0,135921,,255,128,128 P,0,135921,,A F,1,135921,136609,0.4,0 S,0,135921,136609,0.9210526,1.105263 M,0,141697,,190,233 F,1,141697,142385,0.4,0 S,0,141697,142385,0.9210526,1.105263 M,0,143076,,102,118 F,0,143076,,0.6 C,0,143076,,89,172,255 M,0,143076,143119,102,118,104.9951,99.0312 S,0,143076,143764,0.9210526,1.105263 M,0,143119,143162,104.9951,99.0312,107.9901,80.06239 M,0,143162,143205,107.9901,80.06239,105.0239,98.84866 M,0,143205,143248,105.0239,98.84866,102.0288,117.8175 M,0,143248,143291,102.0288,117.8175,104.9662,99.21374 M,0,143291,143334,104.9662,99.21374,108,80 F,1,143334,144022,0.6,0 M,0,146179,,317,363 C,0,146179,,154,78,78 F,1,146179,146867,0.6,0 S,0,146179,146867,0.9210526,1.105263 M,0,149455,,382,151 C,0,149455,,0,128,128 F,1,149455,150143,0.6,0 S,0,149455,150143,0.9210526,1.105263 M,0,152473,,250,173 C,0,152473,,154,78,78 F,1,152473,153161,0.6,0 S,0,152473,153161,0.9210526,1.105263 M,0,157559,,328,333 F,1,157559,158247,0.6,0 S,0,157559,158247,0.9210526,1.105263 M,0,161697,,408,357 F,0,161697,,0.8 C,0,161697,,255,128,128 M,0,161697,161740,408,357,433.6472,351.7131 S,0,161697,162385,0.9210526,1.105263 M,0,161740,161783,433.6472,351.7131,459.3966,346.9502 M,0,161783,161826,459.3966,346.9502,485.2377,342.7134 M,0,161826,161869,485.2377,342.7134,511,339 F,1,161869,162557,0.8,0 M,0,163421,,294,220 C,0,163421,,154,78,78 F,1,163421,164109,0.6,0 S,0,163421,164109,0.9210526,1.105263 M,0,164886,,232,438 C,0,164886,,89,172,255 F,1,164886,165574,0.6,0 S,0,164886,165574,0.9210526,1.105263 M,0,169628,,513,94 F,0,169628,,0.7 M,0,169628,169671,513,94,538.3708,99.49455 S,0,169628,170316,0.9210526,1.105263 M,0,169671,169714,538.3708,99.49455,559.4607,114.532 M,0,169714,169757,559.4607,114.532,572.8696,136.6415 M,0,169757,169800,572.8696,136.6415,576.4449,162.2195 M,0,169800,169843,576.4449,162.2195,569.6246,187.1106 M,0,169843,169886,569.6246,187.1106,553.5249,207.8556 F,1,169886,170574,0.7,0 M,0,185576,,309,242 C,0,185576,,154,78,78 F,1,185576,186264,0.5,0 S,0,185576,186264,0.9210526,1.105263 M,0,186955,,465,176 C,0,186955,,89,172,255 F,1,186955,187643,0.5,0 S,0,186955,187643,0.9210526,1.105263
Sprite,Overlay,Centre,"sb\4.png",0,0 M,0,136007,,304,164 C,0,136007,,255,128,128 P,0,136007,,A F,1,136007,136695,0.4,0 S,0,136007,136695,0.9210526,1.105263 M,0,141869,,223,406 F,1,141869,142557,0.4,0 S,0,141869,142557,0.9210526,1.105263 M,0,146352,,180,302 C,0,146352,,154,78,78 F,1,146352,147040,0.6,0 S,0,146352,147040,0.9210526,1.105263 M,0,152559,,250,173 F,1,152559,153247,0.6,0 S,0,152559,153247,0.9210526,1.105263 M,0,157731,,395,267 F,1,157731,158419,0.6,0 S,0,157731,158419,0.9210526,1.105263 M,0,163507,,294,220 F,1,163507,164195,0.6,0 S,0,163507,164195,0.9210526,1.105263 M,0,165059,,309,389 C,0,165059,,89,172,255 F,1,165059,165747,0.6,0 S,0,165059,165747,0.9210526,1.105263 M,0,185662,,309,242 C,0,185662,,154,78,78 F,1,185662,186350,0.5,0 S,0,185662,186350,0.9210526,1.105263 M,0,187041,,489,166 C,0,187041,,89,172,255 F,1,187041,187729,0.5,0 S,0,187041,187729,0.9210526,1.105263
Sprite,Overlay,Centre,"sb\4.png",0,0 M,0,136093,,307,118 C,0,136093,,255,128,128 P,0,136093,,A F,1,136093,136781,0.4,0 S,0,136093,136781,0.9210526,1.105263 M,0,142128,,386,294 C,0,142128,,154,78,78 F,1,142128,142816,0.4,0 S,0,142128,142816,0.9210526,1.105263 M,0,152731,,333,330 F,1,152731,153419,0.6,0 S,0,152731,153419,0.9210526,1.105263 M,0,163593,,294,220 F,1,163593,164281,0.6,0 S,0,163593,164281,0.9210526,1.105263 M,0,165145,,321,343 F,0,165145,,0.8 C,0,165145,,89,172,255 M,0,165145,165188,321,343,315.4484,317.5468 S,0,165145,165833,0.9210526,1.105263 M,0,165188,165231,315.4484,317.5468,302.4625,295.0042 M,0,165231,165274,302.4625,295.0042,283.274,277.4753 M,0,165274,165317,283.274,277.4753,259.5424,266.178 F,1,165317,166005,0.8,0 M,0,185835,,220,277 C,0,185835,,154,78,78 F,1,185835,186523,0.5,0 S,0,185835,186523,0.9210526,1.105263 M,0,187214,,529,133 F,0,187214,,0.7 C,0,187214,,89,172,255 M,0,187214,187257,529,133,533.0442,107.1473 S,0,187214,187902,0.9210526,1.105263 M,0,187257,187300,533.0442,107.1473,540.3385,82.01767 M,0,187300,187343,540.3385,82.01767,533.1084,106.9036 M,0,187343,187386,533.1084,106.9036,529,133 F,1,187386,188074,0.7,0
Sprite,Overlay,Centre,"sb\4.png",0,0 M,0,136179,,287,76 C,0,136179,,255,128,128 P,0,136179,,A M,0,136179,136222,287,76,267.8838,77.82933 S,0,136179,136867,0.9210526,1.105263 M,0,136222,136265,267.8838,77.82933,248.7952,79.92657 M,0,136265,136308,248.7952,79.92657,229.7381,82.29137 M,0,136308,136351,229.7381,82.29137,210.5294,84.92443 F,1,136351,137039,0.6,0 M,0,142300,,460,258 C,0,142300,,154,78,78 F,1,142300,142988,0.4,0 S,0,142300,142988,0.9210526,1.105263 M,0,152904,,465,225 F,1,152904,153592,0.6,0 S,0,152904,153592,0.9210526,1.105263 M,0,163766,,382,253 F,1,163766,164454,0.6,0 S,0,163766,164454,0.9210526,1.105263 M,0,165835,,363,159 F,0,165835,,0.7 C,0,165835,,0,128,128 M,0,165835,165878,363,159,358.6504,133.1769 S,0,165835,166523,0.9210526,1.105263 M,0,165878,165921,358.6504,133.1769,354.0638,107.3948 M,0,165921,165964,354.0638,107.3948,349.2412,81.6559 M,0,165964,166007,349.2412,81.6559,344.143,55.71323 F,1,166007,166695,0.7,0 M,0,186007,,218,182 C,0,186007,,154,78,78 F,1,186007,186695,0.5,0 S,0,186007,186695,0.9210526,1.105263
Sprite,Overlay,Centre,"sb\4.png",0,0 M,0,142817,,186,225 C,0,142817,,89,172,255 P,0,142817,,A F,1,142817,143505,0.4,0 S,0,142817,143505,0.9210526,1.105263 M,0,186783,,414,182 F,1,186783,187471,0.5,0 S,0,186783,187471,0.9210526,1.105263
Sprite,Overlay,Centre,"sb\4.png",0,0 M,0,142990,,107,168 C,0,142990,,89,172,255 P,0,142990,,A F,1,142990,143678,0.4,0 S,0,142990,143678,0.9210526,1.105263 M,0,187128,,510,151 F,1,187128,187816,0.5,0 S,0,187128,187816,0.9210526,1.105263
Sprite,Overlay,Centre,"sb\5.png",0,0 M,0,44110,,522,383 P,0,44110,,A S,1,44110,50990,0.2,3 F,19,44110,52366,1,0 M,0,55145,,322,247 S,1,55145,62025,0.2,3 F,19,55145,63401,1,0 M,0,66179,,198,421 S,1,66179,73059,0.2,3 F,19,66179,74435,1,0 M,0,77214,,403,188 S,1,77214,84094,0.2,3 F,19,77214,85470,1,0 M,0,88248,,509,77 F,19,88248,93752,1,0 S,7,88248,93752,0.2,2
Sprite,Overlay,Centre,"sb\5.png",0,0 M,0,132386,,102,375 P,0,132386,,A S,1,132386,139266,0.2,3 F,19,132386,140642,1,0 M,0,143421,,158,94 S,1,143421,150301,0.2,3 F,19,143421,151677,1,0 M,0,154455,,84,147 S,1,154455,161335,0.2,3 F,19,154455,162711,1,0 M,0,165490,,191,219 S,1,165490,172370,0.2,3 F,19,165490,173746,1,0 M,0,187559,,571,235 S,1,187559,194439,0.2,3 F,19,187559,195815,1,0
Sprite,Overlay,Centre,"sb\5.png",0,0 M,0,60662,,254,392 P,0,60662,,A F,19,60662,66166,1,0 S,7,60662,66166,0.2,2 M,0,71697,,235,337 F,19,71697,77201,1,0 S,7,71697,77201,0.2,2
Sprite,Overlay,Centre,"sb\5.png",0,0 M,0,148938,,442,232 P,0,148938,,A F,19,148938,154442,1,0 S,7,148938,154442,0.2,2 M,0,159973,,263,304 F,19,159973,165477,1,0 S,7,159973,165477,0.2,2 M,0,176524,,392,417 F,19,176524,182028,1,0 S,7,176524,182028,0.2,2
//Storyboard Sound Samples

[TimingPoints]
-27,344.827586206897,4,1,0,100,1,0
11007,-125,4,2,1,50,0,0
33076,-125,4,2,1,60,0,0
44110,-90.9090909090909,4,2,1,70,0,0
55145,-66.6666666666667,4,2,2,90,0,1
64800,-55.5555555555556,4,2,2,90,0,1
66179,-66.6666666666667,4,2,2,90,0,1
77214,-66.6666666666667,4,2,2,80,0,0
110317,-125,4,2,1,50,0,0
121352,-125,4,2,1,60,0,0
132386,-90.9090909090909,4,2,1,70,0,0
143421,-66.6666666666667,4,2,2,90,0,1
153076,-55.5555555555556,4,2,2,90,0,1
154455,-66.6666666666667,4,2,2,90,0,1
165490,-66.6666666666667,4,2,2,80,0,0

[Colours]
Combo1 : 0,128,128
Combo2 : 255,128,128
Combo3 : 154,78,78
Combo4 : 89,172,255

[HitObjects]
24,51,11007,6,0,B|79:26|140:51|110:89|175:101|234:79,1,224,6|8,0:0|0:0,0:0:0:0:
234,79,12041,1,2,0:0:0:0:
327,113,12386,2,0,P|323:163|313:292,1,168,0|0,3:0|0:0,0:0:0:0:
394,256,13076,2,0,P|421:251|449:246,1,56,2|2,0:0|0:0,0:0:0:0:
316,307,13421,2,0,P|288:311|260:316,1,56,2|2,0:0|0:0,0:0:0:0:
149,337,13766,6,0,P|84:314|88:178,1,224,2|8,3:2|0:0,0:0:0:0:
177,134,14800,1,2,0:0:0:0:
103,65,15145,1,0,3:0:0:0:
103,65,15317,1,0,0:0:0:0:
177,134,15490,1,2,0:0:0:0:
228,14,15662,1,0,0:0:0:0:
228,14,15835,2,0,P|232:41|237:69,1,56,2|2,0:0|0:0,0:0:0:0:
309,125,16179,2,0,P|313:97|318:69,1,56,2|2,0:0|0:0,0:0:0:0:
225,169,16524,6,0,P|228:208|383:233,1,224,2|8,3:2|0:0,0:0:0:0:
376,240,17559,1,2,0:0:0:0:
362,140,17904,1,2,3:2:0:0:
457,108,18248,1,2,0:0:0:0:
457,108,18421,1,0,0:0:0:0:
382,57,18593,2,0,P|386:29|391:1,1,56,10|0,0:0|0:0,0:0:0:0:
362,140,18938,2,0,P|366:167|371:195,1,56,2|0,0:0|0:0,0:0:0:0:
290,86,19283,6,0,P|219:77|64:56,1,224,2|0,3:2|0:0,0:0:0:0:
67,56,20317,1,0,0:0:0:0:
23,134,20490,1,0,0:0:0:0:
116,200,20662,2,0,P|111:172|106:144,1,56,0|0,3:0|3:0,0:0:0:0:
35,226,21179,1,0,0:0:0:0:
35,226,21352,2,0,P|30:253|25:281,1,56,8|0,0:0|3:0,0:0:0:0:
168,291,21697,2,0,P|140:286|112:281,1,56
222,355,22041,6,0,B|277:380|338:355|308:317|373:305|432:327,1,224,2|8,3:2|0:0,0:0:0:0:
432,327,23076,1,2,0:0:0:0:
420,238,23421,2,0,P|425:195|440:63,1,168,0|0,3:0|0:0,0:0:0:0:
336,45,24110,2,0,P|340:72|346:100,1,56,10|2,0:0|0:0,0:0:0:0:
281,143,24455,1,2,0:0:0:0:
173,109,24628,1,2,0:0:0:0:
204,191,24800,6,0,P|199:218|193:246,2,56,2|0|0,3:2|0:0|0:0,0:0:0:0:
204,191,25490,1,8,0:0:0:0:
173,109,25835,1,2,0:0:0:0:
281,143,26007,1,0,0:0:0:0:
204,191,26179,2,0,P|208:218|214:246,1,56,0|0,3:0|3:0,0:0:0:0:
119,303,26524,2,0,P|124:275|129:247,1,56,2|0,0:0|0:0,0:0:0:0:
259,335,26869,2,0,P|232:331|204:325,1,56,10|0,0:0|0:0,0:0:0:0:
214,246,27214,2,0,P|241:250|269:256,1,56,2|0,0:0|0:0,0:0:0:0:
381,337,27559,6,0,P|438:348|493:215,1,224,2|8,3:2|0:0,0:0:0:0:
413,186,28593,1,2,0:0:0:0:
413,186,28766,1,0,0:0:0:0:
485,133,28938,1,2,3:2:0:0:
485,133,29283,2,0,P|479:105|474:77,1,56,2|2,0:0|0:0,0:0:0:0:
385,67,29628,1,8,0:0:0:0:
367,152,29800,2,0,P|372:124|377:96,1,56,2|2,0:0|0:0,0:0:0:0:
298,24,30145,1,0,0:0:0:0:
243,179,30317,6,0,P|235:131|212:4,1,168,0|0,3:0|0:0,0:0:0:0:
134,61,31007,2,0,P|106:56|78:51,1,56,8|0,0:0|0:0,0:0:0:0:
97,137,31352,2,0,P|125:142|153:147,1,56
31,197,31697,1,0,3:0:0:0:
31,197,32386,2,0,P|35:237|42:311,2,112,2|2|4,0:0|0:0|0:0,0:0:0:0:
256,192,42041,12,0,43766,0:0:0:0:
458,327,44110,6,0,P|410:321|358:315,1,77.0000023498536,4|0,1:2|0:0,0:0:0:0:
291,221,44455,2,0,P|329:225|367:230,1,77.0000023498536,0|0,1:0|0:0,0:0:0:0:
466,186,44800,2,0,P|486:130|395:69,1,154.000004699707,0|0,1:0|1:0,0:0:0:0:
317,34,45317,1,0,0:0:0:0:
317,34,45404,1,0,0:0:0:0:
317,34,45490,6,0,P|321:72|326:110,1,77.0000023498536,0|0,1:0|0:0,0:0:0:0:
166,104,45835,2,0,P|127:99|89:94,1,77.0000023498536,0|0,1:0|0:0,0:0:0:0:
253,227,46179,2,0,P|249:189|244:151,1,77.0000023498536,0|0,1:0|0:0,0:0:0:0:
12,179,46524,2,0,P|50:183|88:188,1,77.0000023498536,0|0,1:0|0:0,0:0:0:0:
71,338,46869,5,0,1:0:0:0:
101,344,46955,1,0,0:0:0:0:
131,342,47041,1,0,0:0:0:0:
160,333,47128,1,0,0:0:0:0:
181,311,47214,2,0,P|175:272|171:234,1,77.0000023498536,0|0,1:0|0:0,0:0:0:0:
288,120,47559,1,0,1:0:0:0:
312,85,47645,1,0,0:0:0:0:
348,63,47731,1,0,0:0:0:0:
390,60,47817,1,0,0:0:0:0:
428,79,47904,2,0,P|422:118|418:156,1,77.0000023498536,0|0,1:0|0:0,0:0:0:0:
359,310,48248,6,0,P|398:304|436:300,1,77.0000023498536,0|0,1:0|0:0,0:0:0:0:
273,349,48593,2,0,P|234:355|196:359,1,77.0000023498536,0|0,1:0|0:0,0:0:0:0:
35,312,48938,2,0,P|15:256|106:195,1,154.000004699707,0|0,1:0|1:0,0:0:0:0:
251,235,49455,1,0,0:0:0:0:
251,235,49541,1,0,0:0:0:0:
251,235,49628,6,0,P|245:196|241:158,1,77.0000023498536,0|0,1:0|0:0,0:0:0:0:
138,24,49973,2,0,P|144:63|148:101,1,77.0000023498536,0|0,1:0|0:0,0:0:0:0:
321,118,50317,2,0,P|379:107|386:-1,1,154.000004699707,0|0,1:0|1:0,0:0:0:0:
262,20,50835,1,0,0:0:0:0:
262,20,50921,1,0,0:0:0:0:
262,20,51007,6,0,P|223:26|185:30,1,77.0000023498536,0|0,1:0|0:0,0:0:0:0:
102,88,51352,2,0,P|63:94|25:98,1,77.0000023498536,0|0,1:0|0:0,0:0:0:0:
194,154,51697,2,0,P|233:160|271:164,1,77.0000023498536,0|0,1:0|0:0,0:0:0:0:
353,227,52041,2,0,P|392:233|430:237,1,77.0000023498536,0|0,1:0|0:0,0:0:0:0:
281,292,52386,5,0,3:0:0:0:
124,222,52559,1,0,3:0:0:0:
176,313,52731,1,0,3:0:0:0:
291,187,52904,1,0,3:0:0:0:
202,38,53076,1,0,3:0:0:0:
194,144,53248,1,0,3:0:0:0:
365,105,53421,1,0,3:0:0:0:
308,13,53593,1,0,3:0:0:0:
474,48,53766,5,0,1:0:0:0:
494,75,53852,1,0,3:0:0:0:
506,107,53938,1,0,3:0:0:0:
504,141,54024,1,0,3:0:0:0:
496,174,54110,2,0,P|475:199|463:208,1,38.5000011749268,0|0,1:0|3:0,0:0:0:0:
436,309,54283,2,0,P|421:295|410:280,1,38.5000011749268,0|0,3:0|3:0,0:0:0:0:
316,335,54455,5,0,1:0:0:0:
269,337,54541,1,0,3:0:0:0:
224,322,54628,1,0,3:0:0:0:
198,283,54714,1,0,3:0:0:0:
195,236,54800,2,0,P|205:203|208:193,3,38.5000011749268,8|8|8|8,0:0|0:0|0:0|0:0,0:0:0:0:
258,191,55145,6,0,P|250:135|241:74,1,105.000004005432,4|0,3:2|0:0,0:0:0:0:
340,126,55490,1,10,0:0:0:0:
340,126,55662,1,2,0:0:0:0:
133,32,55835,2,0,P|125:83|117:135,1,105.000004005432,2|2,0:0|3:2,0:0:0:0:
195,299,56179,2,0,P|143:331|82:326,1,105.000004005432,10|2,0:0|0:0,0:0:0:0:
34,183,56524,5,2,3:2:0:0:
121,240,56697,1,0,0:0:0:0:
133,32,56869,2,0,P|184:24|236:15,1,105.000004005432,8|0,0:0|0:0,0:0:0:0:
359,128,57214,1,2,0:0:0:0:
359,128,57386,1,0,3:0:0:0:
441,62,57559,1,8,0:0:0:0:
340,31,57731,1,0,0:0:0:0:
284,188,57904,6,0,P|326:217|378:220,1,105.000004005432,2|0,3:2|0:0,0:0:0:0:
409,366,58248,2,0,P|460:357|512:348,1,105.000004005432,8|0,0:0|0:0,0:0:0:0:
512,116,58593,2,0,P|460:118|417:147,1,105.000004005432,0|0,0:0|3:0,0:0:0:0:
213,293,58938,2,0,P|264:302|316:311,1,105.000004005432,8|0,0:0|0:0,0:0:0:0:
204,127,59283,6,0,P|195:75|186:24,2,105.000004005432,0|0|8,3:0|0:0|0:0,0:0:0:0:
292,69,59800,1,0,0:0:0:0:
156,239,59973,1,2,0:0:0:0:
156,239,60145,1,2,3:2:0:0:
106,84,60317,1,10,0:0:0:0:
300,186,60490,1,2,0:0:0:0:
190,336,60662,6,0,P|138:327|86:317,1,105.000004005432,4|0,0:0|0:0,0:0:0:0:
278,286,61007,1,10,0:0:0:0:
278,286,61179,1,2,0:0:0:0:
204,127,61352,1,2,0:0:0:0:
385,236,61524,1,2,3:2:0:0:
489,94,61697,2,0,P|487:42|458:-1,1,105.000004005432,10|2,0:0|0:0,0:0:0:0:
249,31,62041,5,2,3:2:0:0:
204,127,62214,1,0,0:0:0:0:
136,46,62386,1,8,0:0:0:0:
83,137,62559,1,0,0:0:0:0:
18,54,62731,1,2,0:0:0:0:
204,127,62904,1,0,3:0:0:0:
39,229,63076,1,8,0:0:0:0:
134,271,63248,1,0,0:0:0:0:
11,380,63421,6,0,P|62:371|114:362,1,105.000004005432,2|0,3:2|0:0,0:0:0:0:
361,309,63766,1,8,0:0:0:0:
361,309,63938,1,0,0:0:0:0:
198,211,64110,2,0,P|249:219|301:228,1,105.000004005432,0|0,0:0|3:0,0:0:0:0:
452,261,64455,1,8,0:0:0:0:
452,261,64628,1,0,0:0:0:0:
300,136,64800,5,2,3:2:0:0:
453,30,64973,1,2,0:3:0:0:
453,30,65059,1,0,0:0:0:0:
453,30,65145,1,8,0:0:0:0:
402,120,65317,1,2,0:3:0:0:
507,282,65490,1,2,0:0:0:0:
507,282,65576,1,0,0:0:0:0:
507,282,65662,1,2,3:3:0:0:
350,362,65835,2,0,P|270:348|190:335,1,125.999996154785,10|0,0:0|0:0,0:0:0:0:
134,365,66093,1,0,0:0:0:0:
134,365,66179,6,0,P|113:317|120:266,1,105.000004005432,4|0,3:2|0:0,0:0:0:0:
226,97,66524,1,10,0:0:0:0:
226,97,66697,1,2,0:0:0:0:
139,155,66869,1,2,0:0:0:0:
91,61,67041,1,2,3:2:0:0:
35,198,67214,1,10,0:0:0:0:
191,272,67386,1,2,0:0:0:0:
265,132,67559,6,0,P|257:81|248:29,1,105.000004005432,2|0,3:2|0:0,0:0:0:0:
388,203,67904,2,0,P|379:254|370:306,1,105.000004005432,8|0,0:0|0:0,0:0:0:0:
468,342,68248,1,2,0:0:0:0:
292,242,68421,1,2,3:2:0:0:
186,344,68593,1,10,0:0:0:0:
90,299,68766,1,2,0:0:0:0:
173,235,68938,5,2,3:2:0:0:
173,235,69110,1,0,0:0:0:0:
80,185,69283,1,8,0:0:0:0:
80,185,69455,1,0,0:0:0:0:
173,135,69628,2,0,P|164:83|154:31,1,105.000004005432,0|0,0:0|3:0,0:0:0:0:
361,143,69973,2,0,P|319:174|268:180,1,105.000004005432,8|0,0:0|0:0,0:0:0:0:
365,52,70317,5,0,3:0:0:0:
443,20,70490,1,0,0:0:0:0:
442,103,70662,1,8,0:0:0:0:
361,143,70835,1,0,0:0:0:0:
255,45,71007,1,2,0:0:0:0:
443,20,71179,1,2,3:2:0:0:
409,224,71352,1,10,0:0:0:0:
274,139,71524,1,2,0:0:0:0:
171,281,71697,6,0,P|179:332|188:384,1,105.000004005432,4|0,3:2|0:0,0:0:0:0:
399,320,72041,2,0,P|347:311|295:302,1,105.000004005432,10|2,0:0|0:0,0:0:0:0:
171,281,72386,1,2,0:0:0:0:
250,211,72559,1,2,3:2:0:0:
188,126,72731,1,10,0:0:0:0:
188,126,72904,1,2,0:0:0:0:
307,22,73076,6,0,P|299:73|290:125,2,105.000004005432,2|0|8,3:2|0:0|0:0,0:0:0:0:
468,166,73593,1,0,0:0:0:0:
370,206,73766,2,0,P|378:257|387:309,2,105.000004005432,2|0|8,0:0|3:0|0:0,0:0:0:0:
386,106,74283,1,0,0:0:0:0:
269,255,74455,5,2,3:2:0:0:
233,166,74628,1,0,0:0:0:0:
233,166,74714,1,0,0:0:0:0:
233,166,74800,1,2,0:0:0:0:
147,227,74973,1,2,0:0:0:0:
362,281,75145,1,2,0:0:0:0:
362,281,75231,1,0,0:0:0:0:
362,281,75317,1,2,0:0:0:0:
287,355,75490,1,2,0:0:0:0:
269,255,75662,1,2,0:0:0:0:
156,344,75835,6,0,P|104:340|61:311,1,105.000004005432,2|2,0:3|0:3,0:0:0:0:
86,216,76093,1,2,0:3:0:0:
86,216,76179,2,0,P|77:164|68:112,1,105.000004005432,2|2,0:3|0:3,0:0:0:0:
12,46,76438,1,0,0:0:0:0:
12,46,76524,1,2,0:3:0:0:
62,30,76610,1,2,0:3:0:0:
112,44,76697,1,2,0:3:0:0:
147,82,76783,1,2,0:3:0:0:
157,133,76869,2,0,P|200:161|251:165,1,105.000004005432,8|2,0:0|0:3,0:0:0:0:
339,132,77128,1,2,0:3:0:0:
339,132,77214,6,0,P|382:104|445:110,1,105.000004005432,6|2,3:2|0:0,0:0:0:0:
490,168,77473,1,0,0:0:0:0:
490,168,77559,2,0,P|481:218|472:271,1,105.000004005432,10|0,0:0|0:0,0:0:0:0:
311,292,77904,1,2,0:0:0:0:
311,292,78076,1,0,3:0:0:0:
499,348,78248,2,0,P|450:375|385:360,1,105.000004005432,8|0,0:0|0:0,0:0:0:0:
127,349,78593,6,0,P|178:357|230:367,1,105.000004005432,2|0,3:2|0:0,0:0:0:0:
191,271,78852,1,2,0:0:0:0:
191,271,78938,2,0,P|139:261|87:252,1,105.000004005432,10|0,0:0|0:0,0:0:0:0:
34,86,79283,1,2,0:0:0:0:
34,86,79455,1,0,3:0:0:0:
172,9,79628,2,0,P|180:60|190:112,1,105.000004005432,8|0,0:0|0:0,0:0:0:0:
342,73,79973,6,0,P|391:100|456:85,1,105.000004005432,2|0,3:2|0:0,0:0:0:0:
476,66,80231,1,2,0:0:0:0:
476,66,80317,1,10,0:0:0:0:
416,198,80490,1,0,0:0:0:0:
223,95,80662,1,2,0:0:0:0:
223,95,80835,1,0,3:0:0:0:
259,232,81007,2,0,P|208:240|156:250,1,105.000004005432,8|0,0:0|0:0,0:0:0:0:
0,330,81352,6,0,B|63:311|119:338|77:361|142:385|211:364,1,210.000008010865,2|10,3:2|0:0,0:0:0:0:
344,229,81869,1,0,0:0:0:0:
158,283,82041,1,2,0:0:0:0:
344,229,82214,1,0,3:0:0:0:
233,168,82386,2,0,P|242:219|251:271,1,105.000004005432,10|0,0:0|0:0,0:0:0:0:
421,155,82731,5,2,3:2:0:0:
61,226,83076,2,0,P|70:174|79:122,1,105.000004005432,10|0,0:0|0:0,0:0:0:0:
40,11,83421,1,0,0:0:0:0:
175,149,83593,2,0,P|183:97|193:45,1,105.000004005432,0|8,3:0|0:0,0:0:0:0:
193,45,83938,1,0,0:0:0:0:
293,161,84110,6,0,P|362:174|449:190,1,157.500006008148,2|2,3:2|0:0,0:0:0:0:
504,131,84455,2,0,P|495:79|485:27,1,105.000004005432,10|0,0:0|0:0,0:0:0:0:
294,255,84800,2,0,P|284:306|275:358,1,105.000004005432,2|0,0:0|3:0,0:0:0:0:
57,188,85145,2,0,P|48:136|38:84,1,105.000004005432,10|0,0:0|0:0,0:0:0:0:
153,16,85490,6,0,P|209:48|203:158,1,157.500006008148,2|0,3:2|0:0,0:0:0:0:
161,207,85835,2,0,P|109:197|57:188,1,105.000004005432,8|0,0:0|0:0,0:0:0:0:
251,282,86179,1,0,0:0:0:0:
251,282,86352,1,0,3:0:0:0:
4,328,86524,2,0,P|55:318|107:309,1,105.000004005432,10|0,0:0|0:0,0:0:0:0:
360,238,86869,6,0,P|317:183|214:201,1,157.500006008148,2|0,3:2|0:0,0:0:0:0:
189,257,87214,2,0,P|199:308|208:360,1,105.000004005432,8|0,0:0|0:0,0:0:0:0:
332,321,87559,1,2,0:0:0:0:
451,270,87731,1,0,3:0:0:0:
318,161,87904,1,10,0:0:0:0:
445,21,88076,1,0,0:0:0:0:
445,21,88162,1,0,0:0:0:0:
445,21,88248,6,0,P|394:29|342:39,1,105.000004005432,6|0,3:2|0:0,0:0:0:0:
269,86,88507,1,2,0:0:0:0:
269,86,88593,2,0,P|217:77|165:67,1,105.000004005432,10|0,0:0|0:0,0:0:0:0:
7,34,88938,1,2,0:0:0:0:
110,153,89110,1,0,3:0:0:0:
0,234,89283,2,0,P|52:243|104:253,1,105.000004005432,8|0,0:0|0:0,0:0:0:0:
174,344,89628,6,0,P|225:348|270:322,1,105.000004005432,2|0,3:2|0:0,0:0:0:0:
307,242,89886,1,2,0:0:0:0:
307,242,89973,2,0,P|298:190|288:138,1,105.000004005432,10|0,0:0|0:0,0:0:0:0:
252,16,90317,1,2,0:0:0:0:
459,79,90490,1,0,3:0:0:0:
252,16,90662,2,0,P|200:24|148:34,1,105.000004005432,8|0,0:0|0:0,0:0:0:0:
20,206,91007,6,0,P|58:140|134:136,1,157.500006008148,2|2,3:2|0:0,0:0:0:0:
134,136,91352,1,10,0:0:0:0:
122,295,91524,1,0,0:0:0:0:
292,238,91697,2,0,P|283:186|273:134,1,105.000004005432,2|0,0:0|3:0,0:0:0:0:
201,234,92041,2,0,P|209:285|219:337,1,105.000004005432,8|0,0:0|0:0,0:0:0:0:
464,276,92386,6,0,P|445:166|424:57,1,210.000008010865,2|10,3:2|0:0,0:0:0:0:
360,179,92904,1,0,0:0:0:0:
298,62,93076,1,2,0:0:0:0:
298,62,93248,1,0,3:0:0:0:
136,216,93421,2,0,P|145:164|154:112,1,105.000004005432,10|0,0:0|0:0,0:0:0:0:
401,209,93766,5,2,3:2:0:0:
76,27,94110,2,0,P|66:78|57:130,1,105.000004005432,10|0,0:0|0:0,0:0:0:0:
271,89,94455,1,0,0:0:0:0:
32,234,94628,2,0,P|83:225|135:215,1,105.000004005432,0|8,3:0|0:0,0:0:0:0:
154,109,94973,1,0,0:0:0:0:
248,343,95145,6,0,P|304:311|298:201,1,157.500006008148,2|2,3:2|0:0,0:0:0:0:
237,239,95490,2,0,P|228:187|218:135,1,105.000004005432,10|0,0:0|0:0,0:0:0:0:
190,0,95835,1,2,0:0:0:0:
190,0,96007,1,0,3:0:0:0:
320,84,96179,1,10,0:0:0:0:
390,26,96352,1,0,0:0:0:0:
423,160,96524,5,2,3:2:0:0:
366,320,96697,1,0,0:0:0:0:
366,320,96783,1,0,0:0:0:0:
366,320,96869,1,2,0:0:0:0:
396,239,97041,1,2,0:0:0:0:
466,384,97214,1,2,0:0:0:0:
466,384,97300,1,0,0:0:0:0:
466,384,97386,1,0,0:0:0:0:
262,338,97559,2,0,P|313:329|365:319,1,105.000004005432,2|2,0:0|0:0,0:0:0:0:
194,261,97904,6,0,P|142:270|90:279,1,105.000004005432,2|2,0:3|0:3,0:0:0:0:
21,200,98162,1,2,0:3:0:0:
21,200,98248,2,0,P|72:191|124:181,1,105.000004005432,2|2,0:3|0:3,0:0:0:0:
210,164,98507,1,2,0:3:0:0:
210,164,98593,2,0,P|216:126|223:88,1,52.5000020027161,2|2,0:3|0:3,0:0:0:0:
309,168,98766,2,0,P|314:193|319:219,1,52.5000020027161,2|2,0:3|0:3,0:0:0:0:
344,295,98938,1,8,0:0:0:0:
480,131,99110,1,0,0:0:0:0:
480,131,99197,1,0,0:0:0:0:
480,131,99283,5,4,0:0:0:0:
25,41,110317,6,0,P|79:46|257:63,1,224,2|0,0:0|0:0,0:0:0:0:
151,201,111352,2,0,P|148:96|247:61,1,224,2|0,0:0|0:0,0:0:0:0:
329,100,112214,1,0,0:0:0:0:
415,77,112386,2,0,P|410:49|405:21,1,56,2|2,0:0|0:0,0:0:0:0:
393,159,112731,2,0,P|397:186|402:214,1,56,2|2,0:0|0:0,0:0:0:0:
413,303,113076,6,0,P|364:300|298:273,1,112,2|0,0:0|0:0,0:0:0:0:
326,190,113593,2,0,P|375:193|441:220,1,112,2|0,0:0|0:0,0:0:0:0:
305,277,114110,1,2,0:0:0:0:
305,277,114283,1,0,0:0:0:0:
238,217,114455,2,0,P|153:221|119:303,2,168
275,135,115662,1,0,0:0:0:0:
191,101,115835,6,0,P|196:73|201:45,2,56,2|0|0,0:0|0:0|0:0,0:0:0:0:
114,144,116352,1,0,0:0:0:0:
114,144,116524,2,0,P|119:172|124:200,1,56
191,101,116869,1,2,0:0:0:0:
191,101,117041,2,0,B|236:89|277:104|257:121|302:140|361:122,1,168,0|2,0:0|0:0,0:0:0:0:
351,124,118248,2,0,P|356:96|361:68,1,56,2|0,0:0|0:0,0:0:0:0:
428,172,118593,5,2,0:0:0:0:
256,192,118679,12,4,121352,0:0:0:0:
256,192,130317,12,0,132041,0:0:0:0:
38,319,132386,6,0,P|76:314|114:309,1,77.0000023498536,4|0,1:2|0:0,0:0:0:0:
235,221,132731,2,0,P|196:225|158:230,1,77.0000023498536,0|0,1:0|0:0,0:0:0:0:
364,337,133076,2,0,P|419:289|402:217,1,154.000004699707,0|0,1:0|1:0,0:0:0:0:
272,67,133593,1,0,0:0:0:0:
272,67,133679,1,0,0:0:0:0:
272,67,133766,6,0,P|267:105|262:143,1,77.0000023498536,0|0,1:0|0:0,0:0:0:0:
372,203,134110,2,0,P|376:164|381:126,1,77.0000023498536,0|0,1:0|0:0,0:0:0:0:
201,218,134455,2,0,P|206:256|211:295,1,77.0000023498536,0|0,1:0|0:0,0:0:0:0:
342,367,134800,2,0,P|337:328|332:290,1,77.0000023498536,0|0,1:0|0:0,0:0:0:0:
144,352,135145,5,0,1:0:0:0:
106,362,135231,1,0,0:0:0:0:
67,358,135317,1,0,0:0:0:0:
33,338,135404,1,0,0:0:0:0:
9,307,135490,2,0,P|13:268|18:230,1,77.0000023498536,0|0,1:0|0:0,0:0:0:0:
178,172,135835,1,0,1:0:0:0:
217,148,135921,1,0,0:0:0:0:
240,108,136007,1,0,0:0:0:0:
243,62,136093,1,0,0:0:0:0:
223,20,136179,2,0,P|184:24|146:29,1,77.0000023498536,0|0,1:0|0:0,0:0:0:0:
283,230,136524,6,0,P|321:225|359:220,1,77.0000023498536,0|0,1:0|0:0,0:0:0:0:
373,49,136869,2,0,P|368:87|363:125,1,77.0000023498536,0|0,1:0|0:0,0:0:0:0:
445,270,137214,2,0,P|396:325|325:308,1,154.000004699707,0|0,1:0|1:0,0:0:0:0:
155,365,137731,1,0,0:0:0:0:
155,365,137817,1,0,0:0:0:0:
155,365,137904,6,0,P|150:327|145:289,1,77.0000023498536,0|0,1:0|0:0,0:0:0:0:
66,126,138248,2,0,P|61:164|56:202,1,77.0000023498536,0|0,1:0|0:0,0:0:0:0:
228,242,138593,2,0,B|314:242|288:270|381:270,1,154.000004699707,0|0,1:0|1:0,0:0:0:0:
466,376,139110,1,0,0:0:0:0:
466,376,139197,1,0,0:0:0:0:
466,376,139283,6,0,P|471:338|476:300,1,77.0000023498536,0|0,1:0|0:0,0:0:0:0:
425,121,139628,2,0,P|430:159|435:197,1,77.0000023498536,0|0,1:0|0:0,0:0:0:0:
316,98,139973,2,0,L|292:171,1,77.0000023498536,0|0,1:0|0:0,0:0:0:0:
220,42,140317,2,0,L|168:98,1,77.0000023498536,0|0,1:0|0:0,0:0:0:0:
15,25,140662,5,0,3:0:0:0:
32,210,140835,1,0,3:0:0:0:
95,56,141007,1,0,3:0:0:0:
101,259,141179,1,0,3:0:0:0:
19,110,141352,1,0,3:0:0:0:
0,301,141524,1,0,3:0:0:0:
126,177,141697,1,0,3:0:0:0:
159,350,141869,1,0,3:0:0:0:
280,233,142041,5,0,1:0:0:0:
322,238,142128,1,0,3:0:0:0:
363,228,142214,1,0,3:0:0:0:
396,202,142300,1,0,3:0:0:0:
409,161,142386,2,0,L|401:116,1,38.5000011749268,0|0,1:0|3:0,0:0:0:0:
282,91,142559,2,0,L|274:46,1,38.5000011749268,0|0,3:0|3:0,0:0:0:0:
172,162,142731,5,0,1:0:0:0:
122,169,142817,1,0,3:0:0:0:
73,153,142904,1,0,3:0:0:0:
43,112,142990,1,0,3:0:0:0:
38,62,143076,2,0,L|44:24,3,38.5000011749268,8|8|8|8,0:0|0:0|0:0|0:0,0:0:0:0:
94,38,143421,6,0,P|145:30|197:22,1,105.000004005432,4|0,3:2|0:0,0:0:0:0:
391,167,143766,1,10,0:0:0:0:
391,167,143938,1,2,3:2:0:0:
157,129,144110,2,0,P|127:171|125:223,1,105.000004005432,2|2,0:0|0:0,0:0:0:0:
229,341,144455,2,0,P|280:344|326:321,1,105.000004005432,10|2,0:0|0:0,0:0:0:0:
391,167,144800,6,0,P|368:120|325:92,1,105.000004005432,2|0,3:2|3:0,0:0:0:0:
260,215,145145,1,8,0:0:0:0:
235,31,145317,1,0,3:0:0:0:
260,215,145490,1,2,0:0:0:0:
176,177,145662,1,0,0:0:0:0:
116,246,145835,1,8,0:0:0:0:
161,324,146007,1,0,0:0:0:0:
253,307,146179,5,2,3:2:0:0:
116,246,146352,1,0,0:0:0:0:
260,215,146524,2,0,P|267:163|276:111,1,105.000004005432,8|0,0:0|3:0,0:0:0:0:
437,129,146869,1,0,0:0:0:0:
437,129,147041,1,0,0:0:0:0:
355,243,147214,2,0,P|363:294|371:346,1,105.000004005432,8|0,0:0|0:0,0:0:0:0:
198,349,147559,5,0,3:0:0:0:
198,349,147731,1,0,3:0:0:0:
141,218,147904,2,0,P|89:219|47:250,1,105.000004005432,8|0,0:0|3:0,0:0:0:0:
241,258,148248,1,2,0:0:0:0:
109,119,148421,1,2,0:0:0:0:
285,182,148593,1,10,0:0:0:0:
270,10,148766,1,2,0:0:0:0:
378,176,148938,6,0,P|429:183|481:192,1,105.000004005432,4|0,3:2|0:0,0:0:0:0:
318,95,149283,1,10,0:0:0:0:
318,95,149455,1,2,3:2:0:0:
241,258,149628,2,0,P|199:288|147:289,1,105.000004005432,2|2,0:0|0:0,0:0:0:0:
350,366,149973,2,0,P|341:314|333:262,1,105.000004005432,10|2,0:0|0:0,0:0:0:0:
433,295,150317,5,2,3:2:0:0:
433,295,150490,1,0,3:0:0:0:
236,247,150662,1,8,0:0:0:0:
319,182,150835,1,0,3:0:0:0:
195,46,151007,2,0,P|202:97|211:149,1,105.000004005432,2|0,0:0|0:0,0:0:0:0:
108,370,151352,2,0,P|101:319|92:267,1,105.000004005432,8|0,0:0|0:0,0:0:0:0:
55,47,151697,5,2,3:2:0:0:
144,200,151869,1,2,0:3:0:0:
144,200,151955,1,0,0:0:0:0:
144,200,152041,1,8,0:0:0:0:
275,94,152214,1,0,3:0:0:0:
186,117,152386,1,0,0:0:0:0:
186,117,152473,1,0,0:0:0:0:
186,117,152559,1,2,0:3:0:0:
269,274,152731,1,8,0:0:0:0:
401,169,152904,1,0,0:0:0:0:
492,322,153076,6,0,L|504:391,2,62.9999980773926,2|0|0,3:2|0:0|3:0,0:0:0:0:
421,284,153335,1,0,0:0:0:0:
404,290,153421,2,0,P|362:230|402:167,1,125.999996154785,8|0,0:0|3:0,0:0:0:0:
108,231,153766,2,0,P|118:184|121:164,1,62.9999980773926,2|2,0:3|0:3,0:0:0:0:
217,193,153938,2,0,P|227:146|230:126,1,62.9999980773926
172,58,154110,2,0,P|105:72|15:90,1,125.999996154785,8|0,0:0|3:0,0:0:0:0:
20,91,154369,1,0,0:0:0:0:
20,91,154455,6,0,P|11:148|0:207,1,105.000004005432,4|0,3:2|0:0,0:0:0:0:
217,193,154800,2,0,P|208:250|197:309,1,105.000004005432,10|2,0:0|3:2,0:0:0:0:
351,25,155145,2,0,P|342:82|331:141,1,105.000004005432,2|2,0:0|0:0,0:0:0:0:
486,281,155490,2,0,P|477:338|466:397,1,105.000004005432,10|2,0:0|0:0,0:0:0:0:
372,341,155835,5,2,3:2:0:0:
428,134,156007,1,0,3:0:0:0:
344,257,156179,2,0,P|287:266|228:277,1,105.000004005432,8|0,0:0|3:0,0:0:0:0:
68,210,156524,1,2,0:0:0:0:
68,210,156697,1,2,0:0:0:0:
197,346,156869,1,10,0:0:0:0:
246,164,157041,1,2,0:0:0:0:
176,244,157214,5,2,3:2:0:0:
176,244,157386,1,0,0:0:0:0:
264,277,157559,1,8,0:0:0:0:
331,211,157731,1,0,3:0:0:0:
404,271,157904,2,0,P|413:214|424:155,1,105.000004005432
437,77,158248,1,8,0:0:0:0:
437,77,158421,1,0,0:0:0:0:
499,210,158593,5,0,3:0:0:0:
499,210,158766,1,0,3:0:0:0:
352,119,158938,2,0,P|300:128|248:136,1,105.000004005432,8|0,0:0|3:0,0:0:0:0:
78,35,159283,2,0,P|129:44|181:52,1,105.000004005432,2|2,0:0|0:0,0:0:0:0:
352,119,159628,1,10,0:0:0:0:
181,52,159800,1,2,0:0:0:0:
199,248,159973,6,0,P|250:247|292:216,1,105.000004005432,4|0,3:2|0:0,0:0:0:0:
134,323,160317,2,0,P|103:281|103:229,1,105.000004005432,10|2,0:0|3:2,0:0:0:0:
245,130,160662,1,2,0:0:0:0:
245,130,160835,1,2,0:0:0:0:
199,248,161007,1,10,0:0:0:0:
173,34,161179,1,2,0:0:0:0:
357,126,161352,5,2,3:2:0:0:
199,248,161524,1,0,3:0:0:0:
344,301,161697,2,0,P|395:291|447:283,1,105.000004005432,8|0,0:0|3:0,0:0:0:0:
512,176,162041,2,0,P|460:185|408:193,2,105.000004005432,2|0|8,0:0|0:0|0:0,0:0:0:0:
341,108,162559,1,0,0:0:0:0:
485,16,162731,5,2,3:2:0:0:
309,37,162904,1,0,0:0:0:0:
309,37,162990,1,0,0:0:0:0:
309,37,163076,1,2,0:0:0:0:
416,69,163248,1,2,0:0:0:0:
230,164,163421,1,2,0:0:0:0:
230,164,163507,1,0,0:0:0:0:
230,164,163593,1,2,0:0:0:0:
318,197,163766,1,2,0:0:0:0:
244,255,163938,1,2,0:0:0:0:
119,130,164110,6,0,P|111:181|102:233,1,105.000004005432,2|2,0:3|0:3,0:0:0:0:
22,249,164369,1,2,0:3:0:0:
22,249,164455,2,0,P|29:300|38:352,1,105.000004005432,2|2,0:3|0:3,0:0:0:0:
122,376,164714,1,0,0:0:0:0:
122,376,164800,1,2,0:3:0:0:
168,382,164886,1,2,0:3:0:0:
213,367,164973,1,2,0:3:0:0:
245,333,165059,1,2,0:3:0:0:
257,287,165145,2,0,P|238:238|195:210,1,105.000004005432,8|2,0:0|0:3,0:0:0:0:
127,163,165404,1,2,0:3:0:0:
127,163,165490,6,0,P|184:164|221:137,1,105.000004005432,6|2,3:2|0:0,0:0:0:0:
299,103,165748,1,0,0:0:0:0:
299,103,165835,2,0,P|290:51|280:-1,1,105.000004005432,10|0,0:0|0:0,0:0:0:0:
422,118,166179,1,2,0:0:0:0:
422,118,166352,1,0,3:0:0:0:
269,210,166524,2,0,P|217:201|165:191,1,105.000004005432,8|0,0:0|0:0,0:0:0:0:
386,282,166869,6,0,P|437:273|489:263,1,105.000004005432,2|0,3:2|0:0,0:0:0:0:
377,195,167128,1,2,0:0:0:0:
377,195,167214,2,0,P|325:204|273:213,1,105.000004005432,10|0,0:0|0:0,0:0:0:0:
454,85,167559,1,2,0:0:0:0:
454,85,167731,1,0,3:0:0:0:
263,12,167904,2,0,P|236:61|251:126,1,105.000004005432,8|0,0:0|0:0,0:0:0:0:
49,159,168248,6,0,P|103:169|153:176,1,105.000004005432,2|0,3:2|0:0,0:0:0:0:
187,202,168507,1,2,0:0:0:0:
187,202,168593,1,10,0:0:0:0:
342,121,168766,1,0,0:0:0:0:
172,306,168938,2,0,P|223:297|275:288,1,105.000004005432,2|0,0:0|3:0,0:0:0:0:
422,345,169283,1,8,0:0:0:0:
337,198,169455,1,0,0:0:0:0:
449,38,169628,6,0,P|513:105|484:156,1,157.500006008148,2|2,3:2|0:0,0:0:0:0:
419,199,169973,2,0,P|367:189|315:180,1,105.000004005432,10|0,0:0|0:0,0:0:0:0:
122,138,170317,1,2,0:0:0:0:
122,138,170490,1,0,3:0:0:0:
224,17,170662,2,0,P|233:68|242:120,1,105.000004005432,10|0,0:0|0:0,0:0:0:0:
20,168,171007,5,2,3:2:0:0:
234,360,171352,2,0,P|242:308|252:256,1,105.000004005432,10|0,0:0|0:0,0:0:0:0:
154,266,171697,1,0,0:0:0:0:
366,296,171869,2,0,P|356:244|347:192,1,105.000004005432,0|8,3:0|0:0,0:0:0:0:
334,98,172214,1,0,0:0:0:0:
133,168,172386,6,0,P|72:163|63:77,1,157.500006008148,2|2,3:2|0:0,0:0:0:0:
127,28,172731,2,0,P|179:38|231:47,1,105.000004005432,10|0,0:0|0:0,0:0:0:0:
450,172,173076,2,0,P|398:182|346:191,1,105.000004005432,0|0,0:0|3:0,0:0:0:0:
89,312,173421,2,0,P|141:322|193:331,1,105.000004005432,10|0,0:0|0:0,0:0:0:0:
461,336,173766,6,0,B|398:317|342:344|384:367|319:391|250:370,1,210.000008010865,2|8,3:2|0:0,0:0:0:0:
346,190,174283,1,0,0:0:0:0:
346,190,174455,2,0,P|397:185|442:211,1,105.000004005432,0|0,0:0|3:0,0:0:0:0:
461,336,174800,2,0,P|410:341|365:315,1,105.000004005432,10|0,0:0|0:0,0:0:0:0:
252,221,175145,6,0,P|258:157|269:50,1,157.500006008148,2|0,3:2|0:0,0:0:0:0:
196,35,175490,2,0,P|144:45|92:54,1,105.000004005432,8|0,0:0|0:0,0:0:0:0:
346,190,175835,2,0,P|398:200|450:209,1,105.000004005432,2|0,0:0|3:0,0:0:0:0:
196,298,176179,2,0,P|144:308|92:317,1,105.000004005432,10|0,0:0|0:0,0:0:0:0:
328,361,176524,6,0,P|319:309|310:258,1,105.000004005432,6|0,3:2|0:0,0:0:0:0:
240,216,176783,1,2,0:0:0:0:
240,216,176869,2,0,P|188:207|136:197,1,105.000004005432,10|0,0:0|0:0,0:0:0:0:
409,128,177214,2,0,P|460:137|512:146,2,105.000004005432,2|0|8,0:0|3:0|0:0,0:0:0:0:
316,107,177731,1,0,0:0:0:0:
205,222,177904,6,0,P|195:170|186:118,1,105.000004005432,2|0,3:2|0:0,0:0:0:0:
115,208,178162,1,2,0:0:0:0:
115,208,178248,2,0,P|123:259|133:311,1,105.000004005432,10|0,0:0|0:0,0:0:0:0:
285,273,178593,1,2,0:0:0:0:
186,118,178766,1,0,3:0:0:0:
373,48,178938,2,0,P|399:92|394:144,1,105.000004005432,8|0,0:0|0:0,0:0:0:0:
491,310,179283,6,0,P|387:290|284:272,1,210.000008010865,2|10,3:2|0:0,0:0:0:0:
181,343,179800,1,0,0:0:0:0:
181,343,179973,1,2,0:0:0:0:
233,182,180145,1,0,3:0:0:0:
66,318,180317,2,0,P|39:273|44:221,1,105.000004005432,8|0,0:0|0:0,0:0:0:0:
146,0,180662,6,0,P|208:42|212:118,1,157.500006008148,2|2,3:2|0:0,0:0:0:0:
140,152,181007,2,0,P|88:142|36:133,1,105.000004005432,10|0,0:0|0:0,0:0:0:0:
152,297,181352,2,0,P|203:305|255:315,1,105.000004005432,2|0,0:0|3:0,0:0:0:0:
420,349,181697,1,10,0:0:0:0:
420,349,181869,1,0,0:0:0:0:
400,256,182041,6,0,P|390:204|381:152,2,105.000004005432,2|0|10,3:2|0:0|0:0,0:0:0:0:
479,161,182559,1,0,0:0:0:0:
277,149,182731,2,0,P|268:200|258:252,2,105.000004005432,0|0|8,0:0|3:0|0:0,0:0:0:0:
479,161,183248,1,0,0:0:0:0:
304,17,183421,6,0,P|238:12|216:102,1,157.500006008148,2|2,3:2|0:0,0:0:0:0:
277,149,183766,2,0,P|328:140|380:130,1,105.000004005432,10|0,0:0|0:0,0:0:0:0:
200,224,184110,2,0,P|251:233|303:243,1,105.000004005432,2|0,0:0|3:0,0:0:0:0:
372,325,184455,2,0,P|320:334|268:344,1,105.000004005432,10|0,0:0|0:0,0:0:0:0:
94,378,184800,5,2,3:2:0:0:
160,311,184973,1,0,0:0:0:0:
160,311,185059,1,0,0:0:0:0:
160,311,185145,1,2,0:0:0:0:
74,271,185317,1,2,0:0:0:0:
245,186,185490,1,2,0:0:0:0:
245,186,185576,1,0,0:0:0:0:
245,186,185662,1,2,0:0:0:0:
156,221,185835,1,2,0:0:0:0:
154,126,186007,1,2,0:0:0:0:
240,88,186179,5,2,0:3:0:0:
161,34,186352,1,2,0:3:0:0:
161,34,186438,1,2,0:3:0:0:
161,34,186524,1,2,0:3:0:0:
325,123,186697,1,2,0:3:0:0:
350,126,186783,1,2,0:3:0:0:
376,125,186869,1,2,0:3:0:0:
401,120,186955,1,2,0:3:0:0:
425,110,187041,1,2,0:3:0:0:
446,95,187128,1,2,0:3:0:0:
465,77,187214,2,0,P|473:36|479:19,2,52.5000020027161,8|0|2,0:0|0:0|0:3,0:0:0:0:
507,179,187559,5,4,0:0:0:0:
