osu file format v14

[General]
AudioFilename: audio.mp3
AudioLeadIn: 0
PreviewTime: 12357
Countdown: 0
SampleSet: Normal
StackLeniency: 0.7
Mode: 0
LetterboxInBreaks: 0
WidescreenStoryboard: 0

[Editor]
DistanceSpacing: 1.1
BeatDivisor: 16
GridSize: 4
TimelineZoom: 1

[Metadata]
Title:
TitleUnicode:Заходит улитка в бар
Artist:Quiizzzmeow
ArtistUnicode:Quiizzzmeow заходишь в бар улитка говорит
Creator:Crown_of_Sin
Version:Hard
Source:
Tags:заходишь в бар улитка говорит
BeatmapID:2972864
BeatmapSetID:1445302

[Difficulty]
HPDrainRate:5
CircleSize:4
OverallDifficulty:6
ApproachRate:6
SliderMultiplier:1.3
SliderTickRate:2

[Events]
//Background and Video events
0,0,"maxresdefault.jpg",0,0
//Break Periods
//Storyboard Layer 0 (Background)
//Storyboard Layer 1 (Fail)
//Storyboard Layer 2 (Pass)
//Storyboard Layer 3 (Foreground)
//Storyboard Layer 4 (Overlay)
//Storyboard Sound Samples

[TimingPoints]
0,454.545454545454,4,1,0,100,1,0

[Colours]
Combo1 : 255,128,255
Combo2 : 255,0,128
Combo3 : 0,255,64
Combo4 : 255,255,128

[HitObjects]
149,151,999,6,0,P|235:80|295:116,1,182
331,165,1817,1,0,0:0:0:0:
356,235,1999,2,0,P|352:296|287:321,1,130
232,316,2635,1,0,0:0:0:0:
180,271,2817,2,0,P|214:165|257:145,1,156
182,57,3999,1,0,0:0:0:0:
344,99,4727,1,0,0:0:0:0:
299,201,5090,1,0,0:0:0:0:
219,274,5426,2,0,P|113:203|131:72,1,268.125
246,61,6988,1,0,0:0:0:0:
390,201,7454,1,0,0:0:0:0:
310,243,7818,1,0,0:0:0:0:
313,164,8181,5,0,0:0:0:0:
338,75,8545,1,0,0:0:0:0:
221,35,8909,1,0,0:0:0:0:
206,139,9272,1,0,0:0:0:0:
167,253,9636,1,0,0:0:0:0:
87,164,9999,1,0,0:0:0:0:
243,196,10818,1,0,0:0:0:0:
240,119,11221,1,0,0:0:0:0:
320,112,11636,1,0,0:0:0:0:
205,211,12363,2,0,P|128:122|183:50,1,208
214,42,13272,5,0,0:0:0:0:
312,139,13818,1,0,0:0:0:0:
211,196,14454,1,0,0:0:0:0:
175,177,14636,1,0,0:0:0:0:
165,141,14818,1,0,0:0:0:0:
174,114,14999,1,0,0:0:0:0:
266,71,15363,2,0,P|368:130|336:242,1,234
330,249,16335,1,0,0:0:0:0:
223,270,16636,2,0,P|164:200|191:148,1,156
153,75,17545,2,0,P|268:92|278:209,1,234
194,217,19272,1,0,0:0:0:0:
167,192,19454,1,0,0:0:0:0:
97,68,19818,1,0,0:0:0:0:
214,45,20142,1,0,0:0:0:0:
250,181,20454,5,0,0:0:0:0:
270,192,20624,1,0,0:0:0:0:
152,180,20909,1,0,0:0:0:0:
150,163,21079,1,0,0:0:0:0:
271,47,21363,2,0,P|376:89|357:212,1,234
344,224,22363,1,0,0:0:0:0:
251,280,22727,1,0,0:0:0:0:
122,108,23272,5,0,0:0:0:0:
192,196,23636,1,0,0:0:0:0:
218,93,23999,2,0,L|366:101,1,130
379,185,25272,1,0,0:0:0:0:
407,192,25454,1,0,0:0:0:0:
294,119,25909,1,0,0:0:0:0:
285,206,26454,1,0,0:0:0:0:
244,216,26636,1,0,0:0:0:0:
152,104,27090,1,0,0:0:0:0:
141,82,27272,1,0,0:0:0:0:
155,64,27454,1,0,0:0:0:0:
259,107,28181,5,0,0:0:0:0:
124,106,28818,1,0,0:0:0:0:
137,106,28999,1,0,0:0:0:0:
193,56,29289,1,0,0:0:0:0:
288,83,29602,1,0,0:0:0:0:
367,135,29909,1,0,0:0:0:0:
388,134,30090,1,0,0:0:0:0:
266,188,30454,1,0,0:0:0:0:
230,313,30818,1,0,0:0:0:0:
172,249,31181,1,0,0:0:0:0:
248,121,31545,1,0,0:0:0:0:
170,152,31909,1,0,0:0:0:0:
313,249,32363,1,0,0:0:0:0:
380,75,32727,1,0,0:0:0:0:
196,49,33090,1,0,0:0:0:0:
266,192,33454,1,0,0:0:0:0:
73,83,33818,1,0,0:0:0:0:
119,224,34181,1,0,0:0:0:0:
254,273,34562,5,0,0:0:0:0:
357,258,34926,1,0,0:0:0:0:
288,161,35289,1,0,0:0:0:0:
181,198,35653,1,0,0:0:0:0:
146,112,36090,1,0,0:0:0:0:
192,85,36272,1,0,0:0:0:0:
245,85,36454,1,0,0:0:0:0:
