osu file format v14

[General]
AudioFilename: audio.mp3
AudioLeadIn: 0
PreviewTime: 44889
Countdown: 1
SampleSet: Soft
StackLeniency: 0.7
Mode: 0
LetterboxInBreaks: 0
WidescreenStoryboard: 1

[Editor]
DistanceSpacing: 1.1
BeatDivisor: 12
GridSize: 8
TimelineZoom: 1.9

[Metadata]
Title:This Lullaby
TitleUnicode:This Lullaby
Artist:Queens of The Stone Age
ArtistUnicode:Queens of The Stone Age
Creator:Zuga
Version:Are you there?
Source:
Tags:Acoustic Guitar Lullabies to Paralyze Rock
BeatmapID:3392963
BeatmapSetID:989678

[Difficulty]
HPDrainRate:4
CircleSize:5
OverallDifficulty:6
ApproachRate:5
SliderMultiplier:1.5
SliderTickRate:1

[Events]
//Background and Video events
0,0,"el_toro_by_chateaugrief_dcx8cex-pre.jpg",0,0
//Break Periods
//Storyboard Layer 0 (Background)
//Storyboard Layer 1 (Fail)
//Storyboard Layer 2 (Pass)
//Storyboard Layer 3 (Foreground)
//Storyboard Layer 4 (Overlay)
//Storyboard Sound Samples

[TimingPoints]
202,851.063829787234,3,2,0,35,1,0
627,701.754385964912,3,2,0,35,1,0
977,801.282051282051,3,2,0,35,1,0
1377,759.493670886076,3,2,0,35,1,0
1756,697.674418604651,3,2,0,35,1,0
2104,760.649087221095,3,2,0,35,1,0
2484,745.341614906832,3,2,0,35,1,0
2856,714.285714285714,3,2,0,35,1,0
3213,759.493670886076,3,2,0,35,1,0
3592,787.40157480315,3,2,0,35,1,0
3985,769.230769230769,3,2,0,35,1,0
4369,714.285714285714,3,2,0,35,1,0
4726,769.230769230769,3,2,0,35,1,0
5110,771.505722000772,3,2,0,35,1,0
5495,718.562874251497,3,2,0,35,1,0
5854,740.740740740741,3,2,0,35,1,0
6224,689.655172413793,3,2,0,35,1,0
6568,722.89156626506,3,2,0,35,1,0
6994,750,3,2,0,35,1,0
8681,842.696629213483,3,2,0,35,1,0
8681,-100,4,2,0,35,0,0
9242,697.674418604651,3,2,0,35,1,0
9590,731.707317073171,3,2,0,35,1,0
9955,731.707317073171,3,2,0,35,1,0
10320,750,3,2,0,35,1,0
11070,722.89156626506,3,2,0,35,1,0
11310,1090.90909090909,3,2,0,35,1,0
11491,666.666666666667,3,2,0,35,1,0
11824,722.89156626506,3,2,0,35,1,0
12185,796.495420151334,3,2,0,35,1,0
12583,774.193548387097,3,2,0,35,1,0
12970,705.882352941176,3,2,0,35,1,0
13322,750,3,2,0,35,1,0
13697,771.505722000772,3,2,0,35,1,0
14082,714.285714285714,3,2,0,35,1,0
14439,750,3,2,0,35,1,0
14814,750,3,2,0,35,1,0
15189,782.676754500391,3,2,0,35,1,0
15580,731.707317073171,3,2,0,35,1,0
15945,740.740740740741,3,2,0,35,1,0
16315,780.437044745057,3,2,0,35,1,0
16705,944.88188976378,3,2,0,35,1,0
17019,769.230769230769,3,2,0,35,1,0
17083,759.493670886076,3,2,0,35,1,0
17462,882.352941176471,3,2,0,35,1,0
17840,789.473684210526,3,2,0,35,1,0
18236,746.268656716418,3,2,0,35,1,0
18609,731.707317073171,3,2,0,35,1,0
18974,701.754385964912,3,2,0,35,1,0
19324,740.740740740741,3,2,0,35,1,0
19694,769.230769230769,3,2,0,35,1,0
20078,782.676754500391,3,2,0,35,1,0
20469,759.493670886076,3,2,0,35,1,0
20848,750,3,2,0,35,1,0
21223,771.505722000772,3,2,0,35,1,0
21608,717.18862060722,3,2,0,35,1,0
21966,746.918959292917,3,2,0,35,1,0
22339,810.810810810811,3,2,0,35,1,0
23149,655.737704918033,3,2,0,35,1,0
23476,769.230769230769,3,2,0,35,1,0
23860,759.493670886076,3,2,0,35,1,0
24239,764.331210191083,3,2,0,35,1,0
24621,734.753857457752,3,2,0,35,1,0
24988,759.493670886076,3,2,0,35,1,0
25748,756.334299760494,3,2,0,35,1,0
26126,745.341614906832,3,2,0,35,1,0
26498,727.272727272727,3,2,0,35,1,0
26861,798.722044728434,3,2,0,35,1,0
27260,697.674418604651,3,2,0,35,1,0
27957,839.160839160839,3,2,0,35,1,0
28376,750,3,2,0,35,1,0
28751,769.230769230769,3,2,0,35,1,0
29134,821.917808219178,3,2,0,35,1,0
29544,754.716981132075,3,2,0,35,1,0
29795,759.493670886076,3,2,0,35,1,0
29921,609.137055837564,3,2,0,35,1,0
30225,779.220779220779,3,2,0,35,1,0
30614,759.493670886076,3,2,0,35,1,0
31753,723.938223938224,3,2,0,35,1,0
32114,789.473684210526,3,2,0,35,1,0
32508,713.351563428843,3,2,0,35,1,0
32864,779.220779220779,3,2,0,35,1,0
33253,745.341614906832,3,2,0,35,1,0
33502,895.522388059701,3,2,0,35,1,0
33651,916.030534351145,3,2,0,35,1,0
33880,1000,3,2,0,35,1,0
34046,714.285714285714,3,2,0,35,1,0
34403,779.220779220779,3,2,0,35,1,0
34792,841.160801906631,3,2,0,35,1,0
35212,824.742268041237,3,2,0,35,1,0
36036,810.81081081081,3,2,0,35,1,0
36036,-100,4,2,0,35,0,0
36441,766.773162939297,3,2,0,35,1,0
36824,759.493670886076,3,2,0,35,1,0
37203,710.059171597633,3,2,0,35,1,0
37558,722.89156626506,3,2,0,35,1,0
37919,754.716981132075,3,2,0,35,1,0
38296,848.656294200849,3,2,0,35,1,0
38720,789.473684210526,3,2,0,35,1,0
39114,731.707317073171,3,2,0,35,1,0
39479,743.86312918423,3,2,0,35,1,0
39850,764.331210191083,3,2,0,35,1,0
40232,759.493670886076,3,2,0,35,1,0
40485,810.810810810811,3,2,0,35,1,0
40620,722.89156626506,3,2,0,35,1,0
40860,736.196319018405,3,2,0,35,1,0
40981,779.220779220779,3,2,0,35,1,0
41370,774.193548387097,3,2,0,35,1,0
41757,740.740740740741,3,2,0,35,1,0
42127,734.753857457752,3,2,0,35,1,0
42494,740.740740740741,3,2,0,35,1,0
42864,839.160839160839,3,2,0,35,1,0
43283,722.89156626506,3,2,0,35,1,0
44969,705.882352941176,3,2,0,35,1,0
44969,-100,4,2,0,35,0,0
45674,833.333333333333,3,2,0,35,1,0
46090,714.285714285715,3,2,0,35,1,0
46447,779.220779220779,3,2,0,35,1,0
46836,714.285714285714,3,2,0,35,1,0
47193,722.891566265061,3,2,0,35,1,0
47554,761.904761904762,3,2,0,35,1,0
47807,737.735153080044,3,2,0,35,1,0
47929,810.810810810811,3,2,0,35,1,0
48334,759.493670886076,3,2,0,35,1,0
48713,991.735537190082,3,2,0,35,1,0
49043,897.531787584143,3,2,0,35,1,0
49117,714.285714285714,3,2,0,35,1,0
49474,746.918959292917,3,2,0,35,1,0
49847,816.326530612245,3,2,0,35,1,0
50255,731.707317073171,3,2,0,35,1,0
50620,779.220779220779,3,2,0,35,1,0
51009,740.466493891151,3,2,0,35,1,0
51379,750,3,2,0,35,1,0
51754,759.493670886076,3,2,0,35,1,0
52133,782.370582866084,3,2,0,35,1,0
52393,769.230769230769,3,2,0,35,1,0
52521,794.701986754967,3,2,0,35,1,0
52918,789.473684210526,3,2,0,35,1,0
53312,697.674418604651,3,2,0,35,1,0
53660,769.230769230769,3,2,0,35,1,0
54044,750,3,2,0,35,1,0
54419,769.230769230769,3,2,0,35,1,0
54803,789.473684210526,3,2,0,35,1,0
55197,786.060526660553,3,2,0,35,1,0
55852,816.326530612245,3,2,0,35,1,0
55942,740.740740740741,3,2,0,35,1,0
56312,731.707317073171,3,2,0,35,1,0
56677,779.220779220779,3,2,0,35,1,0
57066,722.89156626506,3,2,0,35,1,0
57427,727.272727272727,3,2,0,35,1,0
57792,810.810810810811,3,2,0,35,1,0
58197,740.740740740741,3,2,0,35,1,0
58937,769.230769230769,3,2,0,35,1,0
59321,772.598506309554,3,2,0,35,1,0
59707,784.313725490196,3,2,0,35,1,0
60099,731.707317073171,3,2,0,35,1,0
60464,759.493670886076,3,2,0,35,1,0
60843,740.740740740741,3,2,0,35,1,0
61213,789.473684210526,3,2,0,35,1,0
61476,731.707317073171,3,2,0,35,1,0
61597,759.493670886076,3,2,0,35,1,0
61976,718.562874251497,3,2,0,35,1,0
62335,743.034055727554,3,2,0,35,1,0
62706,725.075528700906,3,2,0,35,1,0
63068,731.707317073171,3,2,0,35,1,0
63433,752.351097178683,3,2,0,35,1,0
63809,759.493670886076,3,2,0,35,1,0
64568,697.674418604651,3,2,0,35,1,0
64916,834.492350486787,3,2,0,35,1,0
65333,714.285714285714,3,2,0,35,1,0
65690,750,3,2,0,35,1,0
66065,740.740740740741,3,2,0,35,1,0
66435,731.70731707317,3,2,0,35,1,0
66800,714.285714285714,3,2,0,35,1,0
67157,895.522388059701,3,2,0,35,1,0
67604,740.740740740741,3,2,0,35,1,0
67974,697.674418604651,3,2,0,35,1,0
68206,875.912408759124,3,2,0,35,1,0
68351,750,3,2,0,35,1,0
68726,789.473684210526,3,2,0,35,1,0
69120,731.707317073171,3,2,0,35,1,0
69485,740.740740740741,3,2,0,35,1,0
69855,769.230769230769,3,2,0,35,1,0
70484,882.352941176471,3,2,0,35,1,0
70631,821.917808219178,3,2,0,35,1,0
71043,714.285714285714,3,2,0,35,1,0
71400,896.860986547085,3,2,0,35,1,0
71848,714.285714285714,3,2,0,35,1,0
73098,786.060526660553,3,2,0,35,1,0
73098,-100,4,2,0,5,0,0
73294,810.810810810811,3,2,0,35,1,0
73698,772.598506309554,3,2,0,35,1,0
74084,801.282051282052,3,2,0,35,1,0
74394,1081.08108108108,3,2,0,35,1,0
74484,722.891566265061,3,2,0,35,1,0
74845,759.493670886076,3,2,0,35,1,0
75224,710.059171597633,3,2,0,35,1,0
75579,845.070422535211,3,2,0,35,1,0
76001,750,3,2,0,35,1,0
76376,827.586206896552,3,2,0,35,1,0
76789,740.740740740741,3,2,0,35,1,0
77159,774.193548387097,3,2,0,35,1,0
77546,808.625336927224,3,2,0,35,1,0
77815,801.282051282051,3,2,0,35,1,0
77948,652.173913043478,3,2,0,35,1,0
78274,796.495420151334,3,2,0,35,1,0
78672,916.030534351145,3,2,0,35,1,0
78977,845.070422535211,3,2,0,35,1,0
79047,740.740740740741,3,2,0,35,1,0
79417,815.771583956492,3,2,0,35,1,0
79773,860.95566078347,3,2,0,35,1,0
80203,882.352941176471,3,2,0,35,1,0
82850,-100,4,2,0,5,0,0

[Colours]
Combo1 : 255,192,0
Combo2 : 0,202,0
Combo3 : 18,124,255
Combo4 : 242,24,57
SliderBorder : 255,255,255
SliderTrackOverride : 0,0,37

[HitObjects]
16,314,202,5,0,0:0:0:0:
79,272,627,2,0,L|165:278,1,75,0|0,0:0|0:3,0:0:0:0:
19,230,1377,5,0,0:0:0:0:
87,198,1756,2,0,L|169:217,1,75
29,147,2484,5,0,0:0:0:0:
101,126,2856,2,0,L|178:157,1,75
28,63,3466,5,0,0:0:0:0:
28,63,3592,2,0,L|109:48,1,75
164,5,4369,1,0,0:0:0:0:
226,63,4726,5,0,0:0:0:0:
289,105,5110,2,0,L|375:99,1,75
423,39,5854,5,0,0:0:0:0:
356,10,6224,2,0,L|270:16,1,75
226,63,6929,1,0,0:0:0:0:
226,63,6994,2,0,B|220:99|250:106|297:88|302:132|339:187|308:254|220:269|159:233|161:187|210:158,1,337.5
355,209,9242,5,0,0:0:0:0:
410,261,9590,2,0,L|495:272,1,75
356,202,10320,5,0,0:0:0:0:
301,254,10695,2,0,L|216:265,1,75
154,226,11310,5,0,0:0:0:0:
154,226,11491,2,0,L|59:216,1,75
14,167,12185,1,0,0:0:0:0:
70,97,12583,5,0,0:0:0:0:
131,140,12970,2,0,L|219:128,1,75
288,194,13697,5,0,0:0:0:0:
227,237,14082,2,0,L|150:227,1,75
86,272,14814,5,0,0:0:0:0:
147,326,15189,2,0,L|131:395,1,50
232,348,15580,2,0,L|216:291,1,50
305,362,15945,5,0,0:0:0:0:
369,315,16315,2,0,L|456:332,1,75
308,259,17019,6,0,L|300:275,1,12.5
376,219,17462,2,0,L|449:235,1,64.2857142857143
338,138,18234,5,0,0:0:0:0:
274,185,18609,2,0,L|191:169,1,75
338,130,19324,5,0,0:0:0:0:
402,177,19694,2,0,L|489:160,1,75
350,250,20469,5,0,0:0:0:0:
280,204,20848,2,0,L|203:195,1,75
352,259,21608,5,0,0:0:0:0:
416,208,21966,2,0,L|493:199,1,75
353,270,22744,5,0,0:0:0:0:
285,315,23149,2,0,L|202:307,1,75
144,352,23860,1,0,0:0:0:0:
30,294,24239,2,0,L|84:285,1,50
125,221,24621,2,0,L|71:212,1,50
25,148,24988,6,0,P|72:146|100:124,1,75
161,76,25748,1,0,0:0:0:0:
217,140,26000,1,0,0:0:0:0:
217,140,26126,2,0,L|297:124,1,75
353,168,26861,1,0,0:0:0:0:
413,122,27260,6,0,L|491:116,1,75
346,74,27957,1,0,0:0:0:0:
272,118,28376,6,0,L|194:112,1,75
345,63,29134,1,0,0:0:0:0:
407,145,29544,6,0,L|482:141,1,75
342,205,30225,1,0,0:0:0:0:
269,163,30484,1,0,0:0:0:0:
269,163,30614,6,0,L|194:159,1,75
131,116,31373,1,0,0:0:0:0:
74,187,31590,5,0,0:0:0:0:
74,187,31753,2,0,L|-8:176,1,75
131,245,32508,5,0,0:0:0:0:
202,211,32864,2,0,L|284:200,1,75
338,249,33501,1,0,0:0:0:0:
334,264,33651,1,0,0:0:0:0:
424,225,33880,1,0,0:0:0:0:
417,209,34046,6,0,P|451:196|512:203,1,75
499,115,34792,1,0,0:0:0:0:
431,64,35212,2,0,B|334:94|346:33|263:73,1,150
219,128,36441,5,0,0:0:0:0:
144,179,36824,2,0,L|55:170,1,75
216,117,37439,1,0,0:0:0:0:
216,117,37558,5,0,0:0:0:0:
290,155,37919,2,0,L|377:144,1,75
243,223,38720,5,0,0:0:0:0:
179,271,39114,2,0,L|101:265,1,75
34,312,39850,5,0,0:0:0:0:
108,337,40232,2,0,L|92:390,1,50
197,361,40620,2,0,L|177:306,1,50
273,371,40981,5,0,0:0:0:0:
337,316,41370,6,0,L|410:321,1,50
478,378,41757,2,0,L|423:375,1,50
468,252,42127,6,0,L|463:325,1,50
386,319,42494,2,0,L|389:264,1,50
327,219,42864,1,0,0:0:0:0:
252,262,43283,2,0,B|214:256|221:241|205:201|205:201|163:226|149:283|149:283|115:316|56:301|40:246|64:207|105:210,1,350
256,143,45674,5,0,0:0:0:0:
331,193,46090,2,0,L|410:185,1,75
258,154,46771,6,0,L|251:135,1,12.5
194,213,47193,2,0,L|115:205,1,75
270,278,47807,1,0,0:0:0:0:
270,278,47929,5,0,0:0:0:0:
335,225,48334,2,0,L|423:218,1,75
268,285,49043,6,0,L|265:300,1,12.5
202,242,49474,2,0,L|121:235,1,75
25,171,50255,6,0,L|115:158,1,75
166,102,51009,1,0,0:0:0:0:
228,166,51317,6,0,L|223:183,1,12.5
298,131,51754,2,0,L|279:66,1,50
370,37,52133,2,0,L|358:94,1,50
416,126,52521,5,0,0:0:0:0:
465,186,52918,2,0,L|545:175,1,75
418,113,53660,5,0,0:0:0:0:
369,173,54044,2,0,L|289:162,1,75
225,207,54675,1,0,0:0:0:0:
225,207,54803,5,0,0:0:0:0:
279,262,55197,2,0,L|363:254,1,75
222,203,55852,6,0,L|214:182,1,16.6666666666667
161,250,56312,2,0,L|77:242,1,75
222,314,57066,5,0,0:0:0:0:
290,268,57427,2,0,L|383:275,1,75
227,325,58062,1,0,0:0:0:0:
227,325,58197,5,0,0:0:0:0:
160,277,58567,2,0,L|67:284,1,75
230,335,59321,5,0,0:0:0:0:
294,286,59707,2,0,L|372:276,1,75
427,321,60464,1,0,0:0:0:0:
481,263,60843,6,0,L|493:202,1,50
408,166,61213,2,0,L|417:217,1,50
346,248,61597,5,0,0:0:0:0:
277,288,61976,2,0,L|190:274,1,75
159,213,62582,1,0,0:0:0:0:
159,213,62706,5,0,0:0:0:0:
228,172,63068,2,0,L|315:186,1,75
389,95,63809,6,0,L|304:109,1,75
255,66,64568,1,0,0:0:0:0:
390,86,64916,6,0,L|305:100,1,75
256,57,65690,1,0,0:0:0:0:
123,19,66065,6,0,L|208:5,1,75
257,48,66800,1,0,0:0:0:0:
122,28,67157,6,0,L|207:14,1,75
256,57,67974,1,0,0:0:0:0:
318,112,68206,5,0,0:0:0:0:
318,112,68351,2,0,P|303:151|307:191,1,75
361,239,69120,1,0,0:0:0:0:
294,287,69485,2,0,P|252:284|220:297,1,75
161,347,70111,5,0,0:0:0:0:
167,360,70239,1,0,0:0:0:0:
74,334,70484,1,0,0:0:0:0:
66,320,70631,6,0,L|86:230,1,75
37,189,71400,1,0,0:0:0:0:
114,136,71848,2,0,B|229:161|194:77|303:98|314:105|314:105|328:110|337:130|328:146|313:153|298:139,1,262.5
250,202,73294,5,0,0:0:0:0:
300,257,73698,2,0,L|379:263,1,75
250,195,74394,6,0,L|245:181,1,12.5
196,247,74845,2,0,L|111:258,1,75
59,328,75460,5,0,0:0:0:0:
59,328,75579,2,0,L|154:338,1,75
199,375,76376,1,0,0:0:0:0:
260,322,76789,6,0,P|293:310|340:310,1,75
389,360,77546,1,0,0:0:0:0:
460,323,77815,1,0,0:0:0:0:
468,313,77948,6,0,L|481:222,1,75
426,182,78672,1,0,0:0:0:0:
478,128,78977,2,0,L|494:124,1,12.5
405,79,79417,2,0,P|370:83|340:71,1,65.625
285,20,80203,1,0,0:0:0:0:
256,192,80350,12,0,82850,0:0:0:0:
