osu file format v14

[General]
AudioFilename: 12121212.mp3
AudioLeadIn: 0
PreviewTime: 29558
Countdown: 0
SampleSet: Soft
StackLeniency: 0.9
Mode: 0
LetterboxInBreaks: 0
WidescreenStoryboard: 1

[Editor]
DistanceSpacing: 1.1
BeatDivisor: 4
GridSize: 16
TimelineZoom: 2.699999

[Metadata]
Title:Under Pressure
TitleUnicode:Under Pressure
Artist:Queen & David Bowie
ArtistUnicode:Queen & David Bowie
Creator:Sinnoh
Version:Normal
Source:
Tags:english rock hot space
BeatmapID:2175313
BeatmapSetID:1013332

[Difficulty]
HPDrainRate:3
CircleSize:3
OverallDifficulty:3
ApproachRate:4
SliderMultiplier:1.6
SliderTickRate:1

[Events]
//Background and Video events
0,0,"Operation_Crossroads_Baker_Edit_feature.jpg",0,0
Video,-5500,"video.avi"
//Break Periods
2,72560,79183
2,125634,137465
//Storyboard Layer 0 (Background)
//Storyboard Layer 1 (Fail)
//Storyboard Layer 2 (Pass)
//Storyboard Layer 3 (Foreground)
//Storyboard Layer 4 (Overlay)
//Storyboard Sound Samples

[TimingPoints]
30099,540.540540540541,4,2,1,60,1,0
30234,-100,4,2,1,60,0,0
30369,-100,4,2,1,60,0,0
30504,-100,4,2,1,60,0,0
30639,530.973451327434,4,2,1,60,1,0
34355,530.973451327434,4,2,1,60,1,0
38735,-100,4,2,1,60,0,0
38868,-100,4,2,1,60,0,0
39001,-100,4,2,1,60,0,0
39133,-100,4,2,1,60,0,0
49222,528.63436123348,4,2,1,60,1,0
55565,540.540540540541,4,2,1,60,1,1
55565,-100,4,2,1,60,0,1
57727,521.739130434783,4,2,1,60,1,1
58770,540.540540540541,4,2,1,60,1,1
59850,528.63436123348,4,2,1,60,1,1
64078,526.315789473684,4,2,1,60,1,1
66183,528.63436123348,4,2,1,60,1,1
67240,524.017467248908,4,2,1,60,1,1
68288,535.714285714286,4,2,1,60,1,0
68288,-100,4,2,1,60,0,0
70418,530.973451327434,4,2,1,60,1,0
71479,540.540540540541,4,2,1,60,1,0
72560,530.973451327434,4,2,1,60,1,0
80503,550.45871559633,4,2,1,60,1,0
81055,530.973451327434,4,2,1,60,1,0
81055,-125,4,2,1,60,0,0
81928,645.161290322581,4,2,1,60,1,0
81940,-100,4,2,1,60,0,0
82641,530.973451327434,4,2,1,60,1,0
83171,530.973451327434,4,2,1,60,1,0
84232,545.454545454546,4,2,1,60,1,0
85294,530.973451327434,4,2,1,60,1,0
86887,540.540540540541,4,2,1,60,1,0
87427,535.714285714286,4,2,1,60,1,0
91177,526.315789473685,4,2,1,60,1,0
92492,508.474576271187,4,2,1,60,1,0
93254,530.973451327434,4,2,1,60,1,0
93784,530.973451327434,4,2,1,60,1,0
96438,517.241379310345,4,2,1,60,1,0
97989,530.973451327434,4,2,1,60,1,0
102236,521.739130434783,4,2,1,60,1,0
103018,-100.502512562814,4,2,1,60,0,0
103279,525.164113785558,4,2,1,60,1,0
104329,530.973451327434,4,2,1,60,1,0
106452,-100,4,2,1,60,0,1
108576,526.315789473684,4,2,1,60,1,1
109628,536.193029490617,4,2,1,60,1,1
110700,525.854513584575,4,2,1,60,1,1
111751,528.169014084507,4,2,1,60,1,1
112807,530.973451327434,4,2,1,60,1,1
114399,543.478260869565,4,2,1,60,1,1
114942,530.973451327434,4,2,1,60,1,1
116003,520.381613183001,4,2,1,60,1,1
117043,530.973451327434,4,2,1,60,1,1
118104,512.820512820513,4,2,1,60,1,1
118616,530.973451327434,4,2,1,60,1,1
119146,545.454545454546,4,2,1,60,1,0
119166,-100,4,2,1,60,0,0
120785,522.648083623693,4,2,1,60,1,0
121307,524.017467248908,4,2,1,60,1,0
123453,545.454545454546,4,2,1,60,1,0
132180,550.458715596331,4,2,1,60,1,0
138785,540.540540540541,4,2,1,60,1,0
140947,530.973451327434,4,2,1,60,1,0
143070,491.803278688525,4,2,1,60,1,0
144053,530.973451327434,4,2,1,60,1,0
145114,517.241379310345,4,2,1,60,1,0
146121,530.973451327434,4,2,1,60,1,0
147182,511.727078891258,4,2,1,60,1,0
148205,515.907136715391,4,2,1,60,1,0
149236,500,4,2,1,60,1,0
149861,480,4,2,1,60,1,0
150221,488.20179007323,4,2,1,60,1,0
150709,512.820512820513,4,2,1,60,1,0
151221,515.021459227468,4,2,1,60,1,0
151736,491.803278688525,4,2,1,60,1,0
152227,494.845360824742,4,2,1,60,1,0
152241,-111.111111111111,4,2,1,60,0,0
152721,517.241379310345,4,2,1,60,1,0
153238,519.480519480519,4,2,1,60,1,0
154017,-99.502487562189,4,2,1,60,0,0
154276,515.021459227468,4,2,1,60,1,0
155306,513.918629550321,4,2,1,60,1,0
156076,521.739130434783,4,2,1,60,1,0
156858,535.714285714286,4,2,1,60,1,0
157259,-100,4,2,1,5,0,0
157393,550.458715596331,4,2,1,60,1,1
157943,500,4,2,1,60,1,0
158443,517.241379310345,4,2,1,60,1,0
159477,535.714285714286,4,2,1,60,1,0
160012,500,4,2,1,60,1,0
161012,524.017467248908,4,2,1,60,1,0
161536,531.443755535872,4,2,1,60,1,0
162067,517.241379310345,4,2,1,60,1,0
163618,530.973451327434,4,2,1,60,1,0
165210,512.820512820513,4,2,1,60,1,0
165722,535.714285714286,4,2,1,60,1,0
166257,517.241379310345,4,2,1,60,1,0
167808,530.973451327434,4,2,1,60,1,0
178427,508.474576271187,4,2,1,60,1,0
179443,530.973451327434,4,2,1,60,1,0
180333,-100,4,2,1,5,0,0
180460,-100,4,2,1,60,0,0
180504,508.474576271187,4,2,1,60,1,0
181012,517.241379310345,4,2,1,60,1,0
181266,-102.040816326531,4,2,1,60,0,0
181785,-100,4,2,1,60,0,0
181787,526.315789473684,4,2,1,60,1,0
182050,530.973451327434,4,2,1,60,1,0
182449,-100,4,2,1,5,0,0
182581,521.739130434783,4,2,1,60,1,0
182581,-100,4,2,1,60,0,0
184537,-100,4,2,1,5,0,0
184667,-100,4,2,1,60,0,0
188711,-100,4,2,1,5,0,0
188841,-100,4,2,1,60,0,0
189624,-101.010101010101,4,2,1,60,0,0
189885,530.973451327434,4,2,1,60,1,0
190814,-100,4,2,1,5,0,0
190946,-100,4,2,1,60,0,0
191477,521.739130434783,4,2,1,60,1,0
192911,-100,4,2,1,5,0,0
193042,521.739130434783,4,2,1,60,1,0
195128,545.454545454546,4,2,1,60,1,0
195128,-100,4,2,1,60,0,1
195673,529.100529100529,4,2,1,60,1,1
197260,517.241379310345,4,2,1,60,1,1
199328,525.164113785558,4,2,1,60,1,1
201428,523.1037489102,4,2,1,60,1,1
203520,535.714285714286,4,2,1,60,1,0
205662,512.820512820513,4,2,1,60,1,0
206687,566.037735849057,4,2,1,60,1,0
207819,532.150776053215,4,2,1,60,1,0
209942,530.973451327434,4,2,1,60,1,0
211535,517.241379310345,4,2,1,60,1,0
212052,526.315789473685,4,2,1,60,1,0
214157,517.241379310345,4,2,1,60,1,0
216225,532.150776053215,4,2,1,60,1,0
217803,517.241379310345,4,2,1,60,1,0
218320,521.739130434783,4,2,1,60,1,0
219885,512.820512820513,4,2,1,60,1,0
220910,566.037735849057,4,2,1,60,1,0
221476,504.201680672269,4,2,1,60,1,0
222988,521.739130434783,4,2,1,60,1,0
225074,-100,4,2,1,50,0,0
226118,-100,4,2,1,40,0,0
227161,-100,4,2,1,30,0,0
228205,-100,4,2,1,20,0,0
229248,-100,4,2,1,10,0,0
230292,-100,4,2,1,5,0,0
231335,-100,4,2,1,5,0,0

[Colours]
Combo1 : 255,128,128
Combo2 : 0,128,255
Combo3 : 192,192,192

[HitObjects]
444,55,29558,5,2,1:3:0:0:
376,200,30099,2,0,P|327:208|271:215,1,80,6|2,0:3|0:3,0:0:0:0:
266,136,30639,2,0,P|102:122|72:124,1,160,0|0,1:0|0:0,0:0:0:0:
33,154,31435,1,4,0:3:0:0:
34,233,31700,2,0,L|32:326,1,80,2|0,1:2|0:0,0:0:0:0:
111,324,32231,6,0,B|155:292|155:292|267:325,1,160,6|0,0:3|1:2,0:0:0:0:
333,344,33028,1,2,0:0:0:0:
424,212,33559,1,4,0:3:0:0:
424,212,33824,2,0,P|375:199|336:194,1,80,2|4,1:2|0:3,0:0:0:0:
274,231,34355,6,0,B|226:256|226:256|121:202,1,160,6|2,0:3|1:2,0:0:0:0:
119,128,35151,1,0,0:3:0:0:
257,47,35682,1,4,0:3:0:0:
257,47,35947,2,0,L|259:143,1,80,0|0,1:0|0:0,0:0:0:0:
233,203,36478,6,0,P|224:280|224:394,2,160,4|0|0,0:3|1:0|0:0,0:0:0:0:
353,97,38071,1,2,1:3:0:0:
432,104,38337,1,0,0:0:0:0:
461,178,38602,6,0,P|459:257|450:337,1,160,6|2,0:3|1:2,0:0:0:0:
373,361,39399,2,0,B|312:377|312:377|278:250,1,160,0|4,0:0|0:3,0:0:0:0:
287,203,40195,2,0,P|291:163|299:124,1,80,2|0,1:2|0:0,0:0:0:0:
322,40,40726,6,0,P|240:56|148:72,1,160,6|2,0:3|1:2,0:0:0:0:
118,134,41523,2,0,P|113:220|119:327,1,160,2|4,0:3|0:3,0:0:0:0:
178,343,42319,1,2,1:2:0:0:
314,259,42850,6,0,P|369:255|420:256,2,80,6|0|2,0:3|0:0|1:2,0:0:0:0:
251,309,43647,2,0,P|164:288|163:213,1,160,2|4,0:0|0:3,0:0:0:0:
206,166,44443,1,0,1:0:0:0:
196,86,44708,1,0,0:0:0:0:
196,86,44974,6,0,L|183:-4,2,80,6|2|2,0:3|0:0|1:2,0:0:0:0:
259,135,45770,2,0,P|356:143|417:120,1,160,2|4,0:0|0:3,0:0:0:0:
468,63,46566,1,2,1:3:0:0:
463,223,47098,6,0,L|459:316,2,80,6|0|0,0:3|0:0|1:0,0:0:0:0:
424,152,47894,2,0,P|373:117|264:154,1,160,2|4,0:0|0:3,0:0:0:0:
236,202,48691,1,0,1:0:0:0:
119,91,49222,6,0,L|9:89,2,80,4|0|0,0:3|0:0|1:0,0:0:0:0:
198,95,50014,2,0,L|216:278,1,160,2|4,0:0|0:3,0:0:0:0:
229,333,50807,1,2,1:3:0:0:
306,370,51072,5,0,0:0:0:0:
306,370,51336,2,0,P|345:368|384:357,2,80,4|0|0,0:3|0:3|1:0,0:0:0:0:
297,280,52129,2,0,L|315:97,1,160,0|4,0:0|0:3,0:0:0:0:
390,97,52922,2,0,P|439:95|474:100,1,80,0|0,1:0|0:0,0:0:0:0:
488,177,53451,5,4,0:3:0:0:
361,274,53979,1,0,1:0:0:0:
305,216,54244,2,0,P|250:211|202:209,1,80,2|2,0:0|0:0,0:0:0:0:
169,267,54772,1,4,0:3:0:0:
169,267,55036,2,0,P|114:272|66:274,1,80,2|4,1:3|0:3,0:0:0:0:
41,210,55565,6,0,B|43:129|43:129|113:93,1,160,4|0,1:0|1:0,0:0:0:0:
192,134,56375,1,6,0:3:0:0:
192,134,56646,2,0,B|270:139|270:139|313:69,1,160,0|2,1:0|1:2,0:0:0:0:
252,10,57456,1,4,0:3:0:0:
252,10,57727,2,0,L|75:15,1,160,2|2,1:2|1:3,0:0:0:0:
68,91,58509,1,4,0:3:0:0:
68,91,58770,2,0,P|69:156|74:198,1,80,2|4,1:3|0:3,0:0:0:0:
98,246,59310,1,2,1:3:0:0:
230,339,59850,6,0,P|348:331|408:330,1,160,4|0,1:0|1:0,0:0:0:0:
453,281,60642,1,4,0:3:0:0:
472,203,60907,1,0,1:0:0:0:
448,125,61171,2,0,P|373:101|293:103,1,160,6|4,0:3|0:3,0:0:0:0:
236,159,61964,1,4,0:3:0:0:
162,127,62228,2,0,L|142:24,2,80,2|0|2,0:1|1:0|0:1,0:0:0:0:
260,253,63286,1,4,0:3:0:0:
260,253,63550,2,0,P|249:309|235:352,1,80,0|4,1:0|0:3,0:0:0:0:
166,357,64078,6,0,P|103:356|70:195,1,240,4|4,1:0|0:3,0:0:0:0:
110,151,65130,2,0,P|197:152|274:157,1,160,2|0,1:3|1:0,0:0:0:0:
303,229,65920,1,4,0:3:0:0:
382,239,66183,1,0,1:0:0:0:
442,187,66447,2,0,L|447:21,1,160,6|4,0:3|0:3,0:0:0:0:
367,11,67240,1,2,1:2:0:0:
246,116,67764,1,2,1:3:0:0:
109,38,68288,6,0,B|26:26|26:26|39:208,2,240,6|0|0,0:3|1:0|1:0,0:0:0:0:
252,135,70418,2,0,L|233:394,1,240,4|4,1:2|1:2,0:0:0:0:
395,73,80503,5,2,1:3:0:0:
388,200,81055,6,0,P|278:250|253:247,1,128,4|0,0:3|1:0,0:0:0:0:
229,178,81928,2,0,L|106:167,1,106.666666666667,2|6,0:0|0:3,0:0:0:0:
84,244,82641,1,2,1:3:0:0:
198,355,83171,5,4,0:3:0:0:
309,240,83701,2,0,L|316:145,1,80,2|0,1:3|0:0,0:0:0:0:
238,135,84232,2,0,L|231:40,1,80,6|4,0:3|0:3,0:0:0:0:
304,21,84777,1,0,1:0:0:0:
323,179,85294,6,0,P|284:222|180:206,1,160,4|0,0:3|1:0,0:0:0:0:
142,136,86091,2,0,P|89:128|41:131,1,80,2|0,0:0|0:0,0:0:0:0:
25,199,86622,1,4,0:3:0:0:
25,199,86887,1,0,1:0:0:0:
137,314,87427,6,0,P|216:316|295:329,1,160,4|0,0:3|1:0,0:0:0:0:
323,253,88230,1,0,0:0:0:0:
323,253,88498,2,0,P|397:243|427:233,1,80,2|4,0:0|0:3,0:0:0:0:
477,270,89034,1,2,1:3:0:0:
465,114,89569,5,6,0:3:0:0:
465,114,89837,2,0,L|468:22,1,80,2|0,0:3|1:0,0:0:0:0:
371,33,90373,2,0,L|368:125,1,80,2|2,0:3|0:3,0:0:0:0:
366,276,91177,1,0,1:0:0:0:
206,285,91703,5,4,0:3:0:0:
206,285,91966,2,0,P|144:262|126:249,1,80,2|2,0:3|1:3,0:0:0:0:
117,173,92492,2,0,L|114:6,1,160,0|4,0:0|0:3,0:0:0:0:
190,4,93254,1,0,1:0:0:0:
335,70,93784,5,4,0:3:0:0:
335,70,94049,2,0,L|332:172,1,80,0|2,0:0|1:3,0:0:0:0:
311,227,94580,2,0,P|345:276|457:254,1,160,2|4,0:3|0:3,0:0:0:0:
489,212,95376,1,0,1:0:0:0:
489,51,95907,6,0,L|491:-2,2,40,6|0|0,0:3|0:0|0:0,0:0:0:0:
413,82,96438,1,0,1:0:0:0:
339,50,96696,2,0,P|288:46|162:62,1,160,0|4,0:0|0:3,0:0:0:0:
124,115,97472,2,0,L|118:198,1,80,0|4,1:0|0:3,0:0:0:0:
140,269,97989,6,0,B|212:307|212:307|309:262,1,160,4|2,1:1|1:3,0:0:0:0:
292,194,98785,2,0,L|302:13,1,160,0|4,0:0|0:3,0:0:0:0:
221,24,99581,1,0,1:0:0:0:
361,101,100112,6,0,P|414:103|470:102,2,80,6|0|0,0:3|0:0|1:0,0:0:0:0:
294,146,100909,2,0,P|279:228|309:314,1,160,2|4,0:0|0:3,0:0:0:0:
373,332,101705,1,0,1:0:0:0:
493,225,102236,6,0,B|500:146|500:146|424:101,1,160,6|2,0:3|1:3,0:0:0:0:
350,100,103018,2,0,P|275:110|186:110,1,160,0|4,0:0|0:3,0:0:0:0:
110,106,103804,1,0,1:0:0:0:
92,243,104329,6,0,P|96:305|104:348,1,80,6|0,0:3|0:0,0:0:0:0:
193,263,104859,2,0,P|197:325|205:368,1,80,2|0,1:3|0:0,0:0:0:0:
294,277,105390,2,0,P|298:339|306:382,1,80,2|0,0:3|0:0,0:0:0:0:
395,292,105921,1,2,1:2:0:0:
450,132,106452,6,4,B|424:101|424:101|343:93|343:93|312:118,1,160,6|0,1:2|1:3,1:1:0:0:
278,181,107249,1,6,0:3:0:0:
278,181,107514,2,0,B|269:229|269:229|119:222,1,160,0|2,1:0|1:3,0:0:0:0:
77,216,108311,1,4,0:3:0:0:
77,216,108576,2,0,P|57:127|129:83,1,160,6|0,0:3|1:0,0:0:0:0:
181,106,109365,1,6,0:3:0:0:
181,106,109628,2,0,P|267:112|287:112,1,80,0|4,1:0|0:3,0:0:0:0:
338,90,110164,1,0,1:0:0:0:
440,213,110700,6,0,B|457:264|452:321|452:321|372:312,1,160,6|0,1:2|1:0,0:0:0:0:
325,290,111488,1,4,0:3:0:0:
245,287,111751,1,0,1:0:0:0:
168,311,112015,2,0,P|97:312|67:221,1,160,4|4,0:3|0:3,0:0:0:0:
78,161,112806,1,0,1:0:0:0:
198,56,113338,2,0,L|298:48,2,80,2|4|2,1:1|0:3|1:0,0:0:0:0:
226,214,114400,1,0,1:0:0:0:
275,276,114670,1,4,0:3:0:0:
351,281,114942,6,0,B|436:275|436:275|455:92,1,240,4|4,1:0|0:3,0:0:0:0:
397,62,116003,2,0,P|308:65|214:68,1,160,0|0,1:0|1:0,0:0:0:0:
124,180,117043,2,0,L|115:276,1,80,0|4,1:0|0:3,0:0:0:0:
169,319,117573,2,0,P|227:331|271:326,1,80,0|4,1:0|0:3,0:0:0:0:
316,284,118104,2,0,L|325:188,1,80,0|4,1:0|0:3,0:0:0:0:
274,124,118616,1,0,1:0:0:0:
403,54,119146,6,0,B|485:29|485:29|478:198,2,240,4|0|0,1:0|1:0|1:0,0:0:0:0:
260,131,121307,2,0,L|279:390,1,240,4|4,1:2|1:2,0:0:0:0:
175,61,138785,6,0,P|295:70|449:75,2,240,2|2|2,0:0|0:0|0:0,0:0:0:0:
90,200,140947,1,6,1:3:0:0:
409,316,142275,1,8,0:3:0:0:
409,316,142539,2,8,L|403:210,1,80,8|8,0:3|0:3,0:0:0:0:
399,156,143070,6,0,P|453:129|513:119,2,120,4|8|8,1:0|0:3|0:3,0:0:0:0:
338,209,144053,2,0,P|294:214|232:213,1,80,4|4,0:3|0:3,0:0:0:0:
223,142,144583,2,0,P|183:137|143:136,1,80,4|4,0:3|0:3,0:0:0:0:
92,201,145114,2,0,L|80:334,1,120,4|8,1:0|0:3,0:0:0:0:
184,346,145889,1,8,0:3:0:0:
332,285,146387,1,8,0:3:0:0:
332,285,146651,6,0,B|367:215|303:200|338:117,1,160,8|4,0:3|1:0,0:0:0:0:
373,21,147565,2,0,L|502:30,1,120,4|4,0:3|0:3,0:0:0:0:
504,106,148205,2,0,L|502:192,1,80,4|4,0:3|0:3,0:0:0:0:
443,248,148720,1,4,0:3:0:0:
306,314,149236,6,0,L|133:322,1,160,4|0,1:0|0:0,0:0:0:0:
144,184,150221,2,0,L|303:176,1,160,4|8,0:3|0:3,0:0:0:0:
344,28,151221,2,0,P|265:12|203:16,1,120,4|8,0:3|0:3,0:0:0:0:
63,147,152227,2,8,P|56:231|59:322,1,160,8|4,0:3|0:3,0:0:0:0:
209,333,153238,6,0,L|306:325,1,80,4|0,1:0|0:0,0:0:0:0:
342,271,153757,1,0,1:0:0:0:
404,320,154017,2,0,P|453:323|484:222,1,160,0|0,1:0|1:0,1:1:0:0:
424,87,155048,5,0,1:0:0:0:
424,87,155306,2,0,L|326:83,1,80,0|0,1:0|1:0,0:0:0:0:
267,85,155819,1,0,1:0:0:0:
183,86,156076,2,0,L|103:89,2,80,0|0|4,1:0|1:0|0:3,0:0:0:0:
267,85,156858,6,0,L|267:245,1,160,0|4,1:0|1:0,0:0:0:0:
99,298,157943,1,0,1:0:0:0:
84,144,158443,2,4,L|80:37,1,80,4|4,0:3|0:3,0:0:0:0:
159,46,158960,2,0,L|238:36,1,80,2|4,1:3|0:3,0:0:0:0:
291,92,159477,2,0,B|305:195|305:195|253:257,1,160,6|0,0:3|1:0,0:0:0:0:
114,277,160512,2,0,L|133:370,1,80,4|6,0:3|0:3,0:0:0:0:
211,355,161012,6,0,L|384:352,1,160,2|4,1:3|1:0,0:0:0:0:
432,199,162067,1,0,1:0:0:0:
321,83,162584,2,4,L|213:81,1,80,6|4,0:3|0:3,0:0:0:0:
190,143,163101,1,0,1:0:0:0:
221,295,163618,2,0,P|306:309|358:239,1,160,6|0,0:3|1:0,0:0:0:0:
360,96,164679,2,0,P|399:59|438:37,1,80,4|6,0:3|0:3,0:0:0:0:
489,96,165210,6,0,L|487:281,1,160,2|4,1:2|1:2,0:0:0:0:
330,307,166257,1,0,1:0:0:0:
322,147,166774,2,0,L|318:35,1,80,6|4,0:3|0:3,0:0:0:0:
246,33,167291,2,0,P|180:17|89:46,1,160,0|6,1:0|0:3,0:0:0:0:
77,201,168338,2,0,L|69:295,1,80,0|0,1:0|0:0,0:0:0:0:
134,329,168869,2,0,L|224:324,1,80,6|4,0:3|0:3,0:0:0:0:
265,263,169400,6,0,L|434:269,1,160,0|6,1:3|0:3,0:0:0:0:
447,110,170462,1,0,1:0:0:0:
308,29,170993,2,0,L|215:38,1,80,6|4,0:3|0:3,0:0:0:0:
166,87,171524,2,0,P|152:173|157:273,2,160,0|6|0,1:0|0:3|1:0,0:0:0:0:
324,110,173117,2,0,L|330:212,1,80,6|4,0:3|0:3,0:0:0:0:
265,251,173648,2,0,L|259:353,1,80,2|0,1:3|0:0,0:0:0:0:
328,380,174179,6,0,B|374:359|374:359|385:246,1,160,4|0,0:3|1:0,0:0:0:0:
328,189,174976,2,0,L|321:27,1,160,2|4,0:0|0:3,0:0:0:0:
402,35,175772,2,0,P|444:36|486:38,1,80,2|4,1:2|0:3,0:0:0:0:
493,120,176303,2,0,P|458:176|359:180,1,160,6|0,0:3|1:0,0:0:0:0:
307,137,177100,1,2,0:2:0:0:
164,64,177631,1,4,0:3:0:0:
164,64,177896,2,0,P|122:90|106:147,1,80,2|0,1:2|0:0,0:0:0:0:
170,172,178427,6,0,B|219:235|219:235|161:324,1,160,6|0,0:3|1:0,0:0:0:0:
44,223,179443,2,0,L|40:117,1,80,4|4,0:3|0:3,0:0:0:0:
84,76,179973,2,0,P|159:58|188:57,1,80,2|0,1:2|0:0,0:0:0:0:
200,132,180504,2,0,P|235:154|359:106,1,160,6|0,0:3|1:0,0:0:0:0:
355,50,181270,2,0,P|426:18|494:56,1,156.799998564453,2|4,0:0|0:3,0:0:0:0:
510,129,182050,1,2,1:2:0:0:
357,185,182581,6,0,P|333:255|389:353,1,160,6|0,0:3|1:0,0:0:0:0:
443,331,183363,2,0,P|467:261|411:163,1,160,2|4,0:0|0:3,0:0:0:0:
395,115,184146,1,2,1:2:0:0:
248,50,184667,2,0,L|65:69,1,160,6|2,0:3|1:2,0:0:0:0:
106,225,185711,2,0,L|289:244,1,160,6|2,0:3|1:2,0:0:0:0:
365,110,186754,6,0,B|422:136|422:136|407:240,1,160,6|0,0:3|1:0,0:0:0:0:
388,310,187537,2,0,P|268:340|219:335,1,160,2|4,0:0|0:3,0:0:0:0:
154,323,188320,1,2,1:2:0:0:
138,163,188841,2,0,B|134:60|134:60|203:28,1,160,6|0,0:3|1:0,0:0:0:0:
241,97,189624,2,0,L|231:274,1,160,2|4,0:0|0:3,0:0:0:0:
224,337,190415,1,2,1:2:0:0:
66,307,190946,6,0,L|61:125,1,160,6|0,0:3|1:3,0:0:0:0:
97,75,191737,2,0,P|139:48|246:57,1,160,2|4,0:0|0:3,0:0:0:0:
304,109,192520,1,2,1:2:0:0:
284,267,193042,6,0,L|275:367,1,80,6|4,0:3|0:3,0:0:0:0:
377,275,193563,2,0,L|477:284,1,80,2|4,1:2|0:3,1:1:0:0:
382,179,194085,2,0,L|391:79,1,80,6|4,0:3|0:3,0:0:0:0:
289,171,194607,1,2,1:2:0:0:
206,301,195128,6,0,P|133:307|85:227,1,160,4|0,1:0|1:0,0:0:0:0:
81,163,195937,2,0,L|77:60,2,80,4|0|4,0:3|1:0|0:3,0:0:0:0:
153,197,196731,2,0,L|247:190,1,80,0|4,1:0|0:3,0:0:0:0:
288,130,197260,2,0,L|458:142,1,160,4|0,1:2|1:0,0:0:0:0:
480,213,198035,2,0,L|477:314,1,80,4|0,0:3|1:1,0:0:0:0:
409,335,198552,1,4,0:3:0:0:
409,335,198811,2,0,P|341:337|312:335,1,80,0|4,1:0|0:3,0:0:0:0:
255,304,199328,6,0,B|207:243|207:243|236:139,1,160,4|0,1:2|1:0,0:0:0:0:
271,95,200115,2,0,L|371:86,1,80,4|0,0:3|1:0,0:0:0:0:
411,140,200640,1,4,0:3:0:0:
381,217,200903,2,0,L|301:224,1,80,0|4,1:0|0:3,0:0:0:0:
232,183,201428,2,0,P|157:193|111:275,1,160,4|0,1:2|1:0,0:0:0:0:
163,322,202212,2,0,P|238:312|284:230,1,160,4|4,0:3|0:3,0:0:0:0:
280,166,202997,1,0,1:0:0:0:
181,43,203520,6,0,P|84:69|48:212,2,240,4|0|0,1:2|1:2|1:0,0:0:0:0:
276,179,205662,2,0,B|396:197|396:197|494:78,1,240,6|6,0:3|0:3,0:0:0:0:
359,50,207819,6,0,L|354:219,1,160,0|8,0:0|0:0,0:0:0:0:
352,290,208617,2,0,L|349:391,2,80
272,284,209415,1,0,3:3:0:0:
112,282,209942,6,0,L|107:113,1,160,0|8,0:0|0:0,0:0:0:0:
110,41,210738,2,0,L|211:38,2,80
27,44,211535,1,0,3:0:0:0:
61,197,212052,6,0,L|230:202,1,160,0|8,0:0|0:0,0:0:0:0:
308,206,212841,2,0,L|409:209,2,80,0|0|0,0:0|0:0|0:0,0:0:0:0:
304,293,213630,1,0,3:0:0:0:
125,279,214157,6,0,P|95:235|145:138,1,160,2|8,0:0|0:0,0:0:0:0:
219,135,214932,2,0,P|259:69|226:0,1,160,2|0,0:0|0:0,0:0:0:0:
138,0,215708,1,8,0:1:0:0:
140,172,216225,6,0,L|144:343,1,160,0|8,0:0|0:0,0:0:0:0:
231,336,217023,2,0,L|335:335,2,80
228,246,217803,1,0,3:0:0:0:
224,71,218320,6,0,L|386:80,1,160,0|8,0:0|0:0,0:0:0:0:
470,93,219102,2,0,L|475:206,2,80,0|0|0,0:0|0:0|0:0,0:0:0:0:
463,3,219885,1,0,3:0:0:0:
288,20,220397,6,0,P|258:89|316:166,1,160,2|0,0:0|0:0,0:0:0:0:
377,195,221193,1,2,0:0:0:0:
256,192,221476,12,0,231335,0:0:0:0:
