osu file format v14

[General]
AudioFilename: 12121212.mp3
AudioLeadIn: 0
PreviewTime: 29558
Countdown: 0
SampleSet: Soft
StackLeniency: 0
Mode: 0
LetterboxInBreaks: 0
WidescreenStoryboard: 1

[Editor]
DistanceSpacing: 1
BeatDivisor: 4
GridSize: 16
TimelineZoom: 1.5

[Metadata]
Title:Under Pressure
TitleUnicode:Under Pressure
Artist:Queen & David Bowie
ArtistUnicode:Queen & David Bowie
Creator:Sinnoh
Version:Insane
Source:
Tags:english rock hot space
BeatmapID:2121001
BeatmapSetID:1013332

[Difficulty]
HPDrainRate:5
CircleSize:4
OverallDifficulty:6
ApproachRate:8.5
SliderMultiplier:2.4
SliderTickRate:1

[Events]
//Background and Video events
0,0,"Operation_Crossroads_Baker_Edit_feature.jpg",0,0
Video,-5500,"video.avi"
//Break Periods
2,72560,79828
2,125634,136583
//Storyboard Layer 0 (Background)
//Storyboard Layer 1 (Fail)
//Storyboard Layer 2 (Pass)
//Storyboard Layer 3 (Foreground)
//Storyboard Layer 4 (Overlay)
//Storyboard Sound Samples

[TimingPoints]
30099,540.540540540541,4,2,1,60,1,0
30099,-76.9230769230769,4,2,1,60,0,0
30234,-100,4,2,1,20,0,0
30369,-76.9230769230769,4,2,1,60,0,0
30504,-100,4,2,1,20,0,0
30639,530.973451327434,4,2,1,60,1,0
34355,530.973451327434,4,2,1,60,1,0
38602,-76.9230769230769,4,2,1,60,0,0
38735,-100,4,2,1,20,0,0
38868,-76.9230769230769,4,2,1,60,0,0
39001,-100,4,2,1,20,0,0
39133,-100,4,2,1,60,0,0
41124,-100,4,2,1,10,0,0
41257,-100,4,2,1,60,0,0
49222,528.63436123348,4,2,1,60,1,0
55565,540.540540540541,4,2,1,60,1,1
55565,-83.3333333333333,4,2,1,60,0,1
57727,521.739130434783,4,2,1,60,1,1
57727,-83.3333333333333,4,2,1,60,0,1
58770,540.540540540541,4,2,1,60,1,1
59310,-83.3333333333333,4,2,1,60,0,1
59850,528.63436123348,4,2,1,60,1,1
62361,-100,4,2,1,5,0,1
62493,-100,4,2,1,60,0,1
62625,-100,4,2,1,5,0,1
62757,-76.9230769230769,4,2,1,60,0,1
63153,-76.9230769230769,4,2,1,5,0,1
63286,-76.9230769230769,4,2,1,60,0,1
64078,526.315789473684,4,2,1,60,1,1
64078,-76.9230769230769,4,2,1,60,0,1
66183,528.63436123348,4,2,1,60,1,1
66447,-83.3333333333333,4,2,1,60,0,1
67240,524.017467248908,4,2,1,60,1,1
68288,535.714285714286,4,2,1,60,1,0
68288,-100,4,2,1,60,0,0
70418,530.973451327434,4,2,1,60,1,0
71479,540.540540540541,4,2,1,60,1,0
72560,530.973451327434,4,2,1,60,1,0
80503,550.45871559633,4,2,1,60,1,0
81055,530.973451327434,4,2,1,60,1,0
81055,-125,4,2,1,60,0,0
81928,645.161290322581,4,2,1,60,1,0
81928,-125,4,2,1,60,0,0
81940,-100,4,2,1,60,0,0
82641,530.973451327434,4,2,1,60,1,0
82641,-125,4,2,1,60,0,0
83171,530.973451327434,4,2,1,60,1,0
84232,545.454545454546,4,2,1,60,1,0
84777,-125,4,2,1,60,0,0
85294,530.973451327434,4,2,1,60,1,0
86091,-125,4,2,1,60,0,0
86887,540.540540540541,4,2,1,60,1,0
86887,-125,4,2,1,60,0,0
87427,535.714285714286,4,2,1,60,1,0
87427,-125,4,2,1,60,0,0
89837,-100,4,2,1,60,0,0
91177,526.315789473685,4,2,1,60,1,0
92492,508.474576271187,4,2,1,60,1,0
93254,530.973451327434,4,2,1,60,1,0
93784,530.973451327434,4,2,1,60,1,0
96438,517.241379310345,4,2,1,60,1,0
97989,530.973451327434,4,2,1,60,1,0
102236,521.739130434783,4,2,1,60,1,0
103279,525.164113785558,4,2,1,60,1,0
104329,530.973451327434,4,2,1,60,1,0
106452,-76.9230769230769,4,2,1,60,0,1
108576,526.315789473684,4,2,1,60,1,1
108576,-76.9230769230769,4,2,1,60,0,1
109628,536.193029490617,4,2,1,60,1,1
109628,-76.9230769230769,4,2,1,60,0,1
110684,-76.9230769230769,4,2,1,60,0,1
110700,525.854513584575,4,2,1,60,1,1
111751,528.169014084507,4,2,1,60,1,1
112807,530.973451327434,4,2,1,60,1,1
112807,-76.9230769230769,4,2,1,60,0,1
113471,-76.9230769230769,4,2,1,5,0,1
113604,-76.9230769230769,4,2,1,60,0,1
113737,-76.9230769230769,4,2,1,5,0,1
113869,-76.9230769230769,4,2,1,60,0,1
114268,-76.9230769230769,4,2,1,5,0,1
114399,543.478260869565,4,2,1,60,1,1
114400,-76.9230769230769,4,2,1,60,0,1
114942,530.973451327434,4,2,1,60,1,1
114942,-76.9230769230769,4,2,1,60,0,1
116003,520.381613183001,4,2,1,60,1,1
116003,-76.9230769230769,4,2,1,60,0,1
117043,530.973451327434,4,2,1,60,1,1
117043,-76.9230769230769,4,2,1,60,0,1
118104,512.820512820513,4,2,1,60,1,1
118616,530.973451327434,4,2,1,60,1,1
119146,545.454545454546,4,2,1,60,1,0
119166,-100,4,2,1,60,0,0
120785,522.648083623693,4,2,1,60,1,0
121307,524.017467248908,4,2,1,60,1,0
123453,545.454545454546,4,2,1,60,1,0
132180,550.458715596331,4,2,1,60,1,0
137409,-125,4,2,1,60,0,0
138785,540.540540540541,4,2,1,60,1,0
138785,-125,4,2,1,60,0,0
140947,530.973451327434,4,2,1,60,1,0
143070,491.803278688525,4,2,1,60,1,0
144053,530.973451327434,4,2,1,60,1,0
145114,517.241379310345,4,2,1,60,1,0
146121,530.973451327434,4,2,1,60,1,0
147182,511.727078891258,4,2,1,60,1,0
148205,515.907136715391,4,2,1,60,1,0
149236,500,4,2,1,60,1,0
149861,480,4,2,1,60,1,0
150221,488.20179007323,4,2,1,60,1,0
150709,512.820512820513,4,2,1,60,1,0
151221,515.021459227468,4,2,1,60,1,0
151736,491.803278688525,4,2,1,60,1,0
152227,494.845360824742,4,2,1,60,1,0
152721,517.241379310345,4,2,1,60,1,0
153238,519.480519480519,4,2,1,60,1,0
153238,-76.9230769230769,4,2,1,60,0,0
154276,515.021459227468,4,2,1,60,1,0
154276,-76.9230769230769,4,2,1,60,0,0
155306,513.918629550321,4,2,1,60,1,0
156076,521.739130434783,4,2,1,60,1,0
156858,535.714285714286,4,2,1,60,1,0
156858,-333.333333333333,4,2,1,60,0,0
157259,-100,4,2,1,5,0,0
157393,550.458715596331,4,2,1,60,1,1
157393,-76.9230769230769,4,2,1,60,0,1
157943,500,4,2,1,60,1,0
158443,517.241379310345,4,2,1,60,1,0
158443,-76.9230769230769,4,2,1,60,0,0
159477,535.714285714286,4,2,1,60,1,0
159477,-76.9230769230769,4,2,1,60,0,0
160012,500,4,2,1,60,1,0
161012,524.017467248908,4,2,1,60,1,0
161012,-333.333333333333,4,2,1,60,0,0
161404,-333.333333333333,4,2,1,5,0,0
161536,531.443755535872,4,2,1,60,1,0
161536,-76.9230769230769,4,2,1,60,0,0
162067,517.241379310345,4,2,1,60,1,0
162584,-76.9230769230769,4,2,1,60,0,0
163618,530.973451327434,4,2,1,60,1,0
163618,-76.9230769230769,4,2,1,60,0,0
165210,512.820512820513,4,2,1,60,1,0
165210,-76.9230769230769,4,2,1,60,0,0
165722,535.714285714286,4,2,1,60,1,0
165722,-76.9230769230769,4,2,1,60,0,0
166257,517.241379310345,4,2,1,60,1,0
166774,-76.9230769230769,4,2,1,60,0,0
167808,530.973451327434,4,2,1,60,1,0
167808,-76.9230769230769,4,2,1,60,0,0
173648,-100,4,2,1,60,0,0
174046,-100,4,2,1,5,0,0
174179,-200,4,2,1,60,0,0
176303,-100,4,2,1,60,0,0
177100,-100,4,2,1,60,0,0
177896,-66.6666666666667,4,2,1,60,0,0
178427,508.474576271187,4,2,1,60,1,0
179443,530.973451327434,4,2,1,60,1,0
179973,-333.333333333333,4,2,1,60,0,0
180376,-100,4,2,1,5,0,0
180460,-100,4,2,1,60,0,0
180504,508.474576271187,4,2,1,60,1,0
180504,-66.6666666666667,4,2,1,60,0,0
181012,517.241379310345,4,2,1,60,1,0
181012,-100,4,2,1,60,0,0
181266,-102.040816326531,4,2,1,60,0,0
181787,526.315789473684,4,2,1,60,1,0
182050,530.973451327434,4,2,1,60,1,0
182050,-333.333333333333,4,2,1,60,0,0
182449,-100,4,2,1,5,0,0
182581,521.739130434783,4,2,1,60,1,0
182581,-66.6666666666667,4,2,1,60,0,0
182711,-100,4,2,1,60,0,0
184146,-333.333333333333,4,2,1,60,0,0
184537,-100,4,2,1,5,0,0
184667,-66.6666666666667,4,2,1,60,0,0
185059,-66.6666666666667,4,2,1,5,0,0
185189,-90.9090909090909,4,2,1,60,0,0
185581,-83.3333333333333,4,2,1,5,0,0
185711,-142.857142857143,4,2,1,60,0,0
186102,-111.111111111111,4,2,1,5,0,0
186233,-250,4,2,1,60,0,0
186624,-250,4,2,1,5,0,0
186754,-66.6666666666667,4,2,1,60,0,0
187537,-100,4,2,1,60,0,0
188320,-333.333333333333,4,2,1,60,0,0
188711,-100,4,2,1,5,0,0
188841,-66.6666666666667,4,2,1,60,0,0
189624,-101.010101010101,4,2,1,60,0,0
189885,530.973451327434,4,2,1,60,1,0
190415,-333.333333333333,4,2,1,60,0,0
190814,-100,4,2,1,5,0,0
190946,-66.6666666666667,4,2,1,60,0,0
191477,521.739130434783,4,2,1,60,1,0
192520,-333.333333333333,4,2,1,60,0,0
192911,-100,4,2,1,5,0,0
193042,521.739130434783,4,2,1,60,1,0
193042,-66.6666666666667,4,2,1,60,0,0
193433,-66.6666666666667,4,2,1,5,0,0
193563,-90.9090909090909,4,2,1,60,0,0
193955,-90.9090909090909,4,2,1,5,0,0
194085,-142.857142857143,4,2,1,60,0,0
194476,-142.857142857143,4,2,1,5,0,0
194607,-333.333333333333,4,2,1,60,0,0
195128,545.454545454546,4,2,1,60,1,0
195128,-100,4,2,1,60,0,1
195673,529.100529100529,4,2,1,60,1,1
197260,517.241379310345,4,2,1,60,1,1
199328,525.164113785558,4,2,1,60,1,1
201428,523.1037489102,4,2,1,60,1,1
203520,535.714285714286,4,2,1,60,1,0
205662,512.820512820513,4,2,1,60,1,0
206687,566.037735849057,4,2,1,60,1,0
207819,532.150776053215,4,2,1,60,1,0
209942,530.973451327434,4,2,1,60,1,0
211535,517.241379310345,4,2,1,60,1,0
211535,-133.333333333333,4,2,1,60,0,0
212052,526.315789473685,4,2,1,60,1,0
214157,517.241379310345,4,2,1,60,1,0
216225,532.150776053215,4,2,1,60,1,0
217803,517.241379310345,4,2,1,60,1,0
218320,521.739130434783,4,2,1,60,1,0
219885,512.820512820513,4,2,1,60,1,0
220397,-142.857142857143,4,2,1,60,0,0
220910,566.037735849057,4,2,1,60,1,0
221476,504.201680672269,4,2,1,60,1,0
222988,521.739130434783,4,2,1,60,1,0
225074,-100,4,2,1,50,0,0
226118,-100,4,2,1,40,0,0
227161,-100,4,2,1,30,0,0
228205,-100,4,2,1,20,0,0
229248,-100,4,2,1,10,0,0
230292,-100,4,2,1,5,0,0
231335,-100,4,2,1,5,0,0

[Colours]
Combo1 : 255,128,128
Combo2 : 0,128,255
Combo3 : 192,192,192

[HitObjects]
400,161,29558,5,2,1:3:0:0:
400,161,30099,6,0,P|464:150|511:138,1,77.9999964294435,6|0,0:3|0:0,0:0:0:0:
321,22,30369,2,0,P|256:32|209:44,1,77.9999964294435,2|0,0:3|0:0,0:0:0:0:
206,142,30639,1,0,1:0:0:0:
206,142,30904,1,2,0:0:0:0:
206,142,31037,1,0,0:0:0:0:
206,142,31169,1,0,0:0:0:0:
206,142,31435,1,4,0:3:0:0:
364,249,31700,1,2,1:2:0:0:
294,78,31965,1,0,0:0:0:0:
196,250,32231,6,0,P|179:342|174:394,1,120,6|0,0:3|0:0,0:0:0:0:
364,249,32762,1,0,1:2:0:0:
196,154,33028,2,0,P|116:195|167:338,1,240,2|4,0:0|0:3,0:0:0:0:
290,272,33824,1,2,1:2:0:0:
392,362,34090,1,4,0:3:0:0:
196,250,34355,6,0,P|106:267|54:281,1,120,6|0,0:3|0:0,0:0:0:0:
138,102,34885,1,2,1:2:0:0:
138,102,35151,2,0,P|228:119|280:133,1,120,0|0,0:3|0:0,0:0:0:0:
346,270,35681,1,4,0:3:0:0:
409,114,35947,1,0,1:0:0:0:
254,222,36213,1,0,0:0:0:0:
455,255,36478,6,0,P|476:343|479:393,1,120,4|0,0:3|0:0,0:0:0:0:
304,348,37009,1,0,1:0:0:0:
304,348,37275,1,0,0:0:0:0:
304,349,37408,1,0,0:0:0:0:
304,349,37540,1,0,0:0:0:0:
304,349,37806,1,4,0:3:0:0:
240,172,38071,1,2,1:3:0:0:
156,313,38338,1,0,0:0:0:0:
341,216,38602,6,0,P|354:143|354:109,1,77.9999964294435,6|0,0:3|0:0,0:0:0:0:
208,49,38868,2,0,P|212:78|227:131,1,77.9999964294435,2|0,0:3|0:0,0:0:0:0:
351,40,39133,1,2,1:2:0:0:
481,188,39399,2,0,P|484:281|472:340,1,120,2|0,0:0|0:0,0:0:0:0:
449,90,39930,1,4,0:3:0:0:
335,277,40195,2,0,P|251:286|206:286,1,120,2|0,1:2|0:0,0:0:0:0:
123,109,40726,6,0,P|212:110|302:121,1,180,6|0,0:3|0:0,0:0:0:0:
359,138,41257,1,2,1:2:0:0:
297,318,41523,2,0,P|210:357|138:233,1,240,2|4,0:3|0:3,0:0:0:0:
201,105,42318,1,2,1:2:0:0:
224,265,42584,1,0,0:0:0:0:
87,153,42850,5,6,0:3:0:0:
43,297,43115,1,0,0:0:0:0:
171,188,43381,1,2,1:2:0:0:
305,263,43647,2,0,P|339:331|353:386,1,120,2|0,0:0|0:0,0:0:0:0:
437,186,44178,1,4,0:3:0:0:
346,66,44443,2,0,P|312:134|298:189,1,120,0|0,1:0|0:0,0:0:0:0:
200,312,44974,5,6,0:3:0:0:
178,148,45239,1,2,0:0:0:0:
305,263,45505,1,2,1:2:0:0:
120,224,45770,2,0,P|63:249|11:280,2,120,2|0|4,0:0|0:0|0:3,0:0:0:0:
302,154,46567,1,2,1:3:0:0:
209,290,46832,1,4,0:3:0:0:
181,128,47099,5,6,0:3:0:0:
181,128,47363,1,0,0:0:0:0:
181,128,47628,1,0,1:0:0:0:
299,32,47894,1,2,0:0:0:0:
299,32,48027,1,0,0:0:0:0:
299,32,48160,1,0,0:0:0:0:
332,163,48425,1,4,0:3:0:0:
195,54,48691,1,0,1:0:0:0:
301,300,49222,5,4,0:3:0:0:
301,300,49486,1,0,0:0:0:0:
301,300,49750,1,0,1:0:0:0:
169,235,50014,1,2,0:0:0:0:
169,235,50147,1,0,0:0:0:0:
169,235,50280,1,0,0:0:0:0:
176,366,50543,1,4,0:3:0:0:
282,195,50807,1,2,1:3:0:0:
133,153,51072,1,0,0:0:0:0:
188,265,51336,5,4,0:3:0:0:
188,265,51600,1,0,0:3:0:0:
188,265,51865,1,0,1:0:0:0:
259,119,52129,2,0,P|332:176|279:318,1,240,0|4,0:0|0:3,0:0:0:0:
394,104,52922,2,0,P|474:90|538:93,1,120,0|0,1:0|0:0,0:0:0:0:
436,280,53451,5,4,0:3:0:0:
436,280,53715,1,0,0:0:0:0:
436,280,53979,1,0,1:0:0:0:
276,175,54244,1,2,0:0:0:0:
243,361,54508,1,2,0:0:0:0:
317,282,54772,1,4,0:3:0:0:
188,101,55036,1,2,1:3:0:0:
133,230,55301,1,4,0:3:0:0:
342,116,55565,6,0,P|439:113|496:116,1,143.999995605469,4|4,1:0|0:3,0:0:0:0:
369,287,56105,1,0,1:0:0:0:
235,118,56375,1,6,0:3:0:0:
95,242,56646,2,0,P|80:350|78:388,1,143.999995605469,0|4,1:0|0:3,0:0:0:0:
265,276,57186,1,2,1:2:0:0:
112,160,57456,1,4,0:3:0:0:
266,37,57727,6,0,P|273:162|256:331,1,287.999991210938,2|2,1:2|1:3,0:0:0:0:
159,366,58509,1,4,0:3:0:0:
369,265,58770,1,2,1:3:0:0:
152,153,59040,1,4,0:3:0:0:
343,79,59310,2,0,P|406:73|493:79,1,143.999995605469,2|4,1:3|0:3,0:0:0:0:
483,331,59850,5,4,1:0:0:0:
376,185,60114,1,4,0:3:0:0:
279,345,60378,1,0,1:0:0:0:
465,249,60642,1,4,0:3:0:0:
290,163,60907,1,0,1:0:0:0:
184,326,61171,1,6,0:3:0:0:
197,141,61435,1,0,1:0:0:0:
322,276,61700,1,4,0:3:0:0:
102,271,61964,5,4,0:3:0:0:
349,161,62228,2,0,P|385:157|431:165,1,60,2|0,0:1|0:0,0:0:0:0:
173,203,62493,2,0,P|145:260|137:301,1,60,2|0,1:0|0:0,0:0:0:0:
311,57,62757,2,0,P|252:16|101:70,1,233.999989288331,2|0,0:1|0:0,0:0:0:0:
94,121,63285,1,4,0:3:0:0:
298,159,63550,1,0,1:0:0:0:
86,230,63814,1,4,0:3:0:0:
352,312,64078,6,0,P|436:296|510:232,2,155.999992858887,4|4|0,1:0|0:3|1:0,0:0:0:0:
229,111,64867,1,4,0:3:0:0:
113,230,65130,2,0,P|99:306|95:384,1,155.999992858887,2|0,1:3|0:0,0:0:0:0:
265,197,65656,1,0,1:0:0:0:
310,46,65919,1,4,0:3:0:0:
364,256,66182,5,0,1:0:0:0:
187,106,66447,2,0,P|117:105|21:117,1,143.999995605469,6|0,0:3|1:0,0:0:0:0:
270,288,66975,2,0,P|340:289|433:281,1,143.999995605469,4|2,0:3|1:2,0:0:0:0:
324,122,67502,1,4,0:3:0:0:
158,305,67764,1,2,1:3:0:0:
406,350,68026,5,4,0:3:0:0:
406,350,68157,1,0,0:0:0:0:
406,350,68287,1,6,0:3:0:0:
266,104,69090,1,0,1:0:0:0:
406,350,69894,1,0,1:0:0:0:
233,17,70418,5,4,1:2:0:0:
91,357,71214,1,4,1:2:0:0:
142,113,80503,5,2,1:3:0:0:
142,113,81055,6,0,P|148:248|151:346,1,192,4|0,0:3|1:0,0:0:0:0:
304,326,81928,2,0,P|368:321|408:311,2,64,2|2|6,0:0|0:0|0:3,0:0:0:0:
251,184,82641,2,0,P|338:171|389:169,1,96,2|0,1:3|0:0,0:0:0:0:
471,286,83171,5,4,0:3:0:0:
481,155,83701,1,2,1:3:0:0:
471,286,83967,1,0,0:0:0:0:
471,286,84100,1,0,0:0:0:0:
471,286,84232,1,6,0:3:0:0:
326,194,84504,1,4,0:3:0:0:
184,265,84777,2,0,P|177:366|178:401,1,96,0|0,1:0|0:0,0:0:0:0:
302,94,85294,5,4,0:3:0:0:
286,235,85825,1,0,1:0:0:0:
302,94,86091,2,0,P|366:101|392:109,2,72,2|2|2,0:0|0:0|0:0,0:0:0:0:
245,93,86622,1,4,0:3:0:0:
124,199,86887,2,0,P|117:282|118:316,1,96,0|0,1:0|0:0,0:0:0:0:
314,344,87427,6,0,P|321:261|319:217,1,96,4|2,0:3|0:0,0:0:0:0:
269,130,87895,2,0,P|204:126|176:126,2,72,2|2|2,0:0|0:0|0:0,0:0:0:0:
426,176,88498,2,0,P|436:248|438:289,1,96,2|4,0:0|0:3,0:0:0:0:
168,263,89033,1,2,1:3:0:0:
319,340,89302,1,4,0:3:0:0:
369,91,89569,5,6,0:3:0:0:
262,179,89837,2,0,L|283:325,1,120,2|0,0:3|1:0,0:0:0:0:
85,50,90372,1,2,0:3:0:0:
107,182,90641,2,0,L|128:328,1,120,2|4,0:3|0:3,0:0:0:0:
278,88,91177,1,0,1:0:0:0:
376,360,91702,5,4,0:3:0:0:
219,345,91966,1,2,0:3:0:0:
219,345,92098,1,0,0:0:0:0:
219,345,92229,1,2,1:3:0:0:
211,285,92361,1,2,0:3:0:0:
204,225,92492,2,0,L|191:104,1,120
70,171,93000,1,4,0:3:0:0:
232,35,93254,2,0,P|322:34|392:46,1,120,0|0,1:0|0:0,0:0:0:0:
420,223,93784,6,0,L|416:367,1,120,4|0,0:3|0:0,0:0:0:0:
229,273,94315,1,2,1:3:0:0:
224,138,94581,2,0,L|220:-7,1,120,2|0,0:3|0:0,0:0:0:0:
104,156,95111,1,4,0:3:0:0:
316,216,95377,2,0,P|346:273|358:346,1,120,0|0,1:0|0:0,0:0:0:0:
498,21,95908,5,6,0:3:0:0:
498,21,96041,1,0,0:0:0:0:
498,21,96174,1,0,0:0:0:0:
512,172,96438,1,0,1:0:0:0:
329,74,96696,2,0,P|232:79|176:91,2,120,0|0|4,0:0|0:0|0:3,0:0:0:0:
414,287,97472,1,0,1:0:0:0:
418,147,97730,1,4,0:3:0:0:
283,348,97989,5,4,1:1:0:0:
223,350,98121,1,0,0:0:0:0:
171,323,98254,1,0,0:0:0:0:
139,273,98387,1,0,0:0:0:0:
137,214,98519,1,2,1:3:0:0:
156,83,98785,1,0,0:0:0:0:
156,83,98918,1,0,0:0:0:0:
156,83,99050,1,0,0:0:0:0:
49,142,99316,1,4,0:3:0:0:
250,159,99581,1,0,1:0:0:0:
238,10,99847,5,2,0:0:0:0:
238,10,99980,1,0,0:0:0:0:
238,10,100112,1,6,0:3:0:0:
147,168,100379,1,0,0:0:0:0:
230,317,100643,1,0,1:0:0:0:
333,151,100909,2,0,P|168:167|69:166,1,240,2|4,0:0|0:3,0:0:0:0:
187,24,101705,2,0,P|194:122|196:193,1,120,0|0,1:0|0:0,0:0:0:0:
224,313,102236,5,6,0:3:0:0:
275,340,102366,1,0,0:0:0:0:
335,341,102496,1,0,0:0:0:0:
387,314,102627,1,0,0:0:0:0:
422,265,102757,1,2,1:3:0:0:
403,120,103018,2,0,P|456:42|492:8,1,120
342,211,103541,1,4,0:3:0:0:
229,103,103803,1,0,1:0:0:0:
126,234,104066,5,2,0:0:0:0:
126,234,104198,1,0,0:0:0:0:
126,234,104329,2,0,P|112:285|105:380,1,120,6|0,0:3|0:0,0:0:0:0:
235,129,104859,2,0,P|197:91|119:37,1,120,2|0,1:3|0:0,0:0:0:0:
278,276,105390,2,0,P|329:262|414:221,1,120,2|0,0:3|0:0,0:0:0:0:
478,34,105921,1,2,1:2:0:0:
481,263,106187,1,4,0:3:0:0:
298,88,106452,6,4,P|202:86|142:90,1,155.999992858887,6|4,1:2|0:3,1:2:0:0:
172,309,106983,1,0,1:3:0:0:
21,159,107249,2,0,P|12:78|9:-5,2,155.999992858887,6|0|4,0:3|1:0|0:3,0:0:0:0:
100,335,108045,1,2,1:3:0:0:
158,127,108311,1,4,0:3:0:0:
349,193,108576,6,0,P|410:290|428:329,1,155.999992858887,6|0,0:3|0:0,0:0:0:0:
374,354,108970,1,0,0:0:0:0:
374,354,109102,1,0,1:0:0:0:
452,183,109365,1,6,0:3:0:0:
337,51,109628,2,0,P|276:42|175:41,1,155.999992858887,0|4,1:0|0:3,0:0:0:0:
169,220,110164,1,0,1:0:0:0:
338,141,110432,1,4,0:3:0:0:
163,347,110700,5,6,1:2:0:0:
118,185,110962,1,4,0:3:0:0:
329,271,111225,1,0,1:0:0:0:
125,201,111488,1,4,0:3:0:0:
330,143,111751,1,0,1:0:0:0:
131,216,112015,1,4,0:3:0:0:
194,52,112279,1,0,1:0:0:0:
138,233,112543,1,4,0:3:0:0:
288,45,112807,6,0,P|374:33|454:40,1,155.999992858887,0|4,1:0|0:3,0:0:0:0:
486,249,113338,2,0,L|501:344,1,77.9999964294435,2|0,1:1|0:1,1:1:0:0:
377,108,113604,2,0,L|392:25,1,77.9999964294435,2|0,0:1|0:0,0:0:0:0:
342,294,113869,2,0,P|227:310|148:205,1,233.999989288331,2|0,1:1|0:0,0:0:0:0:
142,157,114399,1,0,1:1:0:0:
67,321,114670,1,4,0:3:0:0:
186,112,114942,6,0,P|274:101|348:114,1,155.999992858887,4|4,1:0|0:3,0:0:0:0:
359,307,115472,2,0,P|464:327|513:324,1,155.999992858887,0|4,1:0|0:3,0:0:0:0:
401,106,116003,1,0,1:0:0:0:
280,300,116263,1,4,0:3:0:0:
154,125,116523,2,0,P|40:136|-16:152,1,155.999992858887,0|4,1:0|0:3,0:0:0:0:
91,335,117043,5,0,1:0:0:0:
220,215,117308,1,4,0:3:0:0:
142,41,117573,1,0,1:0:0:0:
93,208,117839,1,4,0:3:0:0:
247,58,118104,1,0,1:0:0:0:
319,213,118360,1,4,0:3:0:0:
469,70,118616,1,0,1:0:0:0:
482,311,118881,5,4,0:3:0:0:
482,311,119014,1,0,0:0:0:0:
482,311,119146,1,4,1:0:0:0:
263,102,119964,1,0,1:0:0:0:
141,315,120782,1,0,1:0:0:0:
319,16,121307,5,4,1:2:0:0:
447,338,122092,1,4,1:2:0:0:
327,76,137409,6,0,L|312:197,1,96
160,182,137959,1,0,0:0:0:0:
160,182,138234,2,0,L|167:312,1,96,4|0,0:3|0:0,0:0:0:0:
305,362,138785,6,0,P|391:302|344:200,1,192,2|0,0:0|0:0,0:0:0:0:
264,130,139595,2,0,P|86:119|39:117,1,192,2|0,0:0|0:0,0:0:0:0:
49,228,140406,2,0,L|39:278,2,48,2|0|0,0:0|0:0|0:0,0:0:0:0:
209,17,140947,5,6,1:3:0:0:
315,198,142274,1,8,0:3:0:0:
186,278,142539,2,8,L|182:326,3,40,8|8|8|8,0:3|0:3|0:3|0:3,0:3:0:0:
209,79,143070,5,4,1:0:0:0:
342,270,143438,1,8,0:3:0:0:
217,204,143684,1,8,0:3:0:0:
217,204,143807,1,8,0:3:0:0:
343,136,144053,1,4,0:3:0:0:
447,236,144318,1,4,0:3:0:0:
383,365,144583,1,4,0:3:0:0:
242,345,144849,1,4,0:3:0:0:
163,143,145114,5,4,1:0:0:0:
61,348,145501,1,8,0:3:0:0:
58,219,145760,1,8,0:3:0:0:
58,219,145889,1,8,0:3:0:0:
236,40,146386,1,8,0:3:0:0:
336,117,146651,1,8,0:3:0:0:
336,123,146740,1,8,0:3:0:0:
337,130,146827,1,8,0:3:0:0:
338,136,146916,1,4,0:3:0:0:
339,143,147005,1,4,0:3:0:0:
340,150,147093,1,4,0:3:0:0:
341,156,147182,5,4,1:0:0:0:
319,369,147565,1,4,0:3:0:0:
391,270,147821,1,8,0:3:0:0:
391,270,147949,1,4,0:3:0:0:
257,203,148205,1,4,0:3:0:0:
156,313,148462,1,4,0:3:0:0:
41,212,148720,1,4,0:3:0:0:
40,205,148806,1,4,0:3:0:0:
39,198,148892,1,4,0:3:0:0:
39,192,148978,1,4,0:3:0:0:
38,185,149064,1,4,0:3:0:0:
38,178,149150,1,4,0:3:0:0:
37,172,149236,6,0,P|60:90|98:15,1,160,4|8,1:0|0:3,0:0:0:0:
205,99,149861,1,4,0:3:0:0:
205,99,149981,1,4,0:3:0:0:
329,17,150221,1,4,0:3:0:0:
388,18,150343,1,8,0:3:0:0:
440,47,150465,1,4,0:3:0:0:
472,97,150587,1,4,0:3:0:0:
477,156,150709,1,8,0:3:0:0:
366,266,150965,1,4,0:3:0:0:
224,206,151221,5,4,0:3:0:0:
91,290,151478,2,0,L|72:365,1,60,4|8,0:3|0:3,0:0:0:0:
34,161,151858,1,8,0:3:0:0:
31,101,151981,1,4,0:3:0:0:
56,47,152104,1,4,0:3:0:0:
102,16,152227,6,8,L|157:18,5,40,8|8|8|8|8|8,0:3|0:3|0:3|0:3|0:3|0:3,0:3:0:0:
174,81,152721,5,4,0:3:0:0:
193,83,152807,1,4,0:3:0:0:
213,84,152893,1,4,0:3:0:0:
233,85,152979,1,4,0:3:0:0:
253,84,153065,1,4,0:3:0:0:
273,83,153152,1,4,0:3:0:0:
292,79,153238,6,0,P|383:67|466:68,1,155.999992858887,4|0,1:0|0:0,0:0:0:0:
229,239,153757,1,0,1:0:0:0:
436,215,154017,2,0,P|460:281|439:366,1,155.999992858887,0|0,1:0|1:0,1:0:0:0:
227,131,154533,2,0,P|229:71|292:-3,1,155.999992858887,0|0,1:0|1:0,1:0:0:0:
455,120,155048,1,0,1:0:0:0:
277,301,155306,5,0,1:0:0:0:
139,95,155562,1,0,1:0:0:0:
384,155,155819,1,0,1:0:0:0:
111,258,156076,1,0,1:0:0:0:
271,53,156336,1,0,1:0:0:0:
367,285,156597,1,4,0:3:0:0:
86,159,156858,2,0,P|59:183|53:202,1,53.9999983520508,0|0,1:0|0:0,0:0:0:0:
62,254,157393,6,0,B|209:318|197:199|374:268,1,311.999985717774,4|0,1:0|1:0,0:0:0:0:
301,42,158318,1,0,1:0:0:0:
301,42,158443,2,4,L|308:206,1,155.999992858887,4|4,0:3|0:3,0:3:0:0:
273,366,158960,1,2,1:3:0:0:
138,175,159218,1,4,0:3:0:0:
138,175,159348,1,4,0:3:0:0:
138,175,159477,6,0,P|178:107|385:144,1,311.999985717774,6|0,0:3|1:0,0:0:0:0:
416,319,160262,1,0,0:0:0:0:
265,203,160512,1,4,0:3:0:0:
464,130,160762,1,6,0:3:0:0:
231,34,161012,2,0,P|193:31|164:33,1,53.9999983520508,2|0,1:3|0:0,0:0:0:0:
128,43,161536,6,0,P|135:135|141:355,1,311.999985717774,4|0,1:0|1:0,0:0:0:0:
365,175,162454,1,0,1:0:0:0:
365,175,162584,2,4,P|233:173|205:174,1,155.999992858887,6|4,0:3|0:3,0:3:0:0:
342,352,163101,2,0,P|474:354|502:353,1,155.999992858887,0|0,1:0|0:0,0:0:0:0:
489,134,163618,6,0,P|455:52|256:68,1,311.999985717774,6|0,0:3|1:0,0:0:0:0:
180,255,164413,2,0,P|64:262|18:260,1,155.999992858887,0|4,0:0|0:3,0:0:0:0:
48,65,164945,1,6,0:3:0:0:
252,10,165210,2,0,P|240:123|238:185,1,155.999992858887,2|0,1:2|0:0,0:0:0:0:
312,370,165722,6,0,P|376:387|494:214,1,311.999985717774,4|0,1:2|1:0,0:0:0:0:
235,26,166774,1,6,0:3:0:0:
428,131,167032,1,4,0:3:0:0:
255,252,167291,2,0,P|161:264|88:266,1,155.999992858887,0|0,1:0|0:0,0:0:0:0:
37,15,167808,6,0,P|206:18|361:40,1,311.999985717774,6|0,0:3|1:0,0:0:0:0:
463,160,168604,1,0,0:0:0:0:
238,230,168869,2,0,P|222:344|222:393,1,155.999992858887,6|4,0:3|0:3,0:0:0:0:
420,154,169400,2,0,P|417:94|401:-11,1,155.999992858887,0|0,1:3|0:3,0:0:0:0:
165,27,169931,6,0,P|169:144|190:360,1,311.999985717774,6|0,0:3|1:0,0:0:0:0:
492,164,170993,2,0,P|508:75|479:-32,2,155.999992858887,6|4|0,0:3|0:3|1:0,0:0:0:0:
296,332,171790,1,0,0:0:0:0:
296,332,171923,1,0,0:0:0:0:
296,332,172055,6,0,L|283:13,1,311.999985717774,6|0,0:3|1:0,0:0:0:0:
178,154,172852,1,0,0:0:0:0:
387,200,173117,2,0,L|393:363|393:363,1,155.999992858887,6|4,0:3|0:3,0:0:0:0:
198,361,173648,2,0,P|103:338|72:244,1,180,2|0,1:3|0:0,0:0:0:0:
75,210,174179,6,0,L|94:83,1,120,6|0,0:3|1:0,0:0:0:0:
253,14,174976,2,0,L|272:141,1,120,2|4,0:0|0:3,0:0:0:0:
229,282,175772,2,0,P|183:294|148:294,1,60,2|0,1:2|0:0,0:0:0:0:
378,193,176303,6,0,P|430:229|361:391,1,240,6|0,0:3|1:0,0:0:0:0:
229,197,177100,2,0,P|203:115|321:17,1,240,2|4,0:0|0:3,0:0:0:0:
43,20,177896,6,0,P|80:90|121:204,1,180.000006866455,2|4,1:2|0:3,0:0:0:0:
179,349,178427,6,0,P|296:375|415:382,1,240,6|0,0:3|1:0,0:0:0:0:
425,222,179189,1,0,0:0:0:0:
425,222,179316,1,2,0:0:0:0:
425,222,179443,2,0,L|431:83,1,120,4|4,0:3|0:3,0:0:0:0:
247,116,179973,2,0,P|220:120|193:121,1,53.9999983520508,2|0,1:2|0:0,0:0:0:0:
258,52,180504,6,0,P|234:260|94:306,1,360.000013732911,6|0,0:3|1:0,0:0:0:0:
80,62,181270,2,0,P|175:32|258:155,1,235.19999784668,2|4,0:0|0:3,0:0:0:0:
360,285,182050,2,0,P|384:294|410:297,1,53.9999983520508,2|0,1:3|0:0,0:0:0:0:
476,273,182581,6,0,P|372:241|112:279,1,360.000013732911,6|0,0:3|1:0,0:0:0:0:
351,119,183363,2,0,P|290:218|169:242,1,240,2|4,0:0|0:3,0:0:0:0:
99,82,184146,2,0,P|96:44|96:24,1,53.9999983520508,2|0,1:2|0:0,0:0:0:0:
168,7,184667,6,0,P|260:7|424:114,1,270.000010299683,6|0,0:3|0:0,0:0:0:0:
430,167,185189,6,0,P|298:140|190:153,1,198.000006042481,2|0,1:2|0:0,0:0:0:0:
187,198,185711,6,0,P|293:225|333:246,1,125.999996154785,6|0,0:3|0:0,0:0:0:0:
330,294,186233,6,0,P|266:289|241:290,1,72,2|0,1:2|0:0,0:0:0:0:
391,334,186754,6,0,P|488:277|370:75,1,360.000013732911,6|0,1:3|1:0,0:0:0:0:
270,258,187537,2,0,P|362:328|482:275,1,240,2|4,0:0|0:3,0:0:0:0:
341,125,188320,2,0,P|305:120|283:123,1,53.9999983520508,2|0,1:2|0:0,0:0:0:0:
374,41,188841,6,0,P|341:182|135:262,1,360.000013732911,6|0,0:3|1:0,0:0:0:0:
265,66,189624,2,0,P|331:113|342:279,1,240,2|4,0:2|0:3,0:0:0:0:
218,354,190415,2,0,P|158:354|152:353,1,53.9999983520508,2|0,1:2|0:0,0:0:0:0:
100,286,190946,6,0,P|268:243|500:265,1,360.000013732911,6|0,0:3|1:0,0:0:0:0:
296,384,191737,2,0,P|171:383|54:362,1,240,2|4,0:0|0:3,0:0:0:0:
86,170,192520,2,0,P|89:120|89:103,1,53.9999983520508,2|0,1:2|0:0,0:0:0:0:
41,71,193042,6,0,P|24:168|128:350,1,270.000010299683,6|0,0:3|0:0,0:0:0:0:
148,334,193563,6,0,P|129:227|181:145,1,198.000006042481,2|0,1:2|0:0,0:0:0:0:
228,133,194085,6,0,P|215:220|221:281,1,125.999996154785,6|0,0:3|0:0,0:0:0:0:
240,303,194606,5,2,1:2:0:0:
240,303,195128,5,4,1:0:0:0:
309,128,195400,1,4,0:3:0:0:
377,321,195673,5,0,1:0:0:0:
315,135,195937,1,4,0:3:0:0:
486,246,196202,5,0,1:0:0:0:
322,141,196466,1,4,0:3:0:0:
512,100,196731,5,0,1:0:0:0:
329,150,196995,1,4,0:3:0:0:
182,42,197260,5,4,1:2:0:0:
66,177,197518,1,4,0:3:0:0:
260,209,197777,5,0,1:0:0:0:
72,184,198035,1,4,0:3:0:0:
179,352,198294,5,0,1:1:0:0:
81,191,198553,1,4,0:3:0:0:
19,362,198811,5,0,1:0:0:0:
86,198,199070,1,4,0:3:0:0:
260,109,199328,5,4,1:2:0:0:
260,332,199590,1,4,0:3:0:0:
413,181,199853,5,0,1:0:0:0:
268,340,200115,1,4,0:3:0:0:
484,339,200378,5,0,1:0:0:0:
277,348,200640,1,4,0:3:0:0:
447,225,200903,5,0,1:0:0:0:
284,356,201166,1,4,0:3:0:0:
70,284,201428,5,4,1:2:0:0:
178,82,201689,1,4,0:3:0:0:
275,302,201951,5,0,1:0:0:0:
185,89,202212,1,4,0:3:0:0:
419,173,202474,5,0,1:0:0:0:
192,97,202735,1,4,0:3:0:0:
408,8,202997,5,0,1:0:0:0:
199,108,203258,1,4,0:3:0:0:
221,322,203520,6,0,P|314:371|451:331,1,240,4|0,1:2|0:0,0:0:0:0:
449,183,204323,2,0,P|356:134|219:174,1,240,0|0,1:2|0:0,0:0:0:0:
148,327,205127,1,0,1:0:0:0:
199,35,205662,5,6,0:3:0:0:
368,339,206431,1,6,0:3:0:0:
368,339,207819,5,0,0:0:0:0:
368,339,208084,1,0,0:0:0:0:
368,339,208351,1,8,0:0:0:0:
368,338,208617,1,0,0:0:0:0:
368,338,208750,1,0,0:0:0:0:
368,338,208883,1,0,0:0:0:0:
368,338,209149,1,0,0:0:0:0:
315,200,209415,1,0,3:3:0:0:
169,283,209942,5,0,0:0:0:0:
169,283,210207,1,0,0:0:0:0:
169,283,210472,1,8,0:0:0:0:
169,282,210738,1,0,0:0:0:0:
169,282,210871,1,0,0:0:0:0:
169,282,211003,1,0,0:0:0:0:
169,282,211269,1,0,0:0:0:0:
254,155,211535,2,0,P|260:81|261:37,1,90.0000034332277,0|0,3:0|0:0,0:0:0:0:
382,111,212052,5,0,0:0:0:0:
382,111,212315,1,0,0:0:0:0:
382,111,212578,1,8,0:0:0:0:
382,110,212841,1,0,0:0:0:0:
382,110,212973,1,0,0:0:0:0:
382,110,213104,1,0,0:0:0:0:
382,110,213367,1,0,0:0:0:0:
403,285,213630,1,0,3:0:0:0:
235,248,214157,5,2,0:0:0:0:
235,248,214415,1,0,0:0:0:0:
235,248,214674,1,8,0:0:0:0:
235,248,214932,1,2,0:0:0:0:
235,248,215062,1,0,0:0:0:0:
235,248,215191,1,0,0:0:0:0:
235,248,215450,1,0,0:0:0:0:
254,116,215708,1,8,0:1:0:0:
142,54,215967,1,0,3:0:0:0:
140,183,216225,5,0,0:0:0:0:
140,183,216491,1,0,0:0:0:0:
140,183,216757,1,8,0:0:0:0:
140,183,217023,1,0,0:0:0:0:
140,183,217156,1,0,0:0:0:0:
140,183,217289,1,0,0:0:0:0:
140,183,217555,1,0,0:0:0:0:
254,116,217803,1,0,3:0:0:0:
341,264,218320,5,0,0:0:0:0:
341,264,218580,1,0,0:0:0:0:
341,264,218841,1,8,0:0:0:0:
341,264,219102,1,0,0:0:0:0:
341,264,219233,1,0,0:0:0:0:
341,264,219363,1,0,0:0:0:0:
341,264,219624,1,0,0:0:0:0:
392,166,219884,1,0,3:0:0:0:
209,44,220397,6,0,P|146:41|95:47,2,83.9999974365235,2|0|0,0:0|0:0|0:0,0:0:0:0:
256,192,221193,1,2,0:0:0:0:
256,192,221475,12,0,231335,0:0:0:0:
