osu file format v14

[General]
AudioFilename: 12121212.mp3
AudioLeadIn: 0
PreviewTime: 29558
Countdown: 0
SampleSet: Soft
StackLeniency: 0.4
Mode: 0
LetterboxInBreaks: 0
WidescreenStoryboard: 1

[Editor]
DistanceSpacing: 1
BeatDivisor: 4
GridSize: 16
TimelineZoom: 1.5

[Metadata]
Title:Under Pressure
TitleUnicode:Under Pressure
Artist:Queen & David Bowie
ArtistUnicode:Queen & David Bowie
Creator:Sinnoh
Version:Hard
Source:
Tags:english rock hot space
BeatmapID:2175312
BeatmapSetID:1013332

[Difficulty]
HPDrainRate:4
CircleSize:3.5
OverallDifficulty:5
ApproachRate:6
SliderMultiplier:2
SliderTickRate:1

[Events]
//Background and Video events
0,0,"Operation_Crossroads_Baker_Edit_feature.jpg",0,0
Video,-5500,"video.avi"
//Break Periods
2,72560,79453
2,125634,137735
//Storyboard Layer 0 (Background)
//Storyboard Layer 1 (Fail)
//Storyboard Layer 2 (Pass)
//Storyboard Layer 3 (Foreground)
//Storyboard Layer 4 (Overlay)
//Storyboard Sound Samples

[TimingPoints]
30099,540.540540540541,4,2,1,60,1,0
30234,-100,4,2,1,20,0,0
30369,-100,4,2,1,60,0,0
30504,-100,4,2,1,20,0,0
30639,530.973451327434,4,2,1,60,1,0
34355,530.973451327434,4,2,1,60,1,0
38735,-100,4,2,1,20,0,0
38868,-100,4,2,1,60,0,0
39001,-100,4,2,1,20,0,0
39133,-100,4,2,1,60,0,0
41124,-100,4,2,1,10,0,0
41257,-100,4,2,1,60,0,0
49222,528.63436123348,4,2,1,60,1,0
55565,540.540540540541,4,2,1,60,1,1
55565,-100,4,2,1,60,0,1
57727,521.739130434783,4,2,1,60,1,1
58770,540.540540540541,4,2,1,60,1,1
59850,528.63436123348,4,2,1,60,1,1
64078,526.315789473684,4,2,1,60,1,1
66183,528.63436123348,4,2,1,60,1,1
67240,524.017467248908,4,2,1,60,1,1
68288,535.714285714286,4,2,1,60,1,0
68288,-100,4,2,1,60,0,0
70418,530.973451327434,4,2,1,60,1,0
71479,540.540540540541,4,2,1,60,1,0
72560,530.973451327434,4,2,1,60,1,0
80503,550.45871559633,4,2,1,60,1,0
81055,530.973451327434,4,2,1,60,1,0
81055,-125,4,2,1,60,0,0
81928,645.161290322581,4,2,1,60,1,0
81940,-100,4,2,1,60,0,0
82641,530.973451327434,4,2,1,60,1,0
83171,530.973451327434,4,2,1,60,1,0
84232,545.454545454546,4,2,1,60,1,0
85294,530.973451327434,4,2,1,60,1,0
86887,540.540540540541,4,2,1,60,1,0
87427,535.714285714286,4,2,1,60,1,0
91177,526.315789473685,4,2,1,60,1,0
92492,508.474576271187,4,2,1,60,1,0
93254,530.973451327434,4,2,1,60,1,0
93784,530.973451327434,4,2,1,60,1,0
96438,517.241379310345,4,2,1,60,1,0
97989,530.973451327434,4,2,1,60,1,0
102236,521.739130434783,4,2,1,60,1,0
103279,525.164113785558,4,2,1,60,1,0
104329,530.973451327434,4,2,1,60,1,0
106452,-100,4,2,1,60,0,1
108576,526.315789473684,4,2,1,60,1,1
109628,536.193029490617,4,2,1,60,1,1
110700,525.854513584575,4,2,1,60,1,1
111751,528.169014084507,4,2,1,60,1,1
112807,530.973451327434,4,2,1,60,1,1
114399,543.478260869565,4,2,1,60,1,1
114942,530.973451327434,4,2,1,60,1,1
116003,520.381613183001,4,2,1,60,1,1
117043,530.973451327434,4,2,1,60,1,1
118104,512.820512820513,4,2,1,60,1,1
118616,530.973451327434,4,2,1,60,1,1
119146,545.454545454546,4,2,1,60,1,0
119166,-100,4,2,1,60,0,0
120785,522.648083623693,4,2,1,60,1,0
121307,524.017467248908,4,2,1,60,1,0
123453,545.454545454546,4,2,1,60,1,0
132180,550.458715596331,4,2,1,60,1,0
138785,540.540540540541,4,2,1,60,1,0
140947,530.973451327434,4,2,1,60,1,0
143070,491.803278688525,4,2,1,60,1,0
144053,530.973451327434,4,2,1,60,1,0
145114,517.241379310345,4,2,1,60,1,0
146121,530.973451327434,4,2,1,60,1,0
147182,511.727078891258,4,2,1,60,1,0
148205,515.907136715391,4,2,1,60,1,0
149236,500,4,2,1,60,1,0
149861,480,4,2,1,60,1,0
150221,488.20179007323,4,2,1,60,1,0
150709,512.820512820513,4,2,1,60,1,0
151221,515.021459227468,4,2,1,60,1,0
151736,491.803278688525,4,2,1,60,1,0
152227,494.845360824742,4,2,1,60,1,0
152721,517.241379310345,4,2,1,60,1,0
153238,519.480519480519,4,2,1,60,1,0
154276,515.021459227468,4,2,1,60,1,0
155306,513.918629550321,4,2,1,60,1,0
156076,521.739130434783,4,2,1,60,1,0
156858,535.714285714286,4,2,1,60,1,0
157259,-100,4,2,1,5,0,0
157393,550.458715596331,4,2,1,60,1,1
157943,500,4,2,1,60,1,0
158443,517.241379310345,4,2,1,60,1,0
159477,535.714285714286,4,2,1,60,1,0
160012,500,4,2,1,60,1,0
161012,524.017467248908,4,2,1,60,1,0
161536,531.443755535872,4,2,1,60,1,0
162067,517.241379310345,4,2,1,60,1,0
163618,530.973451327434,4,2,1,60,1,0
165210,512.820512820513,4,2,1,60,1,0
165722,535.714285714286,4,2,1,60,1,0
166257,517.241379310345,4,2,1,60,1,0
167808,530.973451327434,4,2,1,60,1,0
178427,508.474576271187,4,2,1,60,1,0
179443,530.973451327434,4,2,1,60,1,0
180333,-100,4,2,1,5,0,0
180460,-100,4,2,1,60,0,0
180504,508.474576271187,4,2,1,60,1,0
181012,517.241379310345,4,2,1,60,1,0
181787,526.315789473684,4,2,1,60,1,0
182050,530.973451327434,4,2,1,60,1,0
182449,-100,4,2,1,5,0,0
182581,521.739130434783,4,2,1,60,1,0
182581,-100,4,2,1,60,0,0
184537,-100,4,2,1,5,0,0
184667,-100,4,2,1,60,0,0
188711,-100,4,2,1,5,0,0
188841,-100,4,2,1,60,0,0
189885,530.973451327434,4,2,1,60,1,0
190814,-100,4,2,1,5,0,0
190946,-100,4,2,1,60,0,0
191477,521.739130434783,4,2,1,60,1,0
192911,-100,4,2,1,5,0,0
193042,521.739130434783,4,2,1,60,1,0
195128,545.454545454546,4,2,1,60,1,0
195128,-100,4,2,1,60,0,1
195673,529.100529100529,4,2,1,60,1,1
197260,517.241379310345,4,2,1,60,1,1
199328,525.164113785558,4,2,1,60,1,1
201428,523.1037489102,4,2,1,60,1,1
203520,535.714285714286,4,2,1,60,1,0
203520,-125,4,2,1,60,0,0
205662,512.820512820513,4,2,1,60,1,0
206687,566.037735849057,4,2,1,60,1,0
207819,532.150776053215,4,2,1,60,1,0
209942,530.973451327434,4,2,1,60,1,0
211535,517.241379310345,4,2,1,60,1,0
212052,526.315789473685,4,2,1,60,1,0
214157,517.241379310345,4,2,1,60,1,0
216225,532.150776053215,4,2,1,60,1,0
217803,517.241379310345,4,2,1,60,1,0
218320,521.739130434783,4,2,1,60,1,0
219885,512.820512820513,4,2,1,60,1,0
220910,566.037735849057,4,2,1,60,1,0
221476,504.201680672269,4,2,1,60,1,0
222988,521.739130434783,4,2,1,60,1,0
225074,-100,4,2,1,50,0,0
226118,-100,4,2,1,40,0,0
227161,-100,4,2,1,30,0,0
228205,-100,4,2,1,20,0,0
229248,-100,4,2,1,10,0,0
230292,-100,4,2,1,5,0,0
231335,-100,4,2,1,5,0,0

[Colours]
Combo1 : 255,128,128
Combo2 : 0,128,255
Combo3 : 192,192,192

[HitObjects]
265,39,29558,5,2,1:3:0:0:
265,39,30099,5,6,0:3:0:0:
206,143,30369,1,2,0:3:0:0:
292,228,30639,1,0,1:0:0:0:
292,228,30904,2,0,P|274:299|129:332,1,200,2|4,0:0|0:3,0:0:0:0:
98,245,31700,2,0,L|91:114,1,100,2|0,1:2|0:0,0:0:0:0:
177,60,32231,6,0,B|216:28|216:28|199:184,1,200,6|0,0:3|1:2,0:0:0:0:
209,296,33028,2,0,P|273:316|402:232,1,200,2|4,0:0|0:3,0:0:0:0:
352,144,33824,1,2,1:2:0:0:
250,78,34090,1,4,0:3:0:0:
367,26,34355,6,0,P|424:51|445:199,1,200,6|2,0:3|1:2,0:0:0:0:
337,188,35151,2,0,P|307:306|307:388,1,200,0|4,0:3|0:3,0:0:0:0:
429,334,35947,1,0,1:0:0:0:
329,266,36213,1,0,0:0:0:0:
216,305,36478,6,0,P|138:318|94:319,2,100,4|0|0,0:3|0:0|1:0,0:0:0:0:
248,188,37275,2,0,L|257:52,1,100,0|0,0:0|0:0,0:0:0:0:
346,10,37806,1,4,0:3:0:0:
433,92,38071,2,0,L|426:214,1,100,2|0,1:3|0:0,0:0:0:0:
345,279,38602,5,6,0:3:0:0:
238,223,38868,1,2,0:3:0:0:
141,294,39133,1,2,1:2:0:0:
141,294,39399,2,0,P|58:263|42:129,1,200,0|4,0:0|0:3,0:0:0:0:
109,74,40195,2,0,P|152:66|220:65,1,100,2|0,1:2|0:0,0:0:0:0:
269,167,40726,6,0,B|323:157|360:129|360:129|410:149|457:151,1,200,6|2,0:3|1:2,0:0:0:0:
438,31,41523,2,0,P|346:1|260:46,1,200,2|4,0:3|0:3,0:0:0:0:
190,144,42319,1,2,1:2:0:0:
253,246,42585,1,0,0:0:0:0:
178,339,42850,6,0,P|122:342|62:349,2,100,6|0|2,0:3|0:0|1:2,0:0:0:0:
253,246,43647,2,0,P|377:252|482:251,1,200,2|4,0:0|0:3,0:0:0:0:
414,137,44443,2,0,P|482:112|525:105,1,100,0|0,1:0|0:0,0:0:0:0:
392,31,44974,5,6,0:3:0:0:
278,70,45240,1,2,0:0:0:0:
164,30,45505,1,2,1:2:0:0:
143,148,45770,2,0,L|124:262,2,100,2|0|4,0:0|0:0|0:3,0:0:0:0:
251,95,46567,2,0,P|320:87|375:82,1,100,2|4,1:3|0:3,0:0:0:0:
401,193,47098,5,6,0:3:0:0:
401,193,47363,1,0,0:0:0:0:
401,193,47629,1,0,1:0:0:0:
316,278,47894,2,0,P|266:274|217:262,1,100,2|0,0:0|0:0,0:0:0:0:
129,180,48425,1,4,0:3:0:0:
245,146,48692,1,0,1:0:0:0:
90,330,49222,5,4,0:3:0:0:
90,330,49486,1,0,0:0:0:0:
90,330,49750,1,0,1:0:0:0:
203,369,50014,2,0,P|252:365|301:353,1,100,2|0,0:0|0:0,0:0:0:0:
376,259,50543,1,4,0:3:0:0:
258,236,50807,1,2,1:3:0:0:
258,236,51072,1,0,0:0:0:0:
284,118,51336,6,0,L|300:15,1,100,4|0,0:3|0:3,0:0:0:0:
419,24,51865,1,0,1:0:0:0:
419,24,52129,2,0,L|443:244,1,200,0|4,0:0|0:3,0:0:0:0:
353,305,52922,2,0,P|285:310|227:310,1,100,0|0,1:0|0:0,0:0:0:0:
152,244,53451,6,0,P|77:243|37:245,2,100,4|0|0,0:3|0:0|1:0,0:0:0:0:
263,198,54244,1,2,0:0:0:0:
165,128,54508,1,2,0:0:0:0:
152,244,54772,1,4,0:3:0:0:
54,174,55036,2,0,L|48:49,1,100,2|4,1:3|0:3,0:0:0:0:
185,20,55565,6,0,P|246:22|327:35,1,100,4|4,1:0|0:3,0:0:0:0:
316,152,56105,1,0,1:0:0:0:
440,124,56375,1,6,0:3:0:0:
396,250,56646,2,0,B|303:286|303:286|225:222,1,200,0|2,1:0|1:2,0:0:0:0:
208,89,57456,1,4,0:3:0:0:
323,41,57727,6,0,P|408:55|442:177,1,200,2|2,1:2|1:3,0:0:0:0:
433,282,58508,1,4,0:3:0:0:
314,232,58770,2,0,P|249:234|198:249,1,100,2|4,1:3|0:3,0:0:0:0:
151,343,59310,2,0,P|206:308|242:270,1,100,2|4,1:3|0:3,0:0:0:0:
251,151,59850,6,0,L|263:46,1,100,4|4,1:0|0:3,0:0:0:0:
380,153,60378,2,0,L|392:258,1,100,0|4,1:0|0:3,0:0:0:0:
298,332,60907,1,0,1:0:0:0:
423,358,61171,2,0,P|437:298|303:220,1,200,6|4,0:3|0:3,0:0:0:0:
223,249,61964,1,4,0:3:0:0:
242,116,62228,5,2,0:1:0:0:
361,135,62493,1,0,1:0:0:0:
482,155,62757,2,0,P|488:66|487:43,1,100,2|0,0:1|1:0,0:0:0:0:
369,30,63286,2,0,L|262:28,1,100,4|0,0:3|1:0,0:0:0:0:
186,114,63814,1,4,0:3:0:0:
302,145,64079,6,0,P|354:100|385:64,2,100,4|4|0,1:0|0:3|1:0,0:0:0:0:
205,208,64867,1,4,0:3:0:0:
88,177,65130,2,0,P|74:236|64:316,2,100,2|0|0,1:3|0:0|1:0,0:0:0:0:
199,130,65920,1,4,0:3:0:0:
300,193,66183,1,0,1:0:0:0:
396,121,66447,2,0,P|465:120|527:129,1,100,6|0,0:3|1:0,0:0:0:0:
495,243,66975,1,4,0:3:0:0:
495,243,67240,2,0,P|409:275|380:283,1,100,2|4,1:2|0:3,0:0:0:0:
276,223,67764,1,2,1:3:0:0:
276,223,68026,1,4,0:3:0:0:
232,337,68288,5,6,0:3:0:0:
132,18,69090,1,0,1:0:0:0:
230,338,69894,1,0,1:0:0:0:
350,134,70418,5,4,1:2:0:0:
44,322,71213,1,4,1:2:0:0:
265,39,80503,5,2,1:3:0:0:
265,39,81055,6,0,L|271:229,1,160,4|0,0:3|1:0,0:0:0:0:
348,299,81928,2,0,P|412:301|447:302,2,66.6666666666667,2|2|6,0:0|0:0|0:3,0:0:0:0:
222,273,82641,2,0,P|171:293|245:361,1,200,2|4,1:3|0:3,0:0:0:0:
369,161,83701,5,2,1:3:0:0:
284,75,83967,2,0,L|199:69,1,50,0|0,0:0|0:0,0:0:0:0:
180,98,84232,2,0,P|169:144|171:218,1,100,6|4,0:3|0:3,0:0:0:0:
275,251,84777,2,0,P|285:204|284:131,1,100,0|0,1:0|0:0,0:0:0:0:
266,33,85294,6,0,L|60:41,1,200,4|0,0:3|1:0,0:0:0:0:
49,160,86091,2,0,L|40:249,2,75,2|2|2,0:0|0:0|0:0,0:0:0:0:
107,144,86622,1,4,0:3:0:0:
183,233,86887,6,0,P|287:256|385:237,1,200,0|4,1:0|0:3,0:0:0:0:
432,128,87694,1,2,0:0:0:0:
348,92,87896,2,0,L|351:15,2,75,2|2|2,0:0|0:0|0:0,0:0:0:0:
292,162,88498,2,0,L|285:290,1,100,2|4,0:0|0:3,0:0:0:0:
179,317,89034,1,2,1:3:0:0:
69,267,89302,1,4,0:3:0:0:
75,147,89568,5,6,0:3:0:0:
188,107,89837,2,0,L|298:121,1,100,2|0,0:3|1:0,0:0:0:0:
366,36,90373,1,2,0:3:0:0:
287,119,90641,2,0,L|279:251,1,100,2|4,0:3|0:3,0:0:0:0:
360,312,91177,1,0,1:0:0:0:
121,289,91703,5,4,0:3:0:0:
58,186,91966,2,0,L|55:127,2,50,2|0|2,0:3|0:0|1:3,0:0:0:0:
63,245,92361,1,2,0:3:0:0:
63,245,92492,2,0,P|108:298|253:319,1,200,0|4,0:0|0:3,0:0:0:0:
335,278,93254,1,0,1:0:0:0:
311,39,93784,5,4,0:3:0:0:
196,30,94049,2,0,P|135:43|96:54,2,100,0|2|2,0:0|1:3|0:3,0:0:0:0:
251,136,94845,2,0,L|241:261,1,100,0|4,0:0|0:3,0:0:0:0:
129,274,95376,1,0,1:0:0:0:
360,210,95907,5,6,0:3:0:0:
360,210,96040,1,0,0:0:0:0:
360,210,96173,2,0,L|368:318,1,100,0|0,0:0|1:0,0:0:0:0:
255,351,96696,2,0,P|152:356|130:354,2,100,0|0|4,0:0|0:0|0:3,0:0:0:0:
282,234,97472,1,0,1:0:0:0:
213,135,97731,1,4,0:3:0:0:
304,62,97989,6,0,L|353:64,1,50,4|0,1:1|0:0,0:0:0:0:
370,122,98254,2,0,L|434:120,1,50,0|0,0:0|0:0,0:0:0:0:
467,83,98519,2,0,L|460:282,1,200,2|0,1:3|0:0,0:0:0:0:
350,334,99316,1,4,0:3:0:0:
254,261,99581,1,0,1:0:0:0:
142,307,99847,6,0,L|133:373,2,50,2|0|6,0:0|0:0|0:3,0:0:0:0:
160,188,100378,1,0,0:0:0:0:
68,110,100643,1,0,1:0:0:0:
155,27,100909,2,0,P|278:13|380:55,1,200,2|4,0:0|0:3,0:0:0:0:
373,153,101705,2,0,L|363:275,1,100,0|0,1:0|0:0,0:0:0:0:
256,307,102236,6,0,L|179:311,1,50,6|0,0:3|0:0,0:0:0:0:
182,254,102496,2,0,L|105:258,1,50
75,235,102757,2,0,L|63:23,1,200,2|0,1:3|0:0,0:0:0:0:
182,20,103541,1,4,0:3:0:0:
253,116,103804,1,0,1:0:0:0:
364,72,104066,6,0,P|412:66|433:66,2,50,2|0|6,0:0|0:0|0:3,0:0:0:0:
356,191,104594,1,0,0:0:0:0:
245,238,104859,2,0,L|230:343,1,100,2|0,1:3|0:0,0:0:0:0:
358,286,105390,2,0,P|371:341|381:391,1,100,2|0,0:3|0:0,0:0:0:0:
455,238,105921,1,2,1:2:0:0:
383,124,106187,1,4,0:3:0:0:
245,146,106453,6,4,L|135:161,1,100,6|4,1:2|0:3,1:1:0:0:
96,268,106983,1,0,1:3:0:0:
27,168,107249,2,0,P|19:113|17:26,2,100,6|0|4,0:3|1:0|0:3,0:0:0:0:
96,268,108045,1,2,1:3:0:0:
209,227,108311,1,4,0:3:0:0:
276,326,108576,6,0,P|362:333|427:227,1,200,6|0,0:3|1:0,0:0:0:0:
359,149,109365,1,6,0:3:0:0:
359,149,109628,2,0,L|246:140,1,100,0|4,1:0|0:3,0:0:0:0:
354,51,110164,2,0,L|479:41,1,100,0|4,1:0|0:3,0:0:0:0:
476,165,110700,6,0,P|441:274|356:305,1,200,6|0,1:2|1:0,0:0:0:0:
268,237,111488,1,4,0:3:0:0:
157,284,111751,2,0,P|137:349|133:387,2,100,0|4|0,1:0|0:3|1:0,0:0:0:0:
177,165,112543,1,4,0:3:0:0:
76,99,112808,1,0,1:0:0:0:
300,12,113337,6,0,P|289:128|288:152,1,100,2|4,1:1|0:3,0:0:0:0:
373,197,113868,2,0,P|368:273|237:310,1,200,2|0,1:0|1:0,0:0:0:0:
174,242,114670,1,4,0:3:0:0:
62,271,114942,6,0,P|4:338|-7:363,2,100,4|4|0,1:0|0:3|1:0,0:0:0:0:
172,324,115738,1,4,0:3:0:0:
259,242,116003,2,0,P|266:170|265:100,1,100,0|4,1:0|0:3,0:0:0:0:
148,119,116523,2,0,P|141:47|142:-23,1,100,0|4,1:0|0:3,0:0:0:0:
260,15,117043,2,0,P|332:19|394:32,1,100,0|4,1:0|0:3,0:0:0:0:
431,119,117573,1,0,1:0:0:0:
351,208,117839,1,4,0:3:0:0:
447,279,118104,2,0,L|462:388,1,100,0|4,1:0|0:3,0:0:0:0:
339,310,118616,1,0,1:0:0:0:
339,310,118881,1,4,0:3:0:0:
233,357,119146,5,4,1:0:0:0:
114,16,119964,1,0,1:0:0:0:
233,357,120785,1,0,1:0:0:0:
386,168,121307,5,4,1:2:0:0:
29,116,122093,1,4,1:2:0:0:
128,64,138785,6,0,L|115:275,1,200,2|0,0:0|0:0,0:0:0:0:
204,344,139595,2,0,P|316:340|389:266,1,200,2|0,0:0|0:0,0:0:0:0:
386,164,140406,2,0,P|426:125|478:101,1,100,2|0,0:0|0:0,0:0:0:0:
361,40,140947,5,6,1:3:0:0:
152,306,142274,5,8,0:3:0:0:
141,186,142539,2,8,L|138:146,3,33.3333333333333,8|8|8|8,0:3|0:3|0:3|0:3,0:0:0:0:
236,83,143070,6,0,L|392:78,1,150,4|8,1:0|0:3,0:0:0:0:
428,183,143684,2,0,L|428:238,1,50,8|8,0:3|0:3,0:0:0:0:
375,319,144053,2,0,L|262:330,1,100,4|4,0:3|0:3,0:0:0:0:
190,244,144583,1,4,0:3:0:0:
83,311,144849,1,4,0:3:0:0:
78,183,145114,6,0,L|73:29,1,150,4|8,1:0|0:3,0:0:0:0:
195,50,145760,2,0,L|254:55,1,50,8|8,0:3|0:3,0:0:0:0:
304,280,146385,1,8,0:3:0:0:
389,194,146651,2,0,L|431:191,6,33.3333333333333,8|8|8|4|4|4|4,0:3|0:3|0:3|0:3|0:3|0:3|1:0,0:0:0:0:
441,33,147565,5,4,0:3:0:0:
321,42,147821,2,0,L|257:45,1,50,8|4,0:3|0:3,0:0:0:0:
197,122,148205,2,0,L|186:238,1,100,4|4,0:3|0:3,0:0:0:0:
277,313,148720,2,0,L|286:352,4,33.3333333333333,4|4|4|4|4,0:3|0:3|0:3|0:3|0:3,0:0:0:0:
195,353,149236,6,0,B|125:366|125:366|101:211,1,200,4|0,1:0|0:0,0:0:0:0:
169,54,150221,2,0,L|284:54,1,100,4|4,0:3|0:3,0:0:0:0:
323,77,150587,1,4,0:3:0:0:
323,77,150709,2,0,L|330:183,1,100,8|4,0:3|0:3,0:0:0:0:
281,266,151221,5,4,0:3:0:0:
398,286,151478,2,0,L|463:293,1,50,4|8,0:3|0:3,0:0:0:0:
461,161,151858,2,0,L|526:150,2,50,8|4|4,0:3|0:3|0:3,0:0:0:0:
401,147,152227,2,8,L|392:93,4,33.3333333333333,8|8|8|8|8,0:3|0:3|0:3|0:3|0:3,0:0:0:0:
459,55,152721,2,0,L|468:1,4,33.3333333333333,4|4|4|4|4,0:3|0:3|0:3|0:3|0:3,0:0:0:0:
365,21,153238,6,0,P|279:36|233:56,1,100,4|0,1:0|0:0,0:0:0:0:
210,145,153757,1,0,1:0:0:0:
275,245,154017,2,0,P|366:253|403:246,1,100,0|0,1:0|1:0,1:1:0:0:
210,145,154533,2,0,P|157:219|145:255,1,100,0|0,1:0|1:0,1:1:0:0:
193,340,155048,1,0,1:0:0:0:
277,254,155306,5,0,1:0:0:0:
314,368,155562,1,0,1:0:0:0:
193,340,155819,1,0,1:0:0:0:
154,227,156076,2,0,L|146:108,1,100,0|0,1:0|1:0,0:0:0:0:
260,84,156597,1,4,0:3:0:0:
367,44,156858,1,0,1:0:0:0:
441,291,157393,6,0,B|404:333|404:333|248:307,1,200,4|0,1:0|1:0,0:0:0:0:
235,131,158318,1,0,1:0:0:0:
235,131,158443,2,4,L|224:-4,1,100,4|4,0:3|0:3,0:0:0:0:
107,14,158960,1,2,1:3:0:0:
43,115,159218,1,4,0:3:0:0:
152,153,159477,6,0,P|178:257|120:333,1,200,6|0,0:3|1:0,0:0:0:0:
59,229,160262,1,0,0:0:0:0:
152,153,160512,2,0,P|264:147|291:153,1,100,4|6,0:3|0:3,0:0:0:0:
302,254,161012,1,2,1:3:0:0:
407,39,161536,6,0,B|453:70|453:70|422:245,1,200,4|0,1:0|1:0,0:0:0:0:
278,316,162454,1,0,1:0:0:0:
278,316,162584,2,4,L|161:307,1,100,6|4,0:3|0:3,0:0:0:0:
177,188,163101,2,0,L|77:195,1,100,0|0,1:0|0:0,0:0:0:0:
178,308,163618,6,0,P|262:274|276:134,1,200,6|0,0:3|1:0,0:0:0:0:
208,96,164414,2,0,P|124:130|110:270,1,200,0|6,0:0|0:3,0:0:0:0:
194,203,165210,1,2,1:2:0:0:
398,79,165722,6,0,B|445:131|445:131|416:271,1,200,4|0,1:2|1:0,0:0:0:0:
187,323,166774,2,0,P|178:240|184:188,1,100,6|4,0:3|0:3,0:0:0:0:
289,177,167291,2,0,P|298:260|292:312,1,100,0|0,1:0|0:0,0:0:0:0:
187,323,167808,2,0,P|109:307|82:193,1,200,6|0,0:3|1:0,0:0:0:0:
166,118,168604,1,0,0:0:0:0:
280,152,168869,2,0,P|344:154|382:148,2,100,6|4|0,0:3|0:3|1:3,0:0:0:0:
74,26,169931,6,0,B|49:20|25:10|25:10|39:86|53:202,1,200,6|0,0:3|1:0,0:0:0:0:
252,282,170993,2,0,P|253:366|251:391,2,100,6|4|0,0:3|0:3|1:0,0:0:0:0:
235,162,171790,1,0,0:0:0:0:
336,225,172055,2,0,P|437:190|449:84,1,200,6|0,0:3|1:0,0:0:0:0:
367,26,172852,1,0,0:0:0:0:
367,26,173117,2,0,L|358:153,1,100,6|4,0:3|0:3,0:0:0:0:
455,198,173648,2,0,L|464:325,1,100,2|0,1:3|0:0,0:0:0:0:
348,336,174179,6,0,B|250:361|250:361|152:322,1,200,4|0,0:3|1:0,0:0:0:0:
238,234,174975,1,2,0:0:0:0:
238,234,175241,2,0,L|378:208,1,100,4|4,0:3|0:3,0:0:0:0:
257,125,175772,2,0,L|116:99,1,100,2|4,1:2|0:3,0:0:0:0:
60,176,176303,6,0,P|53:245|178:294,1,200,6|0,0:3|1:0,0:0:0:0:
244,224,177100,2,0,L|254:121,1,100,2|0,0:2|0:3,0:0:0:0:
177,31,177631,1,4,0:3:0:0:
294,12,177895,1,2,1:2:0:0:
395,215,178427,6,0,B|438:246|438:246|442:78,1,200,6|0,0:3|1:0,0:0:0:0:
266,141,179316,1,2,0:0:0:0:
266,141,179443,2,0,L|261:263,1,100,4|4,0:3|0:3,0:0:0:0:
207,347,179973,2,0,P|137:363|41:329,1,150,2|0,1:2|0:0,0:0:0:0:
37,286,180504,6,0,P|29:220|154:145,1,200,6|0,0:3|1:0,0:0:0:0:
201,232,181270,1,2,0:0:0:0:
201,232,181529,2,0,L|322:234,1,100,4|4,0:3|0:3,0:0:0:0:
308,115,182050,2,0,L|478:106,1,150,2|0,1:2|3:0,0:0:0:0:
489,159,182581,6,0,P|497:249|406:314,1,200,6|0,0:3|1:0,0:0:0:0:
298,298,183363,1,2,0:0:0:0:
298,298,183624,2,4,L|287:183,1,100,4|4,0:3|0:3,0:0:0:0:
395,143,184146,2,0,L|406:28,1,100,2|0,1:2|0:0,0:0:0:0:
284,38,184667,6,0,L|165:28,1,100,6|0,0:3|0:0,0:0:0:0:
95,111,185189,2,0,L|85:230,1,100,2|0,1:2|0:0,0:0:0:0:
168,300,185711,2,0,L|287:310,1,100,6|4,0:3|0:3,0:0:0:0:
357,227,186233,2,0,L|367:108,1,100,2|4,1:2|0:3,0:0:0:0:
284,38,186754,6,0,L|266:254,1,200,6|0,0:3|1:0,0:0:0:0:
338,334,187537,1,2,0:0:0:0:
338,334,187798,2,4,P|414:327|453:306,1,100,4|4,0:3|0:3,0:0:0:0:
476,204,188320,2,0,P|476:140|373:83,1,150,2|0,1:2|0:0,0:0:0:0:
366,117,188841,6,0,P|293:134|199:50,1,200,6|0,0:3|1:0,0:0:0:0:
310,8,189624,1,2,0:0:0:0:
310,9,189885,2,0,L|304:133,1,100,4|4,0:3|0:3,0:0:0:0:
189,140,190415,2,0,L|196:301,1,150,2|0,1:2|0:0,0:0:0:0:
244,325,190946,6,0,P|334:336|430:233,1,200,6|0,0:3|1:3,0:0:0:0:
395,153,191738,2,0,P|411:90|446:22,2,100,2|4|4,0:0|0:3|0:3,0:0:0:0:
416,272,192520,1,2,1:2:0:0:
192,145,193042,6,0,L|77:120,1,100,6|4,0:3|0:3,0:0:0:0:
216,248,193563,2,0,L|191:363,1,100,2|4,1:2|0:3,1:1:0:0:
319,224,194085,2,0,L|434:249,1,100,6|4,0:3|0:3,0:0:0:0:
295,121,194607,2,0,L|320:6,1,100,2|4,1:2|0:3,1:1:0:0:
180,61,195128,6,0,L|157:168,1,100,4|4,1:0|0:3,0:0:0:0:
263,255,195673,1,0,1:0:0:0:
130,298,195937,2,0,P|50:308|8:309,1,100,4|0,0:3|1:0,0:0:0:0:
14,168,196466,1,4,0:3:0:0:
158,158,196731,2,0,P|207:161|257:168,1,100,0|4,1:0|0:3,0:0:0:0:
363,266,197260,6,0,L|379:376,1,100,4|4,1:2|0:3,0:0:0:0:
502,225,197777,1,0,1:0:0:0:
401,128,198035,2,0,L|417:18,1,100,4|0,0:3|1:1,0:0:0:0:
276,51,198553,1,4,0:3:0:0:
253,188,198811,2,0,L|237:298,1,100,0|4,1:0|0:3,0:0:0:0:
101,318,199328,6,0,P|43:295|18:246,1,100,4|4,1:2|0:3,0:0:0:0:
56,128,199853,1,0,1:0:0:0:
161,36,200115,2,0,L|275:27,1,100,4|0,0:3|1:0,0:0:0:0:
351,135,200640,1,4,0:3:0:0:
231,207,200903,2,0,L|222:321,1,100,0|4,1:0|0:3,0:0:0:0:
355,350,201428,6,0,L|475:362,1,100,4|4,1:2|0:3,0:0:0:0:
484,222,201951,1,0,1:0:0:0:
358,159,202212,2,0,L|244:168,1,100,4|0,0:3|1:0,0:0:0:0:
173,278,202735,1,4,0:3:0:0:
66,187,202997,1,0,1:0:0:0:
285,22,203520,6,0,L|301:297,2,240,4|0|0,1:2|1:2|1:0,0:0:0:0:
141,160,205662,5,6,0:3:0:0:
422,113,206431,1,6,0:3:0:0:
247,280,207819,6,0,L|124:290,2,100,0|0|8,0:0|0:0|0:0,0:0:0:0:
366,268,208617,2,0,L|434:263,2,50
247,280,209149,1,0,0:0:0:0:
247,280,209415,1,0,3:3:0:0:
389,87,209942,6,0,L|512:97,2,100,0|0|8,0:0|0:0|0:0,0:0:0:0:
270,75,210739,2,0,L|202:70,2,50
389,87,211269,1,0,0:0:0:0:
389,87,211534,1,0,3:0:0:0:
228,260,212052,6,0,L|238:383,2,100,0|0|8,0:0|0:0|0:0,0:0:0:0:
216,141,212841,2,0,L|211:73,2,50,0|0|0,0:0|0:0|0:0,0:0:0:0:
228,260,213367,1,0,0:0:0:0:
228,260,213630,1,0,3:0:0:0:
32,112,214157,5,2,0:0:0:0:
32,112,214415,2,0,L|29:243,1,100,0|8,0:0|0:0,0:0:0:0:
53,308,214932,2,0,P|166:347|231:304,1,200,2|0,0:0|0:0,0:0:0:0:
246,189,215708,2,0,L|253:69,1,100,8|0,0:1|3:0,0:0:0:0:
346,19,216225,6,0,L|469:9,2,100,0|0|8,0:0|0:0|0:0,0:0:0:0:
227,31,217023,2,0,L|159:36,2,50
346,19,217555,1,0,0:0:0:0:
346,19,217803,1,0,0:0:0:0:
234,221,218320,6,0,L|111:211,2,100,0|0|8,0:0|0:0|0:0,0:0:0:0:
353,233,219103,2,0,L|421:238,2,50,0|0|0,0:0|0:0|0:0,0:0:0:0:
234,221,219624,1,0,0:0:0:0:
234,221,219885,1,0,3:0:0:0:
104,17,220397,5,2,0:0:0:0:
104,17,220654,2,0,L|99:147,1,100,0|0,0:0|0:0,0:0:0:0:
215,150,221193,1,2,0:0:0:0:
256,192,221476,12,0,231335,0:0:0:0:
