osu file format v14

[General]
AudioFilename: audio.mp3
AudioLeadIn: 0
PreviewTime: -1
Countdown: 1
SampleSet: None
StackLeniency: 0.7
Mode: 0
LetterboxInBreaks: 0
WidescreenStoryboard: 0

[Editor]
DistanceSpacing: 1.6
BeatDivisor: 4
GridSize: 8
TimelineZoom: 1

[Metadata]
Title:Tamagotchi
TitleUnicode:Tamagotchi
Artist:Quebonafide
ArtistUnicode:Quebonafide
Creator:Puz0n PLZ
Version:OwO
Source:
Tags:
BeatmapID:1634317
BeatmapSetID:778075

[Difficulty]
HPDrainRate:8
CircleSize:3.8
OverallDifficulty:7
ApproachRate:9
SliderMultiplier:1.4
SliderTickRate:1

[Events]
//Background and Video events
//Break Periods
2,18542,25092
2,43138,68805
2,77093,90060
2,99417,125084
//Storyboard Layer 0 (Background)
//Storyboard Layer 1 (Fail)
//Storyboard Layer 2 (Pass)
//Storyboard Layer 3 (Foreground)
//Storyboard Sound Samples

[TimingPoints]
4438.0965592402,534.711701274396,4,1,0,100,1,0

[HitObjects]
192,96,25,5,0,0:0:0:0:
192,96,293,1,0,0:0:0:0:
192,96,426,1,0,0:0:0:0:
192,96,560,1,0,0:0:0:0:
192,96,694,1,0,0:0:0:0:
192,96,827,1,0,0:0:0:0:
192,96,961,1,0,0:0:0:0:
192,96,1095,1,0,0:0:0:0:
195,96,1228,1,0,0:0:0:0:
192,96,1363,1,0,0:0:0:0:
195,96,1496,1,0,0:0:0:0:
195,96,1629,1,0,0:0:0:0:
192,96,1630,1,0,0:0:0:0:
195,96,1763,1,0,0:0:0:0:
192,96,1764,1,0,0:0:0:0:
195,96,1897,1,0,0:0:0:0:
195,96,2030,1,0,0:0:0:0:
192,96,2031,1,0,0:0:0:0:
195,96,2164,1,0,0:0:0:0:
192,96,2165,1,0,0:0:0:0:
192,96,2298,1,0,0:0:0:0:
192,96,2566,1,0,0:0:0:0:
192,96,2699,1,0,0:0:0:0:
192,96,2833,1,0,0:0:0:0:
192,96,2967,1,0,0:0:0:0:
192,96,3100,1,0,0:0:0:0:
192,96,3234,1,0,0:0:0:0:
192,96,3368,1,0,0:0:0:0:
195,96,3501,1,0,0:0:0:0:
192,96,3636,1,0,0:0:0:0:
195,96,3769,1,0,0:0:0:0:
195,96,3902,1,0,0:0:0:0:
192,96,3903,1,0,0:0:0:0:
195,96,4036,1,0,0:0:0:0:
192,96,4037,1,0,0:0:0:0:
195,96,4170,1,0,0:0:0:0:
195,96,4303,1,0,0:0:0:0:
192,96,4304,1,0,0:0:0:0:
195,96,4437,1,0,0:0:0:0:
192,96,4438,1,0,0:0:0:0:
192,96,4571,1,0,0:0:0:0:
192,96,4839,1,0,0:0:0:0:
192,96,4972,1,0,0:0:0:0:
192,96,5106,1,0,0:0:0:0:
192,96,5240,1,0,0:0:0:0:
192,96,5373,1,0,0:0:0:0:
192,96,5507,1,0,0:0:0:0:
192,96,5507,1,0,0:0:0:0:
192,96,5641,1,0,0:0:0:0:
192,96,5641,1,0,0:0:0:0:
195,96,5774,1,0,0:0:0:0:
195,96,5774,1,0,0:0:0:0:
192,96,5909,1,0,0:0:0:0:
192,96,5909,1,0,0:0:0:0:
195,96,6042,1,0,0:0:0:0:
195,96,6042,1,0,0:0:0:0:
195,96,6175,1,0,0:0:0:0:
195,96,6175,1,0,0:0:0:0:
192,96,6176,1,0,0:0:0:0:
192,96,6176,1,0,0:0:0:0:
195,96,6309,1,0,0:0:0:0:
195,96,6309,1,0,0:0:0:0:
192,96,6310,1,0,0:0:0:0:
192,96,6310,1,0,0:0:0:0:
195,96,6443,1,0,0:0:0:0:
195,96,6443,1,0,0:0:0:0:
195,96,6576,1,0,0:0:0:0:
195,96,6576,1,0,0:0:0:0:
192,96,6577,1,0,0:0:0:0:
192,96,6577,1,0,0:0:0:0:
195,96,6710,1,0,0:0:0:0:
195,96,6710,1,0,0:0:0:0:
192,96,6711,1,0,0:0:0:0:
192,96,6711,1,0,0:0:0:0:
195,96,6844,1,0,0:0:0:0:
192,96,6844,1,0,0:0:0:0:
192,96,7112,1,0,0:0:0:0:
192,96,7245,1,0,0:0:0:0:
192,96,7379,1,0,0:0:0:0:
192,96,7513,1,0,0:0:0:0:
192,96,10853,1,0,0:0:0:0:
192,96,11121,1,0,0:0:0:0:
192,96,11254,1,0,0:0:0:0:
192,96,11388,1,0,0:0:0:0:
192,96,11522,1,0,0:0:0:0:
192,96,11655,1,0,0:0:0:0:
192,96,11789,1,0,0:0:0:0:
192,96,11923,1,0,0:0:0:0:
195,96,12056,1,0,0:0:0:0:
192,96,12191,1,0,0:0:0:0:
195,96,12324,1,0,0:0:0:0:
195,96,12457,1,0,0:0:0:0:
192,96,12458,1,0,0:0:0:0:
195,96,12591,1,0,0:0:0:0:
192,96,12592,1,0,0:0:0:0:
195,96,12725,1,0,0:0:0:0:
195,96,12858,1,0,0:0:0:0:
192,96,12859,1,0,0:0:0:0:
195,96,12992,1,0,0:0:0:0:
192,96,12993,1,0,0:0:0:0:
192,96,13126,1,0,0:0:0:0:
192,96,13394,1,0,0:0:0:0:
192,96,13527,1,0,0:0:0:0:
192,96,13661,1,0,0:0:0:0:
192,96,13795,1,0,0:0:0:0:
192,96,13928,1,0,0:0:0:0:
192,96,14062,1,0,0:0:0:0:
192,96,14196,1,0,0:0:0:0:
195,96,14329,1,0,0:0:0:0:
192,96,14464,1,0,0:0:0:0:
195,96,14597,1,0,0:0:0:0:
195,96,14730,1,0,0:0:0:0:
192,96,14731,1,0,0:0:0:0:
195,96,14864,1,0,0:0:0:0:
192,96,14865,1,0,0:0:0:0:
195,96,14998,1,0,0:0:0:0:
195,96,15131,1,0,0:0:0:0:
192,96,15132,1,0,0:0:0:0:
195,96,15265,1,0,0:0:0:0:
192,96,15266,1,0,0:0:0:0:
192,96,15399,1,0,0:0:0:0:
192,96,15667,1,0,0:0:0:0:
192,96,15800,1,0,0:0:0:0:
192,96,15934,1,0,0:0:0:0:
192,96,16068,1,0,0:0:0:0:
192,96,16201,1,0,0:0:0:0:
192,96,16335,1,0,0:0:0:0:
192,96,16335,1,0,0:0:0:0:
192,96,16469,1,0,0:0:0:0:
192,96,16469,1,0,0:0:0:0:
195,96,16602,1,0,0:0:0:0:
195,96,16602,1,0,0:0:0:0:
192,96,16737,1,0,0:0:0:0:
192,96,16737,1,0,0:0:0:0:
195,96,16870,1,0,0:0:0:0:
195,96,16870,1,0,0:0:0:0:
195,96,17003,1,0,0:0:0:0:
195,96,17003,1,0,0:0:0:0:
192,96,17004,1,0,0:0:0:0:
192,96,17004,1,0,0:0:0:0:
195,96,17137,1,0,0:0:0:0:
195,96,17137,1,0,0:0:0:0:
192,96,17138,1,0,0:0:0:0:
192,96,17138,1,0,0:0:0:0:
195,96,17271,1,0,0:0:0:0:
195,96,17271,1,0,0:0:0:0:
195,96,17404,1,0,0:0:0:0:
195,96,17404,1,0,0:0:0:0:
192,96,17405,1,0,0:0:0:0:
192,96,17405,1,0,0:0:0:0:
195,96,17538,1,0,0:0:0:0:
195,96,17538,1,0,0:0:0:0:
192,96,17539,1,0,0:0:0:0:
192,96,17539,1,0,0:0:0:0:
195,96,17672,1,0,0:0:0:0:
192,96,17672,1,0,0:0:0:0:
192,96,17941,1,0,0:0:0:0:
192,96,18074,1,0,0:0:0:0:
192,96,18208,1,0,0:0:0:0:
192,96,18342,1,0,0:0:0:0:
192,96,25692,5,0,0:0:0:0:
192,96,25960,1,0,0:0:0:0:
192,96,26093,1,0,0:0:0:0:
192,96,26227,1,0,0:0:0:0:
192,96,26361,1,0,0:0:0:0:
192,96,26494,1,0,0:0:0:0:
192,96,26628,1,0,0:0:0:0:
192,96,26762,1,0,0:0:0:0:
195,96,26895,1,0,0:0:0:0:
192,96,27030,1,0,0:0:0:0:
195,96,27163,1,0,0:0:0:0:
195,96,27296,1,0,0:0:0:0:
192,96,27297,1,0,0:0:0:0:
195,96,27430,1,0,0:0:0:0:
192,96,27431,1,0,0:0:0:0:
195,96,27564,1,0,0:0:0:0:
195,96,27697,1,0,0:0:0:0:
192,96,27698,1,0,0:0:0:0:
195,96,27831,1,0,0:0:0:0:
192,96,27832,1,0,0:0:0:0:
192,96,27965,1,0,0:0:0:0:
192,96,28233,1,0,0:0:0:0:
192,96,28366,1,0,0:0:0:0:
192,96,28500,1,0,0:0:0:0:
192,96,28634,1,0,0:0:0:0:
192,96,28767,1,0,0:0:0:0:
192,96,28901,1,0,0:0:0:0:
192,96,29035,1,0,0:0:0:0:
195,96,29168,1,0,0:0:0:0:
192,96,29303,1,0,0:0:0:0:
195,96,29436,1,0,0:0:0:0:
195,96,29569,1,0,0:0:0:0:
192,96,29570,1,0,0:0:0:0:
195,96,29703,1,0,0:0:0:0:
192,96,29704,1,0,0:0:0:0:
195,96,29837,1,0,0:0:0:0:
195,96,29970,1,0,0:0:0:0:
192,96,29971,1,0,0:0:0:0:
195,96,30104,1,0,0:0:0:0:
192,96,30105,1,0,0:0:0:0:
192,96,30238,1,0,0:0:0:0:
192,96,30506,1,0,0:0:0:0:
192,96,30639,1,0,0:0:0:0:
192,96,30773,1,0,0:0:0:0:
192,96,30907,1,0,0:0:0:0:
192,96,31040,1,0,0:0:0:0:
192,96,31174,1,0,0:0:0:0:
192,96,31174,1,0,0:0:0:0:
192,96,31308,1,0,0:0:0:0:
192,96,31308,1,0,0:0:0:0:
195,96,31441,1,0,0:0:0:0:
195,96,31441,1,0,0:0:0:0:
192,96,31576,1,0,0:0:0:0:
192,96,31576,1,0,0:0:0:0:
195,96,31709,1,0,0:0:0:0:
195,96,31709,1,0,0:0:0:0:
195,96,31842,1,0,0:0:0:0:
192,96,31843,1,0,0:0:0:0:
192,96,31843,1,0,0:0:0:0:
195,96,31976,1,0,0:0:0:0:
195,96,31976,1,0,0:0:0:0:
192,96,31977,1,0,0:0:0:0:
192,96,31977,1,0,0:0:0:0:
195,96,32110,1,0,0:0:0:0:
195,96,32110,1,0,0:0:0:0:
195,96,32243,1,0,0:0:0:0:
195,96,32243,1,0,0:0:0:0:
192,96,32244,1,0,0:0:0:0:
192,96,32244,1,0,0:0:0:0:
195,96,32377,1,0,0:0:0:0:
195,96,32377,1,0,0:0:0:0:
192,96,32378,1,0,0:0:0:0:
192,96,32378,1,0,0:0:0:0:
192,96,32511,1,0,0:0:0:0:
195,96,32511,1,0,0:0:0:0:
192,96,32779,1,0,0:0:0:0:
192,96,32912,1,0,0:0:0:0:
192,96,33046,1,0,0:0:0:0:
192,96,33180,1,0,0:0:0:0:
195,96,34381,1,0,0:0:0:0:
192,96,35450,5,0,0:0:0:0:
192,96,35718,1,0,0:0:0:0:
192,96,35851,1,0,0:0:0:0:
192,96,35985,1,0,0:0:0:0:
192,96,36119,1,0,0:0:0:0:
192,96,36252,1,0,0:0:0:0:
192,96,36386,1,0,0:0:0:0:
192,96,36520,1,0,0:0:0:0:
195,96,36653,1,0,0:0:0:0:
192,96,36788,1,0,0:0:0:0:
195,96,36921,1,0,0:0:0:0:
195,96,37054,1,0,0:0:0:0:
192,96,37055,1,0,0:0:0:0:
195,96,37188,1,0,0:0:0:0:
192,96,37189,1,0,0:0:0:0:
195,96,37322,1,0,0:0:0:0:
195,96,37455,1,0,0:0:0:0:
192,96,37456,1,0,0:0:0:0:
195,96,37589,1,0,0:0:0:0:
192,96,37590,1,0,0:0:0:0:
192,96,37723,1,0,0:0:0:0:
192,96,37991,1,0,0:0:0:0:
192,96,38124,1,0,0:0:0:0:
192,96,38258,1,0,0:0:0:0:
192,96,38392,1,0,0:0:0:0:
192,96,38525,1,0,0:0:0:0:
192,96,38659,1,0,0:0:0:0:
192,96,38793,1,0,0:0:0:0:
195,96,38926,1,0,0:0:0:0:
192,96,39061,1,0,0:0:0:0:
195,96,39194,1,0,0:0:0:0:
195,96,39327,1,0,0:0:0:0:
192,96,39328,1,0,0:0:0:0:
195,96,39461,1,0,0:0:0:0:
192,96,39462,1,0,0:0:0:0:
195,96,39595,1,0,0:0:0:0:
195,96,39728,1,0,0:0:0:0:
192,96,39729,1,0,0:0:0:0:
195,96,39862,1,0,0:0:0:0:
192,96,39863,1,0,0:0:0:0:
192,96,39996,1,0,0:0:0:0:
192,96,40264,1,0,0:0:0:0:
192,96,40397,1,0,0:0:0:0:
192,96,40531,1,0,0:0:0:0:
192,96,40665,1,0,0:0:0:0:
192,96,40798,1,0,0:0:0:0:
192,96,40932,1,0,0:0:0:0:
192,96,40932,1,0,0:0:0:0:
192,96,41066,1,0,0:0:0:0:
192,96,41066,1,0,0:0:0:0:
195,96,41199,1,0,0:0:0:0:
195,96,41199,1,0,0:0:0:0:
192,96,41334,1,0,0:0:0:0:
192,96,41334,1,0,0:0:0:0:
195,96,41467,1,0,0:0:0:0:
195,96,41467,1,0,0:0:0:0:
195,96,41600,1,0,0:0:0:0:
195,96,41600,1,0,0:0:0:0:
192,96,41601,1,0,0:0:0:0:
192,96,41601,1,0,0:0:0:0:
195,96,41734,1,0,0:0:0:0:
195,96,41734,1,0,0:0:0:0:
192,96,41735,1,0,0:0:0:0:
192,96,41735,1,0,0:0:0:0:
195,96,41868,1,0,0:0:0:0:
195,96,41868,1,0,0:0:0:0:
195,96,42001,1,0,0:0:0:0:
195,96,42001,1,0,0:0:0:0:
192,96,42002,1,0,0:0:0:0:
192,96,42002,1,0,0:0:0:0:
195,96,42135,1,0,0:0:0:0:
195,96,42135,1,0,0:0:0:0:
192,96,42136,1,0,0:0:0:0:
192,96,42136,1,0,0:0:0:0:
195,96,42269,1,0,0:0:0:0:
192,96,42269,1,0,0:0:0:0:
192,96,42537,1,0,0:0:0:0:
192,96,42670,1,0,0:0:0:0:
192,96,42804,1,0,0:0:0:0:
192,96,42938,1,0,0:0:0:0:
192,96,69405,5,0,0:0:0:0:
192,96,69673,1,0,0:0:0:0:
192,96,69806,1,0,0:0:0:0:
192,96,69940,1,0,0:0:0:0:
192,96,70074,1,0,0:0:0:0:
192,96,70207,1,0,0:0:0:0:
192,96,70341,1,0,0:0:0:0:
192,96,70475,1,0,0:0:0:0:
195,96,70608,1,0,0:0:0:0:
192,96,70743,1,0,0:0:0:0:
195,96,70876,1,0,0:0:0:0:
195,96,71009,1,0,0:0:0:0:
192,96,71010,1,0,0:0:0:0:
195,96,71143,1,0,0:0:0:0:
192,96,71144,1,0,0:0:0:0:
195,96,71277,1,0,0:0:0:0:
195,96,71410,1,0,0:0:0:0:
192,96,71411,1,0,0:0:0:0:
195,96,71544,1,0,0:0:0:0:
192,96,71545,1,0,0:0:0:0:
192,96,71678,1,0,0:0:0:0:
192,96,71946,1,0,0:0:0:0:
192,96,72079,1,0,0:0:0:0:
192,96,72213,1,0,0:0:0:0:
192,96,72347,1,0,0:0:0:0:
192,96,72480,1,0,0:0:0:0:
192,96,72614,1,0,0:0:0:0:
192,96,72748,1,0,0:0:0:0:
195,96,72881,1,0,0:0:0:0:
192,96,73016,1,0,0:0:0:0:
195,96,73149,1,0,0:0:0:0:
195,96,73282,1,0,0:0:0:0:
192,96,73283,1,0,0:0:0:0:
195,96,73416,1,0,0:0:0:0:
192,96,73417,1,0,0:0:0:0:
195,96,73550,1,0,0:0:0:0:
195,96,73683,1,0,0:0:0:0:
192,96,73684,1,0,0:0:0:0:
195,96,73817,1,0,0:0:0:0:
192,96,73818,1,0,0:0:0:0:
192,96,73951,1,0,0:0:0:0:
192,96,74219,1,0,0:0:0:0:
192,96,74352,1,0,0:0:0:0:
192,96,74486,1,0,0:0:0:0:
192,96,74620,1,0,0:0:0:0:
192,96,74753,1,0,0:0:0:0:
192,96,74887,1,0,0:0:0:0:
192,96,74887,1,0,0:0:0:0:
192,96,75021,1,0,0:0:0:0:
192,96,75021,1,0,0:0:0:0:
195,96,75154,1,0,0:0:0:0:
195,96,75154,1,0,0:0:0:0:
192,96,75289,1,0,0:0:0:0:
192,96,75289,1,0,0:0:0:0:
195,96,75422,1,0,0:0:0:0:
195,96,75422,1,0,0:0:0:0:
195,96,75555,1,0,0:0:0:0:
195,96,75555,1,0,0:0:0:0:
192,96,75556,1,0,0:0:0:0:
192,96,75556,1,0,0:0:0:0:
195,96,75689,1,0,0:0:0:0:
195,96,75689,1,0,0:0:0:0:
192,96,75690,1,0,0:0:0:0:
192,96,75690,1,0,0:0:0:0:
195,96,75823,1,0,0:0:0:0:
195,96,75823,1,0,0:0:0:0:
195,96,75956,1,0,0:0:0:0:
195,96,75956,1,0,0:0:0:0:
192,96,75957,1,0,0:0:0:0:
192,96,75957,1,0,0:0:0:0:
195,96,76090,1,0,0:0:0:0:
195,96,76090,1,0,0:0:0:0:
192,96,76091,1,0,0:0:0:0:
192,96,76091,1,0,0:0:0:0:
195,96,76224,1,0,0:0:0:0:
192,96,76224,1,0,0:0:0:0:
192,96,76492,1,0,0:0:0:0:
192,96,76625,1,0,0:0:0:0:
192,96,76759,1,0,0:0:0:0:
192,96,76893,1,0,0:0:0:0:
195,96,90660,5,0,0:0:0:0:
192,96,91729,5,0,0:0:0:0:
192,96,91997,1,0,0:0:0:0:
192,96,92130,1,0,0:0:0:0:
192,96,92264,1,0,0:0:0:0:
192,96,92398,1,0,0:0:0:0:
192,96,92531,1,0,0:0:0:0:
192,96,92665,1,0,0:0:0:0:
192,96,92799,1,0,0:0:0:0:
195,96,92932,1,0,0:0:0:0:
192,96,93067,1,0,0:0:0:0:
195,96,93200,1,0,0:0:0:0:
195,96,93333,1,0,0:0:0:0:
192,96,93334,1,0,0:0:0:0:
195,96,93467,1,0,0:0:0:0:
192,96,93468,1,0,0:0:0:0:
195,96,93601,1,0,0:0:0:0:
195,96,93734,1,0,0:0:0:0:
192,96,93735,1,0,0:0:0:0:
192,96,93735,1,0,0:0:0:0:
195,96,93868,1,0,0:0:0:0:
195,96,93868,1,0,0:0:0:0:
192,96,93869,1,0,0:0:0:0:
192,96,93869,1,0,0:0:0:0:
192,96,94002,1,0,0:0:0:0:
192,96,94002,1,0,0:0:0:0:
192,96,94270,1,0,0:0:0:0:
192,96,94270,1,0,0:0:0:0:
192,96,94403,1,0,0:0:0:0:
192,96,94403,1,0,0:0:0:0:
192,96,94537,1,0,0:0:0:0:
192,96,94537,1,0,0:0:0:0:
192,96,94671,1,0,0:0:0:0:
192,96,94671,1,0,0:0:0:0:
192,96,94804,1,0,0:0:0:0:
192,96,94804,1,0,0:0:0:0:
192,96,94938,1,0,0:0:0:0:
192,96,94938,1,0,0:0:0:0:
192,96,95072,1,0,0:0:0:0:
192,96,95072,1,0,0:0:0:0:
195,96,95205,1,0,0:0:0:0:
195,96,95205,1,0,0:0:0:0:
192,96,95340,1,0,0:0:0:0:
192,96,95340,1,0,0:0:0:0:
195,96,95473,1,0,0:0:0:0:
195,96,95473,1,0,0:0:0:0:
195,96,95606,1,0,0:0:0:0:
195,96,95606,1,0,0:0:0:0:
192,96,95607,1,0,0:0:0:0:
192,96,95607,1,0,0:0:0:0:
195,96,95740,1,0,0:0:0:0:
195,96,95740,1,0,0:0:0:0:
192,96,95741,1,0,0:0:0:0:
192,96,95741,1,0,0:0:0:0:
195,96,95874,1,0,0:0:0:0:
195,96,95874,1,0,0:0:0:0:
195,96,96007,1,0,0:0:0:0:
195,96,96007,1,0,0:0:0:0:
192,96,96008,1,0,0:0:0:0:
192,96,96008,1,0,0:0:0:0:
195,96,96141,1,0,0:0:0:0:
195,96,96141,1,0,0:0:0:0:
192,96,96142,1,0,0:0:0:0:
192,96,96142,1,0,0:0:0:0:
192,96,96275,1,0,0:0:0:0:
192,96,96275,1,0,0:0:0:0:
192,96,96543,1,0,0:0:0:0:
192,96,96543,1,0,0:0:0:0:
192,96,96676,1,0,0:0:0:0:
192,96,96676,1,0,0:0:0:0:
192,96,96810,1,0,0:0:0:0:
192,96,96810,1,0,0:0:0:0:
192,96,96944,1,0,0:0:0:0:
192,96,96944,1,0,0:0:0:0:
192,96,97077,1,0,0:0:0:0:
192,96,97077,1,0,0:0:0:0:
192,96,97211,1,0,0:0:0:0:
192,96,97211,1,0,0:0:0:0:
192,96,97211,1,0,0:0:0:0:
192,96,97211,1,0,0:0:0:0:
192,96,97345,1,0,0:0:0:0:
192,96,97345,1,0,0:0:0:0:
192,96,97345,1,0,0:0:0:0:
192,96,97345,1,0,0:0:0:0:
195,96,97478,1,0,0:0:0:0:
195,96,97478,1,0,0:0:0:0:
195,96,97478,1,0,0:0:0:0:
195,96,97478,1,0,0:0:0:0:
192,96,97613,1,0,0:0:0:0:
192,96,97613,1,0,0:0:0:0:
192,96,97613,1,0,0:0:0:0:
192,96,97613,1,0,0:0:0:0:
195,96,97746,1,0,0:0:0:0:
195,96,97746,1,0,0:0:0:0:
195,96,97746,1,0,0:0:0:0:
195,96,97746,1,0,0:0:0:0:
195,96,97879,1,0,0:0:0:0:
195,96,97879,1,0,0:0:0:0:
195,96,97879,1,0,0:0:0:0:
195,96,97879,1,0,0:0:0:0:
192,96,97880,1,0,0:0:0:0:
192,96,97880,1,0,0:0:0:0:
192,96,97880,1,0,0:0:0:0:
192,96,97880,1,0,0:0:0:0:
195,96,98013,1,0,0:0:0:0:
195,96,98013,1,0,0:0:0:0:
195,96,98013,1,0,0:0:0:0:
195,96,98013,1,0,0:0:0:0:
192,96,98014,1,0,0:0:0:0:
192,96,98014,1,0,0:0:0:0:
192,96,98014,1,0,0:0:0:0:
192,96,98014,1,0,0:0:0:0:
195,96,98147,1,0,0:0:0:0:
195,96,98147,1,0,0:0:0:0:
195,96,98147,1,0,0:0:0:0:
195,96,98147,1,0,0:0:0:0:
195,96,98280,1,0,0:0:0:0:
195,96,98280,1,0,0:0:0:0:
195,96,98280,1,0,0:0:0:0:
195,96,98280,1,0,0:0:0:0:
192,96,98281,1,0,0:0:0:0:
192,96,98281,1,0,0:0:0:0:
192,96,98281,1,0,0:0:0:0:
192,96,98281,1,0,0:0:0:0:
195,96,98414,1,0,0:0:0:0:
195,96,98414,1,0,0:0:0:0:
195,96,98414,1,0,0:0:0:0:
195,96,98414,1,0,0:0:0:0:
192,96,98415,1,0,0:0:0:0:
192,96,98415,1,0,0:0:0:0:
192,96,98415,1,0,0:0:0:0:
192,96,98415,1,0,0:0:0:0:
192,96,98548,1,0,0:0:0:0:
195,96,98548,1,0,0:0:0:0:
195,96,98548,1,0,0:0:0:0:
192,96,98548,1,0,0:0:0:0:
192,96,98816,1,0,0:0:0:0:
192,96,98816,1,0,0:0:0:0:
192,96,98949,1,0,0:0:0:0:
192,96,98949,1,0,0:0:0:0:
192,96,99083,1,0,0:0:0:0:
192,96,99083,1,0,0:0:0:0:
192,96,99217,1,0,0:0:0:0:
192,96,99217,1,0,0:0:0:0:
192,96,125684,5,0,0:0:0:0:
192,96,125684,5,0,0:0:0:0:
192,96,125952,1,0,0:0:0:0:
192,96,125952,1,0,0:0:0:0:
192,96,126085,1,0,0:0:0:0:
192,96,126085,1,0,0:0:0:0:
192,96,126219,1,0,0:0:0:0:
192,96,126219,1,0,0:0:0:0:
192,96,126353,1,0,0:0:0:0:
192,96,126353,1,0,0:0:0:0:
192,96,126486,1,0,0:0:0:0:
192,96,126486,1,0,0:0:0:0:
192,96,126620,1,0,0:0:0:0:
192,96,126620,1,0,0:0:0:0:
192,96,126754,1,0,0:0:0:0:
192,96,126754,1,0,0:0:0:0:
195,96,126887,1,0,0:0:0:0:
195,96,126887,1,0,0:0:0:0:
192,96,127022,1,0,0:0:0:0:
192,96,127022,1,0,0:0:0:0:
195,96,127155,1,0,0:0:0:0:
195,96,127155,1,0,0:0:0:0:
195,96,127288,1,0,0:0:0:0:
195,96,127288,1,0,0:0:0:0:
192,96,127289,1,0,0:0:0:0:
192,96,127289,1,0,0:0:0:0:
195,96,127422,1,0,0:0:0:0:
195,96,127422,1,0,0:0:0:0:
192,96,127423,1,0,0:0:0:0:
192,96,127423,1,0,0:0:0:0:
195,96,127556,1,0,0:0:0:0:
195,96,127556,1,0,0:0:0:0:
195,96,127689,1,0,0:0:0:0:
195,96,127689,1,0,0:0:0:0:
192,96,127690,1,0,0:0:0:0:
192,96,127690,1,0,0:0:0:0:
195,96,127823,1,0,0:0:0:0:
195,96,127823,1,0,0:0:0:0:
192,96,127824,1,0,0:0:0:0:
192,96,127824,1,0,0:0:0:0:
192,96,127957,1,0,0:0:0:0:
192,96,127957,1,0,0:0:0:0:
192,96,128225,1,0,0:0:0:0:
192,96,128225,1,0,0:0:0:0:
192,96,128358,1,0,0:0:0:0:
192,96,128358,1,0,0:0:0:0:
192,96,128492,1,0,0:0:0:0:
192,96,128492,1,0,0:0:0:0:
192,96,128626,1,0,0:0:0:0:
192,96,128626,1,0,0:0:0:0:
192,96,128759,1,0,0:0:0:0:
192,96,128759,1,0,0:0:0:0:
192,96,128893,1,0,0:0:0:0:
192,96,128893,1,0,0:0:0:0:
192,96,129027,1,0,0:0:0:0:
192,96,129027,1,0,0:0:0:0:
195,96,129160,1,0,0:0:0:0:
195,96,129160,1,0,0:0:0:0:
192,96,129295,1,0,0:0:0:0:
192,96,129295,1,0,0:0:0:0:
195,96,129428,1,0,0:0:0:0:
195,96,129428,1,0,0:0:0:0:
195,96,129561,1,0,0:0:0:0:
195,96,129561,1,0,0:0:0:0:
192,96,129562,1,0,0:0:0:0:
192,96,129562,1,0,0:0:0:0:
195,96,129695,1,0,0:0:0:0:
195,96,129695,1,0,0:0:0:0:
192,96,129696,1,0,0:0:0:0:
192,96,129696,1,0,0:0:0:0:
195,96,129829,1,0,0:0:0:0:
195,96,129829,1,0,0:0:0:0:
195,96,129962,1,0,0:0:0:0:
195,96,129962,1,0,0:0:0:0:
192,96,129963,1,0,0:0:0:0:
192,96,129963,1,0,0:0:0:0:
195,96,130096,1,0,0:0:0:0:
195,96,130096,1,0,0:0:0:0:
192,96,130097,1,0,0:0:0:0:
192,96,130097,1,0,0:0:0:0:
192,96,130230,1,0,0:0:0:0:
192,96,130230,1,0,0:0:0:0:
192,96,130498,1,0,0:0:0:0:
192,96,130498,1,0,0:0:0:0:
192,96,130631,1,0,0:0:0:0:
192,96,130631,1,0,0:0:0:0:
192,96,130765,1,0,0:0:0:0:
192,96,130765,1,0,0:0:0:0:
192,96,130899,1,0,0:0:0:0:
192,96,130899,1,0,0:0:0:0:
192,96,131032,1,0,0:0:0:0:
192,96,131032,1,0,0:0:0:0:
192,96,131166,1,0,0:0:0:0:
192,96,131166,1,0,0:0:0:0:
192,96,131166,1,0,0:0:0:0:
192,96,131166,1,0,0:0:0:0:
192,96,131300,1,0,0:0:0:0:
192,96,131300,1,0,0:0:0:0:
192,96,131300,1,0,0:0:0:0:
192,96,131300,1,0,0:0:0:0:
195,96,131433,1,0,0:0:0:0:
195,96,131433,1,0,0:0:0:0:
195,96,131433,1,0,0:0:0:0:
195,96,131433,1,0,0:0:0:0:
192,96,131568,1,0,0:0:0:0:
192,96,131568,1,0,0:0:0:0:
192,96,131568,1,0,0:0:0:0:
192,96,131568,1,0,0:0:0:0:
195,96,131701,1,0,0:0:0:0:
195,96,131701,1,0,0:0:0:0:
195,96,131701,1,0,0:0:0:0:
195,96,131701,1,0,0:0:0:0:
195,96,131834,1,0,0:0:0:0:
195,96,131834,1,0,0:0:0:0:
195,96,131834,1,0,0:0:0:0:
195,96,131834,1,0,0:0:0:0:
192,96,131835,1,0,0:0:0:0:
192,96,131835,1,0,0:0:0:0:
192,96,131835,1,0,0:0:0:0:
192,96,131835,1,0,0:0:0:0:
195,96,131968,1,0,0:0:0:0:
195,96,131968,1,0,0:0:0:0:
195,96,131968,1,0,0:0:0:0:
195,96,131968,1,0,0:0:0:0:
192,96,131969,1,0,0:0:0:0:
192,96,131969,1,0,0:0:0:0:
192,96,131969,1,0,0:0:0:0:
192,96,131969,1,0,0:0:0:0:
195,96,132102,1,0,0:0:0:0:
195,96,132102,1,0,0:0:0:0:
195,96,132102,1,0,0:0:0:0:
195,96,132102,1,0,0:0:0:0:
195,96,132235,1,0,0:0:0:0:
195,96,132235,1,0,0:0:0:0:
195,96,132235,1,0,0:0:0:0:
195,96,132235,1,0,0:0:0:0:
192,96,132236,1,0,0:0:0:0:
192,96,132236,1,0,0:0:0:0:
192,96,132236,1,0,0:0:0:0:
192,96,132236,1,0,0:0:0:0:
195,96,132369,1,0,0:0:0:0:
195,96,132369,1,0,0:0:0:0:
195,96,132369,1,0,0:0:0:0:
195,96,132369,1,0,0:0:0:0:
192,96,132370,1,0,0:0:0:0:
192,96,132370,1,0,0:0:0:0:
192,96,132370,1,0,0:0:0:0:
192,96,132370,1,0,0:0:0:0:
195,96,132503,1,0,0:0:0:0:
192,96,132503,1,0,0:0:0:0:
192,96,132503,1,0,0:0:0:0:
195,96,132503,1,0,0:0:0:0:
192,96,132771,1,0,0:0:0:0:
192,96,132771,1,0,0:0:0:0:
192,96,132904,1,0,0:0:0:0:
192,96,132904,1,0,0:0:0:0:
192,96,133038,1,0,0:0:0:0:
192,96,133038,1,0,0:0:0:0:
192,96,133172,1,0,0:0:0:0:
192,96,133172,1,0,0:0:0:0:
