osu file format v14

[General]
AudioFilename: audio.mp3
AudioLeadIn: 0
PreviewTime: 160903
Countdown: 0
SampleSet: None
StackLeniency: 0.7
Mode: 3
LetterboxInBreaks: 0
SpecialStyle: 0
WidescreenStoryboard: 1

[Editor]
Bookmarks: 81324,177008,331429,333324,333955,343903
DistanceSpacing: 0.5
BeatDivisor: 4
GridSize: 32
TimelineZoom: 1.4

[Metadata]
Title:Intro + Dualive
TitleUnicode:Intro + Dualive
Artist:Quarks
ArtistUnicode:Quarks
Creator:AlexDunk
Version:Reborn
Source:
Tags:
BeatmapID:2037977
BeatmapSetID:973503

[Difficulty]
HPDrainRate:8
CircleSize:4
OverallDifficulty:8
ApproachRate:5
SliderMultiplier:1.4
SliderTickRate:1

[Events]
//Background and Video events
0,0,"Pixiv.Id.47531.full.882175.jpg",0,0
//Break Periods
//Storyboard Layer 0 (Background)
//Storyboard Layer 1 (Fail)
//Storyboard Layer 2 (Pass)
//Storyboard Layer 3 (Foreground)
//Storyboard Sound Samples

[TimingPoints]
482,315.789473684211,4,3,0,25,1,0
162166,-100,4,3,0,25,0,1
182376,-100,4,3,0,25,0,0
241271,-95.2380952380952,4,3,0,25,0,0
241587,-90.9090909090909,4,3,0,25,0,0
241666,-105.263157894737,4,3,0,25,0,0
241745,-125,4,3,0,25,0,0
241903,-111.111111111111,4,3,0,25,0,0
242060,-105.263157894737,4,3,0,25,0,0
242218,-100,4,3,0,25,0,0
242297,-95.2380952380952,4,3,0,25,0,0
242376,-90.9090909090909,4,3,0,25,0,0
242455,-86.9565217391304,4,3,0,25,0,0
242534,-83.3333333333333,4,3,0,25,0,0
242613,-80,4,3,0,25,0,0
242692,-33.3333333333333,4,3,0,25,0,0
242712,-333.333333333333,4,3,0,25,0,0
242968,-25,4,3,0,25,0,0
243008,-100,4,3,0,25,0,1
282166,-100,4,3,0,25,0,0
303955,-100,4,3,0,25,0,1
323850,-100,4,3,0,25,0,0

[HitObjects]
64,192,20692,5,0,0:0:0:0:
448,192,20692,128,0,21324:0:0:0:0:
320,192,20850,1,0,0:0:0:0:
64,192,21166,1,0,0:0:0:0:
192,192,21324,128,0,21482:0:0:0:0:
320,192,21324,1,0,0:0:0:0:
64,192,21482,128,0,21639:0:0:0:0:
320,192,21639,128,0,21797:0:0:0:0:
448,192,21797,128,0,22587:0:0:0:0:
64,192,21955,1,0,0:0:0:0:
192,192,21955,1,0,0:0:0:0:
320,192,22113,1,0,0:0:0:0:
64,192,22429,1,0,0:0:0:0:
320,192,22587,1,0,0:0:0:0:
192,192,22587,128,0,22745:0:0:0:0:
64,192,22745,128,0,22903:0:0:0:0:
448,192,22903,128,0,23060:0:0:0:0:
320,192,23060,128,0,23692:0:0:0:0:
192,192,23218,1,0,0:0:0:0:
64,192,23218,1,0,0:0:0:0:
448,192,23376,1,0,0:0:0:0:
64,192,23692,128,0,23850:0:0:0:0:
192,192,23850,1,0,0:0:0:0:
448,192,23850,128,0,24008:0:0:0:0:
320,192,24008,128,0,24166:0:0:0:0:
192,192,24166,1,0,0:0:0:0:
64,192,24324,128,0,24482:0:0:0:0:
192,192,24482,1,0,0:0:0:0:
448,192,24482,1,0,0:0:0:0:
64,192,24639,128,0,24797:0:0:0:0:
320,192,24797,1,0,0:0:0:0:
192,192,24955,128,0,25113:0:0:0:0:
448,192,25113,1,0,0:0:0:0:
320,192,25113,1,0,0:0:0:0:
64,192,25271,128,0,25745:0:0:0:0:
320,192,25429,1,0,0:0:0:0:
192,192,25745,1,0,0:0:0:0:
448,192,25745,128,0,26376:0:0:0:0:
320,192,25903,1,0,0:0:0:0:
64,192,26218,1,0,0:0:0:0:
320,192,26376,1,0,0:0:0:0:
192,192,26376,128,0,26534:0:0:0:0:
64,192,26534,128,0,26692:0:0:0:0:
320,192,26692,128,0,26850:0:0:0:0:
448,192,26850,128,0,27639:0:0:0:0:
192,192,27008,1,0,0:0:0:0:
64,192,27008,1,0,0:0:0:0:
320,192,27166,1,0,0:0:0:0:
192,192,27482,1,0,0:0:0:0:
320,192,27639,1,0,0:0:0:0:
64,192,27639,128,0,27797:0:0:0:0:
192,192,27797,128,0,27955:0:0:0:0:
448,192,27955,128,0,28113:0:0:0:0:
320,192,28113,128,0,28903:0:0:0:0:
64,192,28271,1,0,0:0:0:0:
448,192,28271,1,0,0:0:0:0:
192,192,28429,1,0,0:0:0:0:
192,192,28745,128,0,28903:0:0:0:0:
448,192,28903,1,0,0:0:0:0:
64,192,28903,128,0,29060:0:0:0:0:
192,192,29060,128,0,29218:0:0:0:0:
320,192,29218,1,0,0:0:0:0:
320,192,29376,128,0,29534:0:0:0:0:
64,192,29534,1,0,0:0:0:0:
448,192,29534,1,0,0:0:0:0:
192,192,29692,128,0,29850:0:0:0:0:
320,192,29850,1,0,0:0:0:0:
448,192,30008,128,0,30166:0:0:0:0:
64,192,30166,1,0,0:0:0:0:
320,192,30166,1,0,0:0:0:0:
192,192,30324,128,0,30639:0:0:0:0:
320,192,30482,1,0,0:0:0:0:
448,192,30639,1,0,0:0:0:0:
320,192,30718,1,0,0:0:0:0:
64,192,30797,1,0,0:0:0:0:
448,192,30797,128,0,31429:0:0:0:0:
192,192,30955,1,0,0:0:0:0:
192,192,31271,1,0,0:0:0:0:
64,192,31429,1,0,0:0:0:0:
320,192,31429,128,0,31587:0:0:0:0:
192,192,31587,128,0,31745:0:0:0:0:
448,192,31745,128,0,31903:0:0:0:0:
64,192,31903,128,0,32692:0:0:0:0:
192,192,32060,1,0,0:0:0:0:
448,192,32060,1,0,0:0:0:0:
320,192,32218,1,0,0:0:0:0:
320,192,32534,1,0,0:0:0:0:
192,192,32692,1,0,0:0:0:0:
448,192,32692,128,0,32850:0:0:0:0:
320,192,32850,128,0,33008:0:0:0:0:
64,192,33008,128,0,33166:0:0:0:0:
192,192,33166,128,0,33955:0:0:0:0:
64,192,33324,1,0,0:0:0:0:
320,192,33324,1,0,0:0:0:0:
320,192,33482,1,0,0:0:0:0:
448,192,33797,128,0,33955:0:0:0:0:
320,192,33955,1,0,0:0:0:0:
64,192,33955,128,0,34113:0:0:0:0:
192,192,34113,128,0,34271:0:0:0:0:
320,192,34271,1,0,0:0:0:0:
448,192,34429,128,0,34587:0:0:0:0:
64,192,34587,1,0,0:0:0:0:
320,192,34587,1,0,0:0:0:0:
192,192,34745,128,0,34903:0:0:0:0:
448,192,34903,1,0,0:0:0:0:
320,192,35060,128,0,35218:0:0:0:0:
64,192,35218,1,0,0:0:0:0:
448,192,35218,1,0,0:0:0:0:
192,192,35376,128,0,35850:0:0:0:0:
320,192,35534,1,0,0:0:0:0:
64,192,35850,1,0,0:0:0:0:
448,192,35850,128,0,36482:0:0:0:0:
320,192,36008,1,0,0:0:0:0:
192,192,36324,1,0,0:0:0:0:
320,192,36482,1,0,0:0:0:0:
64,192,36482,128,0,36639:0:0:0:0:
192,192,36639,128,0,36797:0:0:0:0:
448,192,36797,128,0,36955:0:0:0:0:
320,192,36955,128,0,37745:0:0:0:0:
64,192,37113,1,0,0:0:0:0:
448,192,37113,1,0,0:0:0:0:
192,192,37271,1,0,0:0:0:0:
192,192,37587,1,0,0:0:0:0:
64,192,37745,1,0,0:0:0:0:
448,192,37745,128,0,37903:0:0:0:0:
192,192,37903,128,0,38060:0:0:0:0:
320,192,38060,128,0,38218:0:0:0:0:
64,192,38218,128,0,39008:0:0:0:0:
192,192,38376,1,0,0:0:0:0:
448,192,38376,1,0,0:0:0:0:
448,192,38534,1,0,0:0:0:0:
448,192,38850,128,0,39008:0:0:0:0:
320,192,39008,1,0,0:0:0:0:
192,192,39008,128,0,39166:0:0:0:0:
448,192,39166,128,0,39324:0:0:0:0:
192,192,39324,1,0,0:0:0:0:
320,192,39482,128,0,39639:0:0:0:0:
64,192,39639,1,0,0:0:0:0:
448,192,39639,1,0,0:0:0:0:
192,192,39797,128,0,39955:0:0:0:0:
320,192,39955,1,0,0:0:0:0:
448,192,40113,128,0,40271:0:0:0:0:
192,192,40271,1,0,0:0:0:0:
64,192,40271,1,0,0:0:0:0:
320,192,40429,128,0,40824:0:0:0:0:
448,192,40587,1,0,0:0:0:0:
192,192,40903,1,0,0:0:0:0:
448,192,40903,1,0,0:0:0:0:
64,192,40903,128,0,41455:0:0:0:0:
320,192,40903,1,0,0:0:0:0:
320,192,41060,1,0,0:0:0:0:
192,192,41218,1,0,0:0:0:0:
448,192,41376,1,0,0:0:0:0:
320,192,41534,1,0,0:0:0:0:
192,192,41534,1,0,0:0:0:0:
64,192,41534,1,0,0:0:0:0:
448,192,41534,128,0,42008:0:0:0:0:
320,192,41692,128,0,42008:0:0:0:0:
192,192,41850,128,0,42008:0:0:0:0:
64,192,42008,128,0,42087:0:0:0:0:
448,192,42166,128,0,42718:0:0:0:0:
192,192,42166,1,0,0:0:0:0:
320,192,42166,1,0,0:0:0:0:
64,192,42166,1,0,0:0:0:0:
320,192,42324,1,0,0:0:0:0:
192,192,42482,1,0,0:0:0:0:
64,192,42639,1,0,0:0:0:0:
192,192,42797,1,0,0:0:0:0:
320,192,42797,1,0,0:0:0:0:
448,192,42797,1,0,0:0:0:0:
64,192,42797,128,0,43271:0:0:0:0:
192,192,42955,128,0,43271:0:0:0:0:
320,192,43113,128,0,43271:0:0:0:0:
448,192,43271,128,0,43350:0:0:0:0:
64,192,43429,128,0,43982:0:0:0:0:
192,192,43429,1,0,0:0:0:0:
320,192,43429,1,0,0:0:0:0:
448,192,43429,1,0,0:0:0:0:
320,192,43587,1,0,0:0:0:0:
192,192,43745,1,0,0:0:0:0:
448,192,43903,1,0,0:0:0:0:
192,192,44060,1,0,0:0:0:0:
320,192,44060,1,0,0:0:0:0:
64,192,44060,1,0,0:0:0:0:
448,192,44060,128,0,44534:0:0:0:0:
320,192,44218,128,0,44534:0:0:0:0:
192,192,44376,128,0,44534:0:0:0:0:
64,192,44534,128,0,44613:0:0:0:0:
448,192,44692,128,0,45245:0:0:0:0:
192,192,44692,1,0,0:0:0:0:
320,192,44692,1,0,0:0:0:0:
64,192,44692,1,0,0:0:0:0:
192,192,44850,1,0,0:0:0:0:
320,192,45008,1,0,0:0:0:0:
64,192,45166,1,0,0:0:0:0:
192,192,45324,1,0,0:0:0:0:
320,192,45324,1,0,0:0:0:0:
448,192,45324,1,0,0:0:0:0:
64,192,45324,128,0,45797:0:0:0:0:
192,192,45482,128,0,45797:0:0:0:0:
320,192,45639,128,0,45797:0:0:0:0:
448,192,45797,128,0,45876:0:0:0:0:
64,192,45955,128,0,46508:0:0:0:0:
192,192,45955,1,0,0:0:0:0:
320,192,45955,1,0,0:0:0:0:
448,192,45955,1,0,0:0:0:0:
320,192,46113,1,0,0:0:0:0:
192,192,46271,1,0,0:0:0:0:
320,192,46429,1,0,0:0:0:0:
192,192,46587,1,0,0:0:0:0:
320,192,46587,1,0,0:0:0:0:
64,192,46587,1,0,0:0:0:0:
448,192,46587,128,0,47060:0:0:0:0:
320,192,46745,128,0,47060:0:0:0:0:
192,192,46903,128,0,47060:0:0:0:0:
64,192,47060,128,0,47139:0:0:0:0:
448,192,47218,128,0,47771:0:0:0:0:
192,192,47218,1,0,0:0:0:0:
320,192,47218,1,0,0:0:0:0:
64,192,47218,1,0,0:0:0:0:
192,192,47376,1,0,0:0:0:0:
320,192,47534,1,0,0:0:0:0:
192,192,47692,1,0,0:0:0:0:
192,192,47850,1,0,0:0:0:0:
320,192,47850,1,0,0:0:0:0:
448,192,47850,1,0,0:0:0:0:
64,192,47850,128,0,48324:0:0:0:0:
192,192,48008,128,0,48324:0:0:0:0:
320,192,48166,128,0,48324:0:0:0:0:
448,192,48324,128,0,48403:0:0:0:0:
64,192,48482,128,0,49034:0:0:0:0:
192,192,48482,1,0,0:0:0:0:
320,192,48482,1,0,0:0:0:0:
448,192,48482,1,0,0:0:0:0:
320,192,48639,1,0,0:0:0:0:
192,192,48797,1,0,0:0:0:0:
320,192,48955,1,0,0:0:0:0:
192,192,49113,1,0,0:0:0:0:
320,192,49113,1,0,0:0:0:0:
64,192,49113,1,0,0:0:0:0:
448,192,49113,128,0,49587:0:0:0:0:
320,192,49271,128,0,49587:0:0:0:0:
192,192,49429,128,0,49587:0:0:0:0:
64,192,49587,128,0,49666:0:0:0:0:
448,192,49745,128,0,50297:0:0:0:0:
192,192,49745,1,0,0:0:0:0:
320,192,49745,1,0,0:0:0:0:
64,192,49745,1,0,0:0:0:0:
192,192,49903,1,0,0:0:0:0:
64,192,50060,1,0,0:0:0:0:
192,192,50218,1,0,0:0:0:0:
192,192,50376,1,0,0:0:0:0:
320,192,50376,1,0,0:0:0:0:
448,192,50376,1,0,0:0:0:0:
64,192,50376,128,0,50850:0:0:0:0:
192,192,50534,128,0,50850:0:0:0:0:
320,192,50692,128,0,50850:0:0:0:0:
448,192,50850,128,0,50929:0:0:0:0:
64,192,51008,1,0,0:0:0:0:
192,192,51008,1,0,0:0:0:0:
320,192,51008,1,0,0:0:0:0:
448,192,51008,1,0,0:0:0:0:
64,192,51324,1,0,0:0:0:0:
448,192,51324,1,0,0:0:0:0:
192,192,51324,1,0,0:0:0:0:
64,192,51639,1,0,0:0:0:0:
320,192,51639,1,0,0:0:0:0:
448,192,51639,1,0,0:0:0:0:
64,192,51955,1,0,0:0:0:0:
192,192,51955,1,0,0:0:0:0:
448,192,51955,1,0,0:0:0:0:
64,192,52271,1,0,0:0:0:0:
320,192,52271,1,0,0:0:0:0:
448,192,52271,1,0,0:0:0:0:
320,192,52587,1,0,0:0:0:0:
192,192,52587,1,0,0:0:0:0:
448,192,52587,1,0,0:0:0:0:
64,192,52903,1,0,0:0:0:0:
192,192,52903,1,0,0:0:0:0:
448,192,52903,1,0,0:0:0:0:
320,192,53218,1,0,0:0:0:0:
192,192,53218,1,0,0:0:0:0:
64,192,53218,1,0,0:0:0:0:
64,192,53534,1,0,0:0:0:0:
320,192,53534,1,0,0:0:0:0:
448,192,53534,1,0,0:0:0:0:
320,192,53850,1,0,0:0:0:0:
192,192,53850,1,0,0:0:0:0:
448,192,53850,1,0,0:0:0:0:
64,192,54166,1,0,0:0:0:0:
192,192,54166,1,0,0:0:0:0:
320,192,54166,1,0,0:0:0:0:
192,192,54482,1,0,0:0:0:0:
64,192,54482,1,0,0:0:0:0:
448,192,54482,1,0,0:0:0:0:
64,192,54797,1,0,0:0:0:0:
320,192,54797,1,0,0:0:0:0:
448,192,54797,1,0,0:0:0:0:
64,192,55113,1,0,0:0:0:0:
192,192,55113,1,0,0:0:0:0:
448,192,55113,1,0,0:0:0:0:
192,192,55429,1,0,0:0:0:0:
320,192,55429,1,0,0:0:0:0:
448,192,55429,1,0,0:0:0:0:
64,192,55745,1,0,0:0:0:0:
192,192,55745,1,0,0:0:0:0:
448,192,55745,1,0,0:0:0:0:
64,192,56060,1,0,0:0:0:0:
192,192,56060,1,0,0:0:0:0:
320,192,56060,1,0,0:0:0:0:
448,192,56060,1,0,0:0:0:0:
64,192,56218,1,0,0:0:0:0:
320,192,56218,1,0,0:0:0:0:
448,192,56218,1,0,0:0:0:0:
64,192,56376,1,0,0:0:0:0:
192,192,56376,1,0,0:0:0:0:
320,192,56376,1,0,0:0:0:0:
64,192,56534,1,0,0:0:0:0:
192,192,56534,1,0,0:0:0:0:
448,192,56534,1,0,0:0:0:0:
192,192,56692,1,0,0:0:0:0:
320,192,56692,1,0,0:0:0:0:
448,192,56692,1,0,0:0:0:0:
64,192,56850,1,0,0:0:0:0:
192,192,56850,1,0,0:0:0:0:
320,192,56850,1,0,0:0:0:0:
192,192,57008,1,0,0:0:0:0:
320,192,57008,1,0,0:0:0:0:
448,192,57008,1,0,0:0:0:0:
64,192,57166,1,0,0:0:0:0:
192,192,57166,1,0,0:0:0:0:
448,192,57166,1,0,0:0:0:0:
192,192,57324,1,0,0:0:0:0:
448,192,57324,1,0,0:0:0:0:
320,192,57324,1,0,0:0:0:0:
64,192,57324,1,0,0:0:0:0:
64,192,57482,1,0,0:0:0:0:
192,192,57482,1,0,0:0:0:0:
320,192,57482,1,0,0:0:0:0:
192,192,57639,1,0,0:0:0:0:
320,192,57639,1,0,0:0:0:0:
448,192,57639,1,0,0:0:0:0:
64,192,57797,1,0,0:0:0:0:
192,192,57797,1,0,0:0:0:0:
448,192,57797,1,0,0:0:0:0:
64,192,57955,1,0,0:0:0:0:
320,192,57955,1,0,0:0:0:0:
448,192,57955,1,0,0:0:0:0:
192,192,58113,1,0,0:0:0:0:
320,192,58113,1,0,0:0:0:0:
448,192,58113,1,0,0:0:0:0:
320,192,58271,1,0,0:0:0:0:
192,192,58271,1,0,0:0:0:0:
64,192,58271,1,0,0:0:0:0:
64,192,58429,1,0,0:0:0:0:
192,192,58429,1,0,0:0:0:0:
448,192,58429,1,0,0:0:0:0:
64,192,58587,1,0,0:0:0:0:
320,192,58587,1,0,0:0:0:0:
448,192,58587,1,0,0:0:0:0:
192,192,58666,1,0,0:0:0:0:
64,192,58745,1,0,0:0:0:0:
448,192,58745,1,0,0:0:0:0:
320,192,58824,1,0,0:0:0:0:
64,192,58903,1,0,0:0:0:0:
192,192,58903,1,0,0:0:0:0:
448,192,58982,1,0,0:0:0:0:
320,192,59060,1,0,0:0:0:0:
64,192,59060,1,0,0:0:0:0:
192,192,59139,1,0,0:0:0:0:
64,192,59218,1,0,0:0:0:0:
320,192,59218,1,0,0:0:0:0:
448,192,59297,1,0,0:0:0:0:
192,192,59376,1,0,0:0:0:0:
320,192,59376,1,0,0:0:0:0:
64,192,59455,1,0,0:0:0:0:
320,192,59534,1,0,0:0:0:0:
448,192,59534,1,0,0:0:0:0:
192,192,59613,1,0,0:0:0:0:
448,192,59692,1,0,0:0:0:0:
320,192,59692,1,0,0:0:0:0:
192,192,59771,1,0,0:0:0:0:
448,192,59850,1,0,0:0:0:0:
320,192,59850,1,0,0:0:0:0:
64,192,59929,1,0,0:0:0:0:
192,192,59929,1,0,0:0:0:0:
448,192,60008,1,0,0:0:0:0:
320,192,60008,1,0,0:0:0:0:
64,192,60087,1,0,0:0:0:0:
192,192,60087,1,0,0:0:0:0:
320,192,60166,1,0,0:0:0:0:
448,192,60166,1,0,0:0:0:0:
192,192,60245,1,0,0:0:0:0:
64,192,60245,1,0,0:0:0:0:
320,192,60324,1,0,0:0:0:0:
448,192,60324,1,0,0:0:0:0:
192,192,60403,1,0,0:0:0:0:
64,192,60403,1,0,0:0:0:0:
64,192,60482,1,0,0:0:0:0:
448,192,60482,1,0,0:0:0:0:
320,192,60639,1,0,0:0:0:0:
192,192,60797,1,0,0:0:0:0:
64,192,61113,1,0,0:0:0:0:
192,192,61113,128,0,61666:0:0:0:0:
448,192,61113,128,0,61666:0:0:0:0:
320,192,61113,128,0,61666:0:0:0:0:
192,192,61745,1,0,0:0:0:0:
320,192,61745,1,0,0:0:0:0:
448,192,61745,1,0,0:0:0:0:
64,192,61745,128,0,62218:0:0:0:0:
192,192,61903,128,0,62218:0:0:0:0:
320,192,62060,128,0,62218:0:0:0:0:
448,192,62218,128,0,62376:0:0:0:0:
64,192,62376,128,0,62929:0:0:0:0:
192,192,62376,128,0,62929:0:0:0:0:
320,192,62376,128,0,62929:0:0:0:0:
64,192,63008,1,0,0:0:0:0:
192,192,63008,1,0,0:0:0:0:
320,192,63008,1,0,0:0:0:0:
448,192,63008,128,0,63482:0:0:0:0:
320,192,63166,128,0,63482:0:0:0:0:
192,192,63324,128,0,63482:0:0:0:0:
64,192,63482,128,0,63639:0:0:0:0:
192,192,63639,128,0,64192:0:0:0:0:
448,192,63639,128,0,64192:0:0:0:0:
320,192,63639,128,0,64192:0:0:0:0:
64,192,64113,128,0,64192:0:0:0:0:
320,192,64271,1,0,0:0:0:0:
448,192,64271,128,0,64429:0:0:0:0:
64,192,64271,1,0,0:0:0:0:
192,192,64271,128,0,64429:0:0:0:0:
320,192,64429,128,0,64587:0:0:0:0:
64,192,64429,128,0,64587:0:0:0:0:
192,192,64587,1,0,0:0:0:0:
192,192,64745,128,0,64903:0:0:0:0:
320,192,64745,128,0,64903:0:0:0:0:
64,192,64903,1,0,0:0:0:0:
448,192,64903,1,0,0:0:0:0:
320,192,65060,128,0,65218:0:0:0:0:
448,192,65060,128,0,65218:0:0:0:0:
64,192,65218,1,0,0:0:0:0:
320,192,65376,128,0,65534:0:0:0:0:
64,192,65376,128,0,65534:0:0:0:0:
192,192,65534,1,0,0:0:0:0:
448,192,65534,1,0,0:0:0:0:
320,192,65692,128,0,66087:0:0:0:0:
64,192,65850,128,0,66166:0:0:0:0:
192,192,66008,128,0,66087:0:0:0:0:
320,192,66166,128,0,66718:0:0:0:0:
448,192,66166,128,0,66718:0:0:0:0:
192,192,66166,128,0,66718:0:0:0:0:
192,192,66797,1,0,0:0:0:0:
320,192,66797,1,0,0:0:0:0:
448,192,66797,1,0,0:0:0:0:
64,192,66797,128,0,67271:0:0:0:0:
192,192,66955,128,0,67271:0:0:0:0:
320,192,67113,128,0,67271:0:0:0:0:
448,192,67271,128,0,67429:0:0:0:0:
320,192,67429,128,0,67982:0:0:0:0:
192,192,67429,128,0,67982:0:0:0:0:
64,192,67429,128,0,67982:0:0:0:0:
64,192,68060,1,0,0:0:0:0:
192,192,68060,1,0,0:0:0:0:
320,192,68060,1,0,0:0:0:0:
448,192,68060,128,0,68534:0:0:0:0:
320,192,68218,128,0,68534:0:0:0:0:
192,192,68376,128,0,68534:0:0:0:0:
64,192,68534,128,0,68692:0:0:0:0:
192,192,68692,128,0,69245:0:0:0:0:
320,192,68692,128,0,69245:0:0:0:0:
448,192,68692,128,0,69245:0:0:0:0:
64,192,69166,128,0,69245:0:0:0:0:
192,192,69324,1,0,0:0:0:0:
320,192,69324,1,0,0:0:0:0:
64,192,69324,128,0,69482:0:0:0:0:
448,192,69324,128,0,69482:0:0:0:0:
320,192,69482,128,0,69639:0:0:0:0:
192,192,69482,128,0,69639:0:0:0:0:
64,192,69639,1,0,0:0:0:0:
320,192,69797,128,0,69955:0:0:0:0:
448,192,69797,128,0,69955:0:0:0:0:
192,192,69955,1,0,0:0:0:0:
64,192,69955,1,0,0:0:0:0:
192,192,70113,128,0,70271:0:0:0:0:
320,192,70113,128,0,70271:0:0:0:0:
64,192,70271,1,0,0:0:0:0:
192,192,70429,128,0,70587:0:0:0:0:
64,192,70429,128,0,70587:0:0:0:0:
320,192,70587,1,0,0:0:0:0:
448,192,70587,1,0,0:0:0:0:
192,192,70745,128,0,70903:0:0:0:0:
448,192,70745,128,0,71139:0:0:0:0:
64,192,70903,128,0,71060:0:0:0:0:
320,192,71060,128,0,71139:0:0:0:0:
192,192,71139,128,0,71218:0:0:0:0:
320,192,71218,128,0,71771:0:0:0:0:
448,192,71218,128,0,71771:0:0:0:0:
64,192,71218,128,0,71771:0:0:0:0:
320,192,71850,1,0,0:0:0:0:
448,192,71850,1,0,0:0:0:0:
192,192,71850,1,0,0:0:0:0:
64,192,71850,128,0,72324:0:0:0:0:
192,192,72008,128,0,72324:0:0:0:0:
448,192,72166,128,0,72324:0:0:0:0:
320,192,72324,128,0,72482:0:0:0:0:
448,192,72482,128,0,73034:0:0:0:0:
192,192,72482,128,0,73034:0:0:0:0:
64,192,72482,128,0,73034:0:0:0:0:
448,192,73113,1,0,0:0:0:0:
320,192,73113,1,0,0:0:0:0:
192,192,73113,1,0,0:0:0:0:
64,192,73113,128,0,73587:0:0:0:0:
192,192,73271,128,0,73587:0:0:0:0:
448,192,73429,128,0,73587:0:0:0:0:
320,192,73587,128,0,73745:0:0:0:0:
192,192,73745,128,0,74297:0:0:0:0:
448,192,73745,128,0,74297:0:0:0:0:
64,192,73745,128,0,74297:0:0:0:0:
320,192,74218,128,0,74297:0:0:0:0:
320,192,74376,1,0,0:0:0:0:
448,192,74376,128,0,74534:0:0:0:0:
192,192,74376,128,0,74534:0:0:0:0:
64,192,74376,1,0,0:0:0:0:
64,192,74534,128,0,74692:0:0:0:0:
320,192,74534,128,0,74692:0:0:0:0:
448,192,74692,1,0,0:0:0:0:
192,192,74850,128,0,75008:0:0:0:0:
320,192,74850,128,0,75008:0:0:0:0:
64,192,75008,1,0,0:0:0:0:
448,192,75008,1,0,0:0:0:0:
320,192,75166,128,0,75324:0:0:0:0:
448,192,75166,128,0,75324:0:0:0:0:
64,192,75324,1,0,0:0:0:0:
192,192,75482,128,0,75639:0:0:0:0:
320,192,75482,128,0,75639:0:0:0:0:
64,192,75639,1,0,0:0:0:0:
448,192,75639,1,0,0:0:0:0:
64,192,75797,128,0,76192:0:0:0:0:
448,192,75797,128,0,76192:0:0:0:0:
320,192,75955,128,0,76192:0:0:0:0:
64,192,76271,128,0,76824:0:0:0:0:
192,192,76271,128,0,76824:0:0:0:0:
320,192,76271,128,0,76824:0:0:0:0:
64,192,76903,1,0,0:0:0:0:
192,192,76903,1,0,0:0:0:0:
320,192,76903,1,0,0:0:0:0:
448,192,76903,128,0,77376:0:0:0:0:
320,192,77060,128,0,77376:0:0:0:0:
64,192,77218,128,0,77376:0:0:0:0:
192,192,77376,128,0,77534:0:0:0:0:
320,192,77534,128,0,78087:0:0:0:0:
448,192,77534,128,0,78087:0:0:0:0:
64,192,77534,128,0,78087:0:0:0:0:
64,192,78166,1,0,0:0:0:0:
320,192,78166,1,0,0:0:0:0:
448,192,78166,1,0,0:0:0:0:
192,192,78166,128,0,78639:0:0:0:0:
320,192,78324,128,0,78639:0:0:0:0:
64,192,78482,128,0,78639:0:0:0:0:
448,192,78639,128,0,78797:0:0:0:0:
320,192,78797,128,0,79350:0:0:0:0:
192,192,78797,128,0,79350:0:0:0:0:
64,192,78797,128,0,79350:0:0:0:0:
448,192,79271,128,0,79350:0:0:0:0:
64,192,79429,1,0,0:0:0:0:
448,192,79429,1,0,0:0:0:0:
320,192,79429,128,0,79587:0:0:0:0:
192,192,79429,128,0,79587:0:0:0:0:
64,192,79587,128,0,79745:0:0:0:0:
448,192,79587,128,0,79745:0:0:0:0:
192,192,79745,1,0,0:0:0:0:
320,192,79903,128,0,80060:0:0:0:0:
448,192,79903,128,0,80060:0:0:0:0:
64,192,80060,1,0,0:0:0:0:
192,192,80060,1,0,0:0:0:0:
192,192,80218,128,0,80376:0:0:0:0:
320,192,80218,128,0,80376:0:0:0:0:
448,192,80376,1,0,0:0:0:0:
192,192,80534,128,0,80692:0:0:0:0:
64,192,80534,128,0,80692:0:0:0:0:
320,192,80692,1,0,0:0:0:0:
448,192,80692,1,0,0:0:0:0:
448,192,80850,128,0,81245:0:0:0:0:
64,192,80850,128,0,81324:0:0:0:0:
320,192,81008,128,0,81245:0:0:0:0:
320,192,81324,128,0,81876:0:0:0:0:
448,192,81324,128,0,81876:0:0:0:0:
192,192,81324,1,0,0:0:0:0:
192,192,81955,1,0,0:0:0:0:
320,192,81955,1,0,0:0:0:0:
448,192,81955,1,0,0:0:0:0:
64,192,81955,128,0,82113:0:0:0:0:
192,192,82113,128,0,82271:0:0:0:0:
320,192,82271,128,0,82429:0:0:0:0:
448,192,82429,128,0,82587:0:0:0:0:
320,192,82587,1,0,0:0:0:0:
192,192,82587,128,0,83139:0:0:0:0:
64,192,82587,128,0,83139:0:0:0:0:
64,192,83218,1,0,0:0:0:0:
192,192,83218,1,0,0:0:0:0:
320,192,83218,1,0,0:0:0:0:
448,192,83218,128,0,83376:0:0:0:0:
320,192,83376,128,0,83534:0:0:0:0:
192,192,83534,128,0,83692:0:0:0:0:
64,192,83692,128,0,83850:0:0:0:0:
320,192,83850,1,0,0:0:0:0:
448,192,83850,128,0,84324:0:0:0:0:
192,192,83850,128,0,84324:0:0:0:0:
320,192,84324,128,0,84482:0:0:0:0:
64,192,84482,1,0,0:0:0:0:
448,192,84482,1,0,0:0:0:0:
192,192,84482,128,0,84639:0:0:0:0:
320,192,84639,128,0,84797:0:0:0:0:
448,192,84797,1,0,0:0:0:0:
192,192,84955,128,0,85113:0:0:0:0:
64,192,85113,1,0,0:0:0:0:
320,192,85113,1,0,0:0:0:0:
448,192,85271,128,0,85429:0:0:0:0:
320,192,85429,1,0,0:0:0:0:
192,192,85587,128,0,85745:0:0:0:0:
64,192,85745,1,0,0:0:0:0:
320,192,85745,1,0,0:0:0:0:
448,192,85745,1,0,0:0:0:0:
192,192,85903,128,0,86376:0:0:0:0:
320,192,86060,1,0,0:0:0:0:
448,192,86376,128,0,86929:0:0:0:0:
64,192,86376,128,0,87008:0:0:0:0:
320,192,86692,1,0,0:0:0:0:
192,192,87008,1,0,0:0:0:0:
448,192,87008,1,0,0:0:0:0:
320,192,87008,128,0,87166:0:0:0:0:
64,192,87166,128,0,87324:0:0:0:0:
192,192,87324,128,0,87482:0:0:0:0:
320,192,87482,128,0,87639:0:0:0:0:
448,192,87639,128,0,88271:0:0:0:0:
64,192,87639,128,0,88192:0:0:0:0:
192,192,87955,1,0,0:0:0:0:
320,192,88271,1,0,0:0:0:0:
64,192,88271,1,0,0:0:0:0:
192,192,88271,128,0,88429:0:0:0:0:
448,192,88429,128,0,88587:0:0:0:0:
320,192,88587,128,0,88745:0:0:0:0:
64,192,88745,128,0,88903:0:0:0:0:
192,192,88903,128,0,89376:0:0:0:0:
320,192,88903,128,0,89376:0:0:0:0:
448,192,89218,1,0,0:0:0:0:
64,192,89376,128,0,89534:0:0:0:0:
448,192,89534,1,0,0:0:0:0:
320,192,89534,128,0,89692:0:0:0:0:
64,192,89692,128,0,89850:0:0:0:0:
192,192,89850,1,0,0:0:0:0:
320,192,90008,128,0,90166:0:0:0:0:
192,192,90166,1,0,0:0:0:0:
64,192,90166,1,0,0:0:0:0:
448,192,90324,128,0,90482:0:0:0:0:
192,192,90482,1,0,0:0:0:0:
320,192,90639,128,0,90797:0:0:0:0:
64,192,90797,1,0,0:0:0:0:
192,192,90797,1,0,0:0:0:0:
448,192,90797,1,0,0:0:0:0:
192,192,90955,128,0,91429:0:0:0:0:
320,192,91113,128,0,91350:0:0:0:0:
448,192,91271,128,0,91350:0:0:0:0:
64,192,91350,128,0,91429:0:0:0:0:
448,192,91429,128,0,91982:0:0:0:0:
320,192,91429,128,0,91982:0:0:0:0:
64,192,91745,1,0,0:0:0:0:
64,192,92060,1,0,0:0:0:0:
448,192,92060,1,0,0:0:0:0:
192,192,92060,128,0,92218:0:0:0:0:
320,192,92218,128,0,92376:0:0:0:0:
448,192,92376,128,0,92534:0:0:0:0:
64,192,92534,128,0,92692:0:0:0:0:
192,192,92692,128,0,93245:0:0:0:0:
320,192,92692,128,0,93245:0:0:0:0:
448,192,93008,1,0,0:0:0:0:
64,192,93324,1,0,0:0:0:0:
320,192,93324,1,0,0:0:0:0:
448,192,93324,128,0,93482:0:0:0:0:
192,192,93482,128,0,93639:0:0:0:0:
320,192,93639,128,0,93797:0:0:0:0:
448,192,93797,128,0,93955:0:0:0:0:
192,192,93955,128,0,94508:0:0:0:0:
64,192,93955,128,0,94508:0:0:0:0:
320,192,94271,1,0,0:0:0:0:
448,192,94429,128,0,94587:0:0:0:0:
64,192,94587,1,0,0:0:0:0:
320,192,94587,1,0,0:0:0:0:
192,192,94587,128,0,94745:0:0:0:0:
448,192,94745,128,0,94903:0:0:0:0:
64,192,94903,1,0,0:0:0:0:
320,192,95060,128,0,95218:0:0:0:0:
192,192,95218,1,0,0:0:0:0:
64,192,95218,1,0,0:0:0:0:
448,192,95376,128,0,95534:0:0:0:0:
192,192,95534,1,0,0:0:0:0:
320,192,95692,128,0,95850:0:0:0:0:
64,192,95850,1,0,0:0:0:0:
192,192,95850,1,0,0:0:0:0:
448,192,95850,1,0,0:0:0:0:
64,192,96008,128,0,96482:0:0:0:0:
320,192,96166,1,0,0:0:0:0:
448,192,96482,128,0,97034:0:0:0:0:
192,192,96482,128,0,97034:0:0:0:0:
320,192,96797,1,0,0:0:0:0:
64,192,97113,1,0,0:0:0:0:
448,192,97113,1,0,0:0:0:0:
320,192,97113,128,0,97271:0:0:0:0:
192,192,97271,128,0,97429:0:0:0:0:
64,192,97429,128,0,97587:0:0:0:0:
448,192,97587,128,0,97745:0:0:0:0:
320,192,97745,128,0,98297:0:0:0:0:
192,192,97745,128,0,98297:0:0:0:0:
64,192,98060,1,0,0:0:0:0:
64,192,98376,1,0,0:0:0:0:
192,192,98376,1,0,0:0:0:0:
448,192,98376,128,0,98850:0:0:0:0:
320,192,98534,128,0,98850:0:0:0:0:
192,192,98692,128,0,98850:0:0:0:0:
64,192,98850,128,0,99008:0:0:0:0:
192,192,99008,128,0,99560:0:0:0:0:
320,192,99008,128,0,99560:0:0:0:0:
448,192,99008,128,0,99560:0:0:0:0:
64,192,99324,1,0,0:0:0:0:
64,192,99482,128,0,99560:0:0:0:0:
64,192,99639,1,0,0:0:0:0:
320,192,99639,1,0,0:0:0:0:
448,192,99639,128,0,99797:0:0:0:0:
192,192,99639,128,0,99797:0:0:0:0:
320,192,99797,128,0,99955:0:0:0:0:
64,192,99955,1,0,0:0:0:0:
64,192,100113,128,0,100271:0:0:0:0:
448,192,100113,128,0,100587:0:0:0:0:
320,192,100271,128,0,100429:0:0:0:0:
192,192,100271,128,0,100429:0:0:0:0:
64,192,100429,128,0,100587:0:0:0:0:
192,192,100587,128,0,100745:0:0:0:0:
448,192,100745,128,0,101218:0:0:0:0:
320,192,100745,128,0,100903:0:0:0:0:
64,192,100903,128,0,101060:0:0:0:0:
192,192,101060,128,0,101218:0:0:0:0:
320,192,101060,128,0,101376:0:0:0:0:
64,192,101218,128,0,101534:0:0:0:0:
192,192,101376,128,0,101534:0:0:0:0:
320,192,101534,1,0,0:0:0:0:
448,192,101534,128,0,104534:0:0:0:0:
192,192,101692,128,0,101771:0:0:0:0:
320,192,102008,128,0,102087:0:0:0:0:
192,192,102324,128,0,102403:0:0:0:0:
64,192,102639,128,0,102718:0:0:0:0:
192,192,102955,128,0,103034:0:0:0:0:
320,192,103271,128,0,103350:0:0:0:0:
64,192,103587,128,0,103666:0:0:0:0:
192,192,103903,128,0,103982:0:0:0:0:
64,192,104218,128,0,104297:0:0:0:0:
320,192,104534,128,0,104613:0:0:0:0:
192,192,104850,128,0,104929:0:0:0:0:
64,192,105166,128,0,105245:0:0:0:0:
192,192,105482,128,0,105560:0:0:0:0:
448,192,105797,128,0,105876:0:0:0:0:
320,192,106113,128,0,106192:0:0:0:0:
64,192,106429,128,0,106508:0:0:0:0:
192,192,106745,128,0,106824:0:0:0:0:
320,192,107060,128,0,107139:0:0:0:0:
192,192,107376,128,0,107455:0:0:0:0:
64,192,107692,128,0,107771:0:0:0:0:
448,192,108008,1,0,0:0:0:0:
192,192,108008,128,0,108087:0:0:0:0:
320,192,108324,128,0,108403:0:0:0:0:
448,192,108482,1,0,0:0:0:0:
64,192,108482,1,0,0:0:0:0:
192,192,108639,128,0,108718:0:0:0:0:
64,192,108955,128,0,109034:0:0:0:0:
448,192,109113,1,0,0:0:0:0:
320,192,109113,1,0,0:0:0:0:
192,192,109271,128,0,109350:0:0:0:0:
448,192,109587,1,0,0:0:0:0:
64,192,109587,128,0,109666:0:0:0:0:
192,192,109903,128,0,109982:0:0:0:0:
320,192,110218,128,0,110297:0:0:0:0:
448,192,110376,1,0,0:0:0:0:
64,192,110376,1,0,0:0:0:0:
192,192,110534,128,0,110613:0:0:0:0:
448,192,110850,1,0,0:0:0:0:
64,192,110850,128,0,110929:0:0:0:0:
320,192,111166,128,0,111245:0:0:0:0:
64,192,111324,1,0,0:0:0:0:
448,192,111324,1,0,0:0:0:0:
192,192,111324,1,0,0:0:0:0:
320,192,111482,1,0,0:0:0:0:
64,192,111639,1,0,0:0:0:0:
448,192,111639,1,0,0:0:0:0:
192,192,111955,128,0,112271:0:0:0:0:
448,192,112113,1,0,0:0:0:0:
64,192,112113,1,0,0:0:0:0:
320,192,112271,128,0,112429:0:0:0:0:
64,192,112429,128,0,112587:0:0:0:0:
192,192,112587,128,0,112745:0:0:0:0:
448,192,112587,1,0,0:0:0:0:
448,192,112745,128,0,113060:0:0:0:0:
320,192,113060,128,0,113218:0:0:0:0:
192,192,113060,1,0,0:0:0:0:
64,192,113218,128,0,113376:0:0:0:0:
192,192,113376,128,0,113692:0:0:0:0:
320,192,113534,1,0,0:0:0:0:
64,192,113534,1,0,0:0:0:0:
448,192,113692,128,0,113850:0:0:0:0:
320,192,113850,128,0,114008:0:0:0:0:
64,192,114008,128,0,114324:0:0:0:0:
192,192,114166,1,0,0:0:0:0:
320,192,114166,1,0,0:0:0:0:
448,192,114324,128,0,114639:0:0:0:0:
192,192,114639,1,0,0:0:0:0:
64,192,114639,1,0,0:0:0:0:
320,192,114955,1,0,0:0:0:0:
192,192,115113,128,0,115271:0:0:0:0:
448,192,115113,1,0,0:0:0:0:
320,192,115271,128,0,115587:0:0:0:0:
64,192,115587,128,0,115903:0:0:0:0:
192,192,115587,1,0,0:0:0:0:
192,192,115903,128,0,116218:0:0:0:0:
320,192,116060,1,0,0:0:0:0:
64,192,116060,1,0,0:0:0:0:
448,192,116218,128,0,116534:0:0:0:0:
320,192,116534,128,0,116850:0:0:0:0:
64,192,116692,1,0,0:0:0:0:
448,192,116692,1,0,0:0:0:0:
64,192,117008,128,0,117166:0:0:0:0:
320,192,117166,128,0,117324:0:0:0:0:
448,192,117166,1,0,0:0:0:0:
64,192,117324,128,0,117639:0:0:0:0:
192,192,117639,128,0,117797:0:0:0:0:
320,192,117639,1,0,0:0:0:0:
448,192,117797,128,0,118113:0:0:0:0:
320,192,118113,128,0,118429:0:0:0:0:
64,192,118113,1,0,0:0:0:0:
64,192,118429,128,0,118745:0:0:0:0:
192,192,118587,1,0,0:0:0:0:
448,192,118587,1,0,0:0:0:0:
192,192,118745,128,0,118903:0:0:0:0:
448,192,118903,128,0,119060:0:0:0:0:
320,192,119060,128,0,119376:0:0:0:0:
192,192,119218,1,0,0:0:0:0:
64,192,119218,1,0,0:0:0:0:
64,192,119376,128,0,119692:0:0:0:0:
192,192,119692,1,0,0:0:0:0:
448,192,119692,1,0,0:0:0:0:
192,192,120166,128,0,120324:0:0:0:0:
448,192,120324,128,0,120797:0:0:0:0:
320,192,120482,1,0,0:0:0:0:
64,192,120482,1,0,0:0:0:0:
320,192,120797,128,0,120955:0:0:0:0:
64,192,120955,128,0,121587:0:0:0:0:
448,192,120955,1,0,0:0:0:0:
320,192,121587,1,0,0:0:0:0:
448,192,121666,1,0,0:0:0:0:
64,192,121745,1,0,0:0:0:0:
320,192,121745,1,0,0:0:0:0:
320,192,121982,1,0,0:0:0:0:
448,192,121982,1,0,0:0:0:0:
320,192,122218,1,0,0:0:0:0:
64,192,122218,1,0,0:0:0:0:
64,192,122455,1,0,0:0:0:0:
192,192,122455,1,0,0:0:0:0:
64,192,122692,1,0,0:0:0:0:
448,192,122692,1,0,0:0:0:0:
192,192,123008,1,0,0:0:0:0:
448,192,123008,1,0,0:0:0:0:
64,192,123166,1,0,0:0:0:0:
192,192,123166,1,0,0:0:0:0:
448,192,123245,1,0,0:0:0:0:
320,192,123245,1,0,0:0:0:0:
320,192,123482,1,0,0:0:0:0:
448,192,123482,1,0,0:0:0:0:
64,192,123639,1,0,0:0:0:0:
320,192,123639,1,0,0:0:0:0:
448,192,123718,1,0,0:0:0:0:
192,192,123718,1,0,0:0:0:0:
448,192,123955,1,0,0:0:0:0:
64,192,123955,1,0,0:0:0:0:
192,192,124113,1,0,0:0:0:0:
64,192,124271,1,0,0:0:0:0:
320,192,124271,1,0,0:0:0:0:
64,192,124587,1,0,0:0:0:0:
448,192,124587,1,0,0:0:0:0:
192,192,124745,1,0,0:0:0:0:
320,192,124903,1,0,0:0:0:0:
64,192,124903,1,0,0:0:0:0:
192,192,125218,1,0,0:0:0:0:
448,192,125218,1,0,0:0:0:0:
64,192,125534,1,0,0:0:0:0:
448,192,125534,1,0,0:0:0:0:
320,192,125692,1,0,0:0:0:0:
192,192,125850,1,0,0:0:0:0:
448,192,125850,1,0,0:0:0:0:
64,192,126166,1,0,0:0:0:0:
448,192,126166,1,0,0:0:0:0:
320,192,126482,1,0,0:0:0:0:
64,192,126482,1,0,0:0:0:0:
192,192,126797,1,0,0:0:0:0:
320,192,126797,1,0,0:0:0:0:
64,192,126955,1,0,0:0:0:0:
320,192,127034,1,0,0:0:0:0:
448,192,127113,1,0,0:0:0:0:
192,192,127113,1,0,0:0:0:0:
320,192,127271,1,0,0:0:0:0:
64,192,127429,1,0,0:0:0:0:
192,192,127429,1,0,0:0:0:0:
320,192,127508,1,0,0:0:0:0:
64,192,127587,1,0,0:0:0:0:
192,192,127745,1,0,0:0:0:0:
448,192,127745,1,0,0:0:0:0:
192,192,127903,1,0,0:0:0:0:
64,192,128060,1,0,0:0:0:0:
320,192,128060,1,0,0:0:0:0:
192,192,128218,1,0,0:0:0:0:
320,192,128297,1,0,0:0:0:0:
448,192,128376,1,0,0:0:0:0:
64,192,128376,1,0,0:0:0:0:
320,192,128534,1,0,0:0:0:0:
192,192,128692,1,0,0:0:0:0:
448,192,128692,1,0,0:0:0:0:
320,192,128771,1,0,0:0:0:0:
448,192,128850,1,0,0:0:0:0:
64,192,129008,1,0,0:0:0:0:
192,192,129008,1,0,0:0:0:0:
320,192,129166,1,0,0:0:0:0:
64,192,129324,1,0,0:0:0:0:
192,192,129324,1,0,0:0:0:0:
448,192,129324,128,0,129718:0:0:0:0:
320,192,129482,128,0,129718:0:0:0:0:
192,192,129639,128,0,129718:0:0:0:0:
320,192,129797,128,0,130113:0:0:0:0:
448,192,129797,128,0,130113:0:0:0:0:
64,192,129797,128,0,130113:0:0:0:0:
192,192,130113,128,0,131455:0:0:0:0:
320,192,130271,128,0,131139:0:0:0:0:
448,192,130271,1,0,0:0:0:0:
64,192,130271,128,0,131771:0:0:0:0:
448,192,130429,128,0,131771:0:0:0:0:
320,192,131218,128,0,131771:0:0:0:0:
192,192,131534,128,0,131771:0:0:0:0:
64,192,131850,1,0,0:0:0:0:
192,192,131850,1,0,0:0:0:0:
320,192,131850,1,0,0:0:0:0:
448,192,131850,1,0,0:0:0:0:
320,192,132008,1,0,0:0:0:0:
192,192,132166,1,0,0:0:0:0:
192,192,132324,1,0,0:0:0:0:
448,192,132482,1,0,0:0:0:0:
448,192,132639,1,0,0:0:0:0:
64,192,132797,1,0,0:0:0:0:
192,192,132955,1,0,0:0:0:0:
320,192,133113,1,0,0:0:0:0:
320,192,133271,1,0,0:0:0:0:
448,192,133429,1,0,0:0:0:0:
448,192,133587,1,0,0:0:0:0:
192,192,133745,1,0,0:0:0:0:
192,192,133903,1,0,0:0:0:0:
320,192,134060,1,0,0:0:0:0:
64,192,134218,1,0,0:0:0:0:
448,192,134218,1,0,0:0:0:0:
192,192,134376,1,0,0:0:0:0:
192,192,134534,1,0,0:0:0:0:
320,192,134613,1,0,0:0:0:0:
448,192,134692,1,0,0:0:0:0:
320,192,134771,1,0,0:0:0:0:
448,192,134850,1,0,0:0:0:0:
192,192,134929,1,0,0:0:0:0:
320,192,135008,1,0,0:0:0:0:
192,192,135087,1,0,0:0:0:0:
64,192,135166,1,0,0:0:0:0:
448,192,135245,1,0,0:0:0:0:
320,192,135324,1,0,0:0:0:0:
192,192,135403,1,0,0:0:0:0:
320,192,135482,1,0,0:0:0:0:
192,192,135560,1,0,0:0:0:0:
64,192,135639,1,0,0:0:0:0:
448,192,135639,1,0,0:0:0:0:
320,192,135718,1,0,0:0:0:0:
192,192,135797,1,0,0:0:0:0:
448,192,135876,1,0,0:0:0:0:
320,192,135955,1,0,0:0:0:0:
192,192,136034,1,0,0:0:0:0:
320,192,136113,1,0,0:0:0:0:
192,192,136192,1,0,0:0:0:0:
448,192,136271,1,0,0:0:0:0:
64,192,136350,1,0,0:0:0:0:
448,192,136429,1,0,0:0:0:0:
64,192,136508,1,0,0:0:0:0:
448,192,136587,1,0,0:0:0:0:
192,192,136666,1,0,0:0:0:0:
448,192,136745,1,0,0:0:0:0:
64,192,136824,1,0,0:0:0:0:
320,192,136903,1,0,0:0:0:0:
192,192,136903,1,0,0:0:0:0:
320,192,137060,1,0,0:0:0:0:
192,192,137218,1,0,0:0:0:0:
192,192,137376,1,0,0:0:0:0:
448,192,137534,1,0,0:0:0:0:
448,192,137692,1,0,0:0:0:0:
64,192,137850,1,0,0:0:0:0:
192,192,138008,1,0,0:0:0:0:
320,192,138166,1,0,0:0:0:0:
320,192,138324,1,0,0:0:0:0:
64,192,138482,1,0,0:0:0:0:
64,192,138639,1,0,0:0:0:0:
448,192,138797,1,0,0:0:0:0:
448,192,138955,1,0,0:0:0:0:
192,192,139113,1,0,0:0:0:0:
320,192,139271,1,0,0:0:0:0:
448,192,139271,1,0,0:0:0:0:
192,192,139429,1,0,0:0:0:0:
192,192,139587,1,0,0:0:0:0:
448,192,139745,1,0,0:0:0:0:
448,192,139903,1,0,0:0:0:0:
64,192,140060,1,0,0:0:0:0:
64,192,140218,1,0,0:0:0:0:
320,192,140376,1,0,0:0:0:0:
192,192,140534,1,0,0:0:0:0:
448,192,140692,1,0,0:0:0:0:
192,192,140771,1,0,0:0:0:0:
448,192,140850,1,0,0:0:0:0:
320,192,140929,1,0,0:0:0:0:
192,192,141008,1,0,0:0:0:0:
64,192,141087,1,0,0:0:0:0:
192,192,141166,1,0,0:0:0:0:
448,192,141245,1,0,0:0:0:0:
320,192,141324,1,0,0:0:0:0:
192,192,141403,1,0,0:0:0:0:
64,192,141482,1,0,0:0:0:0:
320,192,141560,1,0,0:0:0:0:
192,192,141639,1,0,0:0:0:0:
320,192,141718,1,0,0:0:0:0:
448,192,141797,1,0,0:0:0:0:
64,192,141876,1,0,0:0:0:0:
192,192,141955,1,0,0:0:0:0:
320,192,141955,1,0,0:0:0:0:
448,192,141955,1,0,0:0:0:0:
64,192,142034,1,0,0:0:0:0:
192,192,142113,1,0,0:0:0:0:
448,192,142192,1,0,0:0:0:0:
64,192,142271,1,0,0:0:0:0:
192,192,142271,1,0,0:0:0:0:
320,192,142350,1,0,0:0:0:0:
448,192,142429,1,0,0:0:0:0:
192,192,142508,1,0,0:0:0:0:
320,192,142587,1,0,0:0:0:0:
448,192,142587,1,0,0:0:0:0:
64,192,142666,1,0,0:0:0:0:
192,192,142745,1,0,0:0:0:0:
320,192,142824,1,0,0:0:0:0:
448,192,142903,1,0,0:0:0:0:
64,192,142903,1,0,0:0:0:0:
192,192,142982,1,0,0:0:0:0:
320,192,143060,1,0,0:0:0:0:
64,192,143139,1,0,0:0:0:0:
192,192,143218,1,0,0:0:0:0:
320,192,143218,1,0,0:0:0:0:
448,192,143297,1,0,0:0:0:0:
64,192,143376,1,0,0:0:0:0:
192,192,143455,1,0,0:0:0:0:
320,192,143534,1,0,0:0:0:0:
448,192,143534,1,0,0:0:0:0:
64,192,143613,1,0,0:0:0:0:
192,192,143692,1,0,0:0:0:0:
320,192,143771,1,0,0:0:0:0:
64,192,143850,1,0,0:0:0:0:
192,192,143850,1,0,0:0:0:0:
448,192,143929,1,0,0:0:0:0:
320,192,144008,1,0,0:0:0:0:
192,192,144087,1,0,0:0:0:0:
320,192,144166,1,0,0:0:0:0:
448,192,144166,1,0,0:0:0:0:
64,192,144245,1,0,0:0:0:0:
192,192,144324,1,0,0:0:0:0:
320,192,144403,1,0,0:0:0:0:
64,192,144482,1,0,0:0:0:0:
448,192,144482,1,0,0:0:0:0:
192,192,144560,1,0,0:0:0:0:
320,192,144639,1,0,0:0:0:0:
192,192,144718,1,0,0:0:0:0:
64,192,144797,1,0,0:0:0:0:
320,192,144797,1,0,0:0:0:0:
448,192,144876,1,0,0:0:0:0:
192,192,144955,1,0,0:0:0:0:
320,192,145034,1,0,0:0:0:0:
64,192,145113,1,0,0:0:0:0:
192,192,145113,1,0,0:0:0:0:
448,192,145192,1,0,0:0:0:0:
320,192,145271,1,0,0:0:0:0:
192,192,145350,1,0,0:0:0:0:
320,192,145429,1,0,0:0:0:0:
448,192,145429,1,0,0:0:0:0:
64,192,145508,1,0,0:0:0:0:
192,192,145587,1,0,0:0:0:0:
320,192,145666,1,0,0:0:0:0:
64,192,145745,1,0,0:0:0:0:
448,192,145745,1,0,0:0:0:0:
192,192,145824,1,0,0:0:0:0:
320,192,145903,1,0,0:0:0:0:
192,192,145982,1,0,0:0:0:0:
320,192,146060,1,0,0:0:0:0:
448,192,146060,1,0,0:0:0:0:
64,192,146139,1,0,0:0:0:0:
192,192,146218,1,0,0:0:0:0:
320,192,146297,1,0,0:0:0:0:
64,192,146376,1,0,0:0:0:0:
448,192,146376,1,0,0:0:0:0:
192,192,146455,1,0,0:0:0:0:
320,192,146534,1,0,0:0:0:0:
192,192,146613,1,0,0:0:0:0:
320,192,146692,1,0,0:0:0:0:
448,192,146692,1,0,0:0:0:0:
64,192,146771,1,0,0:0:0:0:
192,192,146850,1,0,0:0:0:0:
320,192,146929,1,0,0:0:0:0:
64,192,147008,1,0,0:0:0:0:
448,192,147008,1,0,0:0:0:0:
192,192,147087,1,0,0:0:0:0:
320,192,147166,1,0,0:0:0:0:
192,192,147245,1,0,0:0:0:0:
64,192,147324,1,0,0:0:0:0:
320,192,147324,1,0,0:0:0:0:
448,192,147403,1,0,0:0:0:0:
320,192,147482,1,0,0:0:0:0:
192,192,147560,1,0,0:0:0:0:
320,192,147639,1,0,0:0:0:0:
448,192,147639,1,0,0:0:0:0:
64,192,147718,1,0,0:0:0:0:
320,192,147797,1,0,0:0:0:0:
192,192,147876,1,0,0:0:0:0:
64,192,147955,1,0,0:0:0:0:
448,192,147955,1,0,0:0:0:0:
320,192,148034,1,0,0:0:0:0:
192,192,148113,1,0,0:0:0:0:
320,192,148192,1,0,0:0:0:0:
64,192,148271,1,0,0:0:0:0:
448,192,148271,1,0,0:0:0:0:
192,192,148350,1,0,0:0:0:0:
320,192,148429,1,0,0:0:0:0:
64,192,148508,1,0,0:0:0:0:
192,192,148587,1,0,0:0:0:0:
320,192,148587,1,0,0:0:0:0:
448,192,148666,1,0,0:0:0:0:
320,192,148745,1,0,0:0:0:0:
192,192,148824,1,0,0:0:0:0:
448,192,148903,1,0,0:0:0:0:
64,192,148903,1,0,0:0:0:0:
320,192,148982,1,0,0:0:0:0:
192,192,149060,1,0,0:0:0:0:
320,192,149139,1,0,0:0:0:0:
64,192,149218,1,0,0:0:0:0:
192,192,149218,1,0,0:0:0:0:
448,192,149297,1,0,0:0:0:0:
320,192,149376,1,0,0:0:0:0:
192,192,149455,1,0,0:0:0:0:
64,192,149534,1,0,0:0:0:0:
448,192,149534,1,0,0:0:0:0:
320,192,149534,1,0,0:0:0:0:
192,192,149534,1,0,0:0:0:0:
64,192,149850,1,0,0:0:0:0:
192,192,149850,1,0,0:0:0:0:
448,192,149850,1,0,0:0:0:0:
320,192,149850,1,0,0:0:0:0:
64,192,150166,1,0,0:0:0:0:
448,192,150166,1,0,0:0:0:0:
320,192,150166,1,0,0:0:0:0:
192,192,150166,1,0,0:0:0:0:
320,192,150482,1,0,0:0:0:0:
448,192,150482,1,0,0:0:0:0:
64,192,150482,1,0,0:0:0:0:
192,192,150560,1,0,0:0:0:0:
320,192,150639,1,0,0:0:0:0:
448,192,150639,1,0,0:0:0:0:
64,192,150718,1,0,0:0:0:0:
192,192,150718,1,0,0:0:0:0:
448,192,150797,128,0,151982:0:0:0:0:
320,192,150797,1,0,0:0:0:0:
192,192,151745,128,0,151982:0:0:0:0:
448,192,152060,1,0,0:0:0:0:
320,192,152060,1,0,0:0:0:0:
192,192,152060,1,0,0:0:0:0:
64,192,152060,1,0,0:0:0:0:
64,192,152376,1,0,0:0:0:0:
448,192,152376,1,0,0:0:0:0:
192,192,152376,1,0,0:0:0:0:
320,192,152692,1,0,0:0:0:0:
192,192,152692,1,0,0:0:0:0:
64,192,152692,1,0,0:0:0:0:
64,192,153008,1,0,0:0:0:0:
192,192,153008,1,0,0:0:0:0:
448,192,153008,1,0,0:0:0:0:
192,192,153324,1,0,0:0:0:0:
448,192,153324,1,0,0:0:0:0:
320,192,153324,1,0,0:0:0:0:
64,192,153639,1,0,0:0:0:0:
320,192,153639,1,0,0:0:0:0:
448,192,153639,1,0,0:0:0:0:
64,192,153955,1,0,0:0:0:0:
192,192,153955,1,0,0:0:0:0:
448,192,153955,1,0,0:0:0:0:
64,192,154271,1,0,0:0:0:0:
192,192,154271,1,0,0:0:0:0:
320,192,154271,1,0,0:0:0:0:
64,192,154587,1,0,0:0:0:0:
192,192,154587,1,0,0:0:0:0:
448,192,154587,1,0,0:0:0:0:
320,192,154903,1,0,0:0:0:0:
448,192,154903,1,0,0:0:0:0:
64,192,154903,1,0,0:0:0:0:
64,192,155218,1,0,0:0:0:0:
192,192,155218,1,0,0:0:0:0:
320,192,155218,1,0,0:0:0:0:
192,192,155534,1,0,0:0:0:0:
320,192,155534,1,0,0:0:0:0:
448,192,155534,1,0,0:0:0:0:
64,192,155850,1,0,0:0:0:0:
320,192,155850,1,0,0:0:0:0:
448,192,155850,1,0,0:0:0:0:
320,192,156166,1,0,0:0:0:0:
192,192,156166,1,0,0:0:0:0:
64,192,156166,1,0,0:0:0:0:
64,192,156482,1,0,0:0:0:0:
448,192,156482,1,0,0:0:0:0:
320,192,156560,1,0,0:0:0:0:
192,192,156639,1,0,0:0:0:0:
320,192,156718,1,0,0:0:0:0:
192,192,156797,128,0,157113:0:0:0:0:
64,192,157113,1,0,0:0:0:0:
448,192,157113,1,0,0:0:0:0:
320,192,157113,1,0,0:0:0:0:
192,192,157350,1,0,0:0:0:0:
320,192,157350,1,0,0:0:0:0:
448,192,157350,1,0,0:0:0:0:
64,192,157587,1,0,0:0:0:0:
448,192,157587,1,0,0:0:0:0:
320,192,157587,1,0,0:0:0:0:
64,192,157745,1,0,0:0:0:0:
192,192,157745,1,0,0:0:0:0:
320,192,157745,1,0,0:0:0:0:
192,192,157982,1,0,0:0:0:0:
320,192,157982,1,0,0:0:0:0:
448,192,157982,1,0,0:0:0:0:
64,192,158218,1,0,0:0:0:0:
192,192,158218,1,0,0:0:0:0:
448,192,158218,1,0,0:0:0:0:
64,192,158376,1,0,0:0:0:0:
448,192,158376,1,0,0:0:0:0:
320,192,158376,1,0,0:0:0:0:
192,192,158613,1,0,0:0:0:0:
320,192,158613,1,0,0:0:0:0:
448,192,158613,1,0,0:0:0:0:
64,192,158850,1,0,0:0:0:0:
192,192,158850,1,0,0:0:0:0:
448,192,158850,1,0,0:0:0:0:
64,192,159008,1,0,0:0:0:0:
320,192,159008,1,0,0:0:0:0:
192,192,159008,1,0,0:0:0:0:
64,192,159245,1,0,0:0:0:0:
320,192,159245,1,0,0:0:0:0:
448,192,159245,1,0,0:0:0:0:
192,192,159482,1,0,0:0:0:0:
320,192,159482,1,0,0:0:0:0:
448,192,159482,1,0,0:0:0:0:
64,192,159639,1,0,0:0:0:0:
448,192,159639,1,0,0:0:0:0:
320,192,159718,1,0,0:0:0:0:
192,192,159718,1,0,0:0:0:0:
64,192,159797,1,0,0:0:0:0:
448,192,159797,1,0,0:0:0:0:
192,192,159876,1,0,0:0:0:0:
320,192,159876,1,0,0:0:0:0:
64,192,159955,1,0,0:0:0:0:
448,192,159955,1,0,0:0:0:0:
192,192,160034,1,0,0:0:0:0:
320,192,160034,1,0,0:0:0:0:
448,192,160113,1,0,0:0:0:0:
64,192,160113,1,0,0:0:0:0:
192,192,160192,1,0,0:0:0:0:
320,192,160271,1,0,0:0:0:0:
448,192,160271,1,0,0:0:0:0:
64,192,160310,1,0,0:0:0:0:
192,192,160350,1,0,0:0:0:0:
320,192,160389,1,0,0:0:0:0:
448,192,160429,1,0,0:0:0:0:
64,192,160468,1,0,0:0:0:0:
192,192,160508,1,0,0:0:0:0:
320,192,160547,1,0,0:0:0:0:
448,192,160587,1,0,0:0:0:0:
64,192,160626,1,0,0:0:0:0:
192,192,160666,1,0,0:0:0:0:
320,192,160705,1,0,0:0:0:0:
448,192,160745,1,0,0:0:0:0:
64,192,160784,1,0,0:0:0:0:
192,192,160824,1,0,0:0:0:0:
320,192,160863,1,0,0:0:0:0:
448,192,160903,1,0,0:0:0:0:
64,192,160903,128,0,161771:0:0:0:0:
320,192,161060,1,0,0:0:0:0:
192,192,161376,1,0,0:0:0:0:
320,192,161692,1,0,0:0:0:0:
64,192,161850,1,0,0:0:0:0:
320,192,161850,1,0,0:0:0:0:
448,192,161850,1,0,0:0:0:0:
192,192,161929,1,0,0:0:0:0:
64,192,162008,1,0,0:0:0:0:
192,192,162087,1,0,0:0:0:0:
320,192,162166,1,0,0:0:0:0:
448,192,162166,128,0,162482:0:0:0:0:
64,192,162166,128,0,162482:0:0:0:0:
192,192,162482,1,0,0:0:0:0:
320,192,162482,1,0,0:0:0:0:
448,192,162560,1,0,0:0:0:0:
64,192,162560,1,0,0:0:0:0:
192,192,162639,1,0,0:0:0:0:
320,192,162639,1,0,0:0:0:0:
64,192,162718,1,0,0:0:0:0:
192,192,162797,1,0,0:0:0:0:
320,192,162797,1,0,0:0:0:0:
448,192,162955,1,0,0:0:0:0:
64,192,162955,1,0,0:0:0:0:
448,192,163034,1,0,0:0:0:0:
64,192,163034,1,0,0:0:0:0:
192,192,163113,128,0,163429:0:0:0:0:
320,192,163113,128,0,163350:0:0:0:0:
448,192,163429,1,0,0:0:0:0:
64,192,163429,1,0,0:0:0:0:
320,192,163429,128,0,163745:0:0:0:0:
64,192,163745,1,0,0:0:0:0:
448,192,163745,1,0,0:0:0:0:
192,192,163824,1,0,0:0:0:0:
320,192,163824,1,0,0:0:0:0:
448,192,163903,1,0,0:0:0:0:
64,192,163903,1,0,0:0:0:0:
192,192,163982,1,0,0:0:0:0:
320,192,163982,1,0,0:0:0:0:
64,192,164060,1,0,0:0:0:0:
448,192,164060,1,0,0:0:0:0:
320,192,164218,128,0,164297:0:0:0:0:
448,192,164218,128,0,164297:0:0:0:0:
320,192,164376,1,0,0:0:0:0:
448,192,164376,1,0,0:0:0:0:
64,192,164455,128,0,164692:0:0:0:0:
192,192,164455,128,0,164613:0:0:0:0:
192,192,164692,1,0,0:0:0:0:
320,192,164692,1,0,0:0:0:0:
448,192,164692,1,0,0:0:0:0:
64,192,164850,1,0,0:0:0:0:
448,192,164850,1,0,0:0:0:0:
192,192,165008,1,0,0:0:0:0:
448,192,165008,1,0,0:0:0:0:
64,192,165008,1,0,0:0:0:0:
320,192,165087,1,0,0:0:0:0:
64,192,165166,1,0,0:0:0:0:
192,192,165166,1,0,0:0:0:0:
320,192,165245,1,0,0:0:0:0:
64,192,165324,1,0,0:0:0:0:
448,192,165324,1,0,0:0:0:0:
192,192,165324,1,0,0:0:0:0:
192,192,165482,1,0,0:0:0:0:
320,192,165482,1,0,0:0:0:0:
64,192,165560,1,0,0:0:0:0:
192,192,165639,1,0,0:0:0:0:
320,192,165639,1,0,0:0:0:0:
448,192,165639,128,0,165955:0:0:0:0:
64,192,165718,1,0,0:0:0:0:
192,192,165797,1,0,0:0:0:0:
64,192,165876,1,0,0:0:0:0:
320,192,165955,1,0,0:0:0:0:
192,192,165955,128,0,166113:0:0:0:0:
64,192,166034,1,0,0:0:0:0:
448,192,166113,1,0,0:0:0:0:
320,192,166113,128,0,166271:0:0:0:0:
64,192,166192,1,0,0:0:0:0:
448,192,166271,128,0,166429:0:0:0:0:
192,192,166271,1,0,0:0:0:0:
64,192,166350,1,0,0:0:0:0:
192,192,166429,128,0,166587:0:0:0:0:
320,192,166429,1,0,0:0:0:0:
448,192,166508,1,0,0:0:0:0:
320,192,166587,128,0,166745:0:0:0:0:
64,192,166587,1,0,0:0:0:0:
448,192,166666,1,0,0:0:0:0:
64,192,166745,128,0,166903:0:0:0:0:
192,192,166745,1,0,0:0:0:0:
320,192,166824,1,0,0:0:0:0:
192,192,166903,128,0,167060:0:0:0:0:
448,192,166903,1,0,0:0:0:0:
64,192,166982,1,0,0:0:0:0:
448,192,167060,1,0,0:0:0:0:
320,192,167060,1,0,0:0:0:0:
64,192,167139,1,0,0:0:0:0:
192,192,167218,128,0,167534:0:0:0:0:
448,192,167218,128,0,167455:0:0:0:0:
320,192,167218,128,0,167455:0:0:0:0:
320,192,167534,1,0,0:0:0:0:
448,192,167534,1,0,0:0:0:0:
64,192,167613,1,0,0:0:0:0:
192,192,167613,1,0,0:0:0:0:
320,192,167692,1,0,0:0:0:0:
448,192,167692,1,0,0:0:0:0:
64,192,167771,1,0,0:0:0:0:
192,192,167771,1,0,0:0:0:0:
320,192,167850,1,0,0:0:0:0:
448,192,167850,1,0,0:0:0:0:
64,192,168008,1,0,0:0:0:0:
448,192,168008,1,0,0:0:0:0:
64,192,168087,1,0,0:0:0:0:
448,192,168087,1,0,0:0:0:0:
192,192,168166,128,0,168482:0:0:0:0:
320,192,168166,128,0,168403:0:0:0:0:
448,192,168324,128,0,168403:0:0:0:0:
320,192,168482,1,0,0:0:0:0:
64,192,168482,128,0,168718:0:0:0:0:
448,192,168482,128,0,168718:0:0:0:0:
192,192,168797,1,0,0:0:0:0:
448,192,168797,1,0,0:0:0:0:
320,192,168876,1,0,0:0:0:0:
64,192,168876,1,0,0:0:0:0:
448,192,168955,1,0,0:0:0:0:
192,192,168955,1,0,0:0:0:0:
320,192,169034,1,0,0:0:0:0:
64,192,169034,1,0,0:0:0:0:
192,192,169113,1,0,0:0:0:0:
448,192,169113,1,0,0:0:0:0:
320,192,169192,1,0,0:0:0:0:
320,192,169271,1,0,0:0:0:0:
192,192,169350,1,0,0:0:0:0:
320,192,169429,128,0,169587:0:0:0:0:
64,192,169429,128,0,169666:0:0:0:0:
448,192,169587,128,0,169745:0:0:0:0:
320,192,169745,1,0,0:0:0:0:
192,192,169745,1,0,0:0:0:0:
64,192,169745,1,0,0:0:0:0:
64,192,169903,1,0,0:0:0:0:
320,192,169903,1,0,0:0:0:0:
192,192,169982,1,0,0:0:0:0:
64,192,170060,1,0,0:0:0:0:
320,192,170060,1,0,0:0:0:0:
448,192,170060,1,0,0:0:0:0:
448,192,170218,1,0,0:0:0:0:
192,192,170218,1,0,0:0:0:0:
320,192,170297,1,0,0:0:0:0:
64,192,170376,1,0,0:0:0:0:
192,192,170376,1,0,0:0:0:0:
448,192,170376,1,0,0:0:0:0:
320,192,170455,1,0,0:0:0:0:
448,192,170534,1,0,0:0:0:0:
192,192,170534,1,0,0:0:0:0:
64,192,170613,1,0,0:0:0:0:
192,192,170692,1,0,0:0:0:0:
320,192,170692,1,0,0:0:0:0:
448,192,170692,1,0,0:0:0:0:
320,192,170850,1,0,0:0:0:0:
192,192,170850,1,0,0:0:0:0:
64,192,170929,1,0,0:0:0:0:
448,192,171008,1,0,0:0:0:0:
320,192,171008,1,0,0:0:0:0:
192,192,171008,1,0,0:0:0:0:
64,192,171166,1,0,0:0:0:0:
192,192,171166,1,0,0:0:0:0:
448,192,171245,1,0,0:0:0:0:
320,192,171245,1,0,0:0:0:0:
64,192,171324,1,0,0:0:0:0:
192,192,171324,1,0,0:0:0:0:
320,192,171324,1,0,0:0:0:0:
448,192,171324,1,0,0:0:0:0:
192,192,171482,1,0,0:0:0:0:
448,192,171482,1,0,0:0:0:0:
64,192,171482,1,0,0:0:0:0:
192,192,171639,1,0,0:0:0:0:
448,192,171639,1,0,0:0:0:0:
320,192,171639,1,0,0:0:0:0:
64,192,171639,1,0,0:0:0:0:
192,192,171797,1,0,0:0:0:0:
320,192,171876,1,0,0:0:0:0:
448,192,171876,1,0,0:0:0:0:
64,192,171876,1,0,0:0:0:0:
320,192,172113,1,0,0:0:0:0:
448,192,172113,1,0,0:0:0:0:
64,192,172113,1,0,0:0:0:0:
64,192,172271,1,0,0:0:0:0:
448,192,172271,1,0,0:0:0:0:
192,192,172271,128,0,172587:0:0:0:0:
320,192,172271,128,0,172587:0:0:0:0:
64,192,172587,1,0,0:0:0:0:
448,192,172587,1,0,0:0:0:0:
192,192,172666,1,0,0:0:0:0:
320,192,172666,1,0,0:0:0:0:
64,192,172745,1,0,0:0:0:0:
448,192,172745,1,0,0:0:0:0:
192,192,172824,1,0,0:0:0:0:
320,192,172824,1,0,0:0:0:0:
64,192,172903,1,0,0:0:0:0:
448,192,172903,1,0,0:0:0:0:
192,192,173060,1,0,0:0:0:0:
320,192,173060,1,0,0:0:0:0:
192,192,173139,1,0,0:0:0:0:
320,192,173139,1,0,0:0:0:0:
448,192,173218,128,0,173534:0:0:0:0:
64,192,173218,128,0,173455:0:0:0:0:
64,192,173534,1,0,0:0:0:0:
192,192,173534,1,0,0:0:0:0:
320,192,173534,1,0,0:0:0:0:
320,192,173692,1,0,0:0:0:0:
64,192,173850,1,0,0:0:0:0:
448,192,173850,1,0,0:0:0:0:
320,192,173850,1,0,0:0:0:0:
192,192,173929,1,0,0:0:0:0:
448,192,173929,1,0,0:0:0:0:
320,192,174008,1,0,0:0:0:0:
64,192,174008,1,0,0:0:0:0:
64,192,174087,1,0,0:0:0:0:
192,192,174087,1,0,0:0:0:0:
320,192,174166,1,0,0:0:0:0:
448,192,174166,1,0,0:0:0:0:
192,192,174324,128,0,174403:0:0:0:0:
64,192,174324,128,0,174403:0:0:0:0:
64,192,174482,1,0,0:0:0:0:
192,192,174482,1,0,0:0:0:0:
448,192,174560,128,0,174797:0:0:0:0:
320,192,174560,128,0,174718:0:0:0:0:
64,192,174797,1,0,0:0:0:0:
192,192,174797,1,0,0:0:0:0:
320,192,174797,1,0,0:0:0:0:
64,192,174955,1,0,0:0:0:0:
448,192,174955,1,0,0:0:0:0:
192,192,175113,1,0,0:0:0:0:
320,192,175113,1,0,0:0:0:0:
64,192,175192,1,0,0:0:0:0:
448,192,175192,1,0,0:0:0:0:
192,192,175271,1,0,0:0:0:0:
320,192,175271,1,0,0:0:0:0:
64,192,175350,1,0,0:0:0:0:
448,192,175350,1,0,0:0:0:0:
192,192,175429,1,0,0:0:0:0:
320,192,175429,1,0,0:0:0:0:
64,192,175587,1,0,0:0:0:0:
320,192,175587,1,0,0:0:0:0:
448,192,175666,1,0,0:0:0:0:
64,192,175745,1,0,0:0:0:0:
320,192,175745,128,0,175982:0:0:0:0:
192,192,175745,128,0,175982:0:0:0:0:
64,192,176060,1,0,0:0:0:0:
320,192,176060,1,0,0:0:0:0:
448,192,176060,1,0,0:0:0:0:
192,192,176139,1,0,0:0:0:0:
64,192,176218,1,0,0:0:0:0:
448,192,176218,1,0,0:0:0:0:
320,192,176297,1,0,0:0:0:0:
64,192,176376,1,0,0:0:0:0:
192,192,176376,1,0,0:0:0:0:
448,192,176376,1,0,0:0:0:0:
320,192,176455,1,0,0:0:0:0:
64,192,176534,1,0,0:0:0:0:
448,192,176534,1,0,0:0:0:0:
192,192,176613,1,0,0:0:0:0:
320,192,176692,1,0,0:0:0:0:
448,192,176692,1,0,0:0:0:0:
64,192,176771,1,0,0:0:0:0:
192,192,176850,1,0,0:0:0:0:
320,192,176850,1,0,0:0:0:0:
64,192,176929,1,0,0:0:0:0:
448,192,177008,128,0,177087:0:0:0:0:
320,192,177008,128,0,177087:0:0:0:0:
192,192,177008,128,0,177087:0:0:0:0:
64,192,177087,128,0,177166:0:0:0:0:
320,192,177166,128,0,177245:0:0:0:0:
192,192,177166,128,0,177245:0:0:0:0:
448,192,177245,128,0,177324:0:0:0:0:
64,192,177324,1,0,0:0:0:0:
320,192,177324,128,0,177639:0:0:0:0:
192,192,177324,128,0,177560:0:0:0:0:
192,192,177639,1,0,0:0:0:0:
64,192,177639,128,0,177876:0:0:0:0:
448,192,177639,128,0,177876:0:0:0:0:
192,192,177876,128,0,178113:0:0:0:0:
320,192,177876,128,0,178113:0:0:0:0:
448,192,178113,128,0,178271:0:0:0:0:
64,192,178113,128,0,178271:0:0:0:0:
192,192,178271,1,0,0:0:0:0:
320,192,178271,1,0,0:0:0:0:
448,192,178350,128,0,178587:0:0:0:0:
64,192,178350,128,0,178587:0:0:0:0:
192,192,178587,1,0,0:0:0:0:
320,192,178587,128,0,178903:0:0:0:0:
448,192,178666,1,0,0:0:0:0:
64,192,178745,1,0,0:0:0:0:
192,192,178824,1,0,0:0:0:0:
64,192,178903,1,0,0:0:0:0:
448,192,178903,1,0,0:0:0:0:
320,192,178982,1,0,0:0:0:0:
192,192,178982,1,0,0:0:0:0:
64,192,179060,1,0,0:0:0:0:
448,192,179060,1,0,0:0:0:0:
192,192,179139,1,0,0:0:0:0:
320,192,179139,1,0,0:0:0:0:
448,192,179218,1,0,0:0:0:0:
64,192,179218,1,0,0:0:0:0:
192,192,179297,1,0,0:0:0:0:
320,192,179376,1,0,0:0:0:0:
448,192,179376,1,0,0:0:0:0:
192,192,179455,1,0,0:0:0:0:
320,192,179534,1,0,0:0:0:0:
64,192,179534,128,0,179771:0:0:0:0:
448,192,179534,128,0,179771:0:0:0:0:
320,192,179850,1,0,0:0:0:0:
448,192,179850,1,0,0:0:0:0:
192,192,179850,1,0,0:0:0:0:
64,192,179850,1,0,0:0:0:0:
320,192,179929,1,0,0:0:0:0:
192,192,180008,1,0,0:0:0:0:
64,192,180087,1,0,0:0:0:0:
64,192,180166,1,0,0:0:0:0:
192,192,180166,1,0,0:0:0:0:
448,192,180166,1,0,0:0:0:0:
320,192,180166,1,0,0:0:0:0:
320,192,180245,1,0,0:0:0:0:
448,192,180324,1,0,0:0:0:0:
192,192,180403,1,0,0:0:0:0:
64,192,180482,1,0,0:0:0:0:
192,192,180482,1,0,0:0:0:0:
320,192,180482,1,0,0:0:0:0:
448,192,180482,1,0,0:0:0:0:
320,192,180560,1,0,0:0:0:0:
448,192,180639,1,0,0:0:0:0:
64,192,180718,1,0,0:0:0:0:
192,192,180797,1,0,0:0:0:0:
64,192,180797,1,0,0:0:0:0:
320,192,180797,1,0,0:0:0:0:
448,192,180797,1,0,0:0:0:0:
320,192,180876,1,0,0:0:0:0:
192,192,180955,1,0,0:0:0:0:
64,192,180955,1,0,0:0:0:0:
320,192,181034,1,0,0:0:0:0:
64,192,181113,1,0,0:0:0:0:
448,192,181113,1,0,0:0:0:0:
192,192,181113,1,0,0:0:0:0:
64,192,181350,1,0,0:0:0:0:
320,192,181350,1,0,0:0:0:0:
448,192,181350,1,0,0:0:0:0:
64,192,181587,1,0,0:0:0:0:
192,192,181587,1,0,0:0:0:0:
448,192,181587,1,0,0:0:0:0:
192,192,181745,1,0,0:0:0:0:
448,192,181745,128,0,182297:0:0:0:0:
320,192,181745,128,0,182297:0:0:0:0:
64,192,181903,128,0,182297:0:0:0:0:
192,192,182376,1,0,0:0:0:0:
64,192,182376,128,0,182692:0:0:0:0:
320,192,182376,128,0,182692:0:0:0:0:
192,192,182692,1,0,0:0:0:0:
448,192,182692,1,0,0:0:0:0:
320,192,182771,1,0,0:0:0:0:
64,192,182771,1,0,0:0:0:0:
192,192,182850,1,0,0:0:0:0:
448,192,182850,1,0,0:0:0:0:
320,192,182929,1,0,0:0:0:0:
64,192,182929,1,0,0:0:0:0:
192,192,183008,1,0,0:0:0:0:
448,192,183008,1,0,0:0:0:0:
64,192,183113,1,0,0:0:0:0:
448,192,183113,1,0,0:0:0:0:
320,192,183218,1,0,0:0:0:0:
64,192,183218,1,0,0:0:0:0:
320,192,183324,128,0,183639:0:0:0:0:
192,192,183324,128,0,183560:0:0:0:0:
448,192,183639,1,0,0:0:0:0:
192,192,183639,128,0,183955:0:0:0:0:
64,192,183639,128,0,183955:0:0:0:0:
448,192,183955,1,0,0:0:0:0:
320,192,183955,1,0,0:0:0:0:
64,192,184034,1,0,0:0:0:0:
448,192,184034,1,0,0:0:0:0:
192,192,184113,1,0,0:0:0:0:
320,192,184113,1,0,0:0:0:0:
448,192,184192,1,0,0:0:0:0:
192,192,184271,1,0,0:0:0:0:
320,192,184271,1,0,0:0:0:0:
64,192,184271,1,0,0:0:0:0:
192,192,184429,128,0,184587:0:0:0:0:
320,192,184429,128,0,184587:0:0:0:0:
448,192,184429,128,0,184587:0:0:0:0:
320,192,184666,128,0,184824:0:0:0:0:
192,192,184666,128,0,184824:0:0:0:0:
64,192,184666,128,0,184824:0:0:0:0:
64,192,184903,1,0,0:0:0:0:
320,192,184903,1,0,0:0:0:0:
448,192,184903,1,0,0:0:0:0:
192,192,185060,128,0,185218:0:0:0:0:
320,192,185060,128,0,185218:0:0:0:0:
64,192,185218,1,0,0:0:0:0:
448,192,185218,1,0,0:0:0:0:
192,192,185297,1,0,0:0:0:0:
320,192,185297,1,0,0:0:0:0:
64,192,185376,1,0,0:0:0:0:
448,192,185376,1,0,0:0:0:0:
192,192,185455,1,0,0:0:0:0:
64,192,185534,1,0,0:0:0:0:
448,192,185534,1,0,0:0:0:0:
320,192,185534,1,0,0:0:0:0:
192,192,185639,1,0,0:0:0:0:
448,192,185639,1,0,0:0:0:0:
320,192,185745,1,0,0:0:0:0:
192,192,185745,1,0,0:0:0:0:
64,192,185850,128,0,186166:0:0:0:0:
448,192,185850,128,0,186166:0:0:0:0:
192,192,186166,1,0,0:0:0:0:
320,192,186166,1,0,0:0:0:0:
448,192,186245,1,0,0:0:0:0:
64,192,186324,1,0,0:0:0:0:
320,192,186403,1,0,0:0:0:0:
192,192,186403,1,0,0:0:0:0:
448,192,186482,1,0,0:0:0:0:
192,192,186560,1,0,0:0:0:0:
64,192,186639,1,0,0:0:0:0:
320,192,186639,1,0,0:0:0:0:
448,192,186718,1,0,0:0:0:0:
64,192,186797,1,0,0:0:0:0:
192,192,186797,1,0,0:0:0:0:
320,192,186797,1,0,0:0:0:0:
448,192,186876,1,0,0:0:0:0:
64,192,186955,1,0,0:0:0:0:
192,192,187034,1,0,0:0:0:0:
320,192,187113,128,0,187192:0:0:0:0:
448,192,187113,128,0,187350:0:0:0:0:
192,192,187192,128,0,187271:0:0:0:0:
320,192,187271,128,0,187350:0:0:0:0:
64,192,187271,128,0,187350:0:0:0:0:
192,192,187350,128,0,187429:0:0:0:0:
448,192,187429,128,0,187745:0:0:0:0:
320,192,187429,128,0,187666:0:0:0:0:
64,192,187429,128,0,187745:0:0:0:0:
192,192,187745,1,0,0:0:0:0:
320,192,187745,1,0,0:0:0:0:
64,192,187824,1,0,0:0:0:0:
448,192,187824,1,0,0:0:0:0:
192,192,187903,1,0,0:0:0:0:
320,192,187903,1,0,0:0:0:0:
64,192,187982,1,0,0:0:0:0:
192,192,188060,1,0,0:0:0:0:
320,192,188060,1,0,0:0:0:0:
448,192,188060,1,0,0:0:0:0:
64,192,188166,1,0,0:0:0:0:
192,192,188166,1,0,0:0:0:0:
448,192,188271,1,0,0:0:0:0:
320,192,188271,1,0,0:0:0:0:
192,192,188376,128,0,188692:0:0:0:0:
64,192,188376,128,0,188692:0:0:0:0:
448,192,188692,1,0,0:0:0:0:
320,192,188692,128,0,189008:0:0:0:0:
448,192,189008,1,0,0:0:0:0:
64,192,189008,1,0,0:0:0:0:
64,192,189087,1,0,0:0:0:0:
448,192,189087,1,0,0:0:0:0:
192,192,189166,1,0,0:0:0:0:
320,192,189166,1,0,0:0:0:0:
64,192,189245,1,0,0:0:0:0:
448,192,189245,1,0,0:0:0:0:
320,192,189324,1,0,0:0:0:0:
448,192,189324,1,0,0:0:0:0:
64,192,189403,1,0,0:0:0:0:
192,192,189403,1,0,0:0:0:0:
320,192,189482,1,0,0:0:0:0:
448,192,189482,1,0,0:0:0:0:
64,192,189560,1,0,0:0:0:0:
192,192,189560,1,0,0:0:0:0:
320,192,189639,1,0,0:0:0:0:
448,192,189639,1,0,0:0:0:0:
192,192,189797,1,0,0:0:0:0:
448,192,189797,1,0,0:0:0:0:
64,192,189955,128,0,190113:0:0:0:0:
192,192,189955,128,0,190113:0:0:0:0:
448,192,189955,128,0,190113:0:0:0:0:
192,192,190192,128,0,190350:0:0:0:0:
320,192,190192,128,0,190350:0:0:0:0:
448,192,190192,128,0,190350:0:0:0:0:
64,192,190429,128,0,190587:0:0:0:0:
448,192,190429,128,0,190587:0:0:0:0:
320,192,190429,128,0,190587:0:0:0:0:
320,192,190666,128,0,190824:0:0:0:0:
192,192,190666,128,0,190824:0:0:0:0:
64,192,190666,128,0,190824:0:0:0:0:
64,192,190903,128,0,191060:0:0:0:0:
320,192,190903,128,0,191060:0:0:0:0:
448,192,190903,128,0,191060:0:0:0:0:
192,192,191060,1,0,0:0:0:0:
320,192,191139,1,0,0:0:0:0:
64,192,191218,128,0,191376:0:0:0:0:
192,192,191218,128,0,191376:0:0:0:0:
448,192,191218,128,0,191376:0:0:0:0:
320,192,191455,128,0,191613:0:0:0:0:
448,192,191455,128,0,191613:0:0:0:0:
64,192,191455,128,0,191613:0:0:0:0:
192,192,191692,128,0,191850:0:0:0:0:
64,192,191692,128,0,191850:0:0:0:0:
320,192,191692,128,0,191850:0:0:0:0:
192,192,191929,128,0,192087:0:0:0:0:
64,192,191929,128,0,192087:0:0:0:0:
448,192,191929,1,0,0:0:0:0:
320,192,192008,1,0,0:0:0:0:
448,192,192087,1,0,0:0:0:0:
448,192,192166,1,0,0:0:0:0:
320,192,192166,1,0,0:0:0:0:
192,192,192166,1,0,0:0:0:0:
64,192,192166,1,0,0:0:0:0:
64,192,192324,1,0,0:0:0:0:
192,192,192324,1,0,0:0:0:0:
320,192,192324,1,0,0:0:0:0:
448,192,192324,1,0,0:0:0:0:
192,192,192482,128,0,192718:0:0:0:0:
320,192,192482,128,0,192718:0:0:0:0:
448,192,192482,128,0,192718:0:0:0:0:
64,192,192797,1,0,0:0:0:0:
448,192,192797,1,0,0:0:0:0:
192,192,192876,1,0,0:0:0:0:
320,192,192876,1,0,0:0:0:0:
64,192,192955,1,0,0:0:0:0:
448,192,192955,1,0,0:0:0:0:
192,192,193034,1,0,0:0:0:0:
320,192,193034,1,0,0:0:0:0:
64,192,193113,1,0,0:0:0:0:
448,192,193113,1,0,0:0:0:0:
320,192,193113,1,0,0:0:0:0:
192,192,193218,1,0,0:0:0:0:
64,192,193218,1,0,0:0:0:0:
192,192,193324,1,0,0:0:0:0:
320,192,193324,1,0,0:0:0:0:
64,192,193429,128,0,193745:0:0:0:0:
448,192,193429,128,0,193666:0:0:0:0:
192,192,193745,128,0,193982:0:0:0:0:
320,192,193745,128,0,193982:0:0:0:0:
448,192,193745,128,0,193982:0:0:0:0:
64,192,194060,1,0,0:0:0:0:
192,192,194060,1,0,0:0:0:0:
448,192,194060,1,0,0:0:0:0:
320,192,194139,1,0,0:0:0:0:
192,192,194218,1,0,0:0:0:0:
64,192,194218,1,0,0:0:0:0:
320,192,194297,1,0,0:0:0:0:
448,192,194297,1,0,0:0:0:0:
320,192,194376,1,0,0:0:0:0:
448,192,194376,1,0,0:0:0:0:
64,192,194376,1,0,0:0:0:0:
192,192,194534,128,0,194692:0:0:0:0:
320,192,194534,128,0,194692:0:0:0:0:
448,192,194534,128,0,194692:0:0:0:0:
320,192,194771,128,0,194929:0:0:0:0:
192,192,194771,128,0,194929:0:0:0:0:
64,192,194771,128,0,194929:0:0:0:0:
64,192,195008,1,0,0:0:0:0:
320,192,195008,1,0,0:0:0:0:
448,192,195008,1,0,0:0:0:0:
192,192,195166,1,0,0:0:0:0:
448,192,195166,1,0,0:0:0:0:
320,192,195324,1,0,0:0:0:0:
448,192,195324,1,0,0:0:0:0:
320,192,195403,1,0,0:0:0:0:
448,192,195403,1,0,0:0:0:0:
192,192,195482,1,0,0:0:0:0:
64,192,195482,1,0,0:0:0:0:
192,192,195560,1,0,0:0:0:0:
64,192,195560,1,0,0:0:0:0:
320,192,195639,1,0,0:0:0:0:
448,192,195639,1,0,0:0:0:0:
192,192,195639,1,0,0:0:0:0:
64,192,195639,1,0,0:0:0:0:
320,192,195745,1,0,0:0:0:0:
448,192,195745,1,0,0:0:0:0:
64,192,195850,1,0,0:0:0:0:
320,192,195850,1,0,0:0:0:0:
192,192,195955,128,0,196166:0:0:0:0:
64,192,195955,128,0,196166:0:0:0:0:
64,192,196271,1,0,0:0:0:0:
320,192,196271,1,0,0:0:0:0:
448,192,196271,1,0,0:0:0:0:
192,192,196350,1,0,0:0:0:0:
64,192,196429,1,0,0:0:0:0:
320,192,196508,1,0,0:0:0:0:
448,192,196508,1,0,0:0:0:0:
192,192,196587,1,0,0:0:0:0:
320,192,196666,1,0,0:0:0:0:
64,192,196745,1,0,0:0:0:0:
192,192,196745,1,0,0:0:0:0:
448,192,196745,1,0,0:0:0:0:
320,192,196824,1,0,0:0:0:0:
448,192,196903,1,0,0:0:0:0:
192,192,196982,1,0,0:0:0:0:
320,192,196982,1,0,0:0:0:0:
64,192,197060,1,0,0:0:0:0:
192,192,197139,1,0,0:0:0:0:
64,192,197218,1,0,0:0:0:0:
320,192,197218,1,0,0:0:0:0:
448,192,197218,1,0,0:0:0:0:
192,192,197297,1,0,0:0:0:0:
320,192,197376,1,0,0:0:0:0:
192,192,197455,1,0,0:0:0:0:
64,192,197534,1,0,0:0:0:0:
448,192,197534,128,0,197850:0:0:0:0:
320,192,197613,1,0,0:0:0:0:
192,192,197692,1,0,0:0:0:0:
64,192,197771,1,0,0:0:0:0:
320,192,197850,1,0,0:0:0:0:
192,192,197850,128,0,198718:0:0:0:0:
448,192,198166,128,0,198245:0:0:0:0:
320,192,198166,128,0,198403:0:0:0:0:
64,192,198166,128,0,198560:0:0:0:0:
448,192,198324,128,0,198718:0:0:0:0:
320,192,198482,128,0,198718:0:0:0:0:
64,192,198639,128,0,198718:0:0:0:0:
192,192,198797,1,0,0:0:0:0:
448,192,198797,1,0,0:0:0:0:
320,192,198797,128,0,199113:0:0:0:0:
64,192,198876,1,0,0:0:0:0:
192,192,198955,1,0,0:0:0:0:
64,192,199034,1,0,0:0:0:0:
192,192,199113,1,0,0:0:0:0:
448,192,199113,1,0,0:0:0:0:
320,192,199192,1,0,0:0:0:0:
192,192,199271,1,0,0:0:0:0:
448,192,199271,1,0,0:0:0:0:
64,192,199350,1,0,0:0:0:0:
192,192,199429,1,0,0:0:0:0:
320,192,199429,1,0,0:0:0:0:
448,192,199429,1,0,0:0:0:0:
64,192,199508,1,0,0:0:0:0:
448,192,199587,1,0,0:0:0:0:
192,192,199587,1,0,0:0:0:0:
320,192,199666,1,0,0:0:0:0:
64,192,199745,1,0,0:0:0:0:
192,192,199745,1,0,0:0:0:0:
448,192,199745,128,0,199903:0:0:0:0:
320,192,199903,128,0,200060:0:0:0:0:
192,192,199903,1,0,0:0:0:0:
64,192,200060,1,0,0:0:0:0:
192,192,200060,1,0,0:0:0:0:
448,192,200060,128,0,201245:0:0:0:0:
320,192,200139,1,0,0:0:0:0:
64,192,200218,1,0,0:0:0:0:
192,192,200297,1,0,0:0:0:0:
320,192,200376,1,0,0:0:0:0:
64,192,200455,1,0,0:0:0:0:
320,192,200534,1,0,0:0:0:0:
192,192,200613,1,0,0:0:0:0:
320,192,200692,1,0,0:0:0:0:
64,192,200771,1,0,0:0:0:0:
192,192,200850,1,0,0:0:0:0:
64,192,200929,1,0,0:0:0:0:
320,192,201008,1,0,0:0:0:0:
192,192,201087,1,0,0:0:0:0:
320,192,201166,1,0,0:0:0:0:
64,192,201245,1,0,0:0:0:0:
192,192,201324,1,0,0:0:0:0:
320,192,201324,1,0,0:0:0:0:
448,192,201324,1,0,0:0:0:0:
320,192,201403,1,0,0:0:0:0:
192,192,201482,1,0,0:0:0:0:
192,192,201560,1,0,0:0:0:0:
320,192,201639,128,0,201797:0:0:0:0:
64,192,201718,1,0,0:0:0:0:
448,192,201797,128,0,201955:0:0:0:0:
192,192,201876,1,0,0:0:0:0:
320,192,201955,128,0,202113:0:0:0:0:
64,192,202034,1,0,0:0:0:0:
448,192,202113,1,0,0:0:0:0:
192,192,202192,1,0,0:0:0:0:
64,192,202271,1,0,0:0:0:0:
320,192,202271,1,0,0:0:0:0:
448,192,202271,1,0,0:0:0:0:
192,192,202429,1,0,0:0:0:0:
64,192,202429,1,0,0:0:0:0:
320,192,202587,1,0,0:0:0:0:
448,192,202587,1,0,0:0:0:0:
192,192,202587,1,0,0:0:0:0:
64,192,202745,1,0,0:0:0:0:
64,192,202903,1,0,0:0:0:0:
448,192,202903,1,0,0:0:0:0:
192,192,202903,1,0,0:0:0:0:
320,192,203060,1,0,0:0:0:0:
448,192,203218,1,0,0:0:0:0:
192,192,203218,1,0,0:0:0:0:
64,192,203376,1,0,0:0:0:0:
192,192,203534,1,0,0:0:0:0:
320,192,203534,1,0,0:0:0:0:
448,192,203534,1,0,0:0:0:0:
64,192,203692,1,0,0:0:0:0:
192,192,203850,1,0,0:0:0:0:
320,192,203850,1,0,0:0:0:0:
448,192,204008,1,0,0:0:0:0:
320,192,204166,1,0,0:0:0:0:
192,192,204166,1,0,0:0:0:0:
64,192,204166,1,0,0:0:0:0:
448,192,204324,1,0,0:0:0:0:
64,192,204482,1,0,0:0:0:0:
320,192,204482,1,0,0:0:0:0:
192,192,204639,1,0,0:0:0:0:
64,192,204797,1,0,0:0:0:0:
320,192,204797,1,0,0:0:0:0:
448,192,204797,1,0,0:0:0:0:
192,192,204955,1,0,0:0:0:0:
64,192,205113,1,0,0:0:0:0:
448,192,205113,1,0,0:0:0:0:
320,192,205271,1,0,0:0:0:0:
64,192,205429,1,0,0:0:0:0:
192,192,205429,1,0,0:0:0:0:
448,192,205429,1,0,0:0:0:0:
320,192,205587,1,0,0:0:0:0:
448,192,205745,1,0,0:0:0:0:
192,192,205745,1,0,0:0:0:0:
64,192,205903,1,0,0:0:0:0:
192,192,206060,1,0,0:0:0:0:
320,192,206060,1,0,0:0:0:0:
448,192,206060,1,0,0:0:0:0:
64,192,206218,1,0,0:0:0:0:
192,192,206376,1,0,0:0:0:0:
320,192,206376,1,0,0:0:0:0:
448,192,206534,1,0,0:0:0:0:
64,192,206692,1,0,0:0:0:0:
320,192,206692,1,0,0:0:0:0:
192,192,206692,1,0,0:0:0:0:
448,192,206850,1,0,0:0:0:0:
64,192,207008,1,0,0:0:0:0:
320,192,207008,1,0,0:0:0:0:
192,192,207166,1,0,0:0:0:0:
64,192,207324,1,0,0:0:0:0:
448,192,207324,1,0,0:0:0:0:
320,192,207324,1,0,0:0:0:0:
192,192,207482,1,0,0:0:0:0:
320,192,207482,1,0,0:0:0:0:
64,192,207639,1,0,0:0:0:0:
448,192,207639,1,0,0:0:0:0:
320,192,207797,1,0,0:0:0:0:
192,192,207955,1,0,0:0:0:0:
448,192,207955,1,0,0:0:0:0:
64,192,207955,1,0,0:0:0:0:
320,192,208113,1,0,0:0:0:0:
64,192,208271,1,0,0:0:0:0:
448,192,208271,1,0,0:0:0:0:
192,192,208429,1,0,0:0:0:0:
320,192,208587,1,0,0:0:0:0:
448,192,208587,1,0,0:0:0:0:
64,192,208587,1,0,0:0:0:0:
192,192,208745,1,0,0:0:0:0:
320,192,208903,1,0,0:0:0:0:
64,192,208903,1,0,0:0:0:0:
448,192,209060,1,0,0:0:0:0:
320,192,209218,1,0,0:0:0:0:
192,192,209218,1,0,0:0:0:0:
64,192,209218,1,0,0:0:0:0:
192,192,209376,1,0,0:0:0:0:
64,192,209534,1,0,0:0:0:0:
448,192,209534,1,0,0:0:0:0:
320,192,209692,1,0,0:0:0:0:
64,192,209850,1,0,0:0:0:0:
192,192,209850,1,0,0:0:0:0:
448,192,209850,1,0,0:0:0:0:
320,192,210008,1,0,0:0:0:0:
192,192,210166,1,0,0:0:0:0:
64,192,210166,1,0,0:0:0:0:
320,192,210324,1,0,0:0:0:0:
64,192,210482,1,0,0:0:0:0:
192,192,210482,1,0,0:0:0:0:
448,192,210482,1,0,0:0:0:0:
320,192,210639,1,0,0:0:0:0:
64,192,210797,1,0,0:0:0:0:
448,192,210797,1,0,0:0:0:0:
192,192,210955,1,0,0:0:0:0:
64,192,211113,1,0,0:0:0:0:
320,192,211113,1,0,0:0:0:0:
448,192,211113,1,0,0:0:0:0:
192,192,211271,1,0,0:0:0:0:
320,192,211429,1,0,0:0:0:0:
64,192,211429,1,0,0:0:0:0:
448,192,211587,1,0,0:0:0:0:
64,192,211745,1,0,0:0:0:0:
192,192,211745,1,0,0:0:0:0:
320,192,211745,1,0,0:0:0:0:
448,192,211903,1,0,0:0:0:0:
192,192,212060,1,0,0:0:0:0:
320,192,212060,1,0,0:0:0:0:
192,192,212218,1,0,0:0:0:0:
320,192,212218,1,0,0:0:0:0:
64,192,212376,1,0,0:0:0:0:
192,192,212376,1,0,0:0:0:0:
448,192,212376,1,0,0:0:0:0:
320,192,212455,1,0,0:0:0:0:
448,192,212455,1,0,0:0:0:0:
192,192,212613,1,0,0:0:0:0:
320,192,212613,1,0,0:0:0:0:
64,192,212692,1,0,0:0:0:0:
448,192,212692,1,0,0:0:0:0:
320,192,212850,1,0,0:0:0:0:
192,192,212929,1,0,0:0:0:0:
64,192,213008,1,0,0:0:0:0:
320,192,213008,1,0,0:0:0:0:
448,192,213008,1,0,0:0:0:0:
192,192,213166,1,0,0:0:0:0:
64,192,213324,1,0,0:0:0:0:
320,192,213324,1,0,0:0:0:0:
192,192,213403,1,0,0:0:0:0:
64,192,213482,1,0,0:0:0:0:
192,192,213639,1,0,0:0:0:0:
448,192,213639,1,0,0:0:0:0:
320,192,213639,1,0,0:0:0:0:
320,192,213797,1,0,0:0:0:0:
64,192,213955,1,0,0:0:0:0:
448,192,213955,1,0,0:0:0:0:
320,192,214113,1,0,0:0:0:0:
192,192,214192,1,0,0:0:0:0:
320,192,214271,1,0,0:0:0:0:
448,192,214271,1,0,0:0:0:0:
64,192,214271,1,0,0:0:0:0:
192,192,214429,1,0,0:0:0:0:
448,192,214587,1,0,0:0:0:0:
64,192,214587,1,0,0:0:0:0:
320,192,214666,1,0,0:0:0:0:
192,192,214745,1,0,0:0:0:0:
64,192,214903,1,0,0:0:0:0:
192,192,214903,1,0,0:0:0:0:
320,192,214903,1,0,0:0:0:0:
448,192,215060,1,0,0:0:0:0:
192,192,215218,1,0,0:0:0:0:
448,192,215218,1,0,0:0:0:0:
64,192,215376,1,0,0:0:0:0:
192,192,215534,1,0,0:0:0:0:
320,192,215534,1,0,0:0:0:0:
448,192,215534,1,0,0:0:0:0:
64,192,215692,1,0,0:0:0:0:
448,192,215692,1,0,0:0:0:0:
320,192,215850,1,0,0:0:0:0:
192,192,215850,1,0,0:0:0:0:
448,192,216008,1,0,0:0:0:0:
320,192,216166,1,0,0:0:0:0:
192,192,216166,1,0,0:0:0:0:
64,192,216166,1,0,0:0:0:0:
192,192,216324,1,0,0:0:0:0:
64,192,216482,1,0,0:0:0:0:
448,192,216482,1,0,0:0:0:0:
192,192,216639,1,0,0:0:0:0:
320,192,216639,1,0,0:0:0:0:
320,192,216797,1,0,0:0:0:0:
64,192,216797,1,0,0:0:0:0:
448,192,216797,1,0,0:0:0:0:
192,192,216955,1,0,0:0:0:0:
64,192,217113,1,0,0:0:0:0:
192,192,217113,1,0,0:0:0:0:
448,192,217113,1,0,0:0:0:0:
192,192,217271,1,0,0:0:0:0:
448,192,217271,1,0,0:0:0:0:
64,192,217429,1,0,0:0:0:0:
320,192,217429,1,0,0:0:0:0:
448,192,217429,1,0,0:0:0:0:
192,192,217508,1,0,0:0:0:0:
64,192,217587,1,0,0:0:0:0:
448,192,217587,1,0,0:0:0:0:
192,192,217666,1,0,0:0:0:0:
320,192,217666,1,0,0:0:0:0:
64,192,217745,1,0,0:0:0:0:
448,192,217745,1,0,0:0:0:0:
320,192,217745,1,0,0:0:0:0:
192,192,217982,1,0,0:0:0:0:
320,192,217982,1,0,0:0:0:0:
448,192,217982,1,0,0:0:0:0:
64,192,218218,1,0,0:0:0:0:
448,192,218218,1,0,0:0:0:0:
192,192,218218,1,0,0:0:0:0:
64,192,218455,1,0,0:0:0:0:
192,192,218455,1,0,0:0:0:0:
320,192,218455,1,0,0:0:0:0:
192,192,218692,1,0,0:0:0:0:
320,192,218692,1,0,0:0:0:0:
448,192,218692,1,0,0:0:0:0:
64,192,218692,1,0,0:0:0:0:
64,192,219008,1,0,0:0:0:0:
320,192,219008,1,0,0:0:0:0:
448,192,219008,1,0,0:0:0:0:
192,192,219245,1,0,0:0:0:0:
448,192,219245,1,0,0:0:0:0:
320,192,219245,1,0,0:0:0:0:
64,192,219482,1,0,0:0:0:0:
320,192,219482,1,0,0:0:0:0:
448,192,219482,1,0,0:0:0:0:
64,192,219718,1,0,0:0:0:0:
192,192,219718,1,0,0:0:0:0:
320,192,219718,1,0,0:0:0:0:
64,192,219955,1,0,0:0:0:0:
192,192,219955,1,0,0:0:0:0:
448,192,219955,1,0,0:0:0:0:
320,192,219955,1,0,0:0:0:0:
320,192,220034,1,0,0:0:0:0:
64,192,220113,1,0,0:0:0:0:
192,192,220192,1,0,0:0:0:0:
320,192,220271,128,0,221455:0:0:0:0:
448,192,220271,128,0,221455:0:0:0:0:
64,192,220271,128,0,221455:0:0:0:0:
320,192,221534,1,0,0:0:0:0:
448,192,221534,1,0,0:0:0:0:
192,192,221692,1,0,0:0:0:0:
320,192,221771,1,0,0:0:0:0:
192,192,221850,1,0,0:0:0:0:
320,192,222008,1,0,0:0:0:0:
448,192,222008,1,0,0:0:0:0:
64,192,222166,1,0,0:0:0:0:
192,192,222245,1,0,0:0:0:0:
320,192,222324,1,0,0:0:0:0:
448,192,222403,1,0,0:0:0:0:
64,192,222482,128,0,222718:0:0:0:0:
192,192,222482,128,0,222718:0:0:0:0:
64,192,222797,1,0,0:0:0:0:
320,192,222797,1,0,0:0:0:0:
448,192,222797,1,0,0:0:0:0:
192,192,222876,1,0,0:0:0:0:
320,192,222955,1,0,0:0:0:0:
192,192,223034,1,0,0:0:0:0:
64,192,223113,1,0,0:0:0:0:
448,192,223113,1,0,0:0:0:0:
320,192,223192,1,0,0:0:0:0:
192,192,223271,1,0,0:0:0:0:
448,192,223350,1,0,0:0:0:0:
64,192,223429,1,0,0:0:0:0:
320,192,223429,1,0,0:0:0:0:
448,192,223508,1,0,0:0:0:0:
192,192,223587,1,0,0:0:0:0:
320,192,223666,1,0,0:0:0:0:
64,192,223745,1,0,0:0:0:0:
192,192,223745,1,0,0:0:0:0:
448,192,223824,1,0,0:0:0:0:
320,192,223903,1,0,0:0:0:0:
192,192,223982,1,0,0:0:0:0:
64,192,224060,1,0,0:0:0:0:
448,192,224060,1,0,0:0:0:0:
320,192,224139,1,0,0:0:0:0:
192,192,224218,1,0,0:0:0:0:
448,192,224297,1,0,0:0:0:0:
64,192,224376,1,0,0:0:0:0:
320,192,224376,1,0,0:0:0:0:
192,192,224455,1,0,0:0:0:0:
448,192,224534,1,0,0:0:0:0:
320,192,224613,1,0,0:0:0:0:
64,192,224692,1,0,0:0:0:0:
448,192,224692,1,0,0:0:0:0:
192,192,224771,1,0,0:0:0:0:
320,192,224850,1,0,0:0:0:0:
192,192,224929,1,0,0:0:0:0:
64,192,225008,1,0,0:0:0:0:
448,192,225008,1,0,0:0:0:0:
320,192,225087,1,0,0:0:0:0:
192,192,225166,1,0,0:0:0:0:
448,192,225245,1,0,0:0:0:0:
64,192,225324,1,0,0:0:0:0:
320,192,225324,1,0,0:0:0:0:
192,192,225403,1,0,0:0:0:0:
448,192,225482,1,0,0:0:0:0:
320,192,225560,1,0,0:0:0:0:
64,192,225639,1,0,0:0:0:0:
192,192,225639,1,0,0:0:0:0:
448,192,225718,1,0,0:0:0:0:
192,192,225797,1,0,0:0:0:0:
320,192,225876,1,0,0:0:0:0:
64,192,225955,1,0,0:0:0:0:
448,192,225955,1,0,0:0:0:0:
192,192,226034,1,0,0:0:0:0:
320,192,226113,1,0,0:0:0:0:
192,192,226192,1,0,0:0:0:0:
64,192,226271,1,0,0:0:0:0:
448,192,226271,1,0,0:0:0:0:
320,192,226350,1,0,0:0:0:0:
192,192,226429,1,0,0:0:0:0:
448,192,226508,1,0,0:0:0:0:
64,192,226587,1,0,0:0:0:0:
320,192,226587,1,0,0:0:0:0:
192,192,226666,1,0,0:0:0:0:
448,192,226745,1,0,0:0:0:0:
320,192,226824,1,0,0:0:0:0:
64,192,226903,1,0,0:0:0:0:
448,192,226903,1,0,0:0:0:0:
192,192,226982,1,0,0:0:0:0:
320,192,227060,1,0,0:0:0:0:
192,192,227139,1,0,0:0:0:0:
64,192,227218,1,0,0:0:0:0:
448,192,227218,1,0,0:0:0:0:
320,192,227297,1,0,0:0:0:0:
192,192,227376,1,0,0:0:0:0:
448,192,227455,1,0,0:0:0:0:
64,192,227534,1,0,0:0:0:0:
320,192,227534,1,0,0:0:0:0:
448,192,227613,1,0,0:0:0:0:
192,192,227692,1,0,0:0:0:0:
320,192,227771,1,0,0:0:0:0:
64,192,227850,1,0,0:0:0:0:
448,192,227850,1,0,0:0:0:0:
192,192,227929,1,0,0:0:0:0:
320,192,228008,1,0,0:0:0:0:
448,192,228087,1,0,0:0:0:0:
64,192,228166,1,0,0:0:0:0:
192,192,228166,1,0,0:0:0:0:
320,192,228245,1,0,0:0:0:0:
448,192,228324,1,0,0:0:0:0:
192,192,228403,1,0,0:0:0:0:
64,192,228482,1,0,0:0:0:0:
448,192,228482,1,0,0:0:0:0:
320,192,228560,1,0,0:0:0:0:
192,192,228639,1,0,0:0:0:0:
448,192,228718,1,0,0:0:0:0:
64,192,228797,1,0,0:0:0:0:
320,192,228797,1,0,0:0:0:0:
448,192,228876,1,0,0:0:0:0:
192,192,228955,1,0,0:0:0:0:
320,192,229034,1,0,0:0:0:0:
64,192,229113,1,0,0:0:0:0:
448,192,229113,1,0,0:0:0:0:
192,192,229192,1,0,0:0:0:0:
320,192,229271,1,0,0:0:0:0:
192,192,229350,1,0,0:0:0:0:
64,192,229429,1,0,0:0:0:0:
448,192,229429,1,0,0:0:0:0:
320,192,229508,1,0,0:0:0:0:
448,192,229587,1,0,0:0:0:0:
192,192,229666,1,0,0:0:0:0:
64,192,229745,1,0,0:0:0:0:
320,192,229745,1,0,0:0:0:0:
448,192,229824,1,0,0:0:0:0:
192,192,229903,1,0,0:0:0:0:
320,192,229982,1,0,0:0:0:0:
64,192,230060,1,0,0:0:0:0:
192,192,230060,1,0,0:0:0:0:
448,192,230139,1,0,0:0:0:0:
320,192,230218,1,0,0:0:0:0:
192,192,230297,1,0,0:0:0:0:
64,192,230376,1,0,0:0:0:0:
448,192,230376,1,0,0:0:0:0:
320,192,230455,1,0,0:0:0:0:
192,192,230534,1,0,0:0:0:0:
320,192,230613,1,0,0:0:0:0:
64,192,230692,1,0,0:0:0:0:
448,192,230692,1,0,0:0:0:0:
192,192,230771,1,0,0:0:0:0:
320,192,230850,1,0,0:0:0:0:
192,192,230929,1,0,0:0:0:0:
64,192,231008,1,0,0:0:0:0:
320,192,231008,1,0,0:0:0:0:
448,192,231087,1,0,0:0:0:0:
192,192,231166,1,0,0:0:0:0:
320,192,231245,1,0,0:0:0:0:
64,192,231324,1,0,0:0:0:0:
448,192,231324,1,0,0:0:0:0:
320,192,231403,1,0,0:0:0:0:
192,192,231482,1,0,0:0:0:0:
448,192,231560,1,0,0:0:0:0:
64,192,231639,1,0,0:0:0:0:
320,192,231639,1,0,0:0:0:0:
448,192,231718,1,0,0:0:0:0:
320,192,231797,1,0,0:0:0:0:
192,192,231876,1,0,0:0:0:0:
64,192,231955,1,0,0:0:0:0:
320,192,231955,1,0,0:0:0:0:
448,192,232034,1,0,0:0:0:0:
192,192,232113,1,0,0:0:0:0:
320,192,232192,1,0,0:0:0:0:
64,192,232271,128,0,232824:0:0:0:0:
448,192,232271,128,0,232587:0:0:0:0:
320,192,232587,128,0,232824:0:0:0:0:
64,192,232903,1,0,0:0:0:0:
192,192,232903,1,0,0:0:0:0:
448,192,232903,1,0,0:0:0:0:
448,192,233060,1,0,0:0:0:0:
320,192,233060,1,0,0:0:0:0:
192,192,233060,1,0,0:0:0:0:
64,192,233297,1,0,0:0:0:0:
192,192,233297,1,0,0:0:0:0:
320,192,233297,1,0,0:0:0:0:
64,192,233534,1,0,0:0:0:0:
320,192,233534,1,0,0:0:0:0:
448,192,233534,1,0,0:0:0:0:
192,192,233771,1,0,0:0:0:0:
320,192,233771,1,0,0:0:0:0:
448,192,233771,1,0,0:0:0:0:
64,192,234008,1,0,0:0:0:0:
192,192,234008,1,0,0:0:0:0:
448,192,234008,1,0,0:0:0:0:
64,192,234166,1,0,0:0:0:0:
320,192,234166,1,0,0:0:0:0:
448,192,234166,1,0,0:0:0:0:
192,192,234324,1,0,0:0:0:0:
320,192,234324,1,0,0:0:0:0:
448,192,234324,1,0,0:0:0:0:
64,192,234560,1,0,0:0:0:0:
448,192,234560,1,0,0:0:0:0:
192,192,234560,1,0,0:0:0:0:
192,192,234797,1,0,0:0:0:0:
320,192,234797,1,0,0:0:0:0:
448,192,234797,1,0,0:0:0:0:
64,192,235034,1,0,0:0:0:0:
192,192,235034,1,0,0:0:0:0:
448,192,235034,1,0,0:0:0:0:
320,192,235192,1,0,0:0:0:0:
448,192,235192,1,0,0:0:0:0:
192,192,235271,1,0,0:0:0:0:
64,192,235271,1,0,0:0:0:0:
320,192,235350,1,0,0:0:0:0:
448,192,235350,1,0,0:0:0:0:
64,192,235429,1,0,0:0:0:0:
320,192,235429,1,0,0:0:0:0:
448,192,235429,1,0,0:0:0:0:
64,192,235587,1,0,0:0:0:0:
192,192,235587,1,0,0:0:0:0:
448,192,235587,1,0,0:0:0:0:
192,192,235824,1,0,0:0:0:0:
320,192,235824,1,0,0:0:0:0:
448,192,235824,1,0,0:0:0:0:
64,192,236060,1,0,0:0:0:0:
192,192,236060,1,0,0:0:0:0:
320,192,236060,1,0,0:0:0:0:
64,192,236297,1,0,0:0:0:0:
320,192,236297,1,0,0:0:0:0:
448,192,236297,1,0,0:0:0:0:
192,192,236534,1,0,0:0:0:0:
320,192,236534,1,0,0:0:0:0:
448,192,236534,1,0,0:0:0:0:
192,192,236692,1,0,0:0:0:0:
448,192,236692,1,0,0:0:0:0:
64,192,236692,1,0,0:0:0:0:
192,192,236850,1,0,0:0:0:0:
320,192,236850,1,0,0:0:0:0:
64,192,236850,1,0,0:0:0:0:
64,192,237087,1,0,0:0:0:0:
448,192,237087,1,0,0:0:0:0:
320,192,237087,1,0,0:0:0:0:
320,192,237324,1,0,0:0:0:0:
192,192,237324,1,0,0:0:0:0:
448,192,237324,1,0,0:0:0:0:
64,192,237560,1,0,0:0:0:0:
192,192,237560,1,0,0:0:0:0:
448,192,237560,1,0,0:0:0:0:
320,192,237639,1,0,0:0:0:0:
448,192,237639,1,0,0:0:0:0:
192,192,237718,1,0,0:0:0:0:
64,192,237718,1,0,0:0:0:0:
320,192,237797,1,0,0:0:0:0:
448,192,237797,1,0,0:0:0:0:
64,192,237955,1,0,0:0:0:0:
192,192,237955,1,0,0:0:0:0:
448,192,237955,1,0,0:0:0:0:
448,192,238192,1,0,0:0:0:0:
320,192,238192,1,0,0:0:0:0:
192,192,238192,1,0,0:0:0:0:
64,192,238429,1,0,0:0:0:0:
192,192,238429,1,0,0:0:0:0:
448,192,238429,1,0,0:0:0:0:
64,192,238587,1,0,0:0:0:0:
320,192,238587,1,0,0:0:0:0:
448,192,238587,1,0,0:0:0:0:
192,192,238824,1,0,0:0:0:0:
320,192,238824,1,0,0:0:0:0:
448,192,238824,1,0,0:0:0:0:
64,192,239060,1,0,0:0:0:0:
192,192,239060,1,0,0:0:0:0:
448,192,239060,1,0,0:0:0:0:
64,192,239218,1,0,0:0:0:0:
320,192,239218,1,0,0:0:0:0:
448,192,239218,1,0,0:0:0:0:
192,192,239455,1,0,0:0:0:0:
320,192,239455,1,0,0:0:0:0:
448,192,239455,1,0,0:0:0:0:
64,192,239692,1,0,0:0:0:0:
192,192,239692,1,0,0:0:0:0:
448,192,239692,1,0,0:0:0:0:
64,192,239850,1,0,0:0:0:0:
320,192,239850,1,0,0:0:0:0:
448,192,239850,1,0,0:0:0:0:
320,192,240087,1,0,0:0:0:0:
192,192,240087,1,0,0:0:0:0:
64,192,240087,1,0,0:0:0:0:
64,192,240324,1,0,0:0:0:0:
192,192,240324,1,0,0:0:0:0:
448,192,240324,1,0,0:0:0:0:
448,192,240482,1,0,0:0:0:0:
320,192,240482,1,0,0:0:0:0:
64,192,240482,1,0,0:0:0:0:
192,192,240560,1,0,0:0:0:0:
64,192,240560,1,0,0:0:0:0:
320,192,240639,1,0,0:0:0:0:
448,192,240639,1,0,0:0:0:0:
192,192,240718,1,0,0:0:0:0:
64,192,240718,1,0,0:0:0:0:
320,192,240797,1,0,0:0:0:0:
448,192,240797,1,0,0:0:0:0:
64,192,240876,1,0,0:0:0:0:
192,192,240876,1,0,0:0:0:0:
320,192,240955,1,0,0:0:0:0:
448,192,240955,1,0,0:0:0:0:
64,192,241034,1,0,0:0:0:0:
192,192,241034,1,0,0:0:0:0:
320,192,241113,1,0,0:0:0:0:
448,192,241113,1,0,0:0:0:0:
64,192,241192,1,0,0:0:0:0:
192,192,241192,1,0,0:0:0:0:
448,192,241271,1,0,0:0:0:0:
320,192,241310,1,0,0:0:0:0:
192,192,241350,1,0,0:0:0:0:
64,192,241389,1,0,0:0:0:0:
448,192,241429,1,0,0:0:0:0:
320,192,241468,1,0,0:0:0:0:
64,192,241508,1,0,0:0:0:0:
192,192,241547,1,0,0:0:0:0:
448,192,241587,1,0,0:0:0:0:
320,192,241626,1,0,0:0:0:0:
64,192,241666,1,0,0:0:0:0:
192,192,241705,1,0,0:0:0:0:
448,192,241745,1,0,0:0:0:0:
320,192,241745,1,0,0:0:0:0:
64,192,241824,1,0,0:0:0:0:
320,192,241903,1,0,0:0:0:0:
192,192,241982,1,0,0:0:0:0:
64,192,242060,1,0,0:0:0:0:
448,192,242060,1,0,0:0:0:0:
320,192,242139,1,0,0:0:0:0:
448,192,242218,1,0,0:0:0:0:
192,192,242297,1,0,0:0:0:0:
320,192,242376,1,0,0:0:0:0:
64,192,242376,1,0,0:0:0:0:
448,192,242429,1,0,0:0:0:0:
192,192,242482,1,0,0:0:0:0:
320,192,242534,1,0,0:0:0:0:
64,192,242587,1,0,0:0:0:0:
192,192,242639,1,0,0:0:0:0:
448,192,242692,1,0,0:0:0:0:
320,192,242692,1,0,0:0:0:0:
64,192,242692,1,0,0:0:0:0:
64,192,243008,1,0,0:0:0:0:
320,192,243008,1,0,0:0:0:0:
192,192,243008,1,0,0:0:0:0:
448,192,243008,1,0,0:0:0:0:
320,192,243166,1,0,0:0:0:0:
192,192,243245,1,0,0:0:0:0:
448,192,243245,1,0,0:0:0:0:
64,192,243324,1,0,0:0:0:0:
448,192,243403,1,0,0:0:0:0:
320,192,243482,1,0,0:0:0:0:
192,192,243482,1,0,0:0:0:0:
64,192,243560,1,0,0:0:0:0:
448,192,243639,1,0,0:0:0:0:
320,192,243639,1,0,0:0:0:0:
64,192,243718,1,0,0:0:0:0:
192,192,243718,1,0,0:0:0:0:
320,192,243797,1,0,0:0:0:0:
64,192,243876,1,0,0:0:0:0:
192,192,243955,1,0,0:0:0:0:
448,192,243955,1,0,0:0:0:0:
320,192,244034,1,0,0:0:0:0:
64,192,244113,1,0,0:0:0:0:
192,192,244113,1,0,0:0:0:0:
320,192,244192,1,0,0:0:0:0:
64,192,244271,1,0,0:0:0:0:
448,192,244271,1,0,0:0:0:0:
192,192,244350,1,0,0:0:0:0:
448,192,244429,1,0,0:0:0:0:
64,192,244508,1,0,0:0:0:0:
192,192,244508,1,0,0:0:0:0:
320,192,244587,1,0,0:0:0:0:
448,192,244587,1,0,0:0:0:0:
64,192,244666,1,0,0:0:0:0:
192,192,244745,1,0,0:0:0:0:
320,192,244745,1,0,0:0:0:0:
448,192,244824,1,0,0:0:0:0:
64,192,244903,1,0,0:0:0:0:
320,192,244903,1,0,0:0:0:0:
192,192,244982,1,0,0:0:0:0:
448,192,244982,1,0,0:0:0:0:
64,192,245060,1,0,0:0:0:0:
192,192,245139,1,0,0:0:0:0:
320,192,245139,1,0,0:0:0:0:
448,192,245218,1,0,0:0:0:0:
64,192,245218,1,0,0:0:0:0:
320,192,245297,1,0,0:0:0:0:
192,192,245376,1,0,0:0:0:0:
64,192,245376,1,0,0:0:0:0:
448,192,245455,1,0,0:0:0:0:
64,192,245534,1,0,0:0:0:0:
320,192,245534,1,0,0:0:0:0:
448,192,245613,1,0,0:0:0:0:
192,192,245692,1,0,0:0:0:0:
64,192,245771,1,0,0:0:0:0:
320,192,245771,1,0,0:0:0:0:
192,192,245850,1,0,0:0:0:0:
448,192,245850,1,0,0:0:0:0:
320,192,245929,1,0,0:0:0:0:
64,192,246008,1,0,0:0:0:0:
192,192,246008,1,0,0:0:0:0:
448,192,246087,1,0,0:0:0:0:
64,192,246166,1,0,0:0:0:0:
320,192,246166,1,0,0:0:0:0:
192,192,246245,1,0,0:0:0:0:
320,192,246324,1,0,0:0:0:0:
448,192,246324,1,0,0:0:0:0:
64,192,246403,1,0,0:0:0:0:
192,192,246403,1,0,0:0:0:0:
320,192,246482,1,0,0:0:0:0:
448,192,246482,1,0,0:0:0:0:
64,192,246560,1,0,0:0:0:0:
192,192,246560,1,0,0:0:0:0:
320,192,246639,1,0,0:0:0:0:
448,192,246639,1,0,0:0:0:0:
64,192,246718,1,0,0:0:0:0:
192,192,246718,1,0,0:0:0:0:
320,192,246797,1,0,0:0:0:0:
448,192,246797,1,0,0:0:0:0:
64,192,246876,1,0,0:0:0:0:
192,192,246955,1,0,0:0:0:0:
448,192,246955,1,0,0:0:0:0:
320,192,247034,1,0,0:0:0:0:
64,192,247034,1,0,0:0:0:0:
192,192,247113,1,0,0:0:0:0:
448,192,247113,1,0,0:0:0:0:
320,192,247192,1,0,0:0:0:0:
64,192,247271,1,0,0:0:0:0:
192,192,247271,1,0,0:0:0:0:
448,192,247350,1,0,0:0:0:0:
64,192,247429,1,0,0:0:0:0:
320,192,247429,1,0,0:0:0:0:
192,192,247508,1,0,0:0:0:0:
448,192,247508,1,0,0:0:0:0:
320,192,247587,1,0,0:0:0:0:
64,192,247587,1,0,0:0:0:0:
192,192,247666,1,0,0:0:0:0:
320,192,247745,1,0,0:0:0:0:
448,192,247745,1,0,0:0:0:0:
64,192,247824,1,0,0:0:0:0:
192,192,247824,1,0,0:0:0:0:
448,192,247903,1,0,0:0:0:0:
320,192,247903,1,0,0:0:0:0:
192,192,247982,1,0,0:0:0:0:
64,192,248060,1,0,0:0:0:0:
320,192,248060,1,0,0:0:0:0:
448,192,248060,1,0,0:0:0:0:
192,192,248139,1,0,0:0:0:0:
320,192,248218,1,0,0:0:0:0:
448,192,248218,1,0,0:0:0:0:
64,192,248297,1,0,0:0:0:0:
192,192,248297,1,0,0:0:0:0:
320,192,248376,1,0,0:0:0:0:
64,192,248455,1,0,0:0:0:0:
448,192,248534,1,0,0:0:0:0:
192,192,248534,1,0,0:0:0:0:
320,192,248613,1,0,0:0:0:0:
64,192,248692,1,0,0:0:0:0:
448,192,248692,1,0,0:0:0:0:
192,192,248771,1,0,0:0:0:0:
320,192,248850,1,0,0:0:0:0:
448,192,248850,1,0,0:0:0:0:
64,192,248929,1,0,0:0:0:0:
192,192,249008,1,0,0:0:0:0:
448,192,249008,1,0,0:0:0:0:
320,192,249008,1,0,0:0:0:0:
64,192,249087,1,0,0:0:0:0:
448,192,249166,1,0,0:0:0:0:
192,192,249166,1,0,0:0:0:0:
64,192,249245,1,0,0:0:0:0:
320,192,249245,1,0,0:0:0:0:
448,192,249324,1,0,0:0:0:0:
192,192,249324,1,0,0:0:0:0:
64,192,249403,1,0,0:0:0:0:
192,192,249482,1,0,0:0:0:0:
448,192,249560,1,0,0:0:0:0:
320,192,249560,1,0,0:0:0:0:
64,192,249639,1,0,0:0:0:0:
192,192,249639,1,0,0:0:0:0:
448,192,249718,1,0,0:0:0:0:
192,192,249797,1,0,0:0:0:0:
320,192,249797,1,0,0:0:0:0:
64,192,249876,1,0,0:0:0:0:
320,192,249955,1,0,0:0:0:0:
448,192,249955,1,0,0:0:0:0:
192,192,250034,1,0,0:0:0:0:
64,192,250113,1,0,0:0:0:0:
448,192,250113,1,0,0:0:0:0:
320,192,250192,1,0,0:0:0:0:
192,192,250271,1,0,0:0:0:0:
448,192,250271,1,0,0:0:0:0:
320,192,250350,1,0,0:0:0:0:
64,192,250429,1,0,0:0:0:0:
448,192,250429,1,0,0:0:0:0:
192,192,250508,1,0,0:0:0:0:
320,192,250508,1,0,0:0:0:0:
64,192,250587,1,0,0:0:0:0:
448,192,250587,1,0,0:0:0:0:
192,192,250666,1,0,0:0:0:0:
320,192,250745,1,0,0:0:0:0:
64,192,250824,1,0,0:0:0:0:
192,192,250824,1,0,0:0:0:0:
320,192,250903,1,0,0:0:0:0:
448,192,250903,1,0,0:0:0:0:
64,192,250982,1,0,0:0:0:0:
192,192,251060,1,0,0:0:0:0:
448,192,251060,1,0,0:0:0:0:
64,192,251139,1,0,0:0:0:0:
320,192,251218,1,0,0:0:0:0:
448,192,251218,1,0,0:0:0:0:
192,192,251297,1,0,0:0:0:0:
64,192,251376,1,0,0:0:0:0:
448,192,251376,1,0,0:0:0:0:
320,192,251455,1,0,0:0:0:0:
64,192,251534,1,0,0:0:0:0:
192,192,251534,1,0,0:0:0:0:
448,192,251613,1,0,0:0:0:0:
320,192,251692,1,0,0:0:0:0:
64,192,251692,1,0,0:0:0:0:
192,192,251771,1,0,0:0:0:0:
64,192,251850,1,0,0:0:0:0:
320,192,251850,1,0,0:0:0:0:
448,192,251850,1,0,0:0:0:0:
192,192,251929,1,0,0:0:0:0:
64,192,252008,1,0,0:0:0:0:
320,192,252087,1,0,0:0:0:0:
64,192,252166,1,0,0:0:0:0:
192,192,252166,1,0,0:0:0:0:
448,192,252166,1,0,0:0:0:0:
320,192,252245,1,0,0:0:0:0:
192,192,252324,1,0,0:0:0:0:
448,192,252324,1,0,0:0:0:0:
64,192,252403,1,0,0:0:0:0:
320,192,252482,1,0,0:0:0:0:
192,192,252482,1,0,0:0:0:0:
448,192,252482,1,0,0:0:0:0:
64,192,252560,1,0,0:0:0:0:
192,192,252639,1,0,0:0:0:0:
320,192,252639,1,0,0:0:0:0:
448,192,252718,1,0,0:0:0:0:
320,192,252797,1,0,0:0:0:0:
64,192,252797,1,0,0:0:0:0:
192,192,252876,1,0,0:0:0:0:
64,192,252955,1,0,0:0:0:0:
192,192,253034,1,0,0:0:0:0:
64,192,253113,1,0,0:0:0:0:
320,192,253113,1,0,0:0:0:0:
448,192,253113,1,0,0:0:0:0:
192,192,253192,1,0,0:0:0:0:
320,192,253271,1,0,0:0:0:0:
448,192,253271,1,0,0:0:0:0:
64,192,253350,1,0,0:0:0:0:
192,192,253429,1,0,0:0:0:0:
320,192,253429,1,0,0:0:0:0:
448,192,253508,1,0,0:0:0:0:
64,192,253587,1,0,0:0:0:0:
192,192,253587,1,0,0:0:0:0:
320,192,253666,1,0,0:0:0:0:
64,192,253745,1,0,0:0:0:0:
448,192,253745,1,0,0:0:0:0:
192,192,253824,1,0,0:0:0:0:
320,192,253903,1,0,0:0:0:0:
448,192,253903,1,0,0:0:0:0:
64,192,253982,1,0,0:0:0:0:
192,192,254060,1,0,0:0:0:0:
448,192,254060,1,0,0:0:0:0:
320,192,254139,1,0,0:0:0:0:
64,192,254218,1,0,0:0:0:0:
448,192,254218,1,0,0:0:0:0:
192,192,254297,1,0,0:0:0:0:
64,192,254376,1,0,0:0:0:0:
320,192,254376,1,0,0:0:0:0:
448,192,254455,1,0,0:0:0:0:
64,192,254534,1,0,0:0:0:0:
192,192,254534,1,0,0:0:0:0:
320,192,254613,1,0,0:0:0:0:
64,192,254692,1,0,0:0:0:0:
448,192,254692,1,0,0:0:0:0:
192,192,254771,1,0,0:0:0:0:
320,192,254850,1,0,0:0:0:0:
448,192,254850,1,0,0:0:0:0:
64,192,254929,1,0,0:0:0:0:
192,192,255008,1,0,0:0:0:0:
448,192,255008,1,0,0:0:0:0:
320,192,255087,1,0,0:0:0:0:
64,192,255166,1,0,0:0:0:0:
448,192,255166,1,0,0:0:0:0:
320,192,255245,1,0,0:0:0:0:
64,192,255324,1,0,0:0:0:0:
448,192,255324,1,0,0:0:0:0:
192,192,255403,1,0,0:0:0:0:
320,192,255482,1,0,0:0:0:0:
448,192,255482,1,0,0:0:0:0:
64,192,255560,1,0,0:0:0:0:
192,192,255639,1,0,0:0:0:0:
320,192,255639,1,0,0:0:0:0:
448,192,255718,1,0,0:0:0:0:
64,192,255797,1,0,0:0:0:0:
320,192,255797,1,0,0:0:0:0:
192,192,255876,1,0,0:0:0:0:
64,192,255955,1,0,0:0:0:0:
448,192,255955,1,0,0:0:0:0:
320,192,256034,1,0,0:0:0:0:
192,192,256113,1,0,0:0:0:0:
448,192,256113,1,0,0:0:0:0:
64,192,256192,1,0,0:0:0:0:
320,192,256271,1,0,0:0:0:0:
448,192,256271,1,0,0:0:0:0:
192,192,256350,1,0,0:0:0:0:
320,192,256429,1,0,0:0:0:0:
448,192,256429,1,0,0:0:0:0:
64,192,256508,1,0,0:0:0:0:
192,192,256587,1,0,0:0:0:0:
448,192,256587,1,0,0:0:0:0:
320,192,256666,1,0,0:0:0:0:
64,192,256745,1,0,0:0:0:0:
448,192,256745,1,0,0:0:0:0:
320,192,256824,1,0,0:0:0:0:
192,192,256903,1,0,0:0:0:0:
64,192,256903,1,0,0:0:0:0:
448,192,256982,1,0,0:0:0:0:
64,192,257060,1,0,0:0:0:0:
320,192,257060,1,0,0:0:0:0:
192,192,257139,1,0,0:0:0:0:
320,192,257218,1,0,0:0:0:0:
448,192,257218,1,0,0:0:0:0:
64,192,257297,1,0,0:0:0:0:
192,192,257376,1,0,0:0:0:0:
448,192,257376,1,0,0:0:0:0:
320,192,257455,1,0,0:0:0:0:
64,192,257534,1,0,0:0:0:0:
448,192,257534,1,0,0:0:0:0:
192,192,257613,1,0,0:0:0:0:
64,192,257692,1,0,0:0:0:0:
320,192,257692,1,0,0:0:0:0:
448,192,257771,1,0,0:0:0:0:
320,192,257850,1,0,0:0:0:0:
192,192,257850,1,0,0:0:0:0:
64,192,257850,1,0,0:0:0:0:
448,192,257929,1,0,0:0:0:0:
320,192,258008,1,0,0:0:0:0:
448,192,258087,1,0,0:0:0:0:
192,192,258166,1,0,0:0:0:0:
64,192,258166,128,0,258718:0:0:0:0:
320,192,258245,1,0,0:0:0:0:
192,192,258324,1,0,0:0:0:0:
448,192,258403,1,0,0:0:0:0:
320,192,258482,1,0,0:0:0:0:
192,192,258560,1,0,0:0:0:0:
448,192,258639,1,0,0:0:0:0:
448,192,258797,128,0,259350:0:0:0:0:
320,192,258797,128,0,259350:0:0:0:0:
192,192,258797,128,0,259350:0:0:0:0:
64,192,258797,128,0,259350:0:0:0:0:
448,192,259429,128,0,259982:0:0:0:0:
320,192,259429,1,0,0:0:0:0:
64,192,259508,1,0,0:0:0:0:
192,192,259587,1,0,0:0:0:0:
64,192,259666,1,0,0:0:0:0:
320,192,259745,1,0,0:0:0:0:
192,192,259824,1,0,0:0:0:0:
320,192,259903,1,0,0:0:0:0:
64,192,259982,1,0,0:0:0:0:
448,192,260060,128,0,260613:0:0:0:0:
320,192,260060,1,0,0:0:0:0:
64,192,260060,128,0,260613:0:0:0:0:
192,192,260139,1,0,0:0:0:0:
320,192,260218,1,0,0:0:0:0:
192,192,260297,1,0,0:0:0:0:
320,192,260376,1,0,0:0:0:0:
192,192,260455,1,0,0:0:0:0:
320,192,260534,1,0,0:0:0:0:
192,192,260613,1,0,0:0:0:0:
64,192,260692,1,0,0:0:0:0:
320,192,260692,1,0,0:0:0:0:
448,192,260692,1,0,0:0:0:0:
192,192,260771,1,0,0:0:0:0:
320,192,260850,1,0,0:0:0:0:
192,192,260929,1,0,0:0:0:0:
320,192,261008,1,0,0:0:0:0:
192,192,261087,1,0,0:0:0:0:
320,192,261166,1,0,0:0:0:0:
192,192,261245,1,0,0:0:0:0:
320,192,261324,1,0,0:0:0:0:
192,192,261403,1,0,0:0:0:0:
64,192,261482,1,0,0:0:0:0:
320,192,261560,1,0,0:0:0:0:
192,192,261639,1,0,0:0:0:0:
448,192,261718,1,0,0:0:0:0:
320,192,261797,1,0,0:0:0:0:
448,192,261876,1,0,0:0:0:0:
320,192,261955,128,0,262113:0:0:0:0:
192,192,261955,128,0,262113:0:0:0:0:
64,192,261955,128,0,262113:0:0:0:0:
192,192,262192,128,0,262350:0:0:0:0:
320,192,262192,128,0,262350:0:0:0:0:
448,192,262192,128,0,262350:0:0:0:0:
320,192,262429,128,0,262587:0:0:0:0:
192,192,262429,128,0,262587:0:0:0:0:
64,192,262429,128,0,262587:0:0:0:0:
64,192,262666,128,0,262903:0:0:0:0:
448,192,262666,1,0,0:0:0:0:
320,192,262666,1,0,0:0:0:0:
192,192,262745,1,0,0:0:0:0:
448,192,262824,1,0,0:0:0:0:
320,192,262903,1,0,0:0:0:0:
192,192,262903,1,0,0:0:0:0:
448,192,262982,1,0,0:0:0:0:
64,192,263060,1,0,0:0:0:0:
320,192,263060,1,0,0:0:0:0:
192,192,263139,1,0,0:0:0:0:
64,192,263218,1,0,0:0:0:0:
320,192,263218,1,0,0:0:0:0:
448,192,263218,1,0,0:0:0:0:
192,192,263297,1,0,0:0:0:0:
448,192,263376,1,0,0:0:0:0:
320,192,263376,1,0,0:0:0:0:
64,192,263455,1,0,0:0:0:0:
192,192,263534,1,0,0:0:0:0:
448,192,263534,1,0,0:0:0:0:
320,192,263534,1,0,0:0:0:0:
64,192,263613,1,0,0:0:0:0:
192,192,263692,1,0,0:0:0:0:
320,192,263692,1,0,0:0:0:0:
448,192,263771,1,0,0:0:0:0:
64,192,263850,1,0,0:0:0:0:
192,192,263850,1,0,0:0:0:0:
320,192,263929,1,0,0:0:0:0:
64,192,264008,1,0,0:0:0:0:
448,192,264008,1,0,0:0:0:0:
192,192,264087,1,0,0:0:0:0:
320,192,264166,1,0,0:0:0:0:
448,192,264166,1,0,0:0:0:0:
64,192,264166,1,0,0:0:0:0:
192,192,264245,1,0,0:0:0:0:
320,192,264324,1,0,0:0:0:0:
448,192,264324,1,0,0:0:0:0:
64,192,264403,1,0,0:0:0:0:
192,192,264482,1,0,0:0:0:0:
320,192,264482,1,0,0:0:0:0:
448,192,264482,1,0,0:0:0:0:
64,192,264560,1,0,0:0:0:0:
192,192,264639,1,0,0:0:0:0:
448,192,264639,1,0,0:0:0:0:
320,192,264718,1,0,0:0:0:0:
64,192,264797,1,0,0:0:0:0:
192,192,264797,1,0,0:0:0:0:
448,192,264797,1,0,0:0:0:0:
320,192,264876,1,0,0:0:0:0:
64,192,264955,1,0,0:0:0:0:
448,192,264955,1,0,0:0:0:0:
192,192,265034,1,0,0:0:0:0:
448,192,265113,1,0,0:0:0:0:
64,192,265113,1,0,0:0:0:0:
192,192,265192,1,0,0:0:0:0:
320,192,265271,1,0,0:0:0:0:
448,192,265271,1,0,0:0:0:0:
64,192,265350,1,0,0:0:0:0:
192,192,265429,1,0,0:0:0:0:
320,192,265429,1,0,0:0:0:0:
448,192,265429,1,0,0:0:0:0:
64,192,265508,1,0,0:0:0:0:
192,192,265587,1,0,0:0:0:0:
320,192,265587,1,0,0:0:0:0:
448,192,265666,1,0,0:0:0:0:
64,192,265745,1,0,0:0:0:0:
320,192,265745,1,0,0:0:0:0:
448,192,265824,1,0,0:0:0:0:
64,192,265903,1,0,0:0:0:0:
320,192,265903,1,0,0:0:0:0:
192,192,265982,1,0,0:0:0:0:
64,192,266060,1,0,0:0:0:0:
448,192,266060,1,0,0:0:0:0:
320,192,266060,1,0,0:0:0:0:
192,192,266139,1,0,0:0:0:0:
448,192,266218,1,0,0:0:0:0:
320,192,266218,1,0,0:0:0:0:
64,192,266297,1,0,0:0:0:0:
320,192,266376,1,0,0:0:0:0:
448,192,266376,1,0,0:0:0:0:
64,192,266455,1,0,0:0:0:0:
192,192,266534,1,0,0:0:0:0:
320,192,266534,1,0,0:0:0:0:
448,192,266613,1,0,0:0:0:0:
64,192,266692,1,0,0:0:0:0:
192,192,266692,1,0,0:0:0:0:
320,192,266692,1,0,0:0:0:0:
448,192,266771,1,0,0:0:0:0:
64,192,266850,1,0,0:0:0:0:
320,192,266850,1,0,0:0:0:0:
192,192,266929,1,0,0:0:0:0:
64,192,267008,1,0,0:0:0:0:
448,192,267008,1,0,0:0:0:0:
320,192,267008,1,0,0:0:0:0:
192,192,267087,1,0,0:0:0:0:
448,192,267166,1,0,0:0:0:0:
64,192,267166,1,0,0:0:0:0:
320,192,267245,1,0,0:0:0:0:
64,192,267324,1,0,0:0:0:0:
192,192,267324,1,0,0:0:0:0:
448,192,267324,1,0,0:0:0:0:
320,192,267403,1,0,0:0:0:0:
64,192,267482,1,0,0:0:0:0:
192,192,267482,1,0,0:0:0:0:
448,192,267560,1,0,0:0:0:0:
64,192,267639,1,0,0:0:0:0:
192,192,267639,1,0,0:0:0:0:
320,192,267639,1,0,0:0:0:0:
448,192,267718,1,0,0:0:0:0:
64,192,267797,1,0,0:0:0:0:
320,192,267797,1,0,0:0:0:0:
192,192,267797,1,0,0:0:0:0:
448,192,267876,1,0,0:0:0:0:
64,192,267955,1,0,0:0:0:0:
192,192,267955,1,0,0:0:0:0:
320,192,267955,1,0,0:0:0:0:
448,192,268034,1,0,0:0:0:0:
320,192,268113,1,0,0:0:0:0:
64,192,268113,1,0,0:0:0:0:
192,192,268192,1,0,0:0:0:0:
64,192,268271,1,0,0:0:0:0:
320,192,268271,1,0,0:0:0:0:
448,192,268271,1,0,0:0:0:0:
192,192,268350,1,0,0:0:0:0:
320,192,268429,1,0,0:0:0:0:
448,192,268429,1,0,0:0:0:0:
64,192,268508,1,0,0:0:0:0:
192,192,268587,1,0,0:0:0:0:
320,192,268587,1,0,0:0:0:0:
448,192,268587,1,0,0:0:0:0:
64,192,268666,1,0,0:0:0:0:
192,192,268745,1,0,0:0:0:0:
320,192,268745,1,0,0:0:0:0:
448,192,268824,1,0,0:0:0:0:
64,192,268903,1,0,0:0:0:0:
192,192,268903,1,0,0:0:0:0:
320,192,268903,1,0,0:0:0:0:
448,192,268982,1,0,0:0:0:0:
64,192,269060,1,0,0:0:0:0:
320,192,269060,1,0,0:0:0:0:
192,192,269139,1,0,0:0:0:0:
64,192,269218,1,0,0:0:0:0:
320,192,269218,1,0,0:0:0:0:
448,192,269218,1,0,0:0:0:0:
192,192,269297,1,0,0:0:0:0:
64,192,269376,1,0,0:0:0:0:
448,192,269376,1,0,0:0:0:0:
320,192,269455,1,0,0:0:0:0:
64,192,269534,1,0,0:0:0:0:
192,192,269534,1,0,0:0:0:0:
448,192,269534,1,0,0:0:0:0:
320,192,269613,1,0,0:0:0:0:
64,192,269692,1,0,0:0:0:0:
192,192,269692,1,0,0:0:0:0:
320,192,269771,1,0,0:0:0:0:
64,192,269850,1,0,0:0:0:0:
192,192,269850,1,0,0:0:0:0:
448,192,269850,1,0,0:0:0:0:
320,192,269929,1,0,0:0:0:0:
192,192,270008,1,0,0:0:0:0:
448,192,270008,1,0,0:0:0:0:
64,192,270087,1,0,0:0:0:0:
320,192,270166,1,0,0:0:0:0:
192,192,270166,1,0,0:0:0:0:
448,192,270166,1,0,0:0:0:0:
64,192,270245,1,0,0:0:0:0:
448,192,270324,1,0,0:0:0:0:
320,192,270324,1,0,0:0:0:0:
64,192,270403,1,0,0:0:0:0:
320,192,270482,1,0,0:0:0:0:
448,192,270482,1,0,0:0:0:0:
192,192,270482,1,0,0:0:0:0:
64,192,270560,1,0,0:0:0:0:
192,192,270639,1,0,0:0:0:0:
320,192,270639,1,0,0:0:0:0:
448,192,270718,1,0,0:0:0:0:
64,192,270797,1,0,0:0:0:0:
192,192,270797,1,0,0:0:0:0:
320,192,270797,1,0,0:0:0:0:
448,192,270876,1,0,0:0:0:0:
64,192,270955,1,0,0:0:0:0:
320,192,270955,1,0,0:0:0:0:
192,192,271034,1,0,0:0:0:0:
64,192,271113,1,0,0:0:0:0:
320,192,271113,1,0,0:0:0:0:
448,192,271113,1,0,0:0:0:0:
192,192,271192,1,0,0:0:0:0:
320,192,271271,1,0,0:0:0:0:
64,192,271271,1,0,0:0:0:0:
448,192,271350,1,0,0:0:0:0:
64,192,271429,1,0,0:0:0:0:
192,192,271429,1,0,0:0:0:0:
320,192,271429,1,0,0:0:0:0:
448,192,271508,1,0,0:0:0:0:
64,192,271587,1,0,0:0:0:0:
320,192,271587,1,0,0:0:0:0:
192,192,271666,1,0,0:0:0:0:
64,192,271745,1,0,0:0:0:0:
320,192,271745,1,0,0:0:0:0:
448,192,271745,1,0,0:0:0:0:
192,192,271824,1,0,0:0:0:0:
320,192,271903,1,0,0:0:0:0:
448,192,271903,1,0,0:0:0:0:
192,192,271982,1,0,0:0:0:0:
64,192,272060,1,0,0:0:0:0:
448,192,272060,1,0,0:0:0:0:
320,192,272060,1,0,0:0:0:0:
192,192,272139,1,0,0:0:0:0:
320,192,272218,1,0,0:0:0:0:
192,192,272297,1,0,0:0:0:0:
64,192,272297,1,0,0:0:0:0:
448,192,272297,1,0,0:0:0:0:
320,192,272376,1,0,0:0:0:0:
192,192,272455,1,0,0:0:0:0:
320,192,272534,1,0,0:0:0:0:
448,192,272534,1,0,0:0:0:0:
64,192,272534,1,0,0:0:0:0:
192,192,272613,1,0,0:0:0:0:
320,192,272692,1,0,0:0:0:0:
64,192,272771,1,0,0:0:0:0:
448,192,272771,1,0,0:0:0:0:
320,192,272850,1,0,0:0:0:0:
192,192,272929,1,0,0:0:0:0:
448,192,272929,1,0,0:0:0:0:
64,192,273008,1,0,0:0:0:0:
320,192,273008,1,0,0:0:0:0:
448,192,273008,1,0,0:0:0:0:
64,192,273324,1,0,0:0:0:0:
192,192,273324,1,0,0:0:0:0:
320,192,273324,1,0,0:0:0:0:
448,192,273403,1,0,0:0:0:0:
64,192,273482,1,0,0:0:0:0:
320,192,273482,1,0,0:0:0:0:
192,192,273560,1,0,0:0:0:0:
64,192,273639,1,0,0:0:0:0:
448,192,273639,1,0,0:0:0:0:
320,192,273639,1,0,0:0:0:0:
192,192,273718,1,0,0:0:0:0:
320,192,273797,1,0,0:0:0:0:
448,192,273797,1,0,0:0:0:0:
64,192,273876,1,0,0:0:0:0:
192,192,273955,1,0,0:0:0:0:
320,192,273955,1,0,0:0:0:0:
448,192,273955,1,0,0:0:0:0:
64,192,274034,1,0,0:0:0:0:
192,192,274113,1,0,0:0:0:0:
448,192,274113,1,0,0:0:0:0:
320,192,274192,1,0,0:0:0:0:
64,192,274271,1,0,0:0:0:0:
192,192,274271,1,0,0:0:0:0:
448,192,274271,1,0,0:0:0:0:
320,192,274350,1,0,0:0:0:0:
64,192,274429,1,0,0:0:0:0:
192,192,274429,1,0,0:0:0:0:
448,192,274508,1,0,0:0:0:0:
192,192,274587,1,0,0:0:0:0:
64,192,274587,1,0,0:0:0:0:
320,192,274587,1,0,0:0:0:0:
448,192,274666,1,0,0:0:0:0:
192,192,274745,1,0,0:0:0:0:
320,192,274745,1,0,0:0:0:0:
64,192,274824,1,0,0:0:0:0:
320,192,274903,1,0,0:0:0:0:
448,192,274903,1,0,0:0:0:0:
192,192,274903,1,0,0:0:0:0:
64,192,274982,1,0,0:0:0:0:
192,192,275060,1,0,0:0:0:0:
448,192,275060,1,0,0:0:0:0:
320,192,275139,1,0,0:0:0:0:
64,192,275218,1,0,0:0:0:0:
192,192,275218,1,0,0:0:0:0:
448,192,275218,1,0,0:0:0:0:
320,192,275297,1,0,0:0:0:0:
64,192,275376,1,0,0:0:0:0:
448,192,275376,1,0,0:0:0:0:
192,192,275455,1,0,0:0:0:0:
320,192,275534,1,0,0:0:0:0:
448,192,275534,1,0,0:0:0:0:
64,192,275534,1,0,0:0:0:0:
192,192,275613,1,0,0:0:0:0:
64,192,275692,1,0,0:0:0:0:
448,192,275692,1,0,0:0:0:0:
320,192,275771,1,0,0:0:0:0:
64,192,275850,1,0,0:0:0:0:
192,192,275850,1,0,0:0:0:0:
448,192,275850,1,0,0:0:0:0:
320,192,275929,1,0,0:0:0:0:
192,192,276008,1,0,0:0:0:0:
64,192,276008,1,0,0:0:0:0:
320,192,276087,1,0,0:0:0:0:
64,192,276166,1,0,0:0:0:0:
192,192,276166,1,0,0:0:0:0:
448,192,276166,1,0,0:0:0:0:
320,192,276245,1,0,0:0:0:0:
192,192,276324,1,0,0:0:0:0:
448,192,276324,1,0,0:0:0:0:
64,192,276403,1,0,0:0:0:0:
192,192,276482,1,0,0:0:0:0:
320,192,276482,1,0,0:0:0:0:
448,192,276482,1,0,0:0:0:0:
64,192,276560,1,0,0:0:0:0:
320,192,276639,1,0,0:0:0:0:
448,192,276639,1,0,0:0:0:0:
192,192,276718,1,0,0:0:0:0:
320,192,276797,1,0,0:0:0:0:
448,192,276797,1,0,0:0:0:0:
64,192,276797,1,0,0:0:0:0:
192,192,276876,1,0,0:0:0:0:
64,192,276955,1,0,0:0:0:0:
448,192,276955,1,0,0:0:0:0:
320,192,277034,1,0,0:0:0:0:
192,192,277113,1,0,0:0:0:0:
448,192,277113,1,0,0:0:0:0:
64,192,277113,1,0,0:0:0:0:
320,192,277192,1,0,0:0:0:0:
448,192,277271,1,0,0:0:0:0:
64,192,277271,1,0,0:0:0:0:
192,192,277350,1,0,0:0:0:0:
320,192,277350,1,0,0:0:0:0:
64,192,277429,1,0,0:0:0:0:
448,192,277429,1,0,0:0:0:0:
192,192,277508,1,0,0:0:0:0:
320,192,277587,1,0,0:0:0:0:
64,192,277587,1,0,0:0:0:0:
448,192,277666,1,0,0:0:0:0:
64,192,277745,1,0,0:0:0:0:
192,192,277745,1,0,0:0:0:0:
192,192,277903,1,0,0:0:0:0:
320,192,277903,1,0,0:0:0:0:
192,192,278060,1,0,0:0:0:0:
448,192,278060,1,0,0:0:0:0:
320,192,278166,1,0,0:0:0:0:
448,192,278166,1,0,0:0:0:0:
64,192,278271,1,0,0:0:0:0:
192,192,278271,1,0,0:0:0:0:
64,192,278376,1,0,0:0:0:0:
320,192,278376,1,0,0:0:0:0:
448,192,278376,1,0,0:0:0:0:
192,192,278534,1,0,0:0:0:0:
320,192,278534,1,0,0:0:0:0:
192,192,278692,1,0,0:0:0:0:
320,192,278692,1,0,0:0:0:0:
64,192,278850,1,0,0:0:0:0:
320,192,278850,1,0,0:0:0:0:
448,192,278850,1,0,0:0:0:0:
192,192,279008,1,0,0:0:0:0:
320,192,279008,1,0,0:0:0:0:
192,192,279166,1,0,0:0:0:0:
320,192,279166,1,0,0:0:0:0:
64,192,279324,1,0,0:0:0:0:
320,192,279324,1,0,0:0:0:0:
448,192,279324,1,0,0:0:0:0:
192,192,279482,1,0,0:0:0:0:
320,192,279482,1,0,0:0:0:0:
64,192,279639,1,0,0:0:0:0:
320,192,279639,1,0,0:0:0:0:
448,192,279639,1,0,0:0:0:0:
192,192,279797,1,0,0:0:0:0:
320,192,279797,1,0,0:0:0:0:
192,192,279955,1,0,0:0:0:0:
320,192,279955,1,0,0:0:0:0:
448,192,280113,1,0,0:0:0:0:
64,192,280113,1,0,0:0:0:0:
320,192,280113,1,0,0:0:0:0:
192,192,280271,1,0,0:0:0:0:
320,192,280271,1,0,0:0:0:0:
192,192,280429,1,0,0:0:0:0:
320,192,280429,1,0,0:0:0:0:
320,192,280587,1,0,0:0:0:0:
448,192,280587,1,0,0:0:0:0:
64,192,280587,1,0,0:0:0:0:
192,192,280745,1,0,0:0:0:0:
320,192,280745,1,0,0:0:0:0:
64,192,280903,1,0,0:0:0:0:
320,192,280903,1,0,0:0:0:0:
448,192,280903,1,0,0:0:0:0:
192,192,281060,1,0,0:0:0:0:
320,192,281060,1,0,0:0:0:0:
192,192,281218,1,0,0:0:0:0:
320,192,281218,1,0,0:0:0:0:
64,192,281376,1,0,0:0:0:0:
320,192,281376,1,0,0:0:0:0:
448,192,281376,1,0,0:0:0:0:
192,192,281534,1,0,0:0:0:0:
320,192,281534,1,0,0:0:0:0:
192,192,281692,1,0,0:0:0:0:
320,192,281692,1,0,0:0:0:0:
64,192,281850,1,0,0:0:0:0:
448,192,281850,1,0,0:0:0:0:
320,192,281850,1,0,0:0:0:0:
192,192,281929,1,0,0:0:0:0:
320,192,282008,1,0,0:0:0:0:
64,192,282047,1,0,0:0:0:0:
192,192,282087,1,0,0:0:0:0:
320,192,282126,1,0,0:0:0:0:
448,192,282166,1,0,0:0:0:0:
64,192,282166,128,0,283113:0:0:0:0:
192,192,282482,1,0,0:0:0:0:
320,192,282639,1,0,0:0:0:0:
192,192,282797,1,0,0:0:0:0:
448,192,282955,1,0,0:0:0:0:
320,192,283113,1,0,0:0:0:0:
64,192,283271,1,0,0:0:0:0:
64,192,283429,1,0,0:0:0:0:
320,192,283429,1,0,0:0:0:0:
448,192,283429,1,0,0:0:0:0:
64,192,284060,1,0,0:0:0:0:
192,192,284060,1,0,0:0:0:0:
320,192,284060,1,0,0:0:0:0:
448,192,284060,1,0,0:0:0:0:
64,192,284534,1,0,0:0:0:0:
448,192,284534,1,0,0:0:0:0:
320,192,284534,1,0,0:0:0:0:
64,192,284692,1,0,0:0:0:0:
448,192,284692,1,0,0:0:0:0:
448,192,285324,1,0,0:0:0:0:
320,192,285324,1,0,0:0:0:0:
192,192,285324,1,0,0:0:0:0:
64,192,285324,1,0,0:0:0:0:
320,192,285955,1,0,0:0:0:0:
192,192,285955,1,0,0:0:0:0:
64,192,285955,1,0,0:0:0:0:
64,192,286587,1,0,0:0:0:0:
192,192,286587,1,0,0:0:0:0:
320,192,286587,1,0,0:0:0:0:
448,192,286587,1,0,0:0:0:0:
192,192,287060,1,0,0:0:0:0:
320,192,287060,1,0,0:0:0:0:
64,192,287218,1,0,0:0:0:0:
320,192,287218,1,0,0:0:0:0:
448,192,287218,1,0,0:0:0:0:
192,192,287455,1,0,0:0:0:0:
448,192,287455,1,0,0:0:0:0:
64,192,287692,1,0,0:0:0:0:
192,192,287692,1,0,0:0:0:0:
320,192,287692,1,0,0:0:0:0:
192,192,287850,1,0,0:0:0:0:
320,192,287850,1,0,0:0:0:0:
448,192,287850,1,0,0:0:0:0:
64,192,287850,1,0,0:0:0:0:
192,192,288166,1,0,0:0:0:0:
64,192,288482,1,0,0:0:0:0:
448,192,288482,1,0,0:0:0:0:
320,192,288482,1,0,0:0:0:0:
448,192,289113,1,0,0:0:0:0:
320,192,289113,1,0,0:0:0:0:
192,192,289113,1,0,0:0:0:0:
64,192,289113,1,0,0:0:0:0:
448,192,289429,1,0,0:0:0:0:
320,192,289587,1,0,0:0:0:0:
64,192,289587,1,0,0:0:0:0:
192,192,289587,1,0,0:0:0:0:
64,192,289745,1,0,0:0:0:0:
448,192,289745,1,0,0:0:0:0:
64,192,290376,1,0,0:0:0:0:
320,192,290376,1,0,0:0:0:0:
448,192,290376,1,0,0:0:0:0:
192,192,290376,1,0,0:0:0:0:
320,192,291008,1,0,0:0:0:0:
448,192,291008,1,0,0:0:0:0:
192,192,291008,1,0,0:0:0:0:
64,192,291639,1,0,0:0:0:0:
192,192,291639,1,0,0:0:0:0:
320,192,291639,1,0,0:0:0:0:
448,192,291639,1,0,0:0:0:0:
320,192,292113,1,0,0:0:0:0:
64,192,292113,1,0,0:0:0:0:
64,192,292271,1,0,0:0:0:0:
192,192,292271,1,0,0:0:0:0:
448,192,292271,1,0,0:0:0:0:
64,192,292508,1,0,0:0:0:0:
320,192,292508,1,0,0:0:0:0:
192,192,292745,1,0,0:0:0:0:
320,192,292745,1,0,0:0:0:0:
448,192,292745,1,0,0:0:0:0:
64,192,292903,1,0,0:0:0:0:
192,192,292903,1,0,0:0:0:0:
320,192,292903,1,0,0:0:0:0:
448,192,292903,1,0,0:0:0:0:
64,192,293113,1,0,0:0:0:0:
192,192,293113,1,0,0:0:0:0:
448,192,293113,1,0,0:0:0:0:
320,192,293113,1,0,0:0:0:0:
448,192,293297,1,0,0:0:0:0:
320,192,293297,1,0,0:0:0:0:
64,192,293376,1,0,0:0:0:0:
192,192,293376,1,0,0:0:0:0:
64,192,293534,1,0,0:0:0:0:
320,192,293534,1,0,0:0:0:0:
448,192,293534,1,0,0:0:0:0:
320,192,293692,128,0,293850:0:0:0:0:
64,192,293850,1,0,0:0:0:0:
192,192,293850,1,0,0:0:0:0:
448,192,293850,1,0,0:0:0:0:
64,192,294008,128,0,294166:0:0:0:0:
192,192,294166,1,0,0:0:0:0:
320,192,294166,1,0,0:0:0:0:
448,192,294166,1,0,0:0:0:0:
320,192,294324,128,0,294482:0:0:0:0:
64,192,294482,1,0,0:0:0:0:
192,192,294482,1,0,0:0:0:0:
448,192,294482,1,0,0:0:0:0:
192,192,294639,128,0,294797:0:0:0:0:
320,192,294797,1,0,0:0:0:0:
448,192,294797,1,0,0:0:0:0:
64,192,294797,1,0,0:0:0:0:
448,192,294955,128,0,295113:0:0:0:0:
320,192,295113,1,0,0:0:0:0:
64,192,295113,1,0,0:0:0:0:
192,192,295113,1,0,0:0:0:0:
192,192,295271,128,0,295429:0:0:0:0:
320,192,295429,1,0,0:0:0:0:
448,192,295429,1,0,0:0:0:0:
64,192,295429,1,0,0:0:0:0:
320,192,295587,128,0,295745:0:0:0:0:
64,192,295745,1,0,0:0:0:0:
192,192,295745,1,0,0:0:0:0:
448,192,295745,1,0,0:0:0:0:
448,192,295903,1,0,0:0:0:0:
64,192,295903,128,0,296060:0:0:0:0:
192,192,296060,1,0,0:0:0:0:
320,192,296060,1,0,0:0:0:0:
448,192,296060,1,0,0:0:0:0:
192,192,296218,128,0,296376:0:0:0:0:
64,192,296376,1,0,0:0:0:0:
320,192,296376,1,0,0:0:0:0:
448,192,296376,1,0,0:0:0:0:
320,192,296534,128,0,296692:0:0:0:0:
64,192,296692,1,0,0:0:0:0:
192,192,296692,1,0,0:0:0:0:
448,192,296692,1,0,0:0:0:0:
448,192,296850,128,0,297008:0:0:0:0:
320,192,297008,1,0,0:0:0:0:
192,192,297008,1,0,0:0:0:0:
64,192,297008,1,0,0:0:0:0:
64,192,297166,128,0,297324:0:0:0:0:
448,192,297166,1,0,0:0:0:0:
448,192,297324,1,0,0:0:0:0:
192,192,297324,1,0,0:0:0:0:
320,192,297324,1,0,0:0:0:0:
64,192,297639,1,0,0:0:0:0:
192,192,297639,1,0,0:0:0:0:
448,192,297639,1,0,0:0:0:0:
448,192,297955,128,0,298508:0:0:0:0:
64,192,297955,128,0,298508:0:0:0:0:
64,192,298587,1,0,0:0:0:0:
192,192,298587,1,0,0:0:0:0:
320,192,298587,1,0,0:0:0:0:
448,192,298587,1,0,0:0:0:0:
64,192,298824,1,0,0:0:0:0:
320,192,298824,1,0,0:0:0:0:
448,192,298824,1,0,0:0:0:0:
64,192,299060,1,0,0:0:0:0:
192,192,299060,1,0,0:0:0:0:
448,192,299060,1,0,0:0:0:0:
320,192,299218,1,0,0:0:0:0:
192,192,299218,1,0,0:0:0:0:
64,192,299218,1,0,0:0:0:0:
320,192,299455,1,0,0:0:0:0:
448,192,299455,1,0,0:0:0:0:
192,192,299455,1,0,0:0:0:0:
320,192,299692,1,0,0:0:0:0:
448,192,299692,1,0,0:0:0:0:
64,192,299692,1,0,0:0:0:0:
64,192,299850,1,0,0:0:0:0:
192,192,299850,1,0,0:0:0:0:
320,192,299850,1,0,0:0:0:0:
64,192,300087,1,0,0:0:0:0:
320,192,300087,1,0,0:0:0:0:
448,192,300087,1,0,0:0:0:0:
192,192,300324,1,0,0:0:0:0:
320,192,300324,1,0,0:0:0:0:
448,192,300324,1,0,0:0:0:0:
64,192,300482,1,0,0:0:0:0:
192,192,300482,1,0,0:0:0:0:
320,192,300482,1,0,0:0:0:0:
448,192,300718,1,0,0:0:0:0:
64,192,300718,1,0,0:0:0:0:
320,192,300718,1,0,0:0:0:0:
192,192,300955,1,0,0:0:0:0:
64,192,300955,1,0,0:0:0:0:
320,192,300955,1,0,0:0:0:0:
192,192,301113,1,0,0:0:0:0:
448,192,301113,1,0,0:0:0:0:
320,192,301113,1,0,0:0:0:0:
64,192,301192,1,0,0:0:0:0:
192,192,301271,1,0,0:0:0:0:
320,192,301271,1,0,0:0:0:0:
448,192,301350,1,0,0:0:0:0:
64,192,301429,1,0,0:0:0:0:
192,192,301429,1,0,0:0:0:0:
448,192,301508,1,0,0:0:0:0:
192,192,301587,1,0,0:0:0:0:
320,192,301587,1,0,0:0:0:0:
64,192,301666,1,0,0:0:0:0:
320,192,301745,1,0,0:0:0:0:
448,192,301745,1,0,0:0:0:0:
192,192,301824,1,0,0:0:0:0:
320,192,301863,1,0,0:0:0:0:
448,192,301903,1,0,0:0:0:0:
64,192,301942,1,0,0:0:0:0:
192,192,301982,1,0,0:0:0:0:
320,192,302021,1,0,0:0:0:0:
64,192,302060,1,0,0:0:0:0:
192,192,302100,1,0,0:0:0:0:
448,192,302139,1,0,0:0:0:0:
320,192,302179,1,0,0:0:0:0:
64,192,302218,1,0,0:0:0:0:
448,192,302258,1,0,0:0:0:0:
192,192,302297,1,0,0:0:0:0:
320,192,302337,1,0,0:0:0:0:
448,192,302376,1,0,0:0:0:0:
64,192,302376,128,0,303324:0:0:0:0:
320,192,302534,1,0,0:0:0:0:
192,192,302850,1,0,0:0:0:0:
448,192,303166,1,0,0:0:0:0:
192,192,303324,1,0,0:0:0:0:
320,192,303324,1,0,0:0:0:0:
64,192,303403,1,0,0:0:0:0:
192,192,303482,1,0,0:0:0:0:
320,192,303560,1,0,0:0:0:0:
448,192,303639,128,0,303876:0:0:0:0:
64,192,303639,128,0,303876:0:0:0:0:
64,192,303955,128,0,304192:0:0:0:0:
320,192,303955,128,0,304192:0:0:0:0:
448,192,303955,128,0,304192:0:0:0:0:
64,192,304271,1,0,0:0:0:0:
320,192,304271,1,0,0:0:0:0:
192,192,304350,1,0,0:0:0:0:
448,192,304350,1,0,0:0:0:0:
320,192,304429,1,0,0:0:0:0:
64,192,304429,1,0,0:0:0:0:
192,192,304508,1,0,0:0:0:0:
448,192,304508,1,0,0:0:0:0:
64,192,304587,1,0,0:0:0:0:
320,192,304587,128,0,304903:0:0:0:0:
192,192,304903,1,0,0:0:0:0:
448,192,304903,1,0,0:0:0:0:
64,192,304903,1,0,0:0:0:0:
192,192,305060,1,0,0:0:0:0:
320,192,305060,1,0,0:0:0:0:
64,192,305218,1,0,0:0:0:0:
320,192,305218,1,0,0:0:0:0:
448,192,305218,1,0,0:0:0:0:
320,192,305297,1,0,0:0:0:0:
448,192,305297,1,0,0:0:0:0:
192,192,305376,1,0,0:0:0:0:
64,192,305376,1,0,0:0:0:0:
64,192,305455,1,0,0:0:0:0:
192,192,305455,1,0,0:0:0:0:
320,192,305534,1,0,0:0:0:0:
448,192,305534,1,0,0:0:0:0:
192,192,305692,1,0,0:0:0:0:
64,192,305692,1,0,0:0:0:0:
320,192,305771,128,0,305929:0:0:0:0:
448,192,305771,128,0,305929:0:0:0:0:
192,192,305850,1,0,0:0:0:0:
192,192,306008,128,0,306166:0:0:0:0:
64,192,306008,128,0,306166:0:0:0:0:
320,192,306166,128,0,306245:0:0:0:0:
448,192,306166,128,0,306245:0:0:0:0:
192,192,306324,128,0,306403:0:0:0:0:
448,192,306324,128,0,306403:0:0:0:0:
320,192,306482,1,0,0:0:0:0:
448,192,306482,1,0,0:0:0:0:
64,192,306482,128,0,306718:0:0:0:0:
192,192,306560,1,0,0:0:0:0:
448,192,306587,1,0,0:0:0:0:
448,192,306692,1,0,0:0:0:0:
192,192,306718,1,0,0:0:0:0:
320,192,306797,1,0,0:0:0:0:
448,192,306797,1,0,0:0:0:0:
64,192,306797,1,0,0:0:0:0:
192,192,306903,1,0,0:0:0:0:
192,192,307008,1,0,0:0:0:0:
320,192,307113,1,0,0:0:0:0:
448,192,307113,128,0,307350:0:0:0:0:
64,192,307113,128,0,307350:0:0:0:0:
64,192,307429,1,0,0:0:0:0:
192,192,307429,1,0,0:0:0:0:
320,192,307429,1,0,0:0:0:0:
448,192,307508,1,0,0:0:0:0:
64,192,307587,1,0,0:0:0:0:
192,192,307587,1,0,0:0:0:0:
320,192,307666,1,0,0:0:0:0:
64,192,307745,1,0,0:0:0:0:
448,192,307745,1,0,0:0:0:0:
192,192,307824,1,0,0:0:0:0:
320,192,307903,1,0,0:0:0:0:
64,192,307903,1,0,0:0:0:0:
192,192,307982,1,0,0:0:0:0:
320,192,308060,1,0,0:0:0:0:
448,192,308060,1,0,0:0:0:0:
64,192,308139,1,0,0:0:0:0:
192,192,308218,1,0,0:0:0:0:
320,192,308218,1,0,0:0:0:0:
64,192,308297,1,0,0:0:0:0:
192,192,308376,1,0,0:0:0:0:
448,192,308376,1,0,0:0:0:0:
64,192,308455,1,0,0:0:0:0:
448,192,308534,1,0,0:0:0:0:
320,192,308534,128,0,308613:0:0:0:0:
192,192,308613,128,0,308692:0:0:0:0:
320,192,308692,1,0,0:0:0:0:
448,192,308692,128,0,309560:0:0:0:0:
64,192,308692,128,0,309560:0:0:0:0:
192,192,308929,1,0,0:0:0:0:
320,192,309008,1,0,0:0:0:0:
192,192,309166,1,0,0:0:0:0:
320,192,309403,1,0,0:0:0:0:
192,192,309482,1,0,0:0:0:0:
320,192,309639,1,0,0:0:0:0:
448,192,309639,1,0,0:0:0:0:
64,192,309639,128,0,309955:0:0:0:0:
192,192,309718,1,0,0:0:0:0:
320,192,309797,1,0,0:0:0:0:
192,192,309876,1,0,0:0:0:0:
320,192,309955,1,0,0:0:0:0:
448,192,309955,128,0,310271:0:0:0:0:
320,192,310113,1,0,0:0:0:0:
192,192,310192,1,0,0:0:0:0:
64,192,310271,1,0,0:0:0:0:
320,192,310271,1,0,0:0:0:0:
192,192,310350,1,0,0:0:0:0:
64,192,310429,1,0,0:0:0:0:
448,192,310429,1,0,0:0:0:0:
192,192,310508,1,0,0:0:0:0:
320,192,310508,1,0,0:0:0:0:
64,192,310587,1,0,0:0:0:0:
448,192,310587,1,0,0:0:0:0:
320,192,310666,1,0,0:0:0:0:
192,192,310666,1,0,0:0:0:0:
64,192,310745,1,0,0:0:0:0:
448,192,310745,1,0,0:0:0:0:
320,192,310824,1,0,0:0:0:0:
192,192,310824,1,0,0:0:0:0:
448,192,310903,1,0,0:0:0:0:
64,192,310903,128,0,311060:0:0:0:0:
320,192,311060,128,0,311218:0:0:0:0:
192,192,311060,1,0,0:0:0:0:
64,192,311218,1,0,0:0:0:0:
448,192,311218,1,0,0:0:0:0:
192,192,311218,1,0,0:0:0:0:
320,192,311376,1,0,0:0:0:0:
64,192,311455,1,0,0:0:0:0:
448,192,311455,1,0,0:0:0:0:
192,192,311534,1,0,0:0:0:0:
320,192,311534,1,0,0:0:0:0:
64,192,311692,1,0,0:0:0:0:
192,192,311692,1,0,0:0:0:0:
320,192,311850,1,0,0:0:0:0:
448,192,311850,1,0,0:0:0:0:
64,192,311929,1,0,0:0:0:0:
192,192,311929,1,0,0:0:0:0:
448,192,312008,1,0,0:0:0:0:
320,192,312008,1,0,0:0:0:0:
64,192,312087,1,0,0:0:0:0:
192,192,312087,1,0,0:0:0:0:
64,192,312166,1,0,0:0:0:0:
448,192,312166,1,0,0:0:0:0:
320,192,312245,1,0,0:0:0:0:
192,192,312324,1,0,0:0:0:0:
448,192,312324,1,0,0:0:0:0:
320,192,312403,1,0,0:0:0:0:
192,192,312482,1,0,0:0:0:0:
448,192,312482,1,0,0:0:0:0:
64,192,312482,1,0,0:0:0:0:
64,192,312718,1,0,0:0:0:0:
320,192,312718,1,0,0:0:0:0:
448,192,312718,1,0,0:0:0:0:
64,192,312955,1,0,0:0:0:0:
192,192,312955,1,0,0:0:0:0:
448,192,312955,1,0,0:0:0:0:
320,192,313113,1,0,0:0:0:0:
192,192,313153,1,0,0:0:0:0:
448,192,313192,1,0,0:0:0:0:
64,192,313232,1,0,0:0:0:0:
320,192,313271,1,0,0:0:0:0:
192,192,313350,1,0,0:0:0:0:
320,192,313389,1,0,0:0:0:0:
64,192,313429,1,0,0:0:0:0:
320,192,313508,1,0,0:0:0:0:
192,192,313587,1,0,0:0:0:0:
64,192,313666,1,0,0:0:0:0:
192,192,313745,1,0,0:0:0:0:
320,192,313745,1,0,0:0:0:0:
448,192,313745,1,0,0:0:0:0:
320,192,314060,1,0,0:0:0:0:
448,192,314060,1,0,0:0:0:0:
448,192,314139,1,0,0:0:0:0:
192,192,314139,1,0,0:0:0:0:
320,192,314218,1,0,0:0:0:0:
64,192,314218,1,0,0:0:0:0:
320,192,314297,1,0,0:0:0:0:
448,192,314297,1,0,0:0:0:0:
192,192,314376,1,0,0:0:0:0:
64,192,314376,1,0,0:0:0:0:
192,192,314455,1,0,0:0:0:0:
320,192,314455,1,0,0:0:0:0:
320,192,314534,1,0,0:0:0:0:
448,192,314534,1,0,0:0:0:0:
192,192,314613,1,0,0:0:0:0:
64,192,314613,1,0,0:0:0:0:
192,192,314692,1,0,0:0:0:0:
320,192,314692,128,0,314929:0:0:0:0:
448,192,314692,128,0,314929:0:0:0:0:
448,192,315008,1,0,0:0:0:0:
320,192,315008,128,0,315245:0:0:0:0:
64,192,315008,128,0,315245:0:0:0:0:
192,192,315324,1,0,0:0:0:0:
320,192,315324,1,0,0:0:0:0:
64,192,315403,1,0,0:0:0:0:
448,192,315403,1,0,0:0:0:0:
192,192,315482,1,0,0:0:0:0:
320,192,315482,1,0,0:0:0:0:
64,192,315560,1,0,0:0:0:0:
448,192,315560,1,0,0:0:0:0:
320,192,315639,1,0,0:0:0:0:
192,192,315639,1,0,0:0:0:0:
64,192,315639,1,0,0:0:0:0:
320,192,315797,128,0,315955:0:0:0:0:
448,192,315797,128,0,315955:0:0:0:0:
64,192,315797,128,0,315955:0:0:0:0:
64,192,316034,128,0,316192:0:0:0:0:
192,192,316034,128,0,316192:0:0:0:0:
320,192,316034,128,0,316192:0:0:0:0:
64,192,316271,1,0,0:0:0:0:
192,192,316271,1,0,0:0:0:0:
320,192,316271,1,0,0:0:0:0:
448,192,316271,1,0,0:0:0:0:
448,192,316429,1,0,0:0:0:0:
320,192,316429,1,0,0:0:0:0:
64,192,316429,1,0,0:0:0:0:
64,192,316587,1,0,0:0:0:0:
192,192,316587,1,0,0:0:0:0:
320,192,316626,1,0,0:0:0:0:
448,192,316626,1,0,0:0:0:0:
64,192,316666,1,0,0:0:0:0:
192,192,316666,1,0,0:0:0:0:
320,192,316745,1,0,0:0:0:0:
448,192,316745,1,0,0:0:0:0:
64,192,316824,1,0,0:0:0:0:
192,192,316824,1,0,0:0:0:0:
64,192,316903,1,0,0:0:0:0:
448,192,316903,1,0,0:0:0:0:
320,192,316982,1,0,0:0:0:0:
192,192,317060,1,0,0:0:0:0:
448,192,317060,1,0,0:0:0:0:
320,192,317139,1,0,0:0:0:0:
64,192,317139,1,0,0:0:0:0:
192,192,317218,128,0,317455:0:0:0:0:
448,192,317218,128,0,317455:0:0:0:0:
64,192,317534,1,0,0:0:0:0:
320,192,317534,1,0,0:0:0:0:
192,192,317692,1,0,0:0:0:0:
320,192,317692,1,0,0:0:0:0:
192,192,317850,1,0,0:0:0:0:
448,192,317850,1,0,0:0:0:0:
320,192,318008,1,0,0:0:0:0:
192,192,318008,1,0,0:0:0:0:
64,192,318166,1,0,0:0:0:0:
320,192,318166,1,0,0:0:0:0:
448,192,318166,1,0,0:0:0:0:
192,192,318324,1,0,0:0:0:0:
320,192,318324,1,0,0:0:0:0:
320,192,318482,1,0,0:0:0:0:
448,192,318482,1,0,0:0:0:0:
64,192,318534,1,0,0:0:0:0:
192,192,318587,1,0,0:0:0:0:
448,192,318639,1,0,0:0:0:0:
320,192,318692,1,0,0:0:0:0:
192,192,318745,1,0,0:0:0:0:
64,192,318797,128,0,319113:0:0:0:0:
448,192,318797,1,0,0:0:0:0:
320,192,318797,1,0,0:0:0:0:
448,192,319113,1,0,0:0:0:0:
320,192,319153,1,0,0:0:0:0:
192,192,319192,1,0,0:0:0:0:
64,192,319232,1,0,0:0:0:0:
448,192,319271,1,0,0:0:0:0:
320,192,319310,1,0,0:0:0:0:
192,192,319350,1,0,0:0:0:0:
448,192,319389,1,0,0:0:0:0:
320,192,319429,1,0,0:0:0:0:
64,192,319429,1,0,0:0:0:0:
192,192,319429,1,0,0:0:0:0:
64,192,319508,1,0,0:0:0:0:
192,192,319508,1,0,0:0:0:0:
320,192,319587,1,0,0:0:0:0:
448,192,319587,1,0,0:0:0:0:
320,192,319666,1,0,0:0:0:0:
448,192,319666,1,0,0:0:0:0:
320,192,319745,1,0,0:0:0:0:
64,192,319745,128,0,320060:0:0:0:0:
192,192,320060,1,0,0:0:0:0:
320,192,320060,1,0,0:0:0:0:
448,192,320060,128,0,320376:0:0:0:0:
64,192,320376,1,0,0:0:0:0:
320,192,320376,1,0,0:0:0:0:
192,192,320455,1,0,0:0:0:0:
448,192,320455,1,0,0:0:0:0:
64,192,320534,1,0,0:0:0:0:
320,192,320534,1,0,0:0:0:0:
192,192,320613,1,0,0:0:0:0:
448,192,320613,1,0,0:0:0:0:
320,192,320692,1,0,0:0:0:0:
448,192,320692,1,0,0:0:0:0:
64,192,320692,1,0,0:0:0:0:
192,192,320771,1,0,0:0:0:0:
320,192,320850,1,0,0:0:0:0:
448,192,320850,1,0,0:0:0:0:
192,192,320929,1,0,0:0:0:0:
320,192,320929,1,0,0:0:0:0:
64,192,321008,1,0,0:0:0:0:
448,192,321008,128,0,321166:0:0:0:0:
64,192,321166,1,0,0:0:0:0:
320,192,321166,128,0,321324:0:0:0:0:
64,192,321324,1,0,0:0:0:0:
192,192,321324,1,0,0:0:0:0:
448,192,321324,1,0,0:0:0:0:
320,192,321482,1,0,0:0:0:0:
64,192,321560,1,0,0:0:0:0:
192,192,321560,1,0,0:0:0:0:
448,192,321560,1,0,0:0:0:0:
320,192,321718,1,0,0:0:0:0:
192,192,321797,1,0,0:0:0:0:
64,192,321797,1,0,0:0:0:0:
448,192,321797,1,0,0:0:0:0:
320,192,321876,1,0,0:0:0:0:
64,192,321955,1,0,0:0:0:0:
320,192,322034,1,0,0:0:0:0:
448,192,322034,1,0,0:0:0:0:
192,192,322034,1,0,0:0:0:0:
64,192,322113,1,0,0:0:0:0:
192,192,322192,1,0,0:0:0:0:
64,192,322271,1,0,0:0:0:0:
320,192,322271,128,0,322508:0:0:0:0:
192,192,322429,128,0,322508:0:0:0:0:
64,192,322587,1,0,0:0:0:0:
192,192,322587,1,0,0:0:0:0:
448,192,322587,1,0,0:0:0:0:
320,192,322666,1,0,0:0:0:0:
192,192,322745,1,0,0:0:0:0:
64,192,322824,1,0,0:0:0:0:
320,192,322824,1,0,0:0:0:0:
448,192,322824,1,0,0:0:0:0:
192,192,322903,1,0,0:0:0:0:
320,192,322982,1,0,0:0:0:0:
64,192,323060,1,0,0:0:0:0:
192,192,323060,1,0,0:0:0:0:
448,192,323060,1,0,0:0:0:0:
320,192,323139,1,0,0:0:0:0:
448,192,323218,1,0,0:0:0:0:
64,192,323218,1,0,0:0:0:0:
320,192,323297,1,0,0:0:0:0:
192,192,323297,1,0,0:0:0:0:
448,192,323376,1,0,0:0:0:0:
64,192,323376,1,0,0:0:0:0:
192,192,323455,1,0,0:0:0:0:
320,192,323455,1,0,0:0:0:0:
448,192,323534,1,0,0:0:0:0:
64,192,323534,1,0,0:0:0:0:
192,192,323534,1,0,0:0:0:0:
320,192,323613,1,0,0:0:0:0:
192,192,323692,1,0,0:0:0:0:
448,192,323771,1,0,0:0:0:0:
320,192,323850,1,0,0:0:0:0:
64,192,323850,1,0,0:0:0:0:
192,192,323850,1,0,0:0:0:0:
448,192,323850,1,0,0:0:0:0:
192,192,324324,1,0,0:0:0:0:
320,192,324797,1,0,0:0:0:0:
448,192,325271,1,0,0:0:0:0:
448,192,325745,1,0,0:0:0:0:
320,192,326376,1,0,0:0:0:0:
64,192,326376,1,0,0:0:0:0:
192,192,326850,1,0,0:0:0:0:
448,192,326850,1,0,0:0:0:0:
448,192,327324,1,0,0:0:0:0:
192,192,327324,1,0,0:0:0:0:
64,192,327797,1,0,0:0:0:0:
448,192,327797,1,0,0:0:0:0:
64,192,328271,1,0,0:0:0:0:
448,192,328271,1,0,0:0:0:0:
192,192,328903,1,0,0:0:0:0:
64,192,328903,1,0,0:0:0:0:
192,192,329376,1,0,0:0:0:0:
64,192,329376,1,0,0:0:0:0:
192,192,329850,1,0,0:0:0:0:
64,192,329850,1,0,0:0:0:0:
64,192,330324,1,0,0:0:0:0:
320,192,330324,1,0,0:0:0:0:
448,192,330718,1,0,0:0:0:0:
320,192,330797,1,0,0:0:0:0:
64,192,330797,1,0,0:0:0:0:
192,192,330876,1,0,0:0:0:0:
448,192,330955,1,0,0:0:0:0:
192,192,331034,1,0,0:0:0:0:
448,192,331113,128,0,331271:0:0:0:0:
192,192,331271,128,0,331429:0:0:0:0:
64,192,331429,128,0,331666:0:0:0:0:
320,192,331666,128,0,331903:0:0:0:0:
448,192,331903,128,0,332139:0:0:0:0:
192,192,332139,128,0,332297:0:0:0:0:
320,192,332297,128,0,332455:0:0:0:0:
64,192,332376,1,0,0:0:0:0:
448,192,332455,1,0,0:0:0:0:
320,192,332534,1,0,0:0:0:0:
64,192,332613,1,0,0:0:0:0:
448,192,332692,1,0,0:0:0:0:
320,192,332692,1,0,0:0:0:0:
320,192,332929,1,0,0:0:0:0:
64,192,333008,1,0,0:0:0:0:
64,192,333324,128,0,333403:0:0:0:0:
320,192,333324,1,0,0:0:0:0:
192,192,333403,128,0,333482:0:0:0:0:
64,192,333482,128,0,333560:0:0:0:0:
320,192,333560,128,0,333639:0:0:0:0:
192,192,333639,1,0,0:0:0:0:
448,192,333639,1,0,0:0:0:0:
320,192,333797,1,0,0:0:0:0:
64,192,333797,1,0,0:0:0:0:
320,192,333955,1,0,0:0:0:0:
448,192,333955,128,0,334903:0:0:0:0:
64,192,334429,1,0,0:0:0:0:
192,192,334429,1,0,0:0:0:0:
64,192,334903,1,0,0:0:0:0:
320,192,334903,1,0,0:0:0:0:
192,192,335060,128,0,336008:0:0:0:0:
320,192,335060,1,0,0:0:0:0:
448,192,335376,1,0,0:0:0:0:
64,192,335376,1,0,0:0:0:0:
320,192,335692,1,0,0:0:0:0:
64,192,335850,1,0,0:0:0:0:
448,192,335850,1,0,0:0:0:0:
320,192,336008,1,0,0:0:0:0:
448,192,336324,1,0,0:0:0:0:
64,192,336482,1,0,0:0:0:0:
320,192,336482,1,0,0:0:0:0:
448,192,336639,1,0,0:0:0:0:
64,192,336955,1,0,0:0:0:0:
192,192,336955,1,0,0:0:0:0:
320,192,337271,1,0,0:0:0:0:
192,192,337429,1,0,0:0:0:0:
448,192,337429,1,0,0:0:0:0:
64,192,337587,1,0,0:0:0:0:
320,192,337903,1,0,0:0:0:0:
448,192,337903,1,0,0:0:0:0:
192,192,338218,1,0,0:0:0:0:
448,192,338376,1,0,0:0:0:0:
320,192,338376,128,0,338692:0:0:0:0:
448,192,338692,1,0,0:0:0:0:
192,192,338692,128,0,339008:0:0:0:0:
448,192,339008,1,0,0:0:0:0:
64,192,339008,128,0,339955:0:0:0:0:
320,192,339482,1,0,0:0:0:0:
192,192,339955,1,0,0:0:0:0:
448,192,339955,1,0,0:0:0:0:
320,192,340113,128,0,341534:0:0:0:0:
64,192,340429,1,0,0:0:0:0:
448,192,340429,1,0,0:0:0:0:
192,192,340903,1,0,0:0:0:0:
448,192,341534,1,0,0:0:0:0:
320,192,342008,1,0,0:0:0:0:
192,192,342482,1,0,0:0:0:0:
64,192,342955,1,0,0:0:0:0:
64,192,343429,1,0,0:0:0:0:
