osu file format v14

[General]
AudioFilename: audio.mp3
AudioLeadIn: 0
PreviewTime: 101062
Countdown: 1
SampleSet: Normal
StackLeniency: 0.7
Mode: 1
LetterboxInBreaks: 0
WidescreenStoryboard: 0

[Editor]
Bookmarks: 60680,202154
DistanceSpacing: 1
BeatDivisor: 4
GridSize: 32
TimelineZoom: 1.9

[Metadata]
Title:Dualive
TitleUnicode:Dualive
Artist:Quarks (kradness&Camellia)
ArtistUnicode:Quarks (kradness&Camellia)
Creator:MTDex
Version:Revived
Source:
Tags:
BeatmapID:1990880
BeatmapSetID:953553

[Difficulty]
HPDrainRate:6
CircleSize:5
OverallDifficulty:6
ApproachRate:5
SliderMultiplier:1.4
SliderTickRate:1

[Events]
//Background and Video events
0,0,"BG-magic.jpg",0,0
//Break Periods
2,249,6427
//Storyboard Layer 0 (Background)
//Storyboard Layer 1 (Fail)
//Storyboard Layer 2 (Pass)
//Storyboard Layer 3 (Foreground)
//Storyboard Sound Samples

[TimingPoints]
49,315.789473684211,4,1,0,100,1,0
49,-50,4,1,0,100,0,0
1312,-55.5555555555556,4,1,0,100,0,0
2575,-62.5,4,1,0,100,0,0
3838,-71.4285714285714,4,1,0,100,0,0
5101,-83.3333333333333,4,1,0,100,0,0
6364,-100,4,1,0,100,0,0
7627,-125,4,1,0,100,0,0
20259,-111.111111111111,4,1,0,100,0,0
22785,-100,4,1,0,100,0,0
25312,-90.9090909090909,4,1,0,100,0,0
27838,-83.3333333333333,4,1,0,100,0,0
30364,-100,4,1,0,100,0,0
101101,-100,4,1,0,100,0,1
116259,-90.9090909090909,4,1,0,100,0,1
117522,-83.3333333333333,4,1,0,100,0,1
118785,-100,4,1,0,100,0,0
133943,-90.9090909090909,4,1,0,100,0,0
136312,-83.3333333333333,4,1,0,100,0,0
141206,-66.6666666666667,4,1,0,100,0,0
141522,-100,4,1,0,100,0,1
156680,-80,4,1,0,100,0,1
159206,-100,4,1,0,100,0,0
160470,-90.9090909090909,4,1,0,100,0,0
160943,-83.3333333333333,4,1,0,100,0,0
161338,-100,4,1,0,100,0,0
161733,-100,4,1,0,100,0,1
170575,-90.9090909090909,4,1,0,100,0,1
171049,-83.3333333333333,4,1,0,100,0,1
171522,-100,4,1,0,100,0,1
176891,-90.9090909090909,4,1,0,100,0,1
178154,-83.3333333333333,4,1,0,100,0,1
179417,-76.9230769230769,4,1,0,100,0,1
181943,-100,4,1,0,100,0,0
192049,-90.9090909090909,4,1,0,100,0,0
194575,-83.3333333333333,4,1,0,100,0,0
197101,-76.9230769230769,4,1,0,100,0,0
201838,-100,4,1,0,100,0,0
222364,-105.263157894737,4,1,0,100,0,0
224891,-111.111111111111,4,1,0,100,0,0
227417,-117.647058823529,4,1,0,100,0,0
229943,-125,4,1,0,100,0,0
232470,-133.333333333333,4,1,0,100,0,0
240522,-142.857142857143,4,1,0,80,0,0
240996,-153.846153846154,4,1,0,60,0,0
241470,-166.666666666667,4,1,0,40,0,0
241943,-181.818181818182,4,1,0,20,0,0

[HitObjects]
256,192,49,5,4,0:0:0:0:
256,192,7627,5,0,0:0:0:0:
256,192,8101,1,0,0:0:0:0:
256,192,8891,1,0,0:0:0:0:
256,192,9364,1,0,0:0:0:0:
256,192,9838,1,8,0:0:0:0:
256,192,10154,1,0,0:0:0:0:
256,192,10627,1,0,0:0:0:0:
256,192,11101,1,0,0:0:0:0:
256,192,11575,1,0,0:0:0:0:
256,192,12049,1,8,0:0:0:0:
256,192,12680,1,0,0:0:0:0:
256,192,13154,1,0,0:0:0:0:
256,192,13627,1,0,0:0:0:0:
256,192,14101,1,0,0:0:0:0:
256,192,14575,1,8,0:0:0:0:
256,192,15206,1,0,0:0:0:0:
256,192,15680,1,0,0:0:0:0:
256,192,16154,1,0,0:0:0:0:
256,192,16627,1,0,0:0:0:0:
256,192,17101,1,8,0:0:0:0:
256,192,17733,1,0,0:0:0:0:
256,192,18206,1,0,0:0:0:0:
256,192,18996,1,8,0:0:0:0:
256,192,19470,1,8,0:0:0:0:
256,192,20259,1,0,0:0:0:0:
256,192,20733,1,0,0:0:0:0:
256,192,21206,1,0,0:0:0:0:
256,192,21680,1,0,0:0:0:0:
256,192,22154,1,8,0:0:0:0:
256,192,22785,1,0,0:0:0:0:
256,192,23259,1,0,0:0:0:0:
256,192,23733,1,0,0:0:0:0:
256,192,24206,1,0,0:0:0:0:
256,192,24680,1,8,0:0:0:0:
256,192,25312,1,0,0:0:0:0:
256,192,25785,1,0,0:0:0:0:
256,192,26259,1,0,0:0:0:0:
256,192,26733,1,8,0:0:0:0:
256,192,27206,1,8,0:0:0:0:
256,192,27838,1,0,0:0:0:0:
256,192,28312,1,0,0:0:0:0:
256,192,28785,1,0,0:0:0:0:
256,192,30364,1,4,0:0:0:0:
256,192,30838,1,0,0:0:0:0:
256,192,31312,1,0,0:0:0:0:
256,192,31785,1,0,0:0:0:0:
256,192,32259,1,8,0:0:0:0:
256,192,32575,1,0,0:0:0:0:
256,192,32891,1,0,0:0:0:0:
256,192,33364,1,0,0:0:0:0:
256,192,33838,1,0,0:0:0:0:
256,192,34312,1,0,0:0:0:0:
256,192,34785,1,8,0:0:0:0:
256,192,35417,1,0,0:0:0:0:
256,192,35891,1,0,0:0:0:0:
256,192,36364,1,0,0:0:0:0:
256,192,36838,1,0,0:0:0:0:
256,192,37154,1,0,0:0:0:0:
256,192,37470,1,8,0:0:0:0:
256,192,37785,1,0,0:0:0:0:
256,192,40470,1,4,0:0:0:0:
256,192,40785,1,0,0:0:0:0:
256,192,41101,1,0,0:0:0:0:
256,192,41417,1,0,0:0:0:0:
256,192,41733,1,0,0:0:0:0:
256,192,41891,1,8,0:0:0:0:
256,192,42049,1,0,0:0:0:0:
256,192,42364,1,0,0:0:0:0:
256,192,42680,1,0,0:0:0:0:
256,192,42838,1,8,0:0:0:0:
256,192,42996,1,0,0:0:0:0:
256,192,43312,1,0,0:0:0:0:
256,192,43627,1,0,0:0:0:0:
256,192,43943,1,0,0:0:0:0:
256,192,44259,1,0,0:0:0:0:
256,192,44575,1,0,0:0:0:0:
256,192,44891,1,0,0:0:0:0:
256,192,45206,1,0,0:0:0:0:
256,192,45364,1,8,0:0:0:0:
256,192,45522,1,0,0:0:0:0:
256,192,45838,1,0,0:0:0:0:
256,192,46154,1,0,0:0:0:0:
256,192,46470,1,0,0:0:0:0:
256,192,46785,1,0,0:0:0:0:
256,192,46943,1,8,0:0:0:0:
256,192,47101,1,0,0:0:0:0:
256,192,47417,1,0,0:0:0:0:
256,192,47733,1,0,0:0:0:0:
256,192,47891,1,8,0:0:0:0:
256,192,48049,1,0,0:0:0:0:
256,192,48364,1,0,0:0:0:0:
256,192,48680,1,0,0:0:0:0:
256,192,48996,1,0,0:0:0:0:
256,192,49075,1,0,0:0:0:0:
256,192,49154,1,0,0:0:0:0:
256,192,49233,1,0,0:0:0:0:
256,192,49312,1,0,0:0:0:0:
256,192,50575,1,4,0:0:0:0:
256,192,50891,1,0,0:0:0:0:
256,192,51206,1,0,0:0:0:0:
256,192,51522,1,0,0:0:0:0:
256,192,51838,1,0,0:0:0:0:
256,192,51996,1,8,0:0:0:0:
256,192,52312,1,8,0:0:0:0:
256,192,52627,1,8,0:0:0:0:
256,192,52943,1,8,0:0:0:0:
256,192,53101,1,0,0:0:0:0:
256,192,53417,1,0,0:0:0:0:
256,192,53733,1,0,0:0:0:0:
256,192,54049,1,0,0:0:0:0:
256,192,54364,1,0,0:0:0:0:
256,192,54522,1,8,0:0:0:0:
256,192,54838,1,8,0:0:0:0:
256,192,55154,1,8,0:0:0:0:
256,192,55470,1,8,0:0:0:0:
256,192,55627,1,0,0:0:0:0:
256,192,55864,1,0,0:0:0:0:
256,192,56101,1,0,0:0:0:0:
256,192,56259,1,0,0:0:0:0:
256,192,56496,1,0,0:0:0:0:
256,192,56733,1,0,0:0:0:0:
256,192,56891,1,0,0:0:0:0:
256,192,57127,1,0,0:0:0:0:
256,192,57364,1,0,0:0:0:0:
256,192,57522,1,0,0:0:0:0:
256,192,57759,1,0,0:0:0:0:
256,192,57996,1,0,0:0:0:0:
256,192,58154,1,0,0:0:0:0:
256,192,58233,1,0,0:0:0:0:
256,192,58312,1,8,0:0:0:0:
256,192,58391,1,0,0:0:0:0:
256,192,58470,1,0,0:0:0:0:
256,192,58549,1,0,0:0:0:0:
256,192,58627,1,8,0:0:0:0:
256,192,58706,1,0,0:0:0:0:
256,192,58785,1,0,0:0:0:0:
256,192,58838,1,0,0:0:0:0:
256,192,58891,1,0,0:0:0:0:
256,192,58943,1,8,0:0:0:0:
256,192,59022,1,8,0:0:0:0:
256,192,59101,1,8,0:0:0:0:
256,192,59180,1,8,0:0:0:0:
256,192,59259,1,8,0:0:0:0:
256,192,59338,1,8,0:0:0:0:
256,192,59417,1,0,0:0:0:0:
256,192,60680,1,4,0:0:0:0:
256,192,60996,1,8,0:0:0:0:
256,192,61154,1,8,0:0:0:0:
256,192,61233,1,8,0:0:0:0:
256,192,61312,1,0,0:0:0:0:
256,192,61470,1,8,0:0:0:0:
256,192,61549,1,0,0:0:0:0:
256,192,61627,1,0,0:0:0:0:
256,192,61733,1,0,0:0:0:0:
256,192,61785,1,0,0:0:0:0:
256,192,61838,1,0,0:0:0:0:
256,192,61891,1,0,0:0:0:0:
256,192,61943,1,0,0:0:0:0:
256,192,62101,1,8,0:0:0:0:
256,192,62180,1,8,0:0:0:0:
256,192,62259,1,0,0:0:0:0:
256,192,62338,1,8,0:0:0:0:
256,192,62417,1,8,0:0:0:0:
256,192,62496,1,8,0:0:0:0:
256,192,62575,1,0,0:0:0:0:
256,192,62733,1,8,0:0:0:0:
256,192,62812,1,0,0:0:0:0:
256,192,62891,1,0,0:0:0:0:
256,192,63049,1,0,0:0:0:0:
256,192,63127,1,0,0:0:0:0:
256,192,63206,1,0,0:0:0:0:
256,192,63364,1,8,0:0:0:0:
256,192,63522,1,0,0:0:0:0:
256,192,63601,1,8,0:0:0:0:
256,192,63680,1,8,0:0:0:0:
256,192,63759,1,8,0:0:0:0:
256,192,63838,1,0,0:0:0:0:
256,192,63996,1,8,0:0:0:0:
256,192,64075,1,0,0:0:0:0:
256,192,64154,1,0,0:0:0:0:
256,192,64259,1,0,0:0:0:0:
256,192,64312,1,0,0:0:0:0:
256,192,64364,1,0,0:0:0:0:
256,192,64417,1,0,0:0:0:0:
256,192,64470,1,0,0:0:0:0:
256,192,64627,1,0,0:0:0:0:
256,192,64785,1,0,0:0:0:0:
256,192,64864,1,8,0:0:0:0:
256,192,64943,1,8,0:0:0:0:
256,192,65101,1,0,0:0:0:0:
256,192,65259,1,0,0:0:0:0:
256,192,65338,1,8,0:0:0:0:
256,192,65417,1,0,0:0:0:0:
256,192,65575,1,8,0:0:0:0:
256,192,65733,1,4,0:0:0:0:
256,192,66049,1,0,0:0:0:0:
256,192,66127,1,8,0:0:0:0:
256,192,66206,1,8,0:0:0:0:
256,192,66285,1,8,0:0:0:0:
256,192,66364,1,0,0:0:0:0:
256,192,66522,1,8,0:0:0:0:
256,192,66601,1,8,0:0:0:0:
256,192,66680,1,0,0:0:0:0:
256,192,66785,1,0,0:0:0:0:
256,192,66838,1,0,0:0:0:0:
256,192,66891,1,0,0:0:0:0:
256,192,66943,1,0,0:0:0:0:
256,192,66996,1,0,0:0:0:0:
256,192,67154,1,0,0:0:0:0:
256,192,67206,1,0,0:0:0:0:
256,192,67259,1,0,0:0:0:0:
256,192,67312,1,8,0:0:0:0:
256,192,67391,1,8,0:0:0:0:
256,192,67470,1,8,0:0:0:0:
256,192,67549,1,8,0:0:0:0:
256,192,67627,1,0,0:0:0:0:
256,192,67706,1,8,0:0:0:0:
256,192,67785,1,8,0:0:0:0:
256,192,67943,1,8,0:0:0:0:
256,192,68101,1,0,0:0:0:0:
256,192,68259,1,4,0:0:0:0:
256,192,68417,1,0,0:0:0:0:
256,192,68496,1,8,0:0:0:0:
256,192,68575,1,0,0:0:0:0:
256,192,68654,1,0,0:0:0:0:
256,192,68733,1,8,0:0:0:0:
256,192,68812,1,0,0:0:0:0:
256,192,68891,1,0,0:0:0:0:
256,192,68970,1,8,0:0:0:0:
256,192,69049,1,0,0:0:0:0:
256,192,69127,1,8,0:0:0:0:
256,192,69206,1,8,0:0:0:0:
256,192,69285,1,0,0:0:0:0:
256,192,69364,1,8,0:0:0:0:
256,192,69443,1,8,0:0:0:0:
256,192,69522,1,0,0:0:0:0:
256,192,69759,1,0,0:0:0:0:
256,192,69996,1,8,0:0:0:0:
256,192,70154,1,0,0:0:0:0:
256,192,70391,1,0,0:0:0:0:
256,192,70627,1,8,0:0:0:0:
256,192,70785,1,4,0:0:0:0:
256,192,71101,1,8,0:0:0:0:
256,192,71259,1,8,0:0:0:0:
256,192,71338,1,8,0:0:0:0:
256,192,71417,1,0,0:0:0:0:
256,192,71575,1,8,0:0:0:0:
256,192,71654,1,0,0:0:0:0:
256,192,71733,1,0,0:0:0:0:
256,192,71838,1,0,0:0:0:0:
256,192,71891,1,0,0:0:0:0:
256,192,71943,1,0,0:0:0:0:
256,192,71996,1,0,0:0:0:0:
256,192,72049,1,0,0:0:0:0:
256,192,72206,1,8,0:0:0:0:
256,192,72259,1,8,0:0:0:0:
256,192,72312,1,8,0:0:0:0:
256,192,72364,1,0,0:0:0:0:
256,192,72522,1,8,0:0:0:0:
256,192,72601,1,8,0:0:0:0:
256,192,72680,1,0,0:0:0:0:
256,192,72838,1,8,0:0:0:0:
256,192,73154,1,8,0:0:0:0:
256,192,73312,1,0,0:0:0:0:
256,192,73470,1,8,0:0:0:0:
256,192,73627,1,0,0:0:0:0:
256,192,73706,1,8,0:0:0:0:
256,192,73785,1,8,0:0:0:0:
256,192,73864,1,8,0:0:0:0:
256,192,73943,1,0,0:0:0:0:
256,192,74101,1,8,0:0:0:0:
256,192,74180,1,8,0:0:0:0:
256,192,74259,1,0,0:0:0:0:
256,192,74417,1,0,0:0:0:0:
256,192,74470,1,0,0:0:0:0:
256,192,74522,1,0,0:0:0:0:
256,192,74575,1,8,0:0:0:0:
256,192,74733,1,8,0:0:0:0:
256,192,74891,1,8,0:0:0:0:
256,192,74970,1,0,0:0:0:0:
256,192,75049,1,0,0:0:0:0:
256,192,75127,1,8,0:0:0:0:
256,192,75206,1,0,0:0:0:0:
256,192,75285,1,8,0:0:0:0:
256,192,75364,1,8,0:0:0:0:
256,192,75443,1,0,0:0:0:0:
256,192,75522,1,8,0:0:0:0:
256,192,75601,1,8,0:0:0:0:
256,192,75680,1,0,0:0:0:0:
256,192,75838,1,0,0:0:0:0:
256,192,75943,1,0,0:0:0:0:
256,192,75996,1,0,0:0:0:0:
256,192,76049,1,0,0:0:0:0:
256,192,76154,1,0,0:0:0:0:
256,192,76391,1,0,0:0:0:0:
256,192,76627,1,0,0:0:0:0:
256,192,76864,1,0,0:0:0:0:
256,192,76943,1,8,0:0:0:0:
256,192,77022,1,8,0:0:0:0:
256,192,77101,1,0,0:0:0:0:
256,192,77417,1,0,0:0:0:0:
256,192,77575,1,8,0:0:0:0:
256,192,77654,1,0,0:0:0:0:
256,192,77812,1,0,0:0:0:0:
256,192,77891,1,8,0:0:0:0:
256,192,77970,1,8,0:0:0:0:
256,192,78049,1,0,0:0:0:0:
256,192,78364,1,4,0:0:0:0:
256,192,78522,1,8,0:0:0:0:
256,192,78601,1,8,0:0:0:0:
256,192,78680,1,0,0:0:0:0:
256,192,78838,1,8,0:0:0:0:
256,192,78996,1,0,0:0:0:0:
256,192,79154,1,0,0:0:0:0:
256,192,79233,1,0,0:0:0:0:
256,192,79312,1,8,0:0:0:0:
256,192,79470,1,8,0:0:0:0:
256,192,79627,1,0,0:0:0:0:
256,192,79706,1,8,0:0:0:0:
256,192,79785,1,8,0:0:0:0:
256,192,79864,1,0,0:0:0:0:
256,192,79943,1,8,0:0:0:0:
256,192,80022,1,8,0:0:0:0:
256,192,80101,1,0,0:0:0:0:
256,192,80180,1,8,0:0:0:0:
256,192,80259,1,0,0:0:0:0:
256,192,80364,1,0,0:0:0:0:
256,192,80417,1,0,0:0:0:0:
256,192,80470,1,0,0:0:0:0:
256,192,80522,1,0,0:0:0:0:
256,192,80575,1,0,0:0:0:0:
256,192,80733,1,8,0:0:0:0:
256,192,80891,1,4,0:0:0:0:
256,192,81206,1,8,0:0:0:0:
256,192,81285,1,8,0:0:0:0:
256,192,81364,1,8,0:0:0:0:
256,192,81443,1,0,0:0:0:0:
256,192,81522,1,0,0:0:0:0:
256,192,81601,1,0,0:0:0:0:
256,192,81680,1,0,0:0:0:0:
256,192,81759,1,0,0:0:0:0:
256,192,81838,1,8,0:0:0:0:
256,192,81891,1,8,0:0:0:0:
256,192,81943,1,8,0:0:0:0:
256,192,81996,1,8,0:0:0:0:
256,192,82049,1,8,0:0:0:0:
256,192,82101,1,8,0:0:0:0:
256,192,82154,1,0,0:0:0:0:
256,192,82470,1,8,0:0:0:0:
256,192,82549,1,8,0:0:0:0:
256,192,82627,1,8,0:0:0:0:
256,192,82706,1,8,0:0:0:0:
256,192,82785,1,0,0:0:0:0:
256,192,82996,1,8,0:0:0:0:
256,192,83206,1,8,0:0:0:0:
256,192,83417,1,0,0:0:0:0:
256,192,83733,1,8,0:0:0:0:
256,192,83812,1,8,0:0:0:0:
256,192,83891,1,8,0:0:0:0:
256,192,83970,1,8,0:0:0:0:
256,192,84049,1,0,0:0:0:0:
256,192,84206,1,0,0:0:0:0:
256,192,84285,1,0,0:0:0:0:
256,192,84364,1,8,0:0:0:0:
256,192,84417,1,8,0:0:0:0:
256,192,84470,1,8,0:0:0:0:
256,192,84522,1,8,0:0:0:0:
256,192,84575,1,8,0:0:0:0:
256,192,84627,1,8,0:0:0:0:
256,192,84680,1,0,0:0:0:0:
256,192,84838,1,8,0:0:0:0:
256,192,84917,1,0,0:0:0:0:
256,192,84996,1,0,0:0:0:0:
256,192,85075,1,8,0:0:0:0:
256,192,85154,1,0,0:0:0:0:
256,192,85233,1,0,0:0:0:0:
256,192,85312,1,8,0:0:0:0:
256,192,85391,1,8,0:0:0:0:
256,192,85470,1,8,0:0:0:0:
256,192,85549,1,0,0:0:0:0:
256,192,85627,1,8,0:0:0:0:
256,192,85706,1,8,0:0:0:0:
256,192,85785,1,8,0:0:0:0:
256,192,85864,1,8,0:0:0:0:
256,192,85943,1,0,0:0:0:0:
256,192,86259,1,0,0:0:0:0:
256,192,86338,1,8,0:0:0:0:
256,192,86417,1,8,0:0:0:0:
256,192,86496,1,8,0:0:0:0:
256,192,86575,1,0,0:0:0:0:
256,192,86733,1,8,0:0:0:0:
256,192,86812,1,0,0:0:0:0:
256,192,86891,1,0,0:0:0:0:
256,192,86996,1,0,0:0:0:0:
256,192,87049,1,0,0:0:0:0:
256,192,87101,1,0,0:0:0:0:
256,192,87154,1,0,0:0:0:0:
256,192,87206,1,0,0:0:0:0:
256,192,87364,1,8,0:0:0:0:
256,192,87522,1,8,0:0:0:0:
256,192,87601,1,8,0:0:0:0:
256,192,87680,1,8,0:0:0:0:
256,192,87759,1,8,0:0:0:0:
256,192,87838,1,0,0:0:0:0:
256,192,87917,1,0,0:0:0:0:
256,192,87996,1,0,0:0:0:0:
256,192,88154,1,8,0:0:0:0:
256,192,88312,1,0,0:0:0:0:
256,192,88470,1,0,0:0:0:0:
256,192,88627,1,0,0:0:0:0:
256,192,88706,1,8,0:0:0:0:
256,192,88943,1,0,0:0:0:0:
256,192,89180,1,0,0:0:0:0:
256,192,89417,1,8,0:0:0:0:
256,192,89733,1,0,0:0:0:0:
256,192,89970,1,8,0:0:0:0:
256,192,90206,1,0,0:0:0:0:
256,192,90364,1,0,0:0:0:0:
256,192,90443,1,8,0:0:0:0:
256,192,90522,1,8,0:0:0:0:
256,192,90601,1,8,0:0:0:0:
256,192,90680,1,8,0:0:0:0:
256,192,90838,1,8,0:0:0:0:
256,192,90996,1,4,0:0:0:0:
256,192,91312,1,8,0:0:0:0:
256,192,91391,1,8,0:0:0:0:
256,192,91470,1,8,0:0:0:0:
256,192,91549,1,0,0:0:0:0:
256,192,91627,1,0,0:0:0:0:
256,192,91706,1,0,0:0:0:0:
256,192,91785,1,0,0:0:0:0:
256,192,91864,1,0,0:0:0:0:
256,192,91943,1,8,0:0:0:0:
256,192,91996,1,8,0:0:0:0:
256,192,92049,1,8,0:0:0:0:
256,192,92101,1,8,0:0:0:0:
256,192,92154,1,8,0:0:0:0:
256,192,92206,1,8,0:0:0:0:
256,192,92259,1,0,0:0:0:0:
256,192,92575,1,8,0:0:0:0:
256,192,92654,1,8,0:0:0:0:
256,192,92733,1,8,0:0:0:0:
256,192,92812,1,8,0:0:0:0:
256,192,92891,1,0,0:0:0:0:
256,192,93101,1,8,0:0:0:0:
256,192,93312,1,8,0:0:0:0:
256,192,93522,1,0,0:0:0:0:
256,192,93838,1,8,0:0:0:0:
256,192,93917,1,8,0:0:0:0:
256,192,93996,1,8,0:0:0:0:
256,192,94075,1,8,0:0:0:0:
256,192,94154,1,0,0:0:0:0:
256,192,94312,1,0,0:0:0:0:
256,192,94391,1,0,0:0:0:0:
256,192,94470,1,8,0:0:0:0:
256,192,94522,1,8,0:0:0:0:
256,192,94575,1,8,0:0:0:0:
256,192,94627,1,8,0:0:0:0:
256,192,94680,1,8,0:0:0:0:
256,192,94733,1,8,0:0:0:0:
256,192,94785,1,0,0:0:0:0:
256,192,94943,1,8,0:0:0:0:
256,192,95022,1,0,0:0:0:0:
256,192,95101,1,0,0:0:0:0:
256,192,95180,1,8,0:0:0:0:
256,192,95259,1,0,0:0:0:0:
256,192,95338,1,8,0:0:0:0:
256,192,95417,1,8,0:0:0:0:
256,192,95496,1,8,0:0:0:0:
256,192,95575,1,0,0:0:0:0:
256,192,95654,1,0,0:0:0:0:
256,192,95733,1,8,0:0:0:0:
256,192,95812,1,8,0:0:0:0:
256,192,95891,1,8,0:0:0:0:
256,192,95970,1,8,0:0:0:0:
256,192,96049,1,0,0:0:0:0:
256,192,96101,1,0,0:0:0:0:
256,192,96154,1,0,0:0:0:0:
256,192,96206,1,8,0:0:0:0:
256,192,96364,1,4,0:0:0:0:
256,192,96680,1,0,0:0:0:0:
256,192,97312,1,4,0:0:0:0:
256,192,97627,1,8,0:0:0:0:
256,192,97706,1,8,0:0:0:0:
256,192,97785,1,8,0:0:0:0:
256,192,97864,1,8,0:0:0:0:
256,192,97943,1,0,0:0:0:0:
256,192,98022,1,0,0:0:0:0:
256,192,98101,1,0,0:0:0:0:
256,192,98180,1,0,0:0:0:0:
256,192,98259,1,8,0:0:0:0:
256,192,98312,1,8,0:0:0:0:
256,192,98364,1,8,0:0:0:0:
256,192,98417,1,8,0:0:0:0:
256,192,98470,1,8,0:0:0:0:
256,192,98522,1,8,0:0:0:0:
256,192,98575,1,0,0:0:0:0:
256,192,98812,1,0,0:0:0:0:
256,192,99049,1,8,0:0:0:0:
256,192,99206,1,0,0:0:0:0:
256,192,99443,1,0,0:0:0:0:
256,192,99680,1,8,0:0:0:0:
256,192,99838,1,0,0:0:0:0:
256,192,99917,1,0,0:0:0:0:
256,192,99996,1,0,0:0:0:0:
256,192,100075,1,0,0:0:0:0:
256,192,100154,1,8,0:0:0:0:
256,192,100312,1,0,0:0:0:0:
256,192,100470,1,0,0:0:0:0:
256,192,100549,1,8,0:0:0:0:
256,192,100627,1,0,0:0:0:0:
256,192,100785,1,8,0:0:0:0:
256,192,100943,1,0,0:0:0:0:
256,192,101101,1,4,0:0:0:0:
256,192,101259,1,8,0:0:0:0:
256,192,101417,1,0,0:0:0:0:
256,192,101496,1,0,0:0:0:0:
256,192,101575,1,8,0:0:0:0:
256,192,101733,1,0,0:0:0:0:
256,192,101891,1,8,0:0:0:0:
256,192,101970,1,8,0:0:0:0:
256,192,102049,1,0,0:0:0:0:
256,192,102206,1,8,0:0:0:0:
256,192,102364,1,0,0:0:0:0:
256,192,102522,1,0,0:0:0:0:
256,192,102601,1,0,0:0:0:0:
256,192,102680,1,8,0:0:0:0:
256,192,102838,1,0,0:0:0:0:
256,192,102996,1,8,0:0:0:0:
256,192,103075,1,8,0:0:0:0:
256,192,103154,1,0,0:0:0:0:
256,192,103312,1,0,0:0:0:0:
256,192,103470,1,8,0:0:0:0:
256,192,103627,1,0,0:0:0:0:
256,192,103785,1,8,0:0:0:0:
256,192,103943,1,0,0:0:0:0:
256,192,104022,1,0,0:0:0:0:
256,192,104101,1,8,0:0:0:0:
256,192,104259,1,0,0:0:0:0:
256,192,104417,1,8,0:0:0:0:
256,192,104496,1,8,0:0:0:0:
256,192,104575,1,0,0:0:0:0:
256,192,104733,1,8,0:0:0:0:
256,192,104891,1,0,0:0:0:0:
256,192,104970,1,0,0:0:0:0:
256,192,105049,1,8,0:0:0:0:
256,192,105206,1,0,0:0:0:0:
256,192,105285,1,0,0:0:0:0:
256,192,105364,1,8,0:0:0:0:
256,192,105522,1,0,0:0:0:0:
256,192,105601,1,0,0:0:0:0:
256,192,105680,1,8,0:0:0:0:
256,192,105838,1,0,0:0:0:0:
256,192,105917,1,0,0:0:0:0:
256,192,105996,1,8,0:0:0:0:
256,192,106154,1,0,0:0:0:0:
256,192,106312,1,8,0:0:0:0:
256,192,106470,1,0,0:0:0:0:
256,192,106549,1,0,0:0:0:0:
256,192,106627,1,8,0:0:0:0:
256,192,106785,1,0,0:0:0:0:
256,192,106943,1,8,0:0:0:0:
256,192,107022,1,8,0:0:0:0:
256,192,107101,1,0,0:0:0:0:
256,192,107259,1,8,0:0:0:0:
256,192,107417,1,0,0:0:0:0:
256,192,107575,1,0,0:0:0:0:
256,192,107654,1,0,0:0:0:0:
256,192,107733,1,8,0:0:0:0:
256,192,107891,1,0,0:0:0:0:
256,192,108049,1,8,0:0:0:0:
256,192,108127,1,8,0:0:0:0:
256,192,108206,1,0,0:0:0:0:
256,192,108364,1,0,0:0:0:0:
256,192,108522,1,8,0:0:0:0:
256,192,108680,1,0,0:0:0:0:
256,192,108838,1,8,0:0:0:0:
256,192,108996,1,0,0:0:0:0:
256,192,109075,1,0,0:0:0:0:
256,192,109154,1,8,0:0:0:0:
256,192,109312,1,0,0:0:0:0:
256,192,109470,1,8,0:0:0:0:
256,192,109549,1,8,0:0:0:0:
256,192,109627,1,0,0:0:0:0:
256,192,109785,1,8,0:0:0:0:
256,192,109943,1,0,0:0:0:0:
256,192,110101,1,8,0:0:0:0:
256,192,110259,1,0,0:0:0:0:
256,192,110338,1,0,0:0:0:0:
256,192,110417,1,8,0:0:0:0:
256,192,110575,1,0,0:0:0:0:
256,192,110733,1,0,0:0:0:0:
256,192,110891,1,8,0:0:0:0:
256,192,110970,1,0,0:0:0:0:
256,192,111206,1,4,0:0:0:0:
256,192,111364,1,8,0:0:0:0:
256,192,111522,1,0,0:0:0:0:
256,192,111601,1,0,0:0:0:0:
256,192,111680,1,8,0:0:0:0:
256,192,111759,1,0,0:0:0:0:
256,192,111838,1,0,0:0:0:0:
256,192,111917,1,8,0:0:0:0:
256,192,111996,1,0,0:0:0:0:
256,192,112075,1,0,0:0:0:0:
256,192,112154,1,8,0:0:0:0:
256,192,112470,1,0,0:0:0:0:
256,192,112627,1,8,0:0:0:0:
256,192,112785,1,0,0:0:0:0:
256,192,112864,1,8,0:0:0:0:
256,192,112943,1,8,0:0:0:0:
256,192,113022,1,0,0:0:0:0:
256,192,113101,1,8,0:0:0:0:
256,192,113180,1,8,0:0:0:0:
256,192,113259,1,0,0:0:0:0:
256,192,113338,1,8,0:0:0:0:
256,192,113417,1,8,0:0:0:0:
256,192,113733,1,0,0:0:0:0:
256,192,113891,1,8,0:0:0:0:
256,192,114049,1,0,0:0:0:0:
256,192,114127,1,0,0:0:0:0:
256,192,114206,1,8,0:0:0:0:
256,192,114364,1,0,0:0:0:0:
256,192,114522,1,8,0:0:0:0:
256,192,114601,1,8,0:0:0:0:
256,192,114680,1,0,0:0:0:0:
256,192,114838,1,8,0:0:0:0:
256,192,114996,1,0,0:0:0:0:
256,192,115075,1,0,0:0:0:0:
256,192,115154,1,8,0:0:0:0:
256,192,115312,1,0,0:0:0:0:
256,192,115470,1,8,0:0:0:0:
256,192,115627,1,0,0:0:0:0:
256,192,115785,1,0,0:0:0:0:
256,192,115943,1,8,0:0:0:0:
256,192,116022,1,8,0:0:0:0:
256,192,116101,1,8,0:0:0:0:
256,192,116180,1,8,0:0:0:0:
256,192,116259,1,0,0:0:0:0:
256,192,116496,1,0,0:0:0:0:
256,192,116733,1,0,0:0:0:0:
256,192,116970,1,0,0:0:0:0:
256,192,117206,1,8,0:0:0:0:
256,192,117522,1,0,0:0:0:0:
256,192,117759,1,0,0:0:0:0:
256,192,117996,1,0,0:0:0:0:
256,192,118233,1,8,0:0:0:0:
256,192,118470,1,8,0:0:0:0:
256,192,118785,1,4,0:0:0:0:
256,192,121312,1,4,0:0:0:0:
256,192,121627,1,0,0:0:0:0:
256,192,121943,1,0,0:0:0:0:
256,192,122259,1,0,0:0:0:0:
256,192,122417,1,8,0:0:0:0:
256,192,122575,1,0,0:0:0:0:
256,192,122891,1,0,0:0:0:0:
256,192,123206,1,0,0:0:0:0:
256,192,123522,1,0,0:0:0:0:
256,192,123838,1,0,0:0:0:0:
256,192,124154,1,0,0:0:0:0:
256,192,124470,1,0,0:0:0:0:
256,192,124785,1,0,0:0:0:0:
256,192,124943,1,8,0:0:0:0:
256,192,125101,1,0,0:0:0:0:
256,192,125417,1,0,0:0:0:0:
256,192,125733,1,0,0:0:0:0:
256,192,126049,1,0,0:0:0:0:
256,192,126364,1,0,0:0:0:0:
256,192,126680,1,0,0:0:0:0:
256,192,126838,1,8,0:0:0:0:
256,192,126996,1,0,0:0:0:0:
256,192,127312,1,0,0:0:0:0:
256,192,127627,1,0,0:0:0:0:
256,192,127943,1,0,0:0:0:0:
256,192,128101,1,8,0:0:0:0:
256,192,128259,1,0,0:0:0:0:
256,192,128575,1,0,0:0:0:0:
256,192,128891,1,0,0:0:0:0:
256,192,129206,1,0,0:0:0:0:
256,192,129364,1,8,0:0:0:0:
256,192,129522,1,0,0:0:0:0:
256,192,129838,1,0,0:0:0:0:
256,192,130154,1,0,0:0:0:0:
256,192,130312,1,8,0:0:0:0:
256,192,130470,1,0,0:0:0:0:
256,192,130785,1,8,0:0:0:0:
256,192,131417,1,4,0:0:0:0:
256,192,131575,1,0,0:0:0:0:
256,192,131812,1,0,0:0:0:0:
256,192,132049,1,0,0:0:0:0:
256,192,132285,1,0,0:0:0:0:
256,192,132522,1,0,0:0:0:0:
256,192,132680,1,0,0:0:0:0:
256,192,132838,1,0,0:0:0:0:
256,192,133075,1,0,0:0:0:0:
256,192,133312,1,0,0:0:0:0:
256,192,133549,1,0,0:0:0:0:
256,192,133706,1,0,0:0:0:0:
256,192,133785,1,0,0:0:0:0:
256,192,133864,1,0,0:0:0:0:
256,192,133943,1,0,0:0:0:0:
256,192,134101,1,0,0:0:0:0:
256,192,134338,1,0,0:0:0:0:
256,192,134575,1,0,0:0:0:0:
256,192,134812,1,0,0:0:0:0:
256,192,135049,1,0,0:0:0:0:
256,192,135206,1,0,0:0:0:0:
256,192,135364,1,0,0:0:0:0:
256,192,135601,1,0,0:0:0:0:
256,192,135838,1,0,0:0:0:0:
256,192,136075,1,0,0:0:0:0:
256,192,136154,1,0,0:0:0:0:
256,192,136233,1,0,0:0:0:0:
256,192,136312,1,0,0:0:0:0:
256,192,136470,1,0,0:0:0:0:
256,192,136706,1,0,0:0:0:0:
256,192,136943,1,8,0:0:0:0:
256,192,137101,1,0,0:0:0:0:
256,192,137338,1,0,0:0:0:0:
256,192,137575,1,8,0:0:0:0:
256,192,137733,1,0,0:0:0:0:
256,192,137970,1,0,0:0:0:0:
256,192,138206,1,8,0:0:0:0:
256,192,138364,1,0,0:0:0:0:
256,192,138601,1,0,0:0:0:0:
256,192,138838,1,8,0:0:0:0:
256,192,138996,1,0,0:0:0:0:
256,192,139075,1,0,0:0:0:0:
256,192,139154,1,8,0:0:0:0:
256,192,139233,1,0,0:0:0:0:
256,192,139312,1,0,0:0:0:0:
256,192,139391,1,0,0:0:0:0:
256,192,139470,1,8,0:0:0:0:
256,192,139549,1,0,0:0:0:0:
256,192,139627,1,0,0:0:0:0:
256,192,139680,1,0,0:0:0:0:
256,192,139733,1,0,0:0:0:0:
256,192,139785,1,8,0:0:0:0:
256,192,139864,1,8,0:0:0:0:
256,192,139943,1,8,0:0:0:0:
256,192,140022,1,8,0:0:0:0:
256,192,140101,1,8,0:0:0:0:
256,192,140180,1,8,0:0:0:0:
256,192,140259,1,0,0:0:0:0:
256,192,141206,1,12,0:0:0:0:
256,192,141522,1,4,0:0:0:0:
256,192,141680,1,8,0:0:0:0:
256,192,141759,1,0,0:0:0:0:
256,192,141917,1,0,0:0:0:0:
256,192,141996,1,0,0:0:0:0:
256,192,142154,1,0,0:0:0:0:
256,192,142312,1,8,0:0:0:0:
256,192,142391,1,8,0:0:0:0:
256,192,142470,1,0,0:0:0:0:
256,192,142549,1,8,0:0:0:0:
256,192,142627,1,8,0:0:0:0:
256,192,142785,1,0,0:0:0:0:
256,192,142943,1,8,0:0:0:0:
256,192,143022,1,0,0:0:0:0:
256,192,143180,1,8,0:0:0:0:
256,192,143259,1,8,0:0:0:0:
256,192,143417,1,0,0:0:0:0:
256,192,143575,1,8,0:0:0:0:
256,192,143654,1,8,0:0:0:0:
256,192,143733,1,0,0:0:0:0:
256,192,143812,1,8,0:0:0:0:
256,192,143891,1,8,0:0:0:0:
256,192,144049,1,0,0:0:0:0:
256,192,144206,1,8,0:0:0:0:
256,192,144285,1,0,0:0:0:0:
256,192,144443,1,0,0:0:0:0:
256,192,144522,1,0,0:0:0:0:
256,192,144680,1,0,0:0:0:0:
256,192,144838,1,8,0:0:0:0:
256,192,144917,1,8,0:0:0:0:
256,192,144996,1,0,0:0:0:0:
256,192,145075,1,8,0:0:0:0:
256,192,145154,1,8,0:0:0:0:
256,192,145233,1,8,0:0:0:0:
256,192,145312,1,0,0:0:0:0:
256,192,145470,1,8,0:0:0:0:
256,192,145549,1,0,0:0:0:0:
256,192,145706,1,8,0:0:0:0:
256,192,145785,1,8,0:0:0:0:
256,192,145943,1,0,0:0:0:0:
256,192,146101,1,8,0:0:0:0:
256,192,146180,1,8,0:0:0:0:
256,192,146259,1,0,0:0:0:0:
256,192,146338,1,0,0:0:0:0:
256,192,146417,1,8,0:0:0:0:
256,192,146496,1,8,0:0:0:0:
256,192,146575,1,0,0:0:0:0:
256,192,146733,1,8,0:0:0:0:
256,192,146812,1,0,0:0:0:0:
256,192,146970,1,0,0:0:0:0:
256,192,147049,1,8,0:0:0:0:
256,192,147206,1,0,0:0:0:0:
256,192,147364,1,8,0:0:0:0:
256,192,147443,1,8,0:0:0:0:
256,192,147522,1,0,0:0:0:0:
256,192,147601,1,8,0:0:0:0:
256,192,147680,1,8,0:0:0:0:
256,192,147759,1,8,0:0:0:0:
256,192,147838,1,0,0:0:0:0:
256,192,147996,1,8,0:0:0:0:
256,192,148075,1,0,0:0:0:0:
256,192,148233,1,0,0:0:0:0:
256,192,148312,1,8,0:0:0:0:
256,192,148470,1,0,0:0:0:0:
256,192,148627,1,8,0:0:0:0:
256,192,148706,1,8,0:0:0:0:
256,192,148785,1,0,0:0:0:0:
256,192,148864,1,0,0:0:0:0:
256,192,148943,1,8,0:0:0:0:
256,192,149022,1,8,0:0:0:0:
256,192,149101,1,0,0:0:0:0:
256,192,149259,1,0,0:0:0:0:
256,192,149338,1,8,0:0:0:0:
256,192,149496,1,8,0:0:0:0:
256,192,149575,1,8,0:0:0:0:
256,192,149733,1,0,0:0:0:0:
256,192,149812,1,0,0:0:0:0:
256,192,149891,1,8,0:0:0:0:
256,192,149970,1,8,0:0:0:0:
256,192,150049,1,0,0:0:0:0:
256,192,150127,1,8,0:0:0:0:
256,192,150206,1,8,0:0:0:0:
256,192,150285,1,0,0:0:0:0:
256,192,150364,1,0,0:0:0:0:
256,192,150522,1,0,0:0:0:0:
256,192,150601,1,8,0:0:0:0:
256,192,150759,1,8,0:0:0:0:
256,192,150838,1,8,0:0:0:0:
256,192,150996,1,8,0:0:0:0:
256,192,151154,1,8,0:0:0:0:
256,192,151312,1,8,0:0:0:0:
256,192,151391,1,8,0:0:0:0:
256,192,151470,1,8,0:0:0:0:
256,192,151549,1,8,0:0:0:0:
256,192,151627,1,0,0:0:0:0:
256,192,151785,1,8,0:0:0:0:
256,192,151943,1,0,0:0:0:0:
256,192,152022,1,0,0:0:0:0:
256,192,152101,1,8,0:0:0:0:
256,192,152259,1,0,0:0:0:0:
256,192,152417,1,8,0:0:0:0:
256,192,152496,1,8,0:0:0:0:
256,192,152575,1,0,0:0:0:0:
256,192,152654,1,8,0:0:0:0:
256,192,152733,1,8,0:0:0:0:
256,192,152891,1,0,0:0:0:0:
256,192,153049,1,8,0:0:0:0:
256,192,153127,1,0,0:0:0:0:
256,192,153285,1,0,0:0:0:0:
256,192,153364,1,0,0:0:0:0:
256,192,153522,1,0,0:0:0:0:
256,192,153680,1,8,0:0:0:0:
256,192,153759,1,8,0:0:0:0:
256,192,153838,1,0,0:0:0:0:
256,192,153917,1,8,0:0:0:0:
256,192,153996,1,8,0:0:0:0:
256,192,154154,1,0,0:0:0:0:
256,192,154312,1,8,0:0:0:0:
256,192,154470,1,0,0:0:0:0:
256,192,154549,1,0,0:0:0:0:
256,192,154627,1,8,0:0:0:0:
256,192,154785,1,0,0:0:0:0:
256,192,154943,1,8,0:0:0:0:
256,192,155022,1,8,0:0:0:0:
256,192,155101,1,0,0:0:0:0:
256,192,155180,1,8,0:0:0:0:
256,192,155259,1,8,0:0:0:0:
256,192,155338,1,8,0:0:0:0:
256,192,155417,1,0,0:0:0:0:
256,192,155575,1,8,0:0:0:0:
256,192,155654,1,0,0:0:0:0:
256,192,155812,1,8,0:0:0:0:
256,192,155891,1,8,0:0:0:0:
256,192,156049,1,0,0:0:0:0:
256,192,156206,1,0,0:0:0:0:
256,192,156364,1,8,0:0:0:0:
256,192,156443,1,8,0:0:0:0:
256,192,156522,1,8,0:0:0:0:
256,192,156601,1,8,0:0:0:0:
256,192,156680,1,0,0:0:0:0:
256,192,157312,1,8,0:0:0:0:
256,192,157364,1,8,0:0:0:0:
256,192,157417,1,8,0:0:0:0:
256,192,157470,1,0,0:0:0:0:
256,192,157549,1,8,0:0:0:0:
256,192,157627,1,8,0:0:0:0:
256,192,157706,1,0,0:0:0:0:
256,192,157785,1,8,0:0:0:0:
256,192,157943,1,0,0:0:0:0:
256,192,158575,1,8,0:0:0:0:
256,192,158627,1,0,0:0:0:0:
256,192,158680,1,0,0:0:0:0:
256,192,158733,1,0,0:0:0:0:
256,192,158812,1,8,0:0:0:0:
256,192,158891,1,0,0:0:0:0:
256,192,158970,1,8,0:0:0:0:
256,192,159049,1,8,0:0:0:0:
256,192,159206,1,0,0:0:0:0:
256,192,159443,1,0,0:0:0:0:
256,192,159680,1,8,0:0:0:0:
256,192,159838,1,0,0:0:0:0:
256,192,159891,1,0,0:0:0:0:
256,192,159943,1,0,0:0:0:0:
256,192,159996,1,8,0:0:0:0:
256,192,160075,1,0,0:0:0:0:
256,192,160154,1,8,0:0:0:0:
256,192,160233,1,8,0:0:0:0:
256,192,160312,1,0,0:0:0:0:
256,192,160470,1,4,0:0:0:0:
256,192,160706,1,4,0:0:0:0:
256,192,160943,1,12,0:0:0:0:
256,192,161180,1,12,0:0:0:0:
256,192,161338,1,0,0:0:0:0:
256,192,161496,1,0,0:0:0:0:
256,192,161575,1,0,0:0:0:0:
256,192,161733,1,0,0:0:0:0:
256,192,161891,1,8,0:0:0:0:
256,192,162049,1,0,0:0:0:0:
256,192,162127,1,0,0:0:0:0:
256,192,162206,1,8,0:0:0:0:
256,192,162364,1,0,0:0:0:0:
256,192,162522,1,8,0:0:0:0:
256,192,162601,1,8,0:0:0:0:
256,192,162680,1,0,0:0:0:0:
256,192,162838,1,8,0:0:0:0:
256,192,162996,1,0,0:0:0:0:
256,192,163154,1,0,0:0:0:0:
256,192,163233,1,0,0:0:0:0:
256,192,163312,1,8,0:0:0:0:
256,192,163470,1,0,0:0:0:0:
256,192,163627,1,8,0:0:0:0:
256,192,163706,1,8,0:0:0:0:
256,192,163785,1,0,0:0:0:0:
256,192,163943,1,8,0:0:0:0:
256,192,164101,1,0,0:0:0:0:
256,192,164259,1,0,0:0:0:0:
256,192,164338,1,0,0:0:0:0:
256,192,164417,1,8,0:0:0:0:
256,192,164575,1,0,0:0:0:0:
256,192,164733,1,8,0:0:0:0:
256,192,164891,1,0,0:0:0:0:
256,192,165049,1,8,0:0:0:0:
256,192,165127,1,8,0:0:0:0:
256,192,165206,1,0,0:0:0:0:
256,192,165364,1,8,0:0:0:0:
256,192,165522,1,0,0:0:0:0:
256,192,165601,1,0,0:0:0:0:
256,192,165680,1,0,0:0:0:0:
256,192,165759,1,0,0:0:0:0:
256,192,165838,1,8,0:0:0:0:
256,192,165996,1,0,0:0:0:0:
256,192,166154,1,0,0:0:0:0:
256,192,166233,1,0,0:0:0:0:
256,192,166312,1,0,0:0:0:0:
256,192,166391,1,0,0:0:0:0:
256,192,166470,1,8,0:0:0:0:
256,192,166627,1,0,0:0:0:0:
256,192,166785,1,0,0:0:0:0:
256,192,166943,1,8,0:0:0:0:
256,192,167101,1,0,0:0:0:0:
256,192,167180,1,0,0:0:0:0:
256,192,167259,1,8,0:0:0:0:
256,192,167417,1,0,0:0:0:0:
256,192,167575,1,8,0:0:0:0:
256,192,167654,1,8,0:0:0:0:
256,192,167733,1,0,0:0:0:0:
256,192,167891,1,8,0:0:0:0:
256,192,168049,1,0,0:0:0:0:
256,192,168206,1,0,0:0:0:0:
256,192,168285,1,0,0:0:0:0:
256,192,168364,1,8,0:0:0:0:
256,192,168522,1,0,0:0:0:0:
256,192,168680,1,8,0:0:0:0:
256,192,168759,1,8,0:0:0:0:
256,192,168838,1,0,0:0:0:0:
256,192,168996,1,8,0:0:0:0:
256,192,169154,1,0,0:0:0:0:
256,192,169312,1,0,0:0:0:0:
256,192,169391,1,0,0:0:0:0:
256,192,169470,1,8,0:0:0:0:
256,192,169627,1,0,0:0:0:0:
256,192,169706,1,0,0:0:0:0:
256,192,169785,1,8,0:0:0:0:
256,192,169943,1,0,0:0:0:0:
256,192,170022,1,0,0:0:0:0:
256,192,170101,1,8,0:0:0:0:
256,192,170259,1,0,0:0:0:0:
256,192,170338,1,0,0:0:0:0:
256,192,170417,1,8,0:0:0:0:
256,192,170575,1,4,0:0:0:0:
256,192,170812,1,4,0:0:0:0:
256,192,171049,1,12,0:0:0:0:
256,192,171285,1,12,0:0:0:0:
256,192,171522,1,0,0:0:0:0:
256,192,171838,1,4,0:0:0:0:
256,192,171996,1,8,0:0:0:0:
256,192,172154,1,0,0:0:0:0:
256,192,172233,1,0,0:0:0:0:
256,192,172312,1,8,0:0:0:0:
256,192,172470,1,0,0:0:0:0:
256,192,172627,1,8,0:0:0:0:
256,192,172706,1,8,0:0:0:0:
256,192,172785,1,0,0:0:0:0:
256,192,172943,1,8,0:0:0:0:
256,192,173101,1,0,0:0:0:0:
256,192,173259,1,0,0:0:0:0:
256,192,173338,1,0,0:0:0:0:
256,192,173417,1,8,0:0:0:0:
256,192,173575,1,0,0:0:0:0:
256,192,173733,1,8,0:0:0:0:
256,192,173812,1,8,0:0:0:0:
256,192,173891,1,0,0:0:0:0:
256,192,174049,1,8,0:0:0:0:
256,192,174206,1,0,0:0:0:0:
256,192,174364,1,0,0:0:0:0:
256,192,174443,1,0,0:0:0:0:
256,192,174522,1,8,0:0:0:0:
256,192,174680,1,0,0:0:0:0:
256,192,174838,1,8,0:0:0:0:
256,192,174996,1,0,0:0:0:0:
256,192,175154,1,8,0:0:0:0:
256,192,175233,1,8,0:0:0:0:
256,192,175312,1,0,0:0:0:0:
256,192,175470,1,8,0:0:0:0:
256,192,175627,1,0,0:0:0:0:
256,192,175706,1,8,0:0:0:0:
256,192,175785,1,8,0:0:0:0:
256,192,175864,1,0,0:0:0:0:
256,192,175943,1,8,0:0:0:0:
256,192,176022,1,8,0:0:0:0:
256,192,176101,1,0,0:0:0:0:
256,192,176180,1,8,0:0:0:0:
256,192,176259,1,0,0:0:0:0:
256,192,176417,1,0,0:0:0:0:
256,192,176575,1,0,0:0:0:0:
256,192,176680,1,0,0:0:0:0:
256,192,176785,1,0,0:0:0:0:
256,192,176891,1,4,0:0:0:0:
256,192,177049,1,0,0:0:0:0:
256,192,177206,1,8,0:0:0:0:
256,192,177364,1,4,0:0:0:0:
256,192,177522,1,0,0:0:0:0:
256,192,177680,1,8,0:0:0:0:
256,192,177838,1,4,0:0:0:0:
256,192,177996,1,8,0:0:0:0:
256,192,178154,1,4,0:0:0:0:
256,192,178312,1,0,0:0:0:0:
256,192,178470,1,8,0:0:0:0:
256,192,178627,1,4,0:0:0:0:
256,192,178785,1,0,0:0:0:0:
256,192,178943,1,8,0:0:0:0:
256,192,179101,1,4,0:0:0:0:
256,192,179259,1,8,0:0:0:0:
256,192,179417,1,4,0:0:0:0:
256,192,179575,1,0,0:0:0:0:
256,192,179733,1,8,0:0:0:0:
256,192,179891,1,4,0:0:0:0:
256,192,180049,1,0,0:0:0:0:
256,192,180206,1,8,0:0:0:0:
256,192,180364,1,8,0:0:0:0:
256,192,180443,1,8,0:0:0:0:
256,192,180522,1,8,0:0:0:0:
256,192,180601,1,8,0:0:0:0:
256,192,180680,1,0,0:0:0:0:
256,192,181943,1,4,0:0:0:0:
256,192,182575,1,8,0:0:0:0:
256,192,182733,1,0,0:0:0:0:
256,192,183049,1,0,0:0:0:0:
256,192,183206,1,0,0:0:0:0:
256,192,183838,1,8,0:0:0:0:
256,192,184312,1,0,0:0:0:0:
256,192,184470,1,0,0:0:0:0:
256,192,185101,1,8,0:0:0:0:
256,192,185575,1,0,0:0:0:0:
256,192,185733,1,0,0:0:0:0:
256,192,185970,1,0,0:0:0:0:
256,192,186206,1,0,0:0:0:0:
256,192,186364,1,8,0:0:0:0:
256,192,186996,1,0,0:0:0:0:
256,192,187627,1,8,0:0:0:0:
256,192,187785,1,0,0:0:0:0:
256,192,188101,1,0,0:0:0:0:
256,192,188259,1,0,0:0:0:0:
256,192,188891,1,8,0:0:0:0:
256,192,189364,1,0,0:0:0:0:
256,192,189522,1,0,0:0:0:0:
256,192,190154,1,8,0:0:0:0:
256,192,190627,1,0,0:0:0:0:
256,192,190785,1,0,0:0:0:0:
256,192,191022,1,0,0:0:0:0:
256,192,191259,1,0,0:0:0:0:
256,192,191417,1,8,0:0:0:0:
256,192,191654,1,0,0:0:0:0:
256,192,191812,1,0,0:0:0:0:
256,192,191891,1,0,0:0:0:0:
256,192,192049,1,4,0:0:0:0:
256,192,192364,1,0,0:0:0:0:
256,192,192680,1,0,0:0:0:0:
256,192,192996,1,0,0:0:0:0:
256,192,193312,1,0,0:0:0:0:
256,192,193627,1,0,0:0:0:0:
256,192,193943,1,0,0:0:0:0:
256,192,194259,1,0,0:0:0:0:
256,192,194575,1,0,0:0:0:0:
256,192,194891,1,0,0:0:0:0:
256,192,195206,1,0,0:0:0:0:
256,192,195522,1,0,0:0:0:0:
256,192,195838,1,0,0:0:0:0:
256,192,196154,1,0,0:0:0:0:
256,192,196470,1,0,0:0:0:0:
256,192,196549,1,0,0:0:0:0:
256,192,196627,1,0,0:0:0:0:
256,192,196706,1,0,0:0:0:0:
256,192,196785,1,8,0:0:0:0:
256,192,197101,1,4,0:0:0:0:
256,192,197338,1,0,0:0:0:0:
256,192,197575,1,8,0:0:0:0:
256,192,197733,1,0,0:0:0:0:
256,192,197970,1,0,0:0:0:0:
256,192,198206,1,8,0:0:0:0:
256,192,198364,1,0,0:0:0:0:
256,192,198601,1,0,0:0:0:0:
256,192,198838,1,8,0:0:0:0:
256,192,198996,1,0,0:0:0:0:
256,192,199233,1,0,0:0:0:0:
256,192,199470,1,8,0:0:0:0:
256,192,199627,1,0,0:0:0:0:
256,192,199706,1,0,0:0:0:0:
256,192,199785,1,8,0:0:0:0:
256,192,199864,1,0,0:0:0:0:
256,192,199943,1,0,0:0:0:0:
256,192,200022,1,0,0:0:0:0:
256,192,200101,1,8,0:0:0:0:
256,192,200180,1,0,0:0:0:0:
256,192,200259,1,0,0:0:0:0:
256,192,200312,1,0,0:0:0:0:
256,192,200364,1,0,0:0:0:0:
256,192,200417,1,8,0:0:0:0:
256,192,200496,1,8,0:0:0:0:
256,192,200575,1,8,0:0:0:0:
256,192,200654,1,8,0:0:0:0:
256,192,200733,1,8,0:0:0:0:
256,192,200812,1,8,0:0:0:0:
256,192,200891,1,0,0:0:0:0:
256,192,201838,1,8,0:0:0:0:
256,192,201917,1,8,0:0:0:0:
256,192,201996,1,8,0:0:0:0:
256,192,202075,1,8,0:0:0:0:
256,192,202154,1,0,0:0:0:0:
256,192,202470,1,8,0:0:0:0:
256,192,202627,1,8,0:0:0:0:
256,192,202706,1,8,0:0:0:0:
256,192,202785,1,0,0:0:0:0:
256,192,202943,1,8,0:0:0:0:
256,192,203022,1,0,0:0:0:0:
256,192,203101,1,0,0:0:0:0:
256,192,203206,1,0,0:0:0:0:
256,192,203259,1,0,0:0:0:0:
256,192,203312,1,0,0:0:0:0:
256,192,203364,1,0,0:0:0:0:
256,192,203417,1,0,0:0:0:0:
256,192,203575,1,0,0:0:0:0:
256,192,203627,1,0,0:0:0:0:
256,192,203680,1,0,0:0:0:0:
256,192,203733,1,8,0:0:0:0:
256,192,203812,1,8,0:0:0:0:
256,192,203891,1,8,0:0:0:0:
256,192,203970,1,8,0:0:0:0:
256,192,204049,1,0,0:0:0:0:
256,192,204206,1,8,0:0:0:0:
256,192,204285,1,0,0:0:0:0:
256,192,204364,1,0,0:0:0:0:
256,192,204522,1,0,0:0:0:0:
256,192,204601,1,0,0:0:0:0:
256,192,204680,1,0,0:0:0:0:
256,192,204838,1,8,0:0:0:0:
256,192,204996,1,0,0:0:0:0:
256,192,205075,1,8,0:0:0:0:
256,192,205154,1,8,0:0:0:0:
256,192,205233,1,8,0:0:0:0:
256,192,205312,1,0,0:0:0:0:
256,192,205470,1,8,0:0:0:0:
256,192,205549,1,8,0:0:0:0:
256,192,205627,1,0,0:0:0:0:
256,192,205733,1,0,0:0:0:0:
256,192,205785,1,0,0:0:0:0:
256,192,205838,1,0,0:0:0:0:
256,192,205891,1,0,0:0:0:0:
256,192,205943,1,0,0:0:0:0:
256,192,206101,1,0,0:0:0:0:
256,192,206259,1,0,0:0:0:0:
256,192,206338,1,8,0:0:0:0:
256,192,206417,1,8,0:0:0:0:
256,192,206575,1,0,0:0:0:0:
256,192,206733,1,0,0:0:0:0:
256,192,206812,1,8,0:0:0:0:
256,192,206891,1,0,0:0:0:0:
256,192,207049,1,8,0:0:0:0:
256,192,207206,1,0,0:0:0:0:
256,192,207443,1,8,0:0:0:0:
256,192,207680,1,0,0:0:0:0:
256,192,207917,1,0,0:0:0:0:
256,192,207996,1,0,0:0:0:0:
256,192,208154,1,4,0:0:0:0:
256,192,208259,1,0,0:0:0:0:
256,192,208312,1,0,0:0:0:0:
256,192,208364,1,0,0:0:0:0:
256,192,208417,1,0,0:0:0:0:
256,192,208470,1,0,0:0:0:0:
256,192,208627,1,0,0:0:0:0:
256,192,208706,1,0,0:0:0:0:
256,192,208785,1,8,0:0:0:0:
256,192,208864,1,8,0:0:0:0:
256,192,208943,1,8,0:0:0:0:
256,192,209022,1,8,0:0:0:0:
256,192,209101,1,0,0:0:0:0:
256,192,209180,1,0,0:0:0:0:
256,192,209259,1,0,0:0:0:0:
256,192,209338,1,0,0:0:0:0:
256,192,209417,1,0,0:0:0:0:
256,192,209575,1,8,0:0:0:0:
256,192,209733,1,0,0:0:0:0:
256,192,209812,1,8,0:0:0:0:
256,192,209891,1,0,0:0:0:0:
256,192,209970,1,0,0:0:0:0:
256,192,210049,1,8,0:0:0:0:
256,192,210128,1,0,0:0:0:0:
256,192,210207,1,0,0:0:0:0:
256,192,210286,1,8,0:0:0:0:
256,192,210365,1,0,0:0:0:0:
256,192,210443,1,8,0:0:0:0:
256,192,210522,1,8,0:0:0:0:
256,192,210601,1,0,0:0:0:0:
256,192,210680,1,8,0:0:0:0:
256,192,210759,1,8,0:0:0:0:
256,192,210838,1,0,0:0:0:0:
256,192,210996,1,0,0:0:0:0:
256,192,211233,1,0,0:0:0:0:
256,192,211470,1,8,0:0:0:0:
256,192,211627,1,0,0:0:0:0:
256,192,211680,1,0,0:0:0:0:
256,192,211733,1,0,0:0:0:0:
256,192,211785,1,0,0:0:0:0:
256,192,211838,1,0,0:0:0:0:
256,192,211891,1,0,0:0:0:0:
256,192,211943,1,8,0:0:0:0:
256,192,212259,1,4,0:0:0:0:
256,192,212575,1,8,0:0:0:0:
256,192,212654,1,8,0:0:0:0:
256,192,212733,1,8,0:0:0:0:
256,192,212812,1,0,0:0:0:0:
256,192,212891,1,0,0:0:0:0:
256,192,212970,1,0,0:0:0:0:
256,192,213049,1,0,0:0:0:0:
256,192,213127,1,0,0:0:0:0:
256,192,213206,1,8,0:0:0:0:
256,192,213259,1,8,0:0:0:0:
256,192,213312,1,8,0:0:0:0:
256,192,213364,1,8,0:0:0:0:
256,192,213417,1,8,0:0:0:0:
256,192,213470,1,8,0:0:0:0:
256,192,213522,1,0,0:0:0:0:
256,192,213838,1,8,0:0:0:0:
256,192,213917,1,8,0:0:0:0:
256,192,213996,1,8,0:0:0:0:
256,192,214075,1,8,0:0:0:0:
256,192,214154,1,0,0:0:0:0:
256,192,214364,1,8,0:0:0:0:
256,192,214575,1,8,0:0:0:0:
256,192,214785,1,0,0:0:0:0:
256,192,215101,1,8,0:0:0:0:
256,192,215154,1,8,0:0:0:0:
256,192,215206,1,8,0:0:0:0:
256,192,215259,1,8,0:0:0:0:
256,192,215338,1,8,0:0:0:0:
256,192,215417,1,0,0:0:0:0:
256,192,215522,1,0,0:0:0:0:
256,192,215575,1,0,0:0:0:0:
256,192,215627,1,0,0:0:0:0:
256,192,215733,1,8,0:0:0:0:
256,192,215785,1,8,0:0:0:0:
256,192,215838,1,8,0:0:0:0:
256,192,215891,1,8,0:0:0:0:
256,192,215943,1,8,0:0:0:0:
256,192,215996,1,8,0:0:0:0:
256,192,216049,1,0,0:0:0:0:
256,192,216206,1,0,0:0:0:0:
256,192,216364,1,8,0:0:0:0:
256,192,216522,1,0,0:0:0:0:
256,192,216601,1,0,0:0:0:0:
256,192,216680,1,8,0:0:0:0:
256,192,216759,1,0,0:0:0:0:
256,192,216838,1,0,0:0:0:0:
256,192,216995,1,8,0:0:0:0:
256,192,217153,1,8,0:0:0:0:
256,192,217232,1,8,0:0:0:0:
256,192,217311,1,0,0:0:0:0:
256,192,217627,1,8,0:0:0:0:
256,192,217706,1,8,0:0:0:0:
256,192,217785,1,8,0:0:0:0:
256,192,217864,1,0,0:0:0:0:
256,192,217943,1,0,0:0:0:0:
256,192,218022,1,0,0:0:0:0:
256,192,218101,1,0,0:0:0:0:
256,192,218180,1,0,0:0:0:0:
256,192,218259,1,8,0:0:0:0:
256,192,218312,1,8,0:0:0:0:
256,192,218364,1,8,0:0:0:0:
256,192,218417,1,8,0:0:0:0:
256,192,218470,1,8,0:0:0:0:
256,192,218522,1,8,0:0:0:0:
256,192,218575,1,0,0:0:0:0:
256,192,218891,1,8,0:0:0:0:
256,192,218970,1,8,0:0:0:0:
256,192,219049,1,8,0:0:0:0:
256,192,219127,1,8,0:0:0:0:
256,192,219206,1,0,0:0:0:0:
256,192,219285,1,0,0:0:0:0:
256,192,219364,1,0,0:0:0:0:
256,192,219522,1,0,0:0:0:0:
256,192,219680,1,8,0:0:0:0:
256,192,219838,1,4,0:0:0:0:
256,192,220075,1,4,0:0:0:0:
256,192,220312,1,4,0:0:0:0:
256,192,220549,1,4,0:0:0:0:
256,192,220785,1,0,0:0:0:0:
256,192,221101,1,4,0:0:0:0:
256,192,221338,1,4,0:0:0:0:
256,192,221575,1,4,0:0:0:0:
256,192,221812,1,4,0:0:0:0:
256,192,222049,1,8,0:0:0:0:
256,192,222364,1,4,0:0:0:0:
256,192,222838,1,0,0:0:0:0:
256,192,223312,1,0,0:0:0:0:
256,192,223785,1,8,0:0:0:0:
256,192,224259,1,8,0:0:0:0:
256,192,224891,1,0,0:0:0:0:
256,192,225364,1,0,0:0:0:0:
256,192,225838,1,0,0:0:0:0:
256,192,226312,1,0,0:0:0:0:
256,192,226785,1,8,0:0:0:0:
256,192,227417,1,0,0:0:0:0:
256,192,227891,1,0,0:0:0:0:
256,192,228364,1,0,0:0:0:0:
256,192,228838,1,0,0:0:0:0:
256,192,229312,1,8,0:0:0:0:
256,192,229943,1,0,0:0:0:0:
256,192,230417,1,0,0:0:0:0:
256,192,231206,1,8,0:0:0:0:
256,192,231680,1,8,0:0:0:0:
256,192,232470,1,0,0:0:0:0:
256,192,233417,1,8,0:0:0:0:
256,192,233575,1,8,0:0:0:0:
256,192,234996,1,0,0:0:0:0:
256,192,235470,1,0,0:0:0:0:
256,192,235943,1,0,0:0:0:0:
256,192,236417,1,0,0:0:0:0:
256,192,236891,1,8,0:0:0:0:
256,192,237522,1,0,0:0:0:0:
256,192,238470,1,8,0:0:0:0:
256,192,238627,1,8,0:0:0:0:
256,192,240049,1,0,0:0:0:0:
256,192,240522,1,0,0:0:0:0:
256,192,240996,1,0,0:0:0:0:
256,192,241470,1,0,0:0:0:0:
256,192,241943,1,0,0:0:0:0:
