osu file format v14

[General]
AudioFilename: dualive2.mp3
AudioLeadIn: 0
PreviewTime: 302052
Countdown: 0
SampleSet: Soft
StackLeniency: 0.2
Mode: 0
LetterboxInBreaks: 0
WidescreenStoryboard: 0

[Editor]
Bookmarks: 13341,46025,61183,81394,169815,310973,311604,323920
DistanceSpacing: 0.3
BeatDivisor: 4
GridSize: 32
TimelineZoom: 3.399999

[Metadata]
Title:Intro + Dualive
TitleUnicode:Intro + Dualive
Artist:Quarks (kradness x Camellia)
ArtistUnicode:Quarks (kradness×Camellia)
Creator:Monarch
Version:Dual + Life
Source:
Tags:Camellia kradness hardcore dubstep drumstep beako cametek kamelcamellia jcore glitch hop azer かめりあ MIRA
BeatmapID:1839701
BeatmapSetID:455638

[Difficulty]
HPDrainRate:5
CircleSize:4
OverallDifficulty:9
ApproachRate:9.6
SliderMultiplier:2.1
SliderTickRate:1

[Events]
//Background and Video events
0,0,"background.jpg",0,0
//Break Periods
//Storyboard Layer 0 (Background)
//Storyboard Layer 1 (Fail)
//Storyboard Layer 2 (Pass)
//Storyboard Layer 3 (Foreground)
//Storyboard Sound Samples

[TimingPoints]
1264,315.789473684211,4,2,1,20,1,0
1421,-200,4,2,1,20,0,0
6474,-200,4,2,1,25,0,0
11527,-200,4,2,1,30,0,0
16579,-200,4,2,1,35,0,0
19579,-200,4,2,1,40,0,0
19895,-200,4,2,1,45,0,0
20211,-200,4,2,1,50,0,0
20527,-200,4,2,1,55,0,0
20842,-200,4,2,1,60,0,0
21158,-200,4,2,1,65,0,0
21474,-200,4,2,1,50,0,0
41685,-200,4,2,1,60,0,0
51790,-166.666666666667,4,2,1,70,0,0
53053,-142.857142857143,4,2,1,70,0,0
54316,-125,4,2,1,70,0,0
55579,-111.111111111111,4,2,1,70,0,0
56842,-111.111111111111,4,2,1,70,0,0
59369,-100,4,2,1,80,0,0
60632,-100,4,2,1,90,0,0
61264,-100,4,2,1,60,0,0
61816,-100,4,2,1,5,0,0
61895,-200,4,2,1,80,0,0
82106,-200,4,2,1,85,0,0
102316,-200,4,1,1,80,0,0
102474,-200,4,2,1,70,0,0
104369,-200,4,2,1,60,0,0
105632,-200,4,2,1,50,0,0
106895,-200,4,2,1,40,0,0
112106,-100,4,2,2,50,0,0
112421,-133.333333333333,4,2,1,40,0,0
123790,-133.333333333333,4,2,1,40,0,0
127579,-133.333333333333,4,2,1,50,0,0
128842,-133.333333333333,4,2,1,60,0,0
130106,-133.333333333333,4,2,1,70,0,0
132552,-133.333333333333,4,2,1,10,0,0
132632,-133.333333333333,4,2,1,80,0,0
132711,-133.333333333333,4,2,1,60,0,0
137053,-133.333333333333,4,2,1,80,0,0
137685,-133.333333333333,4,2,1,60,0,0
142737,-200,4,2,1,60,0,0
144000,-200,4,2,1,62,0,0
145264,-200,4,2,1,64,0,0
146527,-200,4,2,1,66,0,0
147790,-200,4,2,1,68,0,0
149053,-200,4,2,1,70,0,0
150316,-200,4,2,1,80,0,0
150632,-200,4,2,1,82,0,0
150948,-200,4,2,1,84,0,0
151263,-100,4,2,1,86,0,0
151579,-100,4,2,1,70,0,0
151737,-100,4,2,1,60,0,0
152842,-100,4,2,1,75,0,0
157264,-100,4,2,1,65,0,0
157895,-100,4,2,1,80,0,0
160421,-100,4,2,1,70,0,0
161408,-100,4,2,1,50,0,0
161684,-100,4,2,1,65,0,0
162632,-100,4,2,1,55,0,0
162948,-66.6666666666667,4,2,1,80,0,1
163263,-100,4,2,1,80,0,1
163894,-66.6666666666667,4,2,1,80,0,1
164526,-100,4,2,1,80,0,1
166420,-66.6666666666667,4,2,1,80,0,1
166736,-100,4,2,1,80,0,1
167999,-66.6666666666667,4,2,1,80,0,1
168315,-100,4,2,1,80,0,1
168947,-66.6666666666667,4,2,1,80,0,1
169578,-100,4,2,1,80,0,1
170527,-100,4,2,1,80,0,0
173053,-66.6666666666667,4,2,1,80,0,1
173368,-100,4,2,1,80,0,1
174000,-66.6666666666667,4,2,1,80,0,1
174631,-100,4,2,1,80,0,1
176526,-66.6666666666667,4,2,1,80,0,1
176841,-100,4,2,1,80,0,1
178105,-66.6666666666667,4,2,1,80,0,1
179368,-100,4,2,1,80,0,1
179684,-66.6666666666667,4,2,1,80,0,1
180315,-100,4,2,1,80,0,1
180632,-100,4,2,1,80,0,0
181894,-66.6666666666667,4,2,1,80,0,0
183158,-66.6666666666667,4,2,1,80,0,1
183473,-100,4,2,1,80,0,1
184105,-66.6666666666667,4,2,1,80,0,1
184736,-100,4,2,1,80,0,1
186631,-66.6666666666667,4,2,1,80,0,1
186947,-100,4,2,1,80,0,1
188210,-66.6666666666667,4,2,1,80,0,1
188526,-100,4,2,1,80,0,1
189157,-66.6666666666667,4,2,1,80,0,1
189789,-100,4,2,1,80,0,1
190658,-100,4,2,1,80,0,1
190737,-66.6666666666667,4,2,1,90,0,1
191606,-66.6666666666667,4,2,1,90,0,1
191685,-66.6666666666667,4,2,1,90,0,1
191921,-66.6666666666667,4,2,1,90,0,1
192000,-66.6666666666667,4,2,1,90,0,1
192868,-66.6666666666667,4,2,1,90,0,1
192947,-66.6666666666667,4,2,1,90,0,1
193578,-100,4,2,1,80,0,1
194210,-66.6666666666667,4,2,1,80,0,1
194841,-100,4,2,1,80,0,1
196736,-66.6666666666667,4,2,1,80,0,1
197052,-100,4,2,1,80,0,1
198315,-66.6666666666667,4,2,1,80,0,1
200841,-100,4,2,1,80,0,1
200999,-100,4,2,1,70,0,1
202105,-100,4,2,1,60,0,1
203052,-66.6666666666667,4,2,1,80,0,1
203369,-100,4,2,1,70,0,0
218526,-66.6666666666667,4,2,1,70,0,0
219473,-100,4,2,1,70,0,0
219789,-66.6666666666667,4,2,1,70,0,0
221052,-100,4,2,1,70,0,0
221131,-100,4,2,1,50,0,0
222315,-100,4,2,1,70,0,0
223263,-100,4,2,1,70,0,0
223578,-200,4,2,1,55,0,0
233684,-66.6666666666667,4,2,1,60,0,0
234947,-66.6666666666667,4,2,1,60,0,0
238736,-57.1428571428571,4,2,1,70,0,0
241263,-100,4,2,1,90,0,0
241894,-100,4,2,1,60,0,0
242526,-100,4,2,1,60,0,0
243394,-100,4,2,1,70,0,0
243473,-100,4,2,2,100,0,0
243790,-66.6666666666667,4,2,19,100,0,1
244026,-66.6666666666667,4,2,17,100,0,1
244263,-66.6666666666667,4,2,13,100,0,1
244500,-66.6666666666667,4,2,10,100,0,1
244658,-66.6666666666667,4,2,12,100,0,1
244737,-66.6666666666667,4,2,15,100,0,1
244894,-66.6666666666667,4,2,12,100,0,1
244973,-66.6666666666667,4,2,14,100,0,1
245052,-66.6666666666667,4,2,19,100,0,1
245289,-66.6666666666667,4,2,17,100,0,1
245526,-66.6666666666667,4,2,21,100,0,1
245763,-66.6666666666667,4,2,20,100,0,1
245921,-66.6666666666667,4,2,19,100,0,1
246158,-66.6666666666667,4,2,17,100,0,1
246316,-66.6666666666667,4,2,19,100,0,1
246552,-66.6666666666667,4,2,17,100,0,1
246789,-66.6666666666667,4,2,13,100,0,1
247026,-66.6666666666667,4,2,10,100,0,1
247184,-66.6666666666667,4,2,12,100,0,1
247263,-66.6666666666667,4,2,15,100,0,1
247421,-66.6666666666667,4,2,12,100,0,1
247500,-66.6666666666667,4,2,14,100,0,1
247579,-66.6666666666667,4,2,19,100,0,1
247816,-66.6666666666667,4,2,17,100,0,1
248052,-66.6666666666667,4,2,21,100,0,1
248289,-66.6666666666667,4,2,20,100,0,1
248368,-66.6666666666667,4,2,22,100,0,1
248447,-66.6666666666667,4,2,16,100,0,1
248526,-66.6666666666667,4,2,18,100,0,1
248605,-66.6666666666667,4,2,16,100,0,1
248684,-66.6666666666667,4,2,12,100,0,1
248763,-66.6666666666667,4,2,10,100,0,1
248842,-66.6666666666667,4,2,26,100,0,1
249079,-66.6666666666667,4,2,17,100,0,1
249316,-66.6666666666667,4,2,19,100,0,1
249552,-66.6666666666667,4,2,18,100,0,1
249710,-66.6666666666667,4,2,21,100,0,1
249947,-66.6666666666667,4,2,20,100,0,1
250026,-66.6666666666667,4,2,22,100,0,1
250105,-66.6666666666667,4,2,26,100,0,1
250342,-66.6666666666667,4,2,17,100,0,1
250579,-66.6666666666667,4,2,19,100,0,1
250816,-66.6666666666667,4,2,18,100,0,1
250973,-66.6666666666667,4,2,21,100,0,1
251210,-66.6666666666667,4,2,18,100,0,1
251289,-66.6666666666667,4,2,20,100,0,1
251368,-66.6666666666667,4,2,17,100,0,1
251605,-66.6666666666667,4,2,26,100,0,1
251842,-66.6666666666667,4,2,23,100,0,1
252079,-66.6666666666667,4,2,20,100,0,1
252158,-66.6666666666667,4,2,22,100,0,1
252237,-66.6666666666667,4,2,16,100,0,1
252316,-66.6666666666667,4,2,25,100,0,1
252394,-66.6666666666667,4,2,22,100,0,1
252473,-66.6666666666667,4,2,20,100,0,1
252552,-66.6666666666667,4,2,18,100,0,1
252631,-66.6666666666667,4,2,26,100,0,1
252868,-66.6666666666667,4,2,27,100,0,1
253105,-66.6666666666667,4,2,28,100,0,1
253184,-66.6666666666667,4,2,29,100,0,1
253263,-66.6666666666667,4,2,30,100,0,1
253342,-66.6666666666667,4,2,25,100,0,1
253421,-66.6666666666667,4,2,24,100,0,1
253500,-66.6666666666667,4,2,22,100,0,1
253578,-100,4,2,20,100,0,1
253658,-100,4,2,18,100,0,1
253737,-100,4,2,16,100,0,1
253894,-66.6666666666667,4,2,19,100,0,1
254131,-66.6666666666667,4,2,17,100,0,1
254368,-66.6666666666667,4,2,13,100,0,1
254605,-66.6666666666667,4,2,10,100,0,1
254763,-66.6666666666667,4,2,12,100,0,1
254842,-66.6666666666667,4,2,15,100,0,1
255000,-66.6666666666667,4,2,12,100,0,1
255079,-66.6666666666667,4,2,14,100,0,1
255158,-66.6666666666667,4,2,19,100,0,1
255394,-66.6666666666667,4,2,17,100,0,1
255631,-66.6666666666667,4,2,21,100,0,1
255868,-66.6666666666667,4,2,20,100,0,1
255947,-66.6666666666667,4,2,22,100,0,1
256026,-66.6666666666667,4,2,19,100,0,1
256263,-66.6666666666667,4,2,17,100,0,1
256421,-66.6666666666667,4,2,19,100,0,1
256658,-66.6666666666667,4,2,17,100,0,1
256894,-66.6666666666667,4,2,13,100,0,1
257131,-66.6666666666667,4,2,10,100,0,1
257289,-66.6666666666667,4,2,12,100,0,1
257368,-66.6666666666667,4,2,15,100,0,1
257526,-66.6666666666667,4,2,12,100,0,1
257605,-66.6666666666667,4,2,14,100,0,1
257684,-66.6666666666667,4,2,19,100,0,1
257921,-66.6666666666667,4,2,17,100,0,1
258158,-66.6666666666667,4,2,21,100,0,1
258394,-66.6666666666667,4,2,20,100,0,1
258473,-66.6666666666667,4,2,22,100,0,1
258552,-66.6666666666667,4,2,16,100,0,1
258631,-66.6666666666667,4,2,18,100,0,1
258710,-66.6666666666667,4,2,16,100,0,1
258789,-66.6666666666667,4,2,12,100,0,1
258868,-66.6666666666667,4,2,10,100,0,1
258947,-66.6666666666667,4,2,26,100,0,1
259184,-66.6666666666667,4,2,17,100,0,1
259421,-66.6666666666667,4,2,19,100,0,1
259578,-66.6666666666667,4,2,1,100,0,1
260131,-66.6666666666667,4,2,1,100,0,1
260210,-66.6666666666667,4,2,26,100,0,1
260447,-66.6666666666667,4,2,17,100,0,1
260684,-66.6666666666667,4,2,19,100,0,1
260841,-66.6666666666667,4,2,1,100,0,1
261394,-66.6666666666667,4,2,1,100,0,1
261473,-66.6666666666667,4,2,1,90,0,1
261579,-66.6666666666667,4,2,1,40,0,1
261947,-66.6666666666667,4,2,20,50,0,1
262026,-66.6666666666667,4,2,22,60,0,1
262184,-66.6666666666667,4,2,20,70,0,1
262263,-66.6666666666667,4,2,22,80,0,1
262420,-100,4,2,1,80,0,1
262500,-100,4,2,25,80,0,1
262579,-100,4,2,22,90,0,1
262657,-100,4,2,20,100,0,1
262736,-66.6666666666667,4,2,26,100,0,1
262894,-66.6666666666667,4,2,1,100,0,1
262973,-66.6666666666667,4,2,27,100,0,1
263131,-66.6666666666667,4,2,1,100,0,1
263210,-66.6666666666667,4,2,28,100,0,1
263289,-66.6666666666667,4,2,29,100,0,1
263368,-66.6666666666667,4,2,30,100,0,1
263447,-66.6666666666667,4,2,25,100,0,1
263526,-66.6666666666667,4,2,24,100,0,1
263605,-66.6666666666667,4,2,1,100,0,1
263684,-66.6666666666667,4,2,22,100,0,1
263763,-66.6666666666667,4,2,20,100,0,1
263842,-66.6666666666667,4,2,18,100,0,1
263921,-66.6666666666667,4,2,16,100,0,1
264000,-100,4,2,1,90,0,0
273789,-66.6666666666667,4,2,1,90,0,0
274105,-100,4,2,1,90,0,0
278526,-100,4,2,1,70,0,0
279157,-100,4,2,1,80,0,0
282947,-100,4,2,1,70,0,0
283263,-100,4,2,1,60,0,0
283894,-100,4,2,2,60,0,0
284210,-200,4,2,1,70,0,0
293684,-133.333333333333,4,2,1,70,0,0
294315,-100,4,2,1,70,0,0
299368,-66.6666666666667,4,2,1,60,0,0
300631,-66.6666666666667,4,2,1,70,0,0
301894,-66.6666666666667,4,2,1,70,0,0
302526,-66.6666666666667,4,2,1,75,0,0
302881,-66.6666666666667,4,2,1,40,0,0
303158,-66.6666666666667,4,2,1,70,0,0
304105,-66.6666666666667,4,2,1,60,0,0
304420,-100,4,2,1,70,0,0
304737,-66.6666666666667,4,2,1,80,0,1
305052,-100,4,2,1,80,0,1
305368,-66.6666666666667,4,2,1,80,0,1
306315,-100,4,2,1,80,0,1
307894,-66.6666666666667,4,2,1,80,0,1
308210,-100,4,2,1,60,0,1
308841,-100,4,2,1,80,0,1
309473,-66.6666666666667,4,2,1,80,0,1
311368,-100,4,2,1,80,0,1
312000,-100,4,2,1,80,0,0
313263,-66.6666666666667,4,2,1,80,0,0
314368,-100,4,2,1,80,0,0
314527,-66.6666666666667,4,2,1,80,0,1
315157,-100,4,2,1,80,0,1
315473,-66.6666666666667,4,2,1,80,0,1
316420,-100,4,2,1,80,0,1
317999,-66.6666666666667,4,2,1,80,0,1
318315,-100,4,2,1,60,0,1
318947,-100,4,2,1,80,0,1
319578,-66.6666666666667,4,2,1,80,0,1
320210,-100,4,2,1,80,0,1
320526,-66.6666666666667,4,2,1,80,0,1
321473,-100,4,2,1,80,0,1
322105,-66.6666666666667,4,2,1,80,0,1
323052,-66.6666666666667,4,2,1,80,0,1
323368,-66.6666666666667,4,2,1,80,0,1
324315,-66.6666666666667,4,2,1,70,0,1
324394,-66.6666666666667,4,2,1,80,0,1
324473,-66.6666666666667,4,2,1,90,0,1
324552,-66.6666666666667,4,2,1,100,0,1
324632,-200,4,2,1,75,0,0
324710,-200,4,2,1,60,0,0
327157,-200,4,2,1,50,0,0
332210,-200,4,2,1,40,0,0
337263,-200,4,2,1,30,0,0
342315,-200,4,2,1,20,0,0

[Colours]
Combo1 : 221,221,221
Combo2 : 3,241,241
Combo3 : 99,16,237
Combo4 : 243,147,16
Combo5 : 234,38,141
Combo6 : 149,39,222

[HitObjects]
339,264,1421,6,0,P|375:295|451:295,1,105,2|0,0:0|0:0,0:0:0:0:
471,204,2053,2,0,P|435:173|359:173,1,105,2|0,0:0|0:0,0:0:0:0:
301,236,2685,6,0,L|313:348,1,105,2|2,0:0|0:0,0:0:0:0:
207,350,3316,2,0,L|195:238,1,105,2|0,0:0|0:0,0:0:0:0:
232,146,3948,6,0,P|182:171|123:156,1,105,2|0,0:0|0:0,0:0:0:0:
119,60,4579,2,0,P|168:34|227:49,1,105,2|0,0:0|0:0,0:0:0:0:
289,117,5211,6,0,L|278:245,1,105,2|2,0:0|0:0,0:0:0:0:
384,232,5842,2,0,L|395:104,1,105,2|0,0:0|0:0,0:0:0:0:
289,117,6474,6,0,L|278:245,1,105,2|0,0:0|0:0,0:0:0:0:
384,232,7106,2,0,L|395:104,1,105,2|0,0:0|0:0,0:0:0:0:
332,41,7737,6,0,P|281:17|223:31,1,105,2|2,0:0|0:0,0:0:0:0:
159,98,8369,2,0,P|107:104|61:81,1,105,2|0,0:0|0:0,0:0:0:0:
63,208,9000,6,0,P|114:184|172:198,1,105,2|0,0:0|0:0,0:0:0:0:
236,265,9632,2,0,P|287:271|333:248,1,105,2|0,0:0|0:0,0:0:0:0:
379,153,10264,6,0,L|367:31,1,105,2|2,0:0|0:0,0:0:0:0:
264,62,10895,2,0,L|276:184,1,105,2|0,0:0|0:0,0:0:0:0:
379,153,11527,6,0,L|367:31,1,105,2|0,0:0|0:0,0:0:0:0:
264,62,12158,2,0,L|276:184,1,105,2|0,0:0|0:0,0:0:0:0:
248,268,12790,6,0,P|202:306|138:302,1,105,2|2,0:0|0:0,0:0:0:0:
113,214,13421,2,0,P|158:175|222:179,1,105,2|0,0:0|0:0,0:0:0:0:
304,199,14053,6,0,L|416:225,1,105,2|0,0:0|0:0,0:0:0:0:
433,120,14685,2,0,L|321:94,1,105,2|0,0:0|0:0,0:0:0:0:
227,117,15316,6,0,P|192:154|189:220,1,105,2|2,0:0|0:0,0:0:0:0:
282,245,15948,2,0,P|317:208|320:142,1,105,2|0,0:0|0:0,0:0:0:0:
227,117,16579,6,0,P|192:154|189:220,1,105,2|0,0:0|0:0,0:0:0:0:
282,245,17211,2,0,P|317:208|320:142,1,105,2|0,0:0|0:0,0:0:0:0:
271,64,17842,6,0,L|153:55,1,105,2|2,0:0|0:0,0:0:0:0:
159,161,18474,2,0,L|277:170,1,105,2|0,0:0|0:0,0:0:0:0:
360,127,19106,6,0,P|340:185|357:235,1,105,2|0,0:0|0:0,0:0:0:0:
407,275,19579,2,0,L|446:272,7,26.25,0|0|2|0|0|0|0|0,0:0|0:0|0:0|0:0|0:0|0:0|0:0|0:0,0:0:0:0:
439,272,20211,5,0,0:0:0:0:
429,247,20290,1,0,0:0:0:0:
425,220,20369,1,2,0:0:0:0:
427,193,20448,1,0,0:0:0:0:
436,167,20527,1,0,0:0:0:0:
446,141,20606,1,0,0:0:0:0:
452,112,20685,1,2,0:0:0:0:
450,83,20764,1,0,0:0:0:0:
442,51,20842,1,0,0:0:0:0:
421,23,20921,1,0,0:0:0:0:
390,5,21000,1,0,0:0:0:0:
353,1,21079,1,0,0:0:0:0:
316,13,21158,1,2,0:0:0:0:
286,39,21237,1,0,0:0:0:0:
273,77,21316,1,0,0:0:0:0:
272,119,21395,1,0,0:0:0:0:
277,161,21474,6,0,L|298:328,1,157.5,4|0,3:2|0:0,0:0:0:0:
383,224,22106,2,0,P|413:219|445:226,2,52.5,8|2|2,0:3|0:0|0:0,0:0:0:0:
297,317,22579,1,2,0:0:0:0:
297,317,22737,6,0,P|232:349|151:314,1,157.5
98,207,23369,2,0,P|56:193|41:193,2,52.5,8|2|2,0:3|0:0|0:0,0:0:0:0:
156,320,23842,1,2,0:0:0:0:
156,320,24000,6,0,L|141:149,1,157.5
261,57,24632,2,0,L|255:120,1,52.5,8|2,0:3|0:0,0:0:0:0:
261,57,25106,6,0,L|271:178,1,105,2|0,0:0|0:0,0:0:0:0:
261,57,25737,2,0,L|276:116,1,52.5,2|8,0:0|0:3,0:0:0:0:
314,228,26053,2,0,L|192:217,1,105,2|0,0:0|0:0,0:0:0:0:
60,138,26527,6,0,P|21:205|49:290,1,157.5,2|0,0:0|0:0,0:0:0:0:
139,356,27158,2,0,L|202:350,2,52.5,8|2|2,0:3|0:0|0:0,0:0:0:0:
39,278,27632,1,2,0:0:0:0:
39,278,27790,6,0,B|113:271|113:271|140:284|140:284|202:278,1,157.5
294,202,28421,2,0,L|346:206,2,52.5,8|2|2,0:3|0:0|0:0,0:0:0:0:
192,278,28895,1,2,0:0:0:0:
192,278,29053,6,0,P|254:239|248:147,1,157.5
167,71,29685,2,0,L|172:135,1,52.5,8|2,0:3|0:0,0:0:0:0:
167,71,30158,6,0,L|156:193,1,105,2|0,0:0|0:0,0:0:0:0:
167,71,30790,2,0,L|151:130,1,52.5,2|8,0:0|0:3,0:0:0:0:
119,244,31106,2,0,L|239:233,1,105,2|0,0:0|0:0,0:0:0:0:
414,220,31579,6,0,P|435:140|386:90,1,157.5,2|0,0:0|0:0,0:0:0:0:
414,220,32211,2,0,P|444:243|467:251,2,52.5,8|2|2,0:3|0:0|0:0,0:0:0:0:
388,90,32685,1,2,0:0:0:0:
388,90,32842,6,0,L|373:256,1,157.5,0|0,0:0|0:3,0:0:0:0:
295,346,33474,2,0,P|267:352|229:340,2,52.5,8|2|2,0:3|0:0|0:0,0:0:0:0:
373,246,33948,1,2,0:0:0:0:
373,246,34106,6,0,B|319:250|319:250|270:235|270:235|208:241,1,157.5,0|0,0:0|0:0,0:0:0:0:
141,123,34737,2,0,P|174:111|204:113,1,52.5,8|2,0:3|0:0,0:0:0:0:
141,123,35211,6,0,P|196:102|252:110,1,105,2|0,0:0|0:0,0:0:0:0:
141,123,35842,2,0,P|169:99|202:89,1,52.5,2|8,0:0|0:3,0:0:0:0:
130,208,36158,2,0,L|119:87,1,105,2|0,0:0|0:0,0:0:0:0:
305,44,36632,6,0,B|329:73|329:73|318:203,1,157.5,2|0,0:0|0:0,0:0:0:0:
224,277,37264,2,0,P|190:286|157:278,2,52.5,8|2|2,0:3|0:0|0:0,0:0:0:0:
318,192,37737,1,2,0:0:0:0:
318,192,37895,6,0,P|276:157|183:206,1,157.5,0|0,0:0|0:0,0:0:0:0:
97,279,38527,2,0,P|67:290|26:288,2,52.5,8|2|2,0:3|0:0|0:0,0:0:0:0:
189,191,39000,1,2,0:0:0:0:
189,191,39158,6,0,L|173:23,1,157.5,0|2,0:0|0:0,0:0:0:0:
59,89,39790,2,0,P|73:120|96:140,1,52.5,8|2,0:3|0:0,0:0:0:0:
59,89,40264,6,0,P|83:142|127:175,1,105,2|0,0:0|0:0,0:0:0:0:
59,89,40895,2,0,P|72:146|111:187,2,105,2|2|0,0:0|0:0|0:0,0:0:0:0:
227,30,41685,6,0,L|212:198,1,157.5,4|0,3:2|0:0,0:0:0:0:
418,138,42316,2,0,L|412:72,2,52.5,8|2|2,3:3|0:0|0:0,0:0:0:0:
295,105,42790,1,2,0:0:0:0:
486,18,42948,6,0,L|500:186,1,157.5,0|0,3:0|0:0,0:0:0:0:
295,126,43579,2,0,L|300:60,2,52.5,8|2|2,3:3|0:0|0:0,0:0:0:0:
418,93,44053,1,2,0:0:0:0:
221,15,44211,6,0,P|170:12|96:101,1,157.5,0|2,3:0|0:0,0:0:0:0:
79,292,44842,2,0,L|83:348,2,52.5,8|2|2,3:0|0:0|0:0,0:0:0:0:
70,164,45316,1,2,0:0:0:0:
196,332,45474,6,0,P|247:335|321:246,1,157.5,0|0,3:0|0:0,0:0:0:0:
338,55,46106,2,0,L|333:-1,2,52.5,8|2|2,3:0|0:0|0:0,0:0:0:0:
348,182,46579,1,2,0:0:0:0:
183,56,46737,6,0,B|249:50|249:50|286:59|286:59|349:54,1,157.5,0|0,3:0|0:0,0:0:0:0:
312,270,47369,1,8,3:0:0:0:
239,226,47527,2,0,P|230:201|227:153,1,52.5,2|2,0:0|0:0,0:0:0:0:
249,51,47842,1,2,0:0:0:0:
315,263,48000,6,0,B|261:266|261:266|213:250|213:250|151:256,1,157.5,0|0,3:0|0:0,0:0:0:0:
343,361,48632,1,8,3:0:0:0:
392,289,48790,2,0,P|396:257|382:219,1,52.5,2|2,0:0|0:0,0:0:0:0:
304,146,49106,1,2,0:0:0:0:
138,277,49264,6,0,L|296:263,1,157.5,0|0,3:0|0:0,0:0:0:0:
504,244,49895,1,8,3:0:0:0:
423,219,50053,2,0,L|416:288,1,52.5,2|2,0:0|0:0,0:0:0:0:
494,372,50369,1,2,0:0:0:0:
507,160,50527,6,0,L|349:174,1,157.5,0|0,3:0|0:0,0:0:0:0:
140,186,51158,1,8,3:0:0:0:
215,228,51316,2,0,L|221:155,1,52.5,2|2,0:0|0:0,0:0:0:0:
233,48,51632,1,2,0:0:0:0:
253,298,51790,6,0,L|259:374,1,62.9999980773926,0|0,3:0|0:0,0:0:0:0:
180,225,52106,2,0,L|174:149,1,62.9999980773926,0|0,3:0|0:0,0:0:0:0:
269,299,52421,2,0,L|254:383,1,62.9999980773926,8|0,3:0|0:0,0:0:0:0:
163,225,52737,2,0,L|178:141,1,62.9999980773926,0|0,3:0|0:0,0:0:0:0:
294,297,53053,6,0,L|249:376,1,73.4999977569581,0|0,3:0|0:0,0:0:0:0:
137,227,53369,2,0,L|182:148,1,73.4999977569581,0|0,3:0|0:0,0:0:0:0:
322,325,53685,2,0,L|255:363,1,73.4999977569581,8|0,3:0|0:0,0:0:0:0:
110,200,54000,2,0,L|177:162,1,73.4999977569581,0|0,3:0|0:0,0:0:0:0:
412,186,54316,6,0,P|370:212|325:208,1,84,0|0,3:0|0:0,0:0:0:0:
285,47,54632,2,0,P|327:21|372:25,1,84,0|0,3:0|0:0,0:0:0:0:
233,212,54948,2,0,P|191:209|157:186,1,84,8|0,3:0|0:0,0:0:0:0:
210,22,55264,2,0,P|251:24|285:47,1,84,0|0,3:0|0:0,0:0:0:0:
138,263,55579,6,0,L|149:161,1,94.499997116089,0|0,3:0|0:0,0:0:0:0:
416,77,55895,2,0,L|405:179,1,94.499997116089,0|0,3:0|0:0,0:0:0:0:
130,268,56211,2,0,L|141:166,1,94.499997116089,8|0,3:0|0:0,0:0:0:0:
408,82,56527,2,0,L|397:184,1,94.499997116089,0|0,3:0|0:0,0:0:0:0:
198,343,56842,5,8,0:0:0:0:
217,154,57000,1,8,0:0:0:0:
338,311,57158,1,8,0:0:0:0:
145,231,57316,1,8,0:0:0:0:
341,138,57474,1,10,0:0:0:0:
249,345,57632,1,8,0:0:0:0:
157,127,57790,1,8,0:0:0:0:
381,226,57948,1,8,0:0:0:0:
129,268,58106,5,8,0:0:0:0:
388,217,58264,1,8,0:0:0:0:
159,365,58421,1,8,0:0:0:0:
211,86,58579,1,8,0:0:0:0:
375,330,58737,1,10,0:0:0:0:
97,209,58895,1,8,0:0:0:0:
400,134,59053,1,8,0:0:0:0:
160,348,59211,1,8,0:0:0:0:
182,104,59369,5,8,3:2:0:0:
186,78,59448,1,8,0:0:0:0:
191,52,59527,2,8,L|201:-26,1,52.5,8|8,0:0|0:0,0:0:0:0:
320,159,59685,1,8,3:2:0:0:
316,133,59764,1,8,0:0:0:0:
311,107,59842,2,8,L|301:29,1,52.5,8|8,0:0|0:0,0:0:0:0:
139,220,60000,5,10,3:2:0:0:
143,194,60079,1,8,0:0:0:0:
148,168,60158,2,8,L|158:90,1,52.5,8|8,0:0|0:0,0:0:0:0:
358,285,60316,1,8,3:2:0:0:
354,259,60395,1,8,0:0:0:0:
349,233,60474,2,8,L|339:155,1,52.5,8|8,0:0|0:0,0:0:0:0:
93,338,60632,5,8,3:2:0:0:
97,312,60711,1,8,0:0:0:0:
102,286,60790,2,8,L|112:208,1,52.5,8|8,0:0|0:0,0:0:0:0:
424,384,60948,1,10,3:2:0:0:
420,358,61027,1,8,0:0:0:0:
415,332,61106,2,8,L|405:254,1,52.5,8|8,0:0|0:0,0:0:0:0:
383,139,61264,5,8,0:3:0:0:
383,139,61421,1,2,0:3:0:0:
193,221,61579,2,0,L|355:206,1,157.5,4|0,0:3|0:0,0:0:0:0:
383,139,61895,6,0,L|367:311,1,157.5,4|0,1:0|0:0,0:0:0:0:
62,166,62527,1,10,0:2:0:0:
174,141,62685,1,2,0:0:0:0:
198,253,62842,1,2,0:0:0:0:
86,278,63000,1,2,0:0:0:0:
247,179,63158,6,0,L|231:355,1,157.5,0|0,1:0|0:0,0:0:0:0:
471,202,63790,1,10,0:0:0:0:
357,224,63948,1,2,0:0:0:0:
376,337,64106,1,2,0:0:0:0:
490,315,64264,1,2,0:0:0:0:
283,278,64421,6,0,B|237:271|237:271|118:297,1,157.5,0|2,1:0|0:0,0:0:0:0:
346,356,65053,1,10,0:0:0:0:
283,278,65211,2,0,P|269:210|282:159,1,105,2|2,0:0|0:0,0:0:0:0:
433,30,65685,5,0,1:0:0:0:
326,73,65842,2,0,L|197:61,1,105,2|2,0:0|1:2,0:0:0:0:
58,274,66316,1,8,0:0:0:0:
164,229,66474,1,2,0:0:0:0:
116,123,66632,1,0,0:0:0:0:
10,168,66790,1,0,0:0:0:0:
157,328,66948,6,0,P|210:316|259:228,1,157.5,2|0,1:2|0:0,0:0:0:0:
95,40,67579,1,10,0:0:0:0:
78,154,67737,1,2,0:0:0:0:
192,167,67895,1,2,0:0:0:0:
209,53,68053,1,2,0:0:0:0:
22,93,68211,6,0,L|37:270,1,157.5,0|0,1:0|0:0,0:0:0:0:
336,298,68842,1,10,0:0:0:0:
269,203,69000,1,2,0:0:0:0:
175,271,69158,1,2,0:0:0:0:
242,366,69316,1,2,0:0:0:0:
355,211,69474,6,0,P|374:123|341:47,1,157.5,0|2,1:0|0:0,0:0:0:0:
266,273,70106,1,8,0:0:0:0:
355,211,70264,2,0,P|416:198|467:207,1,105,2|2,0:0|0:0,0:0:0:0:
254,178,70737,5,0,1:0:0:0:
166,102,70895,2,0,P|152:42|161:-7,1,105,2|2,0:0|1:2,0:0:0:0:
266,273,71369,1,8,0:0:0:0:
155,308,71527,1,2,0:0:0:0:
125,196,71685,1,0,0:0:0:0:
236,161,71842,1,2,0:0:0:0:
55,288,72000,6,0,P|12:224|33:126,1,157.5,4|0,1:0|0:0,0:0:0:0:
280,24,72632,1,10,0:0:0:0:
262,138,72790,1,2,0:0:0:0:
147,125,72948,1,2,0:0:0:0:
165,11,73106,1,2,0:0:0:0:
371,114,73264,6,0,B|392:136|392:136|379:283,1,157.5,0|0,1:0|0:0,0:0:0:0:
114,365,73895,1,10,0:0:0:0:
132,251,74053,1,2,0:0:0:0:
247,264,74211,1,2,0:0:0:0:
229,378,74369,1,2,0:0:0:0:
206,173,74527,6,0,L|220:3,1,157.5,0|2,1:0|0:0,0:0:0:0:
262,267,75158,1,8,0:0:0:0:
206,173,75316,2,0,L|156:72,1,105,2|2,0:0|0:0,0:0:0:0:
316,160,75790,5,0,1:0:0:0:
206,173,75948,2,0,L|84:192,1,105,2|2,0:0|1:2,0:0:0:0:
380,259,76421,1,8,0:0:0:0:
401,145,76579,1,2,0:0:0:0:
287,123,76737,1,0,0:0:0:0:
266,237,76895,1,0,0:0:0:0:
458,213,77053,6,0,L|443:35,1,157.5,2|0,1:2|0:0,0:0:0:0:
161,146,77685,1,10,0:0:0:0:
269,183,77842,1,2,0:0:0:0:
307,73,78000,1,2,0:0:0:0:
199,36,78158,1,2,0:0:0:0:
225,289,78316,6,0,P|297:294|367:235,1,157.5,0|0,1:0|0:0,0:0:0:0:
438,7,78948,1,10,0:0:0:0:
449,121,79106,1,2,0:0:0:0:
334,133,79264,1,2,0:0:0:0:
323,19,79421,1,2,0:0:0:0:
406,213,79579,6,0,L|391:379,1,157.5,0|2,1:0|0:0,0:0:0:0:
356,116,80211,1,8,0:0:0:0:
406,213,80369,2,0,L|457:322,1,105,2|2,0:0|0:0,0:0:0:0:
288,210,80842,5,0,1:0:0:0:
406,213,81000,2,0,L|519:213,1,105,2|2,0:0|1:2,0:0:0:0:
244,308,81474,1,8,0:0:0:0:
217,195,81632,1,2,0:0:0:0:
329,167,81790,1,0,0:0:0:0:
356,280,81948,1,0,0:0:0:0:
103,213,82106,6,0,P|109:152|194:83,1,157.5,4|0,1:0|0:0,0:0:0:0:
400,247,82737,1,10,0:0:0:0:
285,264,82895,1,2,0:0:0:0:
271,149,83053,1,2,0:0:0:0:
386,132,83211,1,2,0:0:0:0:
309,360,83369,6,0,L|142:345,1,157.5,0|0,1:0|0:0,0:0:0:0:
92,85,84000,1,10,0:0:0:0:
191,143,84158,1,2,0:0:0:0:
127,239,84316,1,2,0:0:0:0:
28,181,84474,1,2,0:0:0:0:
204,46,84632,6,0,P|265:80|283:172,1,157.5,0|2,1:0|0:0,0:0:0:0:
86,0,85264,1,8,0:0:0:0:
204,46,85421,2,0,P|277:58|320:52,1,105,2|2,0:0|0:0,0:0:0:0:
114,94,85895,5,0,1:0:0:0:
204,46,86053,2,0,P|257:42|316:58,1,105,2|2,0:0|1:2,0:0:0:0:
94,249,86527,1,8,0:0:0:0:
44,144,86685,1,2,0:0:0:0:
147,93,86842,1,0,0:0:0:0:
197,198,87000,1,0,0:0:0:0:
60,45,87158,6,0,L|222:59,1,157.5,2|0,1:2|0:0,0:0:0:0:
422,17,87790,1,10,0:0:0:0:
307,32,87948,1,2,0:0:0:0:
324,146,88106,1,2,0:0:0:0:
439,131,88264,1,2,0:0:0:0:
219,136,88421,6,0,L|62:149,1,157.5,0|0,1:0|0:0,0:0:0:0:
208,364,89053,1,10,0:0:0:0:
253,257,89211,1,2,0:0:0:0:
144,216,89369,1,2,0:0:0:0:
99,323,89527,1,2,0:0:0:0:
322,324,89685,6,0,P|349:265|307:177,1,157.5,0|2,1:0|0:0,0:0:0:0:
222,381,90316,1,8,0:0:0:0:
322,324,90474,2,0,P|394:313|434:313,1,105,2|2,0:0|0:0,0:0:0:0:
226,270,90948,5,0,1:0:0:0:
322,324,91106,2,0,P|378:322|428:312,1,105,2|2,0:0|1:2,0:0:0:0:
293,81,91579,1,8,0:0:0:0:
280,195,91737,1,2,0:0:0:0:
394,210,91895,1,0,0:0:0:0:
407,96,92053,1,2,0:1:0:0:
332,277,92211,6,0,P|256:292|189:230,1,157.5,4|0,1:0|0:0,0:0:0:0:
337,19,92842,1,10,0:0:0:0:
351,133,93000,1,2,0:0:0:0:
236,151,93158,1,2,0:0:0:0:
222,37,93316,1,2,0:0:0:0:
405,73,93474,6,0,L|389:246,1,157.5,0|0,1:0|0:0,0:0:0:0:
179,360,94106,1,10,0:2:0:0:
207,247,94264,1,2,0:1:0:0:
319,271,94421,1,2,0:1:0:0:
291,384,94579,1,2,0:0:0:0:
137,289,94737,6,0,L|152:111,1,157.5,0|2,1:0|1:1,0:0:0:0:
199,371,95369,1,8,0:0:0:0:
137,289,95527,2,0,P|89:267|25:274,1,105,2|2,0:0|0:1,0:0:0:0:
237,232,96000,5,0,1:0:0:0:
137,289,96158,2,0,P|85:291|37:269,1,105,2|2,0:0|1:2,0:0:0:0:
131,19,96632,1,8,0:0:0:0:
145,123,96790,1,2,0:0:0:0:
41,139,96948,1,0,0:0:0:0:
27,35,97106,1,0,0:0:0:0:
212,56,97264,6,0,L|381:70,1,157.5,2|0,1:2|0:0,0:0:0:0:
241,278,97895,1,8,0:0:0:0:
231,183,98053,1,2,0:1:0:0:
325,173,98211,1,2,0:1:0:0:
335,268,98369,1,2,0:0:0:0:
157,223,98527,6,0,P|151:161|228:101,1,157.5,0|0,1:0|0:0,0:0:0:0:
454,199,99158,1,8,0:0:0:0:
359,208,99316,1,2,0:1:0:0:
349,113,99474,1,2,0:1:0:0:
444,104,99632,1,2,0:0:0:0:
284,168,99790,6,0,L|297:10,1,157.5,0|2,1:0|0:1,0:0:0:0:
327,261,100421,1,8,0:0:0:0:
284,168,100579,2,0,P|248:119|209:94,1,105,2|2,0:0|0:1,0:0:0:0:
385,184,101053,5,0,1:0:0:0:
284,168,101211,2,0,P|241:138|211:95,1,105,2|2,0:1|0:1,0:0:0:0:
211,95,101842,2,0,P|163:52|82:63,1,131.25,2|0,0:1|0:0,0:0:0:0:
83,66,102316,5,4,0:0:0:0:
11,150,102474,6,0,B|21:271,1,105,2|0,0:1|0:0,0:0:0:0:
213,374,103106,2,0,P|264:383|325:364,1,105,2|0,0:1|0:0,0:0:0:0:
376,321,103579,5,0,0:0:0:0:
395,197,103737,2,0,L|412:83,1,105,2|0,0:1|0:0,0:0:0:0:
261,18,104369,6,0,L|270:83,3,52.5,2|0|0|0,0:1|0:0|0:0|0:0,0:0:0:0:
240,143,105000,2,0,P|181:168|129:153,1,105,2|0,0:1|0:0,0:0:0:0:
45,9,105632,6,0,L|37:61,3,52.5,2|0|0|0,0:1|0:0|0:0|0:0,0:0:0:0:
21,137,106264,2,0,L|4:258,1,105,2|0,0:1|0:0,0:0:0:0:
140,366,106895,6,0,P|182:373|205:368,1,52.5,2|0,0:1|0:0,0:0:0:0:
260,333,107211,2,0,P|302:326|325:331,1,52.5,0|0,0:0|0:0,0:0:0:0:
380,365,107527,2,0,P|357:313|367:250,1,105,2|0,0:1|0:0,0:0:0:0:
345,92,108158,6,0,P|356:51|353:29,1,52.5,2|0,0:1|0:0,0:0:0:0:
276,29,108474,2,0,P|265:70|268:92,1,52.5,0|0,0:0|0:0,0:0:0:0:
339,167,108790,2,0,L|397:160,1,52.5,2|0,0:1|0:0,0:0:0:0:
512,101,109106,1,0,0:0:0:0:
505,179,109264,1,0,0:0:0:0:
460,243,109421,2,0,L|466:317,1,52.5,2|0,0:1|0:0,0:0:0:0:
470,374,109737,1,0,0:0:0:0:
342,331,109895,6,0,L|394:336,2,52.5,2|0|0,0:0|0:0|0:0,0:0:0:0:
240,379,110369,2,0,L|187:384,1,52.5,2|0,0:0|0:0,0:0:0:0:
115,351,110685,2,0,P|105:316|111:288,2,52.5,0|0|0,0:0|0:0|0:0,0:0:0:0:
180,243,111158,6,0,P|190:208|184:180,2,52.5,2|0|0,0:0|0:0|0:0,0:0:0:0:
120,124,111632,2,0,P|110:89|116:61,2,52.5,2|0|0,0:0|0:0|0:0,0:0:0:0:
166,22,112106,6,0,P|125:89|182:156,1,157.5,8|0,0:2|0:0,0:0:0:0:
172,151,112421,6,0,B|216:147|216:147|242:156|242:156|290:152,1,118.125004506111,2|0,0:0|0:0,0:0:0:0:
307,152,112737,1,0,0:0:0:0:
390,214,112895,1,2,0:0:0:0:
452,153,113053,2,0,P|464:110|455:76,1,78.7500030040742,0|0,0:0|0:0,0:0:0:0:
318,0,113369,1,2,0:0:0:0:
243,44,113527,6,0,P|182:57|156:57,1,78.7500030040742,0|0,0:0|0:0,0:0:0:0:
7,15,113842,1,2,0:0:0:0:
53,88,114000,1,0,0:0:0:0:
17,167,114158,2,0,P|8:209|16:257,1,78.7500030040742,0|2,0:0|0:0,0:0:0:0:
175,361,114474,1,0,0:0:0:0:
260,344,114632,1,0,0:0:0:0:
344,324,114790,6,0,P|347:284|338:246,1,78.7500030040742,0|2,0:0|0:0,0:0:0:0:
248,112,115106,2,0,L|378:123,1,118.125004506111,0|0,0:0|0:0,0:0:0:0:
388,125,115421,1,2,0:0:0:0:
388,125,115895,1,2,0:0:0:0:
336,245,116053,6,0,P|326:294|326:333,1,78.7500030040742,0|0,0:0|0:0,0:0:0:0:
214,308,116369,2,0,P|224:259|224:220,1,78.7500030040742,2|0,0:0|0:0,0:0:0:0:
164,140,116685,2,0,P|116:118|80:114,1,78.7500030040742,0|2,0:0|0:0,0:0:0:0:
120,24,117000,2,0,P|168:46|204:50,1,78.7500030040742,0|0,0:0|0:0,0:0:0:0:
304,48,117316,6,0,P|342:40|377:22,2,78.7500030040742,0|2|0,0:0|0:0|0:0,0:0:0:0:
249,115,117790,1,0,0:0:0:0:
193,49,117948,1,2,0:0:0:0:
118,94,118106,2,0,P|58:108|25:104,1,78.7500030040742,0|0,0:0|0:0,0:0:0:0:
136,182,118421,1,2,0:0:0:0:
180,256,118579,6,0,P|191:304|189:343,1,78.7500030040742,0|0,0:0|0:0,0:0:0:0:
303,333,118895,2,0,P|303:293|313:255,1,78.7500030040742,2|0,0:0|0:0,0:0:0:0:
399,151,119211,2,0,L|483:143,1,78.7500030040742,0|2,0:0|0:0,0:0:0:0:
334,94,119527,1,0,0:0:0:0:
319,179,119685,1,0,0:0:0:0:
304,264,119842,1,0,0:0:0:0:
363,353,120000,5,2,0:0:0:0:
296,267,120158,2,0,P|237:243|189:239,1,78.7500030040742,0|0,0:0|0:0,0:0:0:0:
80,250,120474,1,2,0:0:0:0:
80,250,120948,1,2,0:1:0:0:
112,116,121106,6,0,B|64:76|64:76|81:267,1,236.250009012223,2|2,0:0|0:1,0:0:0:0:
91,384,121737,1,2,0:0:0:0:
91,384,122369,1,0,0:0:0:0:
191,337,122527,6,0,P|263:323|329:340,1,118.125004506111,2|0,0:0|0:0,0:0:0:0:
313,200,123000,2,0,P|254:207|197:193,1,118.125004506111,2|0,0:0|0:0,0:0:0:0:
89,79,123474,2,0,L|80:176,1,78.7500030040742,2|0,0:0|0:0,0:0:0:0:
61,349,123790,6,0,B|84:362|84:362|206:351,1,118.125004506111,2|0,0:0|0:0,0:0:0:0:
286,220,124264,2,0,B|262:206|262:206|140:217,1,118.125004506111,2|0,0:0|0:0,0:0:0:0:
43,97,124737,1,2,0:0:0:0:
81,174,124895,1,2,0:1:0:0:
169,75,125053,6,0,P|247:48|332:75,1,157.500006008148,2|0,0:0|0:0,0:0:0:0:
396,182,125527,2,0,L|388:264,2,78.7500030040742,2|0|0,0:0|0:0|0:0,0:0:0:0:
465,57,126000,6,0,B|483:85|483:85|472:211,1,157.500006008148,2|0,0:0|0:0,0:0:0:0:
463,360,126474,2,0,P|403:373|366:356,2,78.7500030040742,2|0|0,0:0|0:0|0:0,0:0:0:0:
320,306,126948,2,0,P|261:285|194:304,1,118.125004506111,2|0,0:0|0:0,0:0:0:0:
196,305,127264,2,0,P|130:329|61:300,1,118.125004506111,2|0,0:0|0:0,0:0:0:0:
73,309,127579,6,0,L|83:184,1,118.125004506111,2|0,0:0|0:0,0:0:0:0:
211,30,128053,2,0,L|221:154,1,118.125004506111,2|0,0:0|0:0,0:0:0:0:
236,343,128527,2,0,P|301:355|338:337,1,78.7500030040742,2|0,0:0|0:0,0:0:0:0:
412,205,128842,6,0,P|326:206|287:251,1,118.125004506111,2|0,0:0|0:0,0:0:0:0:
132,319,129316,2,0,P|174:244|154:187,1,118.125004506111,2|0,0:0|0:0,0:0:0:0:
68,44,129790,1,2,0:0:0:0:
52,153,129948,1,2,0:1:0:0:
276,136,130106,6,0,L|365:128,1,78.7500030040742,2|0,1:2|0:0,0:0:0:0:
487,119,130421,1,0,0:0:0:0:
181,202,130579,1,2,1:2:0:0:
181,202,130895,1,2,0:0:0:0:
484,265,131053,1,0,1:0:0:0:
363,350,131211,1,2,0:0:0:0:
256,192,131290,12,0,132553,0:0:0:0:
133,243,132632,6,0,B|91:113|91:113|427:141,1,472.500018024445,4|0,1:0|0:0,0:0:0:0:
473,67,133737,6,0,P|400:58|434:227,1,315.000012016297,2|0,0:1|0:0,0:0:0:0:
496,221,134527,2,0,P|423:225|403:239,1,78.7500030040742,2|0,0:1|0:0,0:0:0:0:
359,288,134842,1,2,0:0:0:0:
270,104,135000,2,0,L|273:59,1,39.3750015020371
268,54,135158,6,0,B|243:325|243:325|367:285,1,393.750015020371,2|0,0:0|0:0,0:0:0:0:
451,254,136106,1,2,0:1:0:0:
379,206,136264,1,2,0:0:0:0:
445,142,136421,6,0,L|493:149,7,39.3750015020371,2|0|0|0|2|0|0|0,0:1|0:0|0:0|0:0|0:1|0:0|0:0|0:0,0:0:0:0:
379,192,137053,6,0,P|361:155|360:137,1,39.3750015020371,2|0,0:0|0:0,0:0:0:0:
371,192,137211,2,0,P|353:155|352:137,1,39.3750015020371,0|0,0:0|0:0,0:0:0:0:
380,67,137369,2,0,L|326:71,1,39.3750015020371,2|0,0:0|0:0,0:0:0:0:
283,129,137527,2,0,L|229:124,1,39.3750015020371,2|2,0:1|0:1,0:0:0:0:
200,47,137685,6,0,P|131:27|58:97,1,157.500006008148,2|0,0:0|0:0,0:0:0:0:
32,216,138158,2,0,L|55:381,1,157.500006008148,2|0,0:0|0:0,0:0:0:0:
269,36,138790,6,0,L|246:201,1,157.500006008148,2|0,0:0|0:0,0:0:0:0:
345,363,139421,2,0,P|428:361|492:294,1,157.500006008148,2|0,0:0|0:0,0:0:0:0:
177,57,140053,6,0,B|148:31|148:31|165:165,1,157.500006008148,2|2,0:0|0:0,0:0:0:0:
131,147,141158,1,2,0:0:0:0:
226,235,141316,6,0,P|259:242|319:216,1,78.7500030040742,2|2,0:0|0:1,0:0:0:0:
284,13,141632,2,0,P|251:6|191:32,1,78.7500030040742,2|0,0:0|0:0,0:0:0:0:
378,126,141948,2,0,L|365:81,1,39.3750015020371,2|2,0:1|0:1,0:0:0:0:
362,81,142106,2,0,L|345:187,1,78.7500030040742,2|0,0:0|0:0,0:0:0:0:
221,147,142421,2,0,L|238:253,1,78.7500030040742,2|0,0:0|0:0,0:0:0:0:
387,297,142737,5,4,1:0:0:0:
371,292,142816,1,0,0:0:0:0:
356,289,142895,1,0,0:0:0:0:
340,289,142974,1,0,0:0:0:0:
325,292,143053,1,0,1:0:0:0:
310,297,143132,1,0,0:0:0:0:
295,301,143211,1,0,0:0:0:0:
279,304,143290,1,0,0:0:0:0:
263,304,143369,2,0,L|268:254,3,26.25,0|0|0|0,1:0|0:0|0:0|0:0,0:0:0:0:
213,174,143685,2,0,L|218:124,3,26.25,2|0|2|0,1:0|0:0|0:0|0:0,0:0:0:0:
273,52,144000,5,0,1:0:0:0:
294,54,144079,1,0,0:0:0:0:
315,56,144158,1,0,0:0:0:0:
336,57,144237,1,0,0:0:0:0:
357,59,144316,1,0,1:0:0:0:
378,61,144395,1,0,0:0:0:0:
399,63,144474,1,0,0:0:0:0:
420,65,144553,1,0,0:0:0:0:
441,67,144632,2,0,L|490:70,3,26.25,2|0|0|0,1:2|0:0|0:0|0:0,0:0:0:0:
374,193,144948,2,0,L|325:196,3,26.25,2|0|2|2,1:2|0:0|0:1|0:1,0:0:0:0:
219,206,145264,5,2,1:2:0:0:
221,237,145342,1,0,0:0:0:0:
234,265,145421,1,0,0:0:0:0:
257,286,145500,1,0,0:0:0:0:
287,297,145579,1,0,1:0:0:0:
318,296,145658,1,0,0:0:0:0:
347,283,145737,1,0,0:0:0:0:
368,260,145816,1,0,0:0:0:0:
380,231,145895,2,0,P|377:214|379:181,3,26.25,0|0|0|0,1:0|0:0|0:0|0:0,0:0:0:0:
439,121,146211,2,0,P|442:104|440:71,3,26.25,2|0|2|0,1:2|0:0|0:0|0:0,0:0:0:0:
375,3,146527,5,0,1:0:0:0:
338,6,146606,1,0,0:0:0:0:
301,9,146685,1,0,0:0:0:0:
265,12,146764,1,0,0:0:0:0:
228,15,146842,1,0,1:0:0:0:
191,18,146921,1,0,0:0:0:0:
155,21,147000,1,0,0:0:0:0:
118,25,147079,1,0,0:0:0:0:
82,28,147158,2,0,L|77:78,3,26.25,2|0|0|0,1:2|0:0|0:0|0:0,0:0:0:0:
168,155,147474,2,0,L|165:128,3,26.25,2|0|2|2,1:2|0:0|0:1|0:1,0:0:0:0:
57,210,147790,5,2,1:2:0:0:
36,246,147869,1,0,0:0:0:0:
31,287,147948,1,2,0:1:0:0:
43,327,148027,1,0,0:0:0:0:
69,360,148106,1,0,1:0:0:0:
106,379,148185,1,2,0:1:0:0:
148,382,148264,1,0,0:0:0:0:
188,368,148342,1,0,0:0:0:0:
219,341,148421,2,0,L|213:291,3,26.25,2|0|0|2,1:1|0:0|0:0|0:1,0:0:0:0:
377,314,148737,2,0,L|373:341,3,26.25,0|0|2|0,1:0|0:0|0:1|0:0,0:0:0:0:
388,175,149053,5,0,1:0:0:0:
347,151,149132,1,0,0:0:0:0:
301,139,149211,1,2,0:1:0:0:
255,145,149290,1,0,0:0:0:0:
212,165,149369,1,0,1:0:0:0:
169,185,149448,1,2,0:1:0:0:
123,196,149527,1,0,0:0:0:0:
76,192,149606,1,0,0:0:0:0:
32,177,149685,2,0,P|19:159|13:142,3,26.25,2|0|0|2,1:0|0:0|0:0|0:1,0:0:0:0:
146,72,150000,2,0,P|136:92|125:106,3,26.25,0|0|2|2,1:0|0:0|0:0|0:1,0:0:0:0:
20,34,150316,5,8,1:2:0:0:
72,32,150395,1,0,0:0:0:0:
124,31,150474,1,2,0:1:0:0:
177,29,150553,1,0,0:0:0:0:
249,0,150632,5,8,1:2:0:0:
224,45,150711,1,2,0:1:0:0:
226,97,150790,1,0,0:0:0:0:
253,141,150869,1,0,0:0:0:0:
305,199,150948,5,10,1:2:0:0:
329,244,151027,1,0,0:0:0:0:
327,296,151106,1,10,0:2:0:0:
300,340,151185,1,0,0:0:0:0:
224,362,151264,6,0,L|155:355,3,52.5,8|8|8|8,1:2|0:2|0:2|0:2,0:0:0:0:
83,341,151579,5,0,1:0:0:0:
83,341,151737,2,0,B|72:301|72:301|260:323,2,210,2|2|2,0:0|0:0|0:0,0:0:0:0:
121,203,152527,2,0,L|83:41,1,157.5,2|0,0:1|0:0,0:0:0:0:
19,3,152842,6,0,P|86:26|134:4,1,105,12|2,1:2|0:0,0:0:0:0:
289,78,153158,2,0,P|222:55|174:77,1,105,8|2,1:2|0:1,0:0:0:0:
238,243,153474,2,0,L|227:121,1,105,8|2,1:2|0:0,0:0:0:0:
442,109,153790,2,0,L|432:213,1,105,8|0,1:2|0:0,0:0:0:0:
229,252,154106,6,0,L|218:130,1,105,8|2,1:2|0:0,0:0:0:0:
433,118,154421,2,0,L|421:280,1,157.5,8|0,1:2|0:0,0:0:0:0:
465,339,154737,2,0,P|396:317|354:336,1,105,8|2,1:2|0:0,0:0:0:0:
155,212,155053,2,0,P|224:234|266:215,1,105,8|2,1:2|0:0,0:0:0:0:
104,44,155369,6,0,L|110:172,1,105,8|2,1:2|0:0,0:0:0:0:
308,170,155685,2,0,L|301:12,1,157.5,8|0,1:2|0:0,0:0:0:0:
378,79,156000,2,0,P|406:86|451:77,2,52.5,8|0|0,1:2|0:0|0:0,0:0:0:0:
179,118,156316,2,0,P|113:107|74:132,1,105,10|0,1:2|0:0,0:0:0:0:
143,257,156632,5,10,1:2:0:0:
143,257,156790,1,2,0:0:0:0:
127,20,156948,1,8,1:2:0:0:
127,20,157106,2,0,L|63:14,1,52.5,2|0,0:0|0:0,0:0:0:0:
284,32,157264,1,8,1:2:0:0:
323,35,157342,1,0,0:0:0:0:
362,38,157421,1,2,0:0:0:0:
401,42,157500,1,0,0:0:0:0:
440,45,157579,2,0,B|467:85|467:85|441:203,1,157.5,2|0,0:0|0:0,0:0:0:0:
443,191,157895,6,0,P|440:255|474:305,1,105,12|0,1:2|0:0,0:0:0:0:
459,290,158132,2,0,P|462:226|428:176,1,105,8|0,1:2|0:0,0:0:0:0:
344,132,158369,2,0,L|273:138,1,52.5,10|0,1:2|0:0,0:0:0:0:
145,140,158527,2,0,B|124:87|124:87|147:29,1,105,8|0,1:2|0:0,0:0:0:0:
141,42,158764,2,0,B|162:95|162:95|139:153,1,105,8|0,1:2|0:0,0:0:0:0:
97,267,159000,2,0,L|71:334,1,52.5,10|0,1:2|0:0,0:0:0:0:
44,146,159158,6,0,P|92:129|145:140,1,105,8|0,1:2|0:0,0:0:0:0:
144,140,159395,2,0,P|96:157|43:146,1,105,8|0,1:2|0:0,0:0:0:0:
97,267,159632,2,0,L|154:264,1,52.5,10|0,1:2|0:0,0:0:0:0:
300,255,159790,2,0,P|314:327|296:367,1,105,8|0,1:2|0:0,0:0:0:0:
304,355,160027,2,0,P|288:293|308:243,1,105,8|0,1:2|0:0,0:0:0:0:
455,160,160264,2,0,L|511:150,1,52.5,10|0,1:2|0:0,0:0:0:0:
314,80,160421,5,8,1:2:0:0:
275,77,160500,1,8,0:2:0:0:
237,87,160579,1,10,0:2:0:0:
205,110,160658,1,8,0:2:0:0:
170,127,160737,1,8,1:2:0:0:
131,130,160816,1,8,0:2:0:0:
93,120,160895,1,10,0:2:0:0:
61,96,160974,1,8,0:2:0:0:
47,52,161053,2,8,L|52:-8,1,52.5,8|8,1:2|0:2,0:2:0:0:
204,209,161211,2,8,L|198:269,1,52.5,10|8,0:2|0:2,0:2:0:0:
60,384,161369,2,8,L|61:352,6,26.25,8|8|8|0|10|10|10,1:2|0:2|0:2|0:2|0:2|0:2|0:2,0:2:0:0:
66,280,161685,5,2,1:1:0:0:
66,280,162632,5,0,3:0:0:0:
75,229,162711,1,8,3:0:0:0:
84,178,162790,1,2,3:0:0:0:
93,127,162869,1,2,3:0:0:0:
102,76,162948,6,0,B|58:17|58:17|84:178,1,236.250009012223,4|0,1:2|0:0,0:0:0:0:
5,380,163264,6,0,L|-2:305,1,52.5,8|0,1:2|0:0,0:0:0:0:
225,274,163421,1,2,0:0:0:0:
249,282,163500,1,2,0:0:0:0:
273,291,163579,6,0,L|266:376,2,70,0|2|2,1:0|0:0|0:0,0:0:0:0:
437,115,163895,6,0,P|482:195|352:244,1,236.250009012223,8|0,1:2|0:0,0:0:0:0:
215,132,164211,6,0,B|160:102|160:102|187:291,1,236.250009012223,2|0,1:1|0:0,0:0:0:0:
317,359,164527,5,8,1:2:0:0:
314,307,164606,1,0,0:0:0:0:
282,267,164685,1,2,0:0:0:0:
232,254,164764,1,2,0:0:0:0:
184,273,164842,2,0,P|151:313|143:340,1,52.5,0|2,1:0|0:1,0:0:0:0:
281,252,165000,6,0,P|223:243|180:263,1,105,2|8,0:0|1:2,0:0:0:0:
182,261,165237,2,0,P|240:270|282:250,1,105,2|0,0:0|0:0,0:0:0:0:
333,140,165474,5,0,1:0:0:0:
303,376,165632,1,2,1:2:0:0:
254,161,165790,1,8,1:2:0:0:
257,109,165869,1,0,0:0:0:0:
291,70,165948,1,2,0:0:0:0:
341,59,166027,1,2,0:0:0:0:
388,80,166106,6,0,P|424:90|473:81,2,70,0|2|2,1:0|0:0|0:0,0:0:0:0:
254,161,166421,6,0,B|180:166|146:212|146:212|114:163|34:160,1,236.250009012223,8|0,1:2|0:0,0:0:0:0:
254,171,166737,6,0,P|217:178|188:191,1,52.5,2|0,1:0|0:0,0:0:0:0:
257,181,166895,2,0,P|220:188|191:201,1,52.5,2|0,0:0|0:0,0:0:0:0:
47,172,167053,6,0,P|84:179|113:192,1,52.5,8|0,1:2|0:0,0:0:0:0:
44,182,167211,2,0,P|81:189|110:202,1,52.5,2|0,0:0|0:0,0:0:0:0:
202,305,167369,1,0,1:0:0:0:
180,351,167448,1,2,0:0:0:0:
132,368,167527,1,0,0:0:0:0:
86,345,167606,1,2,0:0:0:0:
71,296,167685,2,0,L|75:262,6,26.25,8|0|0|0|2|0|0,1:2|0:0|0:0|0:0|0:0|0:0|0:0,0:0:0:0:
9,380,168000,6,0,B|27:216|27:216|76:272,1,236.250009012223,0|0,1:0|0:0,0:0:0:0:
233,258,168316,1,8,1:2:0:0:
274,289,168395,1,0,0:0:0:0:
325,295,168474,1,2,0:0:0:0:
373,274,168553,1,2,0:0:0:0:
403,232,168632,6,0,L|395:142,2,70,0|2|2,1:0|0:0|0:0,0:0:0:0:
393,356,168948,6,0,B|423:372|423:372|404:154,1,236.250009012223,8|0,1:2|0:0,0:0:0:0:
499,22,169264,6,0,B|375:-19|389:111|229:22,1,236.250009012223,2|0,1:0|0:0,0:0:0:0:
91,106,169579,1,8,1:2:0:0:
140,91,169658,1,0,0:0:0:0:
190,104,169737,1,2,0:0:0:0:
227,140,169816,1,2,0:0:0:0:
239,191,169895,2,0,L|227:270,1,52.5,0|0,1:0|0:0,0:0:0:0:
208,383,170053,2,0,L|220:304,1,52.5,2|0,0:0|0:0,0:0:0:0:
224,215,170211,2,0,B|214:264|235:293|235:293|197:315|201:389,1,157.5,2|0,0:1|0:0,0:0:0:0:
315,165,170527,6,0,L|141:183,1,157.5,4|2,1:0|0:0,0:0:0:0:
82,188,170842,1,8,1:2:0:0:
342,302,171000,2,0,L|323:243,1,52.5,0|2,0:0|0:0,0:0:0:0:
339,93,171158,1,0,1:0:0:0:
331,115,171237,2,0,L|312:174,2,52.5,2|0|2,0:0|0:0|0:0,0:0:0:0:
433,54,171474,1,8,1:2:0:0:
342,302,171632,1,2,0:0:0:0:
318,313,171711,1,2,0:1:0:0:
294,323,171790,6,0,P|213:324|146:271,1,157.5,2|2,1:2|0:0,0:0:0:0:
119,211,172106,2,0,L|128:134,1,52.5,8|0,1:2|0:0,0:0:0:0:
139,37,172264,1,2,1:2:0:0:
26,295,172421,2,0,L|90:270,1,52.5,12|0,1:2|0:0,0:0:0:0:
309,179,172579,1,0,0:0:0:0:
292,187,172658,2,0,L|228:212,2,52.5,12|0|0,1:2|0:0|0:0,0:0:0:0:
454,119,172895,2,0,L|443:187,1,52.5,10|0,0:0|0:0,0:0:0:0:
469,279,173053,6,0,B|415:302|415:302|449:88,1,236.250009012223,4|0,1:0|0:0,0:0:0:0:
314,25,173369,1,8,1:2:0:0:
313,76,173448,1,0,0:0:0:0:
287,121,173527,1,2,0:0:0:0:
242,147,173606,1,2,0:0:0:0:
190,147,173685,6,0,L|102:129,2,70,0|2|2,1:0|0:0|0:0,0:0:0:0:
342,175,174000,6,0,B|249:99|225:221|109:123,1,236.250009012223,8|0,1:2|0:0,0:0:0:0:
99,0,174316,6,0,L|116:281,1,236.250009012223,2|0,1:1|0:0,0:0:0:0:
270,357,174632,1,8,1:2:0:0:
302,316,174711,1,0,0:0:0:0:
310,265,174790,1,2,0:0:0:0:
292,216,174869,1,2,0:0:0:0:
252,183,174948,2,0,P|218:171|182:172,1,52.5,0|0,1:0|0:0,0:0:0:0:
322,257,175106,6,0,P|307:211|264:173,1,105,2|8,0:0|1:2,0:0:0:0:
265,173,175342,2,0,P|280:219|324:258,1,105,2|0,0:0|0:0,0:0:0:0:
374,156,175579,5,2,1:1:0:0:
179,298,175737,1,2,1:0:0:0:
440,205,175895,1,8,1:2:0:0:
455,155,175974,1,0,0:0:0:0:
438,106,176053,1,2,0:0:0:0:
396,77,176132,1,2,0:0:0:0:
344,79,176211,6,0,L|255:90,2,70,0|2|2,1:0|0:0|0:0,0:0:0:0:
504,47,176527,6,0,B|415:61|415:61|379:87|379:87|277:100,1,236.250009012223,8|0,1:2|0:0,0:0:0:0:
450,134,176842,6,0,P|459:181|448:218,1,52.5,2|0,1:2|0:0,0:0:0:0:
279,100,177000,2,0,P|270:53|281:16,1,52.5,2|0,0:0|0:0,0:0:0:0:
442,142,177158,6,0,P|451:189|440:226,1,52.5,8|0,1:2|0:0,0:0:0:0:
271,108,177316,2,0,P|262:61|273:24,1,52.5,2|0,0:0|0:0,0:0:0:0:
413,265,177474,1,0,1:0:0:0:
374,300,177553,1,2,0:0:0:0:
324,313,177632,1,0,0:0:0:0:
273,302,177711,1,2,0:0:0:0:
233,269,177790,2,0,L|238:229,6,26.25,8|0|0|0|2|0|0,1:2|0:0|0:0|0:0|0:0|0:0|0:0,0:0:0:0:
221,40,178106,6,0,B|231:97|231:97|220:117|220:117|230:171|230:171|220:194|220:194|235:281,1,236.250009012223,0|0,1:0|0:0,0:0:0:0:
368,196,178421,2,0,P|304:153|226:171,1,157.500006008148,12|0,0:0|0:0,0:0:0:0:
169,342,178658,2,0,L|142:169,1,157.500006008148,2|0,1:2|0:0,0:0:0:0:
80,43,178895,2,0,P|130:23|170:33,1,78.7500030040742,2|0,1:2|0:0,0:0:0:0:
306,74,179053,1,8,0:0:0:0:
288,77,179132,2,0,L|132:101,1,157.500006008148,0|0,1:0|0:0,0:0:0:0:
136,109,179369,6,0,L|298:85,1,157.5,0|0,1:0|0:0,0:0:0:0:
470,35,179685,6,0,P|436:92|444:136,2,78.7500030040742,12|0|2,1:2|0:0|0:0,0:0:0:0:
501,164,179921,2,0,P|423:124|334:177,1,157.500006008148,0|0,1:0|0:0,0:0:0:0:
329,276,180158,2,0,L|342:367,1,78.7500030040742,0|0,1:0|0:0,0:0:0:0:
334,368,180316,6,0,L|309:195,1,157.5,2|0,1:0|0:0,0:0:0:0:
376,28,180632,6,0,P|287:95|212:72,1,157.5,4|2,1:2|0:0,0:0:0:0:
115,13,180948,1,8,1:2:0:0:
147,53,181027,1,0,0:0:0:0:
155,104,181106,1,2,0:1:0:0:
137,153,181185,1,2,0:2:0:0:
97,186,181264,2,0,L|56:180,6,26.25,0|0|0|0|2|0|0,1:0|0:0|0:0|0:0|0:0|0:0|0:0,0:0:0:0:
219,193,181579,2,0,B|172:214|172:214|58:178,1,157.5,8|0,1:2|0:0,0:0:0:0:
264,105,181895,6,0,L|239:294,1,157.500006008148,4|0,1:2|0:0,0:0:0:0:
256,91,182132,2,0,L|231:280,1,157.500006008148,0|0,1:0|0:0,0:0:0:0:
249,77,182369,2,0,L|232:200,1,78.7500030040742,0|0,1:0|0:0,0:0:0:0:
208,360,182527,6,0,B|175:314|109:305|46:348|46:348|230:224|202:443|411:344,1,551.25002102852,8|0,0:0|0:0,0:0:0:0:
387,151,183158,6,0,P|283:153|239:264,1,236.250009012223,4|0,1:0|0:0,0:0:0:0:
449,297,183474,1,0,3:0:0:0:
453,244,183553,1,8,3:0:0:0:
458,192,183632,1,2,3:0:0:0:
462,140,183711,1,2,3:0:0:0:
467,87,183790,6,0,L|473:8,2,70,8|2|2,0:0|0:0|0:0,0:0:0:0:
355,249,184106,6,0,B|247:313|246:197|122:260,1,236.250009012223,2|0,0:0|0:0,0:0:0:0:
19,363,184421,6,0,P|121:270|42:176,1,236.250009012223,2|0,1:1|0:0,0:0:0:0:
114,53,184737,1,0,0:0:0:0:
142,96,184816,1,0,0:0:0:0:
185,125,184895,1,2,0:0:0:0:
236,135,184974,1,2,0:0:0:0:
287,124,185053,2,0,P|307:112|334:88,1,52.5,8|0,0:0|0:0,0:0:0:0:
186,138,185211,6,0,P|238:152|294:128,1,105,2|0,0:0|0:0,0:0:0:0:
284,135,185448,2,0,P|227:122|186:138,1,105,2|0,0:0|0:0,0:0:0:0:
235,259,185685,5,0,1:0:0:0:
235,0,185842,1,0,1:0:0:0:
156,284,186000,1,0,3:0:0:0:
186,325,186079,1,8,3:0:0:0:
235,340,186158,1,2,3:0:0:0:
284,324,186237,1,2,3:0:0:0:
314,282,186316,6,0,L|309:193,2,70,8|2|2,0:0|0:0|0:0,0:0:0:0:
425,225,186632,6,0,B|365:238|310:197|310:197|256:252|189:238,1,236.250009012223,2|0,0:0|0:0,0:0:0:0:
423,236,186948,6,0,P|397:240|356:233,1,52.5,2|0,1:2|0:0,0:0:0:0:
421,247,187106,2,0,P|395:251|354:244,1,52.5,2|0,0:0|1:0,0:0:0:0:
214,250,187264,6,0,P|241:248|277:237,1,52.5,2|0,0:2|0:0,0:0:0:0:
220,260,187421,2,0,P|247:258|283:247,1,52.5,2|2,1:2|0:0,0:0:0:0:
392,107,187579,1,8,0:2:0:0:
354,71,187658,1,2,0:0:0:0:
303,60,187737,1,2,0:0:0:0:
254,78,187816,1,2,0:1:0:0:
222,118,187895,2,0,L|225:158,6,26.25,2|0|0|0|2|0|0,1:2|0:0|0:0|0:0|0:1|0:0|0:0,0:0:0:0:
237,358,188211,6,0,L|215:116,1,236.250009012223,4|0,1:2|0:0,0:0:0:0:
47,54,188527,1,0,3:0:0:0:
97,71,188606,1,8,3:0:0:0:
131,110,188685,1,2,3:0:0:0:
140,161,188764,1,2,3:0:0:0:
123,209,188842,6,0,P|114:247|128:310,2,70,8|2|2,0:0|0:1|0:0,0:0:0:0:
236,359,189158,6,0,P|132:327|116:202,1,236.250009012223,2|0,0:0|0:0,0:0:0:0:
226,371,189474,6,0,P|121:331|101:212,1,236.250009012223,2|0,1:0|0:0,0:0:0:0:
207,72,189790,1,0,3:0:0:0:
259,76,189869,1,8,3:0:0:0:
311,80,189948,1,2,3:0:0:0:
363,85,190027,1,2,3:0:0:0:
416,89,190106,2,0,L|496:96,1,52.5,8|0,0:0|0:0,0:0:0:0:
207,72,190264,2,0,L|154:67,1,52.5,2|0,0:0|0:0,0:0:0:0:
316,220,190421,2,0,B|315:176|282:150|282:150|310:121|311:80,1,157.5,2|0,0:0|0:0,0:0:0:0:
299,82,190737,6,0,B|297:122|269:151|269:151|302:177|303:221,1,157.5,2|0,1:2|0:0,0:0:0:0:
129,377,190974,2,0,P|120:295|190:247,1,157.500006008148,10|0,0:0|0:0,0:0:0:0:
297,351,191211,1,2,1:0:0:0:
271,345,191290,2,0,L|195:328,1,78.7500030040742,2|0,0:0|0:0,0:0:0:0:
21,285,191448,2,0,P|-1:206|46:137,1,157.500006008148,0|2,1:0|0:1,0:0:0:0:
270,38,191685,2,0,B|332:23|332:23|288:192,1,236.250009012223,10|0,0:0|0:0,0:0:0:0:
133,376,192000,6,0,L|173:215,1,157.500006008148,2|0,1:2|0:0,0:0:0:0:
35,144,192237,2,0,P|-1:211|21:285,1,157.500006008148,10|0,0:0|0:0,0:0:0:0:
173,211,192474,2,0,L|94:220,1,78.7500030040742,2|0,1:0|0:0,0:0:0:0:
265,244,192632,1,2,0:0:0:0:
274,222,192711,2,0,L|304:149,2,78.7500030040742,2|0|0,1:1|0:0|0:0,0:0:0:0:
388,98,192948,2,0,P|402:136|392:194,1,78.7500030040742,10|0,0:2|0:0,0:0:0:0:
182,298,193106,2,0,P|168:260|178:202,1,78.7500030040742,8|0,0:0|0:0,0:0:0:0:
277,63,193264,6,0,L|299:319,1,236.250009012223,4|0,1:2|0:0,0:0:0:0:
351,113,193579,5,0,3:0:0:0:
324,69,193658,1,8,3:0:0:0:
275,55,193737,1,2,3:0:0:0:
230,79,193816,1,2,3:0:0:0:
214,128,193895,6,0,L|221:216,2,70,8|2|2,0:0|0:0|0:0,0:0:0:0:
85,269,194211,6,0,B|169:255|169:255|212:273|212:273|345:249,1,236.250009012223,2|0,0:0|0:0,0:0:0:0:
476,293,194527,6,0,P|354:277|334:158,1,236.250009012223,4|0,1:0|0:0,0:0:0:0:
463,26,194842,1,0,3:0:0:0:
433,68,194921,1,8,3:0:0:0:
386,90,195000,1,2,3:0:0:0:
334,86,195079,1,2,3:0:0:0:
292,57,195158,2,8,P|279:7|280:-17,1,52.5,8|0,0:0|0:0,0:0:0:0:
383,102,195316,6,0,P|316:89|280:56,1,105,2|0,0:0|0:0,0:0:0:0:
288,66,195553,2,0,P|342:73|386:106,1,105,2|0,0:0|0:0,0:0:0:0:
421,225,195790,5,2,1:0:0:0:
146,139,195948,1,2,1:0:0:0:
478,167,196106,1,0,3:3:0:0:
501,213,196185,1,8,3:3:0:0:
492,263,196264,1,2,3:3:0:0:
455,299,196342,1,2,3:3:0:0:
404,306,196421,6,0,L|319:292,2,70,8|2|2,0:0|0:0|0:0,0:0:0:0:
276,379,196737,6,0,B|317:309|317:309|267:149,1,236.250009012223,2|0,0:0|0:0,0:0:0:0:
189,0,197053,6,0,L|181:72,1,52.5,2|0,1:2|0:0,0:0:0:0:
83,180,197211,2,0,P|78:148|85:114,1,52.5,2|0,0:0|1:0,0:0:0:0:
195,17,197369,2,0,L|187:89,1,52.5,2|0,0:0|0:0,0:0:0:0:
155,283,197527,2,0,P|131:293|86:291,2,52.5,10|2|0,0:2|0:0|0:0,0:0:0:0:
230,149,197764,2,0,P|233:174|257:212,2,52.5,0|2|2,1:0|0:0|0:0,0:0:0:0:
358,37,198000,2,0,L|348:82,6,26.25,10|0|0|0|2|0|0,0:2|0:0|0:0|0:0|0:1|0:0|0:0,0:0:0:0:
297,249,198316,6,0,B|320:217|358:216|358:216|285:189|278:283|181:219,1,236.250009012223,0|0,1:0|0:0,0:0:0:0:
107,113,198632,2,0,P|197:184|161:285,1,236.250009012223,4|0,1:2|0:0,0:0:0:0:
26,108,198948,2,0,P|224:166|36:316,1,551.25002102852,10|0,0:2|0:0,0:0:0:0:
75,164,199579,6,0,P|153:187|63:242,1,236.250009012223,4|0,1:0|0:0,0:0:0:0:
303,222,199895,1,0,3:0:0:0:
355,225,199974,1,8,3:0:0:0:
407,229,200053,1,2,3:0:0:0:
460,233,200132,1,2,3:0:0:0:
512,237,200211,2,0,L|487:345,1,78.7500030040742,8|0,0:0|0:0,0:0:0:0:
371,91,200369,2,0,L|353:14,1,78.7500030040742,2|2,0:0|0:0,0:0:0:0:
221,310,200527,2,0,B|199:338|204:376|204:376|179:297|246:320|216:217,1,236.250009012223,2|0,0:0|0:0,0:0:0:0:
150,72,200842,5,0,1:0:0:0:
98,64,200921,1,8,0:3:0:0:
50,84,201000,1,8,0:3:0:0:
19,126,201079,2,8,L|33:202,2,52.5,2|8|8,0:2|0:3|0:3,0:3:0:0:
77,255,201316,2,8,P|47:268|2:267,1,52.5,2|8,0:2|0:3,0:3:0:0:
166,158,201474,1,8,0:3:0:0:
218,162,201553,1,2,0:2:0:0:
270,167,201632,1,8,0:3:0:0:
322,172,201711,2,8,L|397:176,2,52.5,8|2|8,0:3|0:2|0:3,0:3:0:0:
450,149,201948,2,8,P|454:184|444:217,1,52.5,2|8,0:2|0:3,0:3:0:0:
251,340,202106,5,0,1:0:0:0:
251,318,202185,1,0,0:0:0:0:
252,297,202264,1,2,0:0:0:0:
253,275,202342,1,2,0:0:0:0:
254,255,202421,2,0,L|257:193,1,52.5,0|0,3:0|0:0,0:0:0:0:
123,114,202579,1,2,0:0:0:0:
140,127,202658,1,2,0:0:0:0:
147,148,202737,1,0,0:0:0:0:
142,171,202816,1,0,0:0:0:0:
126,186,202895,2,0,L|59:178,1,52.5,0|0,3:0|0:0,0:0:0:0:
396,174,203053,6,0,B|456:162|456:162|438:352,1,236.250009012223,2|0,1:0|0:0,0:0:0:0:
432,342,203369,6,0,L|443:228,1,105,4|0,1:2|0:0,0:0:0:0:
304,140,203685,2,0,P|298:186|325:242,1,105,10|0,1:2|0:0,0:0:0:0:
361,63,204000,2,0,L|247:52,2,105,2|2|8,1:2|0:0|1:2,0:0:0:0:
500,183,204474,6,0,L|394:173,1,105,2|0,0:0|1:0,0:0:0:0:
181,337,204790,1,2,0:0:0:0:
348,318,204948,1,10,1:2:0:0:
200,237,205106,2,0,P|180:176|208:112,1,105,2|0,0:0|1:0,0:0:0:0:
302,13,205421,1,2,0:0:0:0:
279,179,205579,1,10,1:2:0:0:
45,44,205737,6,0,L|33:173,1,105,2|0,0:0|1:0,0:0:0:0:
165,312,206053,2,0,L|153:182,2,105,2|8|0,0:0|1:2|0:0,0:0:0:0:
202,146,206527,2,0,P|139:133|100:153,1,105,0|0,1:0|0:0,0:0:0:0:
333,241,206842,1,10,1:2:0:0:
389,106,207000,6,0,L|379:0,1,105,2|0,0:0|1:0,0:0:0:0:
474,199,207316,2,0,L|464:304,1,105,2|8,0:0|1:2,0:0:0:0:
259,358,207632,2,0,P|251:284|272:239,1,105,2|0,0:0|1:0,0:0:0:0:
398,132,207948,2,0,P|337:175|288:180,1,105,2|8,0:0|1:2,0:0:0:0:
109,39,208264,1,2,0:0:0:0:
32,159,208421,6,0,L|42:279,1,105,0|0,1:0|0:0,0:0:0:0:
109,39,208737,2,0,L|119:159,1,105,10|0,1:2|0:0,0:0:0:0:
129,312,209053,2,0,P|178:325|236:296,1,105,2|2,1:2|0:0,0:0:0:0:
358,141,209369,1,10,1:2:0:0:
464,271,209527,6,0,L|454:379,1,105,2|0,0:0|1:0,0:0:0:0:
415,219,209842,2,0,P|462:199|510:216,1,105,2|8,0:0|1:2,0:0:0:0:
309,292,210158,2,0,L|199:282,1,105,2|0,0:0|1:0,0:0:0:0:
365,382,210474,1,2,0:0:0:0:
256,178,210632,1,10,1:2:0:0:
13,334,210790,6,0,L|126:324,1,105,2|0,0:0|1:0,0:0:0:0:
376,302,211106,2,0,L|262:292,1,105,2|8,0:0|1:2,0:0:0:0:
468,228,211421,1,0,0:0:0:0:
365,375,211579,2,0,L|251:365,1,105,0|0,1:0|0:0,0:0:0:0:
5,343,211895,1,10,1:2:0:0:
208,196,212053,6,0,L|219:322,2,105,2|0|0,0:0|1:0|0:0,0:0:0:0:
194,0,212527,1,10,1:2:0:0:
130,351,212685,1,2,0:0:0:0:
457,278,212842,1,0,1:0:0:0:
457,278,213000,1,0,1:0:0:0:
201,178,213158,5,8,0:0:0:0:
190,179,213237,1,0,1:0:0:0:
179,180,213316,2,0,L|108:187,1,52.5,2|2,0:1|0:1,0:0:0:0:
91,113,213474,6,0,L|73:294,1,157.5,6|2,1:2|0:0,0:0:0:0:
66,342,213790,1,8,1:2:0:0:
230,243,213948,2,0,P|314:221|383:272,1,157.5,2|2,0:0|0:0,0:0:0:0:
376,261,214264,2,0,L|370:326,1,52.5,2|2,0:1|0:1,0:0:0:0:
373,384,214421,2,0,L|383:262,1,105,10|0,1:2|0:0,0:0:0:0:
509,58,214737,6,0,P|442:95|352:56,1,157.5,2|2,1:2|0:0,0:0:0:0:
321,16,215053,1,8,1:2:0:0:
197,144,215211,2,0,L|209:321,1,157.5,2|2,0:0|0:0,0:0:0:0:
202,310,215527,2,0,L|197:247,1,52.5,2|2,0:1|0:1,0:0:0:0:
190,187,215685,1,10,1:2:0:0:
119,291,215842,1,2,0:0:0:0:
379,261,216000,6,0,B|428:226|428:226|255:214,1,210,2|10,1:2|1:2,0:0:0:0:
390,274,216474,2,0,B|439:239|439:239|266:227,1,210,2|0,0:0|0:0,0:0:0:0:
84,212,216948,6,0,P|47:158|113:39,1,210,10|0,1:2|1:0,0:0:0:0:
69,216,217421,2,0,P|30:125|98:34,1,210,2|0,0:0|0:0,0:0:0:0:
383,161,217895,1,2,1:2:0:0:
383,161,218053,1,0,1:0:0:0:
121,150,218211,1,10,0:0:0:0:
118,118,218290,1,0,1:0:0:0:
149,114,218369,1,2,0:1:0:0:
152,145,218448,1,2,0:1:0:0:
136,132,218527,6,0,P|188:88|304:128,1,157.500006008148,14|0,1:2|0:0,0:0:0:0:
334,209,218764,2,0,L|313:375,1,157.500006008148,10|0,1:2|0:0,0:0:0:0:
324,200,219000,2,0,L|305:357,1,157.500006008148,10|0,1:2|0:0,0:0:0:0:
466,286,219237,2,0,P|374:243|315:272,1,157.500006008148,10|0,1:2|0:0,0:0:0:0:
213,341,219474,6,0,B|92:351|92:351|123:328,1,157.5,2|0,1:2|0:0,0:0:0:0:
235,206,219790,6,0,L|214:43,1,157.500006008148,14|0,1:2|0:0,0:0:0:0:
57,139,220027,2,0,P|165:164|209:134,1,157.500006008148,10|0,1:2|0:0,0:0:0:0:
57,151,220264,2,0,P|150:177|208:147,1,157.500006008148,10|0,1:2|0:0,0:0:0:0:
287,0,220500,2,0,L|307:156,1,157.500006008148,10|0,1:2|0:0,0:0:0:0:
254,279,220737,2,0,P|318:238|396:268,1,157.500006008148,2|2,1:2|0:1,0:0:0:0:
466,359,220974,1,2,0:1:0:0:
461,372,221053,6,0,P|459:336|465:315,2,52.5,6|0|2,1:2|0:0|0:0,0:0:0:0:
492,248,221290,2,0,P|494:212|488:191,2,52.5,0|2|0,0:0|0:0|0:0,0:0:0:0:
444,131,221527,1,2,0:0:0:0:
412,107,221606,1,0,0:0:0:0:
374,100,221685,1,0,0:0:0:0:
336,109,221764,1,0,0:0:0:0:
305,133,221842,2,0,L|311:204,1,52.5,2|0,0:0|0:0,0:0:0:0:
325,327,222000,2,0,L|320:274,1,52.5,2|0,0:0|0:0,0:0:0:0:
298,141,222158,2,0,L|304:212,1,52.5,2|0,0:0|0:0,0:0:0:0:
319,336,222316,5,2,3:0:0:0:
286,357,222395,1,0,3:0:0:0:
247,364,222474,1,2,3:0:0:0:
209,357,222553,1,2,3:0:0:0:
176,337,222632,2,0,L|185:263,1,52.5,4|0,3:0|3:0,3:0:0:0:
194,212,222790,2,0,L|203:138,1,52.5,8|0,3:0|3:0,3:0:0:0:
207,78,222948,1,2,3:0:0:0:
197,82,223027,1,2,3:0:0:0:
187,87,223106,2,0,L|119:77,1,52.5,8|0,3:0|3:0,3:0:0:0:
22,71,223264,6,0,L|187:94,1,157.5,2|0,0:0|0:0,0:0:0:0:
292,30,223579,5,4,1:2:0:0:
283,54,223658,1,0,0:0:0:0:
279,80,223737,1,2,0:1:0:0:
285,106,223816,1,0,0:1:0:0:
298,129,223895,1,0,1:0:0:0:
311,151,223974,1,2,0:1:0:0:
319,176,224053,1,2,0:1:0:0:
321,202,224132,1,0,0:0:0:0:
318,228,224211,2,0,L|312:273,3,26.25,2|0|0|2,1:0|0:0|0:0|0:1,0:0:0:0:
294,378,224527,2,0,L|300:333,3,26.25,2|0|2|0,1:2|0:0|0:0|0:0,0:0:0:0:
320,217,224842,5,0,1:0:0:0:
302,197,224921,1,0,0:0:0:0:
281,182,225000,1,2,0:1:0:0:
257,171,225079,1,0,0:1:0:0:
231,166,225158,1,0,1:0:0:0:
205,166,225237,1,2,0:1:0:0:
179,171,225316,1,0,0:0:0:0:
155,181,225395,1,0,0:0:0:0:
134,196,225474,2,0,L|138:247,3,26.25,2|0|0|2,1:2|0:0|0:0|0:1,0:0:0:0:
122,78,225790,2,0,L|120:51,3,26.25,2|0|0|2,1:2|0:0|0:1|0:1,0:0:0:0:
139,237,226106,5,2,1:2:0:0:
156,256,226185,1,0,0:0:0:0:
177,271,226264,1,2,0:1:0:0:
201,282,226342,1,0,0:1:0:0:
227,287,226421,1,0,1:0:0:0:
253,287,226500,1,2,0:1:0:0:
279,282,226579,1,0,0:0:0:0:
303,272,226658,1,0,0:0:0:0:
324,257,226737,2,0,L|320:206,3,26.25,2|0|0|2,1:0|0:0|0:0|0:1,0:0:0:0:
477,233,227053,2,0,L|475:259,3,26.25,2|0|2|0,1:2|0:0|0:2|0:0,0:0:0:0:
400,366,227369,5,0,1:0:0:0:
400,339,227448,1,0,0:0:0:0:
400,313,227527,1,2,0:1:0:0:
400,287,227606,1,0,0:1:0:0:
400,261,227685,1,0,1:0:0:0:
400,234,227764,1,2,0:1:0:0:
400,208,227842,1,0,0:0:0:0:
400,182,227921,1,0,0:0:0:0:
400,156,228000,2,0,L|400:108,3,26.25,2|0|0|2,1:2|0:0|0:0|0:1,0:0:0:0:
400,12,228316,2,0,L|400:39,3,26.25,2|0|2|2,1:2|0:0|0:1|0:1,0:0:0:0:
279,136,228632,5,2,1:2:0:0:
253,143,228711,1,0,0:0:0:0:
227,145,228790,1,2,0:1:0:0:
202,140,228869,1,0,0:0:0:0:
177,131,228948,1,2,1:2:0:0:
153,122,229027,1,2,0:1:0:0:
127,118,229106,1,2,0:0:0:0:
101,122,229185,1,0,0:0:0:0:
76,130,229264,2,0,L|78:178,3,26.25,2|0|2|2,1:1|0:0|0:0|0:1,0:0:0:0:
85,302,229579,2,0,L|83:275,3,26.25,0|0|2|0,1:0|0:0|0:0|0:0,0:0:0:0:
212,205,229895,5,0,1:0:0:0:
238,198,229974,1,0,0:0:0:0:
264,196,230053,1,2,0:0:0:0:
289,201,230132,1,0,0:0:0:0:
314,210,230211,1,0,1:0:0:0:
338,219,230290,1,2,0:1:0:0:
364,223,230369,1,2,0:0:0:0:
390,219,230448,1,0,0:0:0:0:
415,211,230527,2,0,L|413:163,3,26.25,2|0|2|2,1:1|0:0|0:0|0:1,0:0:0:0:
406,39,230842,2,0,L|407:65,3,26.25,0|0|2|2,1:0|0:0|0:0|0:1,0:0:0:0:
415,226,231158,5,2,1:1:0:0:
390,234,231237,1,0,0:0:0:0:
364,234,231316,1,2,0:2:0:0:
339,226,231395,1,0,0:0:0:0:
318,210,231474,1,0,1:0:0:0:
304,188,231553,1,2,0:1:0:0:
298,163,231632,1,0,0:0:0:0:
300,136,231711,1,0,0:0:0:0:
310,113,231790,2,0,L|361:119,3,26.25,2|0|0|2,1:1|0:0|0:0|0:1,0:0:0:0:
142,89,232106,2,0,L|115:85,3,26.25,2|0|2|0,1:2|0:0|0:0|0:0,0:0:0:0:
224,13,232421,5,0,1:0:0:0:
225,39,232500,1,0,0:0:0:0:
226,65,232579,1,2,0:0:0:0:
227,91,232658,1,0,0:1:0:0:
228,117,232737,1,0,1:0:0:0:
230,144,232816,1,2,0:1:0:0:
231,170,232895,1,0,0:0:0:0:
232,196,232974,1,0,0:0:0:0:
233,222,233053,2,0,L|236:272,3,26.25,2|0|0|2,1:2|0:0|0:0|0:1,0:0:0:0:
242,381,233369,2,0,L|240:354,3,26.25,2|0|2|0,0:0|0:0|0:1|0:0,0:0:0:0:
333,297,233685,6,0,L|413:293,1,78.7500030040742,12|0,0:0|0:0,0:0:0:0:
449,183,233842,2,0,L|432:361,1,157.500006008148,8|0,0:0|0:0,0:0:0:0:
438,174,234079,2,0,L|421:352,1,157.500006008148,8|0,0:0|0:0,0:0:0:0:
424,164,234316,2,0,P|343:140|268:187,1,157.500006008148,8|0,0:0|0:0,0:0:0:0:
186,288,234553,2,0,P|115:319|42:294,1,157.500006008148,8|0,0:0|0:0,0:0:0:0:
7,147,234790,2,0,L|18:60,1,78.7500030040742,10|0,0:0|0:0,0:0:0:0:
197,202,234948,6,0,L|186:289,1,78.7500030040742,8|0,0:0|0:0,0:0:0:0:
12,156,235106,2,0,L|31:0,1,157.500006008148,8|0,0:0|0:0,0:0:0:0:
186,85,235342,2,0,P|81:105|34:69,1,157.500006008148,8|0,0:0|0:0,0:0:0:0:
187,94,235579,2,0,P|104:118|33:81,1,157.500006008148,10|0,0:0|0:0,0:0:0:0:
268,24,235816,2,0,L|260:115,1,78.7500030040742,8|2,0:0|0:0,0:0:0:0:
249,238,235974,2,0,L|242:316,2,78.7500030040742,8|0|0,0:0|1:0|1:0,0:0:0:0:
268,111,236211,6,0,L|274:32,1,78.7500030040742,12|0,0:2|0:0,0:0:0:0:
155,141,236369,2,0,L|322:121,1,157.500006008148,8|0,0:0|0:0,0:0:0:0:
389,4,236606,2,0,L|222:24,1,157.500006008148,8|0,0:0|0:0,0:0:0:0:
66,42,236842,2,0,P|18:139|40:204,1,157.500006008148,8|0,0:0|0:0,0:0:0:0:
311,122,237079,2,0,L|155:141,1,157.500006008148,8|0,0:0|0:0,0:0:0:0:
387,151,237316,2,0,P|390:102|372:68,1,78.7500030040742,10|0,0:0|0:0,0:0:0:0:
111,204,237474,6,0,P|108:253|126:287,1,78.7500030040742,8|0,0:0|0:0,0:0:0:0:
345,243,237632,2,0,L|187:232,1,157.500006008148,8|0,0:0|0:0,0:0:0:0:
398,308,237869,2,0,L|387:150,1,157.500006008148,8|0,0:0|0:0,0:0:0:0:
455,13,238106,2,0,P|382:43|294:9,1,157.500006008148,10|0,0:0|0:0,0:0:0:0:
207,104,238342,2,0,P|151:85|102:100,2,78.7500030040742,8|2|0,0:0|1:2|1:0,0:0:0:0:
275,218,238579,2,0,L|261:316,1,78.7500030040742,8|0,0:2|0:0,0:0:0:0:
296,108,238737,6,0,L|273:290,1,183.750001752377,12|0,0:0|0:0,0:0:0:0:
464,212,238974,2,0,P|381:164|285:194,1,183.750001752377,10|0,0:0|0:0,0:0:0:0:
190,293,239211,2,0,L|201:392,1,91.8750008761883,10|0,0:0|0:0,0:0:0:0:
172,198,239369,2,0,L|194:395,1,183.750001752377,10|0,0:0|0:0,0:0:0:0:
10,300,239606,2,0,P|110:247|180:284,1,183.750001752377,10|0,0:0|0:0,0:0:0:0:
326,233,239842,2,0,P|370:256|443:245,1,91.8750008761883,10|0,0:0|0:0,0:0:0:0:
288,121,240000,6,0,L|310:318,1,183.750001752377,10|0,0:0|0:0,0:0:0:0:
491,223,240237,2,0,P|378:199|305:262,1,183.750001752377,10|0,0:0|0:0,0:0:0:0:
221,343,240474,2,0,P|162:358|96:331,1,91.8750008761883,10|0,0:0|0:0,0:0:0:0:
141,148,240632,2,0,B|182:124|182:124|166:260,1,183.750001752377,10|0,0:0|0:0,0:0:0:0:
70,99,240869,2,0,L|280:122,1,183.750001752377,10|0,0:0|0:0,0:0:0:0:
443,63,241106,2,0,P|417:108|420:158,1,91.8750008761883,10|0,0:0|0:0,0:0:0:0:
465,340,241264,5,10,0:0:0:0:
423,370,241342,1,8,0:0:0:0:
371,374,241421,1,8,0:0:0:0:
326,349,241500,1,10,0:0:0:0:
302,303,241579,1,8,0:0:0:0:
284,254,241658,1,8,0:0:0:0:
291,203,241737,1,10,0:0:0:0:
304,152,241816,1,8,0:0:0:0:
296,100,241895,6,8,L|256:82,1,26.25,10|8,0:0|0:0,0:0:0:0:
259,63,241974,2,8,L|216:70,1,26.25,8|8,0:0|0:0,0:0:0:0:
209,48,242053,2,8,L|177:77,1,26.25,8|8,0:0|0:0,0:0:0:0:
159,59,242132,2,8,L|150:91,1,26.25,10|8,0:0|0:0,0:0:0:0:
119,92,242211,2,8,L|126:129,1,26.25,8|8,0:0|0:0,0:0:0:0:
99,140,242290,2,8,L|126:167,1,26.25,8|8,0:0|0:0,0:0:0:0:
105,192,242369,2,8,L|142:207,1,26.25,10|8,0:0|0:0,0:0:0:0:
135,235,242448,2,8,L|170:234,1,26.25,8|8,0:0|0:0,0:0:0:0:
182,258,242527,6,0,L|306:244,1,105,0|2,1:0|0:0,0:0:0:0:
346,172,242764,1,0,0:0:0:0:
340,180,242842,2,0,P|326:256|357:300,1,105,0|2,0:0|0:0,0:0:0:0:
401,335,243079,1,0,0:0:0:0:
414,334,243158,2,0,L|481:326,1,52.5
326,370,243316,2,0,L|273:363,1,52.5,2|0,0:0|0:0,0:0:0:0:
108,382,243474,1,8,0:0:0:0:
72,342,243553,1,0,0:0:0:0:
54,287,243632,1,2,0:0:0:0:
61,224,243711,1,0,0:0:0:0:
101,169,243790,6,0,B|140:138|140:138|276:147,1,157.500006008148,6|0,1:2|0:0,0:0:0:0:
378,54,244027,1,2,0:0:0:0:
354,52,244106,2,0,L|191:37,1,157.500006008148,8|2,1:2|0:0,0:0:0:0:
115,342,244421,1,0,1:2:0:0:
136,352,244500,2,0,P|177:358|217:347,1,78.7500030040742,2|0,0:0|0:0,0:0:0:0:
350,230,244658,1,2,0:0:0:0:
326,231,244737,2,0,L|169:244,1,157.500006008148,10|2,1:2|0:0,0:0:0:0:
64,129,244974,1,2,0:0:0:0:
88,131,245053,6,0,L|250:145,1,157.500006008148,2|0,1:2|0:0,0:0:0:0:
436,165,245290,1,2,0:2:0:0:
457,167,245369,1,8,1:2:0:0:
155,39,245527,1,2,0:0:0:0:
331,304,245685,1,0,1:0:0:0:
345,285,245764,2,0,P|359:245|349:200,1,78.7500030040742,2|0,0:0|0:0,0:0:0:0:
196,195,245921,1,2,0:0:0:0:
182,214,246000,2,0,P|168:254|178:299,1,78.7500030040742,8|0,1:2|0:0,0:0:0:0:
275,166,246158,2,0,L|282:79,1,78.7500030040742,2|0,0:0|0:0,0:0:0:0:
96,20,246316,6,0,B|74:51|74:51|86:191,1,157.500006008148,2|0,1:2|0:0,0:0:0:0:
1,324,246553,1,2,0:0:0:0:
25,311,246632,2,0,B|95:283|95:283|174:304,1,157.500006008148,8|2,1:2|0:0,0:0:0:0:
484,368,246948,1,0,1:2:0:0:
486,344,247027,2,0,L|493:254,1,78.7500030040742,2|0,0:0|0:0,0:0:0:0:
369,163,247185,1,2,0:0:0:0:
371,187,247264,2,0,L|378:276,1,78.7500030040742,10|0,1:2|0:0,0:0:0:0:
501,85,247421,1,2,0:0:0:0:
462,81,247500,1,2,0:0:0:0:
422,78,247579,6,0,B|356:72|356:72|327:81|327:81|263:76,1,157.500006008148,2|0,1:2|0:0,0:0:0:0:
69,66,247816,1,2,0:2:0:0:
44,63,247895,1,8,1:2:0:0:
316,3,248053,1,2,0:2:0:0:
61,188,248211,1,0,1:0:0:0:
24,233,248290,1,2,0:0:0:0:
27,290,248369,1,2,0:0:0:0:
67,333,248448,1,2,0:0:0:0:
102,259,248527,5,10,1:2:0:0:
98,219,248606,1,2,0:0:0:0:
95,180,248685,1,2,0:0:0:0:
91,141,248764,1,2,0:0:0:0:
88,102,248842,6,0,B|130:85|130:85|254:96,1,157.500006008148,2|0,1:2|0:0,0:0:0:0:
400,108,249079,1,2,0:0:0:0:
423,109,249158,1,8,1:2:0:0:
195,13,249316,1,2,0:0:0:0:
385,264,249474,1,0,1:0:0:0:
406,275,249553,2,0,P|443:281|488:266,1,78.7500030040742,2|0,0:0|0:0,0:0:0:0:
326,182,249711,1,2,0:0:0:0:
305,171,249790,2,0,P|267:164|223:180,1,78.7500030040742,8|0,1:2|0:0,0:0:0:0:
53,284,249948,1,2,0:0:0:0:
85,281,250027,1,2,0:0:0:0:
116,277,250106,6,0,L|273:264,1,157.500006008148,2|0,1:2|0:0,0:0:0:0:
430,256,250342,1,2,0:0:0:0:
453,253,250421,1,8,1:2:0:0:
234,355,250579,1,2,0:0:0:0:
23,120,250737,1,0,1:0:0:0:
43,104,250816,2,0,P|81:91|131:103,1,78.7500030040742,2|0,0:0|0:0,0:0:0:0:
239,201,250974,1,2,0:0:0:0:
259,217,251053,2,0,P|297:230|347:218,1,78.7500030040742,8|0,1:2|0:0,0:0:0:0:
478,70,251211,1,2,0:0:0:0:
448,58,251290,1,2,0:0:0:0:
418,47,251369,6,0,L|433:222,1,157.500006008148,2|0,1:2|0:0,0:0:0:0:
444,362,251606,1,2,0:0:0:0:
446,384,251685,1,8,1:2:0:0:
347,136,251842,1,2,0:0:0:0:
199,349,252000,1,0,1:0:0:0:
146,373,252079,1,2,0:0:0:0:
88,365,252158,1,2,0:0:0:0:
45,326,252237,1,2,0:0:0:0:
112,295,252316,5,10,1:2:0:0:
133,262,252395,1,2,0:0:0:0:
141,224,252474,1,2,0:0:0:0:
135,185,252553,1,2,0:0:0:0:
115,152,252632,6,0,P|91:62|115:-5,1,157.500006008148,2|0,1:2|0:0,0:0:0:0:
247,71,252869,1,2,0:0:0:0:
228,73,252948,1,8,1:2:0:0:
512,11,253106,1,2,0:0:0:0:
508,49,253185,1,2,0:0:0:0:
505,88,253264,2,0,L|497:175,1,78.7500030040742,10|2,1:2|0:0,0:0:0:0:
365,370,253421,2,0,L|357:282,1,78.7500030040742,2|2,1:2|0:0,0:0:0:0:
135,63,253579,6,0,L|127:150,1,52.5,10|2,0:2|0:0,0:0:0:0:
41,306,253737,2,0,L|33:218,1,52.5,2|0,0:0|0:0,0:0:0:0:
235,0,253895,6,0,B|253:31|253:31|242:154,1,157.500006008148,6|0,1:2|0:0,0:0:0:0:
219,310,254132,1,2,0:0:0:0:
203,327,254211,2,0,P|169:343|105:333,1,78.7500030040742,8|0,1:2|0:0,0:0:0:0:
98,185,254369,2,0,P|132:169|196:179,1,78.7500030040742,2|0,0:0|0:0,0:0:0:0:
319,271,254527,1,0,1:0:0:0:
316,295,254606,2,0,L|308:375,2,78.7500030040742,2|0|2,0:0|0:0|0:0,0:0:0:0:
330,138,254842,2,2,P|410:110|482:143,1,157.500006008148,10|2,1:2|0:0,0:0:0:0:
450,284,255079,1,2,0:0:0:0:
428,282,255158,6,0,B|362:276|362:276|326:285|326:285|264:279,1,157.500006008148,2|0,1:2|0:0,0:0:0:0:
112,274,255395,1,2,0:0:0:0:
90,273,255474,1,8,1:2:0:0:
348,365,255632,1,2,0:0:0:0:
183,175,255790,1,0,1:0:0:0:
169,155,255869,2,0,P|158:110|170:76,1,78.7500030040742,2|2,0:0|0:0,0:0:0:0:
309,7,256027,1,2,0:0:0:0:
311,34,256106,2,0,L|318:118,1,78.7500030040742,8|0,1:2|0:0,0:0:0:0:
412,236,256264,2,0,L|404:320,1,78.7500030040742,2|0,0:0|0:0,0:0:0:0:
92,368,256421,6,0,B|63:295|63:295|96:210,1,157.500006008148,2|0,1:2|0:0,0:0:0:0:
162,78,256658,1,2,0:0:0:0:
174,57,256737,1,8,1:2:0:0:
158,295,256895,1,2,0:0:0:0:
429,134,257053,1,0,1:0:0:0:
439,111,257132,2,0,P|447:73|431:24,1,78.7500030040742,2|0,0:0|0:0,0:0:0:0:
277,32,257290,1,2,0:0:0:0:
267,55,257369,2,0,P|259:93|274:141,1,78.7500030040742,10|0,1:2|0:0,0:0:0:0:
445,265,257527,1,2,0:0:0:0:
457,235,257606,1,2,0:0:0:0:
468,205,257685,6,0,L|292:220,1,157.500006008148,2|0,1:2|0:0,0:0:0:0:
154,234,257921,1,2,0:0:0:0:
132,236,258000,1,8,1:2:0:0:
421,308,258158,1,2,0:0:0:0:
168,119,258316,2,0,P|118:114|72:130,1,78.7500030040742,0|2,1:2|0:0,0:0:0:0:
96,357,258474,2,0,P|146:362|192:346,1,78.7500030040742,2|2,1:2|0:0,0:0:0:0:
344,189,258632,5,10,0:0:0:0:
339,228,258711,1,2,0:0:0:0:
334,267,258790,1,2,0:0:0:0:
329,306,258869,1,2,0:0:0:0:
325,345,258948,6,0,B|301:278|301:278|351:116,2,236.250009012223,6|2|2,1:2|0:0|0:0,0:0:0:0:
496,75,259579,2,0,L|197:93,2,236.250009012223,10|2|2,0:0|0:0|0:0,0:0:0:0:
487,88,260132,1,2,0:0:0:0:
478,101,260211,6,0,L|179:119,2,236.250009012223,6|2|2,1:2|0:0|0:0,0:0:0:0:
241,240,260842,2,0,B|201:82|201:82|237:19,2,236.250009012223,10|2|2,0:0|0:0|0:0,0:0:0:0:
246,255,261395,1,2,0:0:0:0:
251,269,261474,6,0,P|207:296|136:277,2,105.000004005432,4|0|0,1:2|0:0|0:0,0:0:0:0:
297,172,261790,6,0,L|276:88,1,78.7500030040742,2|0,0:0|0:0,0:0:0:0:
251,269,261948,2,0,L|279:360,1,78.7500030040742,2|2,0:0|0:0,0:0:0:0:
305,165,262106,2,0,L|284:81,1,78.7500030040742,2|2,0:0|0:0,0:0:0:0:
259,262,262264,2,0,L|287:353,1,78.7500030040742,2|0,0:0|0:0,0:0:0:0:
153,176,262421,6,0,P|126:165|73:175,3,52.5,2|2|2|2,0:0|0:0|1:2|1:2,0:0:0:0:
166,19,262737,6,0,L|150:220,1,157.500006008148,14|0,1:2|0:0,0:0:0:0:
31,359,262974,2,0,P|132:308|203:336,1,157.500006008148,6|0,1:2|0:0,0:0:0:0:
373,304,263211,2,0,P|407:326|483:324,2,78.7500030040742,14|2|2,1:2|0:0|0:0,0:0:0:0:
434,89,263448,2,0,P|438:127|417:183,1,78.7500030040742,10|2,1:2|0:0,0:0:0:0:
184,144,263606,2,0,P|180:106|201:50,1,78.7500030040742,10|2,1:2|0:2,0:0:0:0:
292,256,263764,1,2,1:2:0:0:
290,271,263842,2,0,L|277:377,1,78.7500030040742,2|2,1:2|0:0,0:0:0:0:
309,115,264000,6,0,L|321:8,1,105,4|0,1:0|0:0,0:0:0:0:
345,222,264316,2,0,P|295:234|235:197,1,105,8|0,1:2|0:0,0:0:0:0:
143,8,264632,2,0,L|154:112,1,105,0|0,1:0|0:0,0:0:0:0:
65,250,264948,1,10,1:2:0:0:
33,62,265106,1,2,0:0:0:0:
127,321,265264,6,0,P|220:339|291:290,1,157.5,0|0,1:0|0:0,0:0:0:0:
307,246,265579,2,0,L|296:133,1,105,8|0,1:2|0:0,0:0:0:0:
464,24,265895,2,0,L|453:128,1,105,2|0,1:2|0:0,0:0:0:0:
299,252,266211,2,0,L|288:139,1,105,10|0,1:2|0:0,0:0:0:0:
489,320,266527,6,0,P|439:340|378:326,1,105,2|0,1:2|0:0,0:0:0:0:
222,215,266842,2,0,P|172:195|111:209,1,105,8|0,1:2|0:0,0:0:0:0:
144,0,267158,2,0,P|194:20|255:6,1,105,0|0,1:0|0:0,0:0:0:0:
390,135,267474,1,10,1:2:0:0:
104,97,267632,1,2,0:0:0:0:
431,53,267790,6,0,L|445:230,1,157.5,0|0,1:0|0:0,0:0:0:0:
414,278,268106,2,0,P|367:301|291:279,1,105,8|0,1:2|0:0,0:0:0:0:
110,177,268421,2,0,L|131:310,1,105,2|0,1:2|0:0,0:0:0:0:
140,42,268737,2,0,P|65:39|33:59,1,105,10|0,1:2|0:0,0:0:0:0:
301,172,269053,6,0,L|405:154,1,105,2|0,1:2|0:0,0:0:0:0:
184,269,269369,1,10,1:2:0:0:
297,46,269527,1,2,0:0:0:0:
336,290,269685,1,0,1:0:0:0:
159,115,269842,1,2,0:0:0:0:
405,154,270000,1,8,1:2:0:0:
68,215,270158,1,2,0:0:0:0:
292,92,270316,5,0,1:2:0:0:
58,216,270474,1,2,0:0:0:0:
282,339,270632,5,8,1:2:0:0:
48,217,270790,1,2,0:0:0:0:
272,94,270948,5,0,1:0:0:0:
99,315,271106,1,2,0:0:0:0:
111,32,271264,1,8,1:2:0:0:
263,268,271421,1,2,0:0:0:0:
1,166,271579,5,0,1:0:0:0:
272,94,271737,1,2,0:0:0:0:
99,315,271895,2,0,L|108:197,1,105,8|0,1:2|0:0,0:0:0:0:
158,0,272211,2,0,L|165:104,1,105,0|0,1:0|0:0,0:0:0:0:
194,375,272527,1,10,1:2:0:0:
68,129,272685,1,2,1:2:0:0:
360,245,272842,6,0,L|503:225,1,105,14|0,1:2|0:0,0:0:0:0:
184,268,273079,2,0,L|327:248,1,105,12|0,1:2|0:0,0:0:0:0:
8,291,273316,2,0,L|151:271,1,105,12|2,1:2|0:0,0:0:0:0:
213,157,273553,2,0,L|203:105,2,52.5,12|2|0,0:0|0:1|0:0,0:0:0:0:
191,334,273790,6,0,B|201:277|201:277|190:257|190:257|200:203|200:203|190:180|190:180|205:93,1,236.250009012223,2|0,0:0|0:0,0:0:0:0:
310,6,274106,6,0,L|324:137,1,105,4|0,1:1|0:0,0:0:0:0:
346,310,274421,2,0,P|420:329|466:307,1,105,8|0,1:2|0:0,0:0:0:0:
176,201,274737,2,0,L|50:215,1,105,0|0,1:0|0:0,0:0:0:0:
276,380,275053,1,10,1:2:0:0:
239,110,275211,1,2,0:0:0:0:
62,327,275369,6,0,B|111:358|111:358|238:342,1,157.5,0|0,1:0|0:0,0:0:0:0:
276,380,275685,2,0,L|402:366,1,105,8|0,1:2|0:0,0:0:0:0:
482,198,276000,2,0,P|423:187|360:214,1,105,2|0,1:2|0:0,0:0:0:0:
172,145,276316,2,0,P|113:156|50:129,1,105,10|0,1:2|0:0,0:0:0:0:
328,28,276632,6,0,L|313:132,1,105,2|0,1:2|0:0,0:0:0:0:
198,332,276948,2,0,L|183:227,1,105,8|0,1:2|0:0,0:0:0:0:
403,94,277264,2,0,P|410:148|382:202,1,105,0|0,1:0|0:0,0:0:0:0:
96,301,277579,1,10,1:2:0:0:
175,27,277737,1,2,0:0:0:0:
271,248,277895,6,0,L|130:232,1,105,0|0,1:0|0:0,0:0:0:0:
271,93,278132,1,0,1:0:0:0:
268,103,278211,1,8,1:2:0:0:
266,113,278290,2,0,L|250:205,1,52.5,0|0,1:0|1:0,0:0:0:0:
175,27,278448,1,0,1:0:0:0:
165,22,278527,2,0,P|108:4|50:35,1,105,2|2,1:2|0:0,0:0:0:0:
110,156,278842,6,2,L|115:86,2,70
92,341,279158,5,12,0:0:0:0:
349,201,279316,1,0,1:0:0:0:
59,254,279474,1,0,1:0:0:0:
420,341,279632,5,12,0:0:0:0:
163,201,279790,1,0,1:0:0:0:
453,254,279948,1,0,1:0:0:0:
59,254,280106,6,0,P|47:203|67:138,1,105,14|0,0:0|0:0,0:0:0:0:
410,42,280421,5,14,0:0:0:0:
333,287,280579,1,0,1:0:0:0:
317,34,280737,1,2,1:2:0:0:
273,376,280895,5,14,0:2:0:0:
350,131,281053,1,0,1:0:0:0:
366,384,281211,1,2,1:2:0:0:
67,209,281369,6,0,P|113:185|183:198,1,105,12|2,0:0|0:2,0:0:0:0:
455,311,281685,5,12,0:0:0:0:
176,308,281842,1,2,1:2:0:0:
419,211,282000,1,0,1:0:0:0:
45,284,282158,5,8,0:0:0:0:
324,287,282316,1,4,1:2:0:0:
80,384,282474,1,0,1:0:0:0:
464,278,282632,6,0,L|410:282,3,52.5,10|0|8|8,0:0|1:0|1:3|1:2,0:0:0:0:
369,350,282948,6,0,B|423:252|333:252|375:147,1,210,2|0,1:0|0:0,0:0:0:0:
374,148,283421,1,2,0:0:0:0:
374,148,283579,2,2,P|432:128|487:152,1,105,2|2,0:0|0:0,0:0:0:0:
482,256,283895,2,2,P|424:276|369:252,1,105,10|2,0:0|0:0,0:0:0:0:
243,98,284211,6,0,L|237:32,2,52.5,4|0|0,1:0|0:0|0:0,0:0:0:0:
251,171,284685,1,2,0:0:0:0:
443,139,284842,2,0,L|373:131,1,52.5,8|0,0:0|0:0,0:0:0:0:
317,126,285158,1,2,0:0:0:0:
380,294,285316,1,2,1:2:0:0:
359,64,285474,6,0,L|352:-2,2,52.5,2|0|0,1:2|0:0|0:0,0:0:0:0:
391,133,285948,1,2,0:0:0:0:
189,114,286106,2,0,L|119:106,1,52.5,8|0,0:0|0:0,0:0:0:0:
63,101,286421,1,2,0:0:0:0:
63,101,286579,1,2,0:0:0:0:
254,154,286737,6,0,P|264:122|261:97,1,52.5,2|0,1:2|0:0,0:0:0:0:
189,89,287053,2,0,P|179:121|182:146,1,52.5,2|0,0:0|0:0,0:0:0:0:
282,281,287369,2,0,L|352:273,1,52.5,10|0,0:2|0:0,0:0:0:0:
407,268,287685,1,2,0:1:0:0:
407,268,287842,1,2,1:2:0:0:
213,247,288000,6,0,P|204:286|225:336,2,78.75,2|0|0,1:2|1:0|1:0,0:0:0:0:
313,117,288632,2,0,L|307:194,1,52.5,8|0,0:2|0:0,0:0:0:0:
385,176,288948,2,0,L|391:99,1,52.5,2|0,0:1|0:0,0:0:0:0:
348,298,289264,6,0,P|384:307|408:302,2,52.5,2|0|0,1:2|0:0|0:0,0:0:0:0:
291,246,289737,1,2,0:0:0:0:
471,276,289895,2,0,P|478:310|470:339,1,52.5,8|0,0:0|0:0,0:0:0:0:
419,376,290211,1,2,0:0:0:0:
419,376,290369,1,2,1:2:0:0:
394,212,290527,6,0,L|403:144,1,52.5,2|0,1:2|0:0,0:0:0:0:
414,87,290842,1,2,0:0:0:0:
414,87,291000,1,2,0:0:0:0:
353,283,291158,2,0,P|381:293|420:288,1,52.5,8|0,0:0|0:0,0:0:0:0:
460,245,291474,1,2,0:0:0:0:
460,245,291632,1,2,0:0:0:0:
273,226,291790,6,0,L|204:235,1,52.5,2|2,1:1|0:1,0:0:0:0:
147,241,292106,1,2,0:0:0:0:
147,241,292264,1,2,0:0:0:0:
334,122,292421,2,0,L|324:190,1,52.5,8|2,0:2|0:1,0:0:0:0:
345,245,292737,1,2,0:0:0:0:
345,245,292895,1,2,1:2:0:0:
372,62,293053,6,0,L|272:74,2,78.75,2|2|2,1:2|1:0|1:0,0:0:0:0:
161,299,293685,6,0,L|155:204,1,78.7500030040742,10|2,0:2|0:0,0:0:0:0:
125,74,293921,2,0,L|115:124,1,39.3750015020371,8|2,0:0|0:0,0:0:0:0:
59,351,294079,1,8,0:0:0:0:
57,358,294158,1,10,0:0:0:0:
305,253,294316,6,0,L|446:266,1,105,12|0,1:2|0:0,0:0:0:0:
161,178,294632,1,8,1:2:0:0:
247,351,294790,1,2,0:0:0:0:
420,149,294948,2,0,P|440:92|421:32,1,105,8|0,1:2|0:0,0:0:0:0:
128,59,295264,1,10,1:2:0:0:
342,90,295421,1,2,0:0:0:0:
72,0,295579,6,0,L|86:126,1,105,10|0,1:2|0:0,0:0:0:0:
124,382,295895,1,8,1:2:0:0:
34,176,296053,1,2,0:0:0:0:
264,347,296211,2,0,P|345:353|381:330,1,105,8|0,1:2|0:0,0:0:0:0:
331,30,296527,1,10,1:2:0:0:
312,261,296685,1,2,0:0:0:0:
507,102,296842,6,0,L|386:114,1,105,10|0,1:2|0:0,0:0:0:0:
69,145,297158,2,0,L|190:133,1,105,10|0,1:2|0:0,0:0:0:0:
438,222,297474,2,0,P|460:274|443:342,1,105,10|0,1:2|0:0,0:0:0:0:
117,328,297790,1,10,1:2:0:0:
363,285,297948,1,2,0:0:0:0:
55,384,298106,6,0,L|69:274,1,105,10|0,1:2|0:0,0:0:0:0:
284,135,298421,2,0,P|296:205|270:253,1,105,10|0,1:2|0:0,0:0:0:0:
185,51,298737,2,0,L|190:8,6,26.25,2|0|0|0|2|0|0,0:0|0:0|0:0|0:0|0:1|0:0|0:0,0:0:0:0:
175,131,299053,2,0,L|167:200,1,52.5,2|0,0:0|0:0,0:0:0:0:
157,262,299211,2,0,L|149:331,1,52.5,2|0,0:0|0:0,0:0:0:0:
74,361,299369,6,0,B|150:334|150:334|224:376,1,157.500006008148,14|0,1:2|0:0,0:0:0:0:
329,274,299606,2,0,P|425:307|491:265,1,157.500006008148,8|0,1:2|0:0,0:0:0:0:
397,129,299842,2,0,L|407:237,1,78.7500030040742,10|0,1:2|0:0,0:0:0:0:
466,63,300000,2,0,B|391:43|391:43|307:80,1,157.500006008148,8|0,1:2|0:0,0:0:0:0:
156,13,300237,2,0,P|199:125|174:184,1,157.500006008148,10|0,1:2|0:0,0:0:0:0:
99,292,300474,2,0,P|90:243|109:191,1,78.7500030040742,8|0,1:2|0:0,0:0:0:0:
405,195,300632,6,0,B|429:268|429:268|378:370,1,157.500006008148,10|0,1:2|0:0,0:0:0:0:
188,250,300869,2,0,L|369:263,1,157.500006008148,10|0,1:2|0:0,0:0:0:0:
258,363,301106,2,0,L|265:258,1,78.7500030040742,10|0,1:2|0:0,0:0:0:0:
233,33,301264,2,0,B|189:99|189:99|227:181,1,157.500006008148,8|0,1:2|0:0,0:0:0:0:
482,303,301500,2,0,P|393:250|311:290,1,157.500006008148,10|0,1:2|0:0,0:0:0:0:
171,370,301737,2,0,P|125:378|76:352,1,78.7500030040742,8|0,1:2|0:0,0:0:0:0:
119,158,301895,5,10,1:2:0:0:
145,186,301974,1,8,1:2:0:0:
157,223,302053,1,8,1:2:0:0:
153,262,302132,1,8,1:2:0:0:
134,296,302211,2,8,L|41:284,1,78.7500030040742,10|8,1:2|1:2,1:2:0:0:
269,184,302369,2,8,L|362:196,1,78.7500030040742,10|8,1:2|1:2,1:2:0:0:
227,384,302527,2,8,L|215:291,1,78.7500030040742,8|8,1:2|1:2,1:2:0:0:
310,34,302685,2,8,L|322:127,1,78.7500030040742,10|8,1:2|1:2,1:2:0:0:
487,353,302842,2,8,L|494:291,6,39.3750015020371,8|8|8|8|8|8|8,1:2|1:2|1:2|1:2|1:2|1:2|1:2,1:2:0:0:
502,240,303158,5,0,1:0:0:0:
502,240,304106,5,0,3:0:0:0:
451,249,304185,1,8,3:0:0:0:
400,258,304264,1,2,3:0:0:0:
350,267,304342,1,2,3:0:0:0:
299,276,304421,6,0,B|275:256|275:256|301:116,1,157.5,0|0,1:0|0:0,0:0:0:0:
134,12,304737,6,0,B|120:58|142:101|142:101|131:153|131:153|149:202|141:269,1,236.250009012223,12|0,1:2|0:0,0:0:0:0:
77,373,305053,6,0,P|23:384|-16:376,2,70,0|2|2,1:0|0:0|0:0,0:0:0:0:
248,129,305369,6,0,P|345:138|389:289,1,236.250009012223,8|0,1:2|0:0,0:0:0:0:
190,303,305685,6,0,L|211:38,1,236.250009012223,2|0,1:2|0:0,0:0:0:0:
400,253,306000,1,8,1:2:0:0:
343,255,306079,1,0,0:0:0:0:
297,219,306158,1,2,0:0:0:0:
285,163,306237,1,2,0:0:0:0:
313,112,306316,6,0,P|335:97|364:88,1,52.5,0|0,1:0|0:0,0:0:0:0:
282,214,306474,2,0,P|282:137|302:111,1,105,2|8,0:0|1:2,0:0:0:0:
295,117,306711,2,0,P|296:195|275:222,1,105,2|0,0:1|0:0,0:0:0:0:
118,144,306948,5,2,1:0:0:0:
438,177,307106,1,2,1:0:0:0:
218,270,307264,1,8,1:2:0:0:
201,237,307342,1,0,0:0:0:0:
199,200,307421,1,2,0:0:0:0:
213,166,307500,1,2,0:0:0:0:
268,146,307579,5,0,1:0:0:0:
280,111,307658,1,0,0:0:0:0:
273,74,307737,1,2,0:1:0:0:
249,46,307816,1,2,0:1:0:0:
190,37,307895,6,0,B|300:0|303:107|444:33,1,236.250009012223,10|0,1:2|0:0,0:0:0:0:
179,42,308211,6,0,P|139:65|120:83,1,52.5,2|0,1:2|0:0,0:0:0:0:
428,42,308369,2,0,P|468:19|487:1,1,52.5,2|0,0:2|0:0,0:0:0:0:
187,50,308527,6,0,P|147:73|128:91,1,52.5,8|0,1:2|0:0,0:0:0:0:
420,34,308685,2,0,P|460:11|479:-7,1,52.5,2|0,0:0|0:0,0:0:0:0:
282,193,308842,1,0,1:0:0:0:
306,238,308921,1,2,0:0:0:0:
354,258,309000,1,0,0:0:0:0:
403,241,309079,1,2,0:0:0:0:
429,197,309158,2,0,L|424:152,6,26.25,10|0|0|0|2|0|0,1:2|0:0|0:0|0:0|0:1|0:0|0:0,0:0:0:0:
448,322,309474,6,0,L|430:155,1,157.500006008148,0|0,1:0|0:0,0:0:0:0:
507,53,309711,1,0,1:0:0:0:
493,59,309790,2,0,P|437:61|387:41,1,78.7500030040742,0|0,1:0|0:0,0:0:0:0:
264,0,309948,2,0,P|308:90|287:171,1,157.500006008148,0|0,1:0|0:0,0:0:0:0:
223,274,310185,1,0,1:0:0:0:
218,287,310264,2,0,P|212:338|229:378,1,78.7500030040742,0|0,1:0|0:0,0:0:0:0:
393,200,310421,6,0,B|293:220|293:220|231:198|231:198|139:215,1,236.250009012223,12|0,0:0|0:0,0:0:0:0:
64,361,310737,6,0,P|132:258|59:148,1,236.250009012223,2|0,1:2|0:0,0:0:0:0:
5,8,311053,1,10,1:2:0:0:
43,44,311132,1,0,0:3:0:0:
92,62,311211,1,10,0:3:0:0:
144,58,311290,1,10,0:3:0:0:
190,33,311369,6,0,P|221:23|254:22,1,52.5,2|2,1:2|0:1,0:0:0:0:
279,212,311527,2,0,P|248:222|215:223,1,52.5,2|2,0:0|0:1,0:0:0:0:
363,97,311685,6,0,B|394:90|394:90|375:253,1,157.5,10|0,0:2|0:0,0:0:0:0:
460,363,312000,6,0,B|419:337|419:337|290:352,1,157.5,4|2,1:2|0:0,0:0:0:0:
237,359,312316,1,8,1:2:0:0:
257,199,312474,2,0,L|265:128,1,52.5,2|2,0:0|0:1,0:0:0:0:
103,138,312632,1,0,1:0:0:0:
107,164,312711,2,0,L|113:216,2,52.5,2|0|2,0:0|0:0|0:0,0:0:0:0:
92,40,312948,1,10,1:2:0:0:
18,243,313106,1,2,1:1:0:0:
31,265,313185,1,0,1:1:0:0:
43,284,313264,6,0,P|127:313|192:274,1,157.500006008148,12|0,1:2|0:0,0:0:0:0:
183,93,313500,2,0,P|116:151|118:227,1,157.500006008148,10|0,1:2|0:0,0:0:0:0:
282,346,313737,2,0,L|398:332,1,78.7500030040742,8|0,1:2|0:0,0:0:0:0:
444,217,313895,1,8,0:0:0:0:
410,235,313974,1,0,3:0:0:0:
371,241,314053,1,8,3:0:0:0:
333,231,314132,1,8,3:0:0:0:
295,223,314211,1,2,3:0:0:0:
256,227,314290,1,2,3:0:0:0:
220,243,314369,6,0,P|211:276|217:319,1,52.5,2|0,0:2|0:0,0:0:0:0:
432,95,314527,6,0,B|340:113|340:113|309:92|309:92|181:115,1,236.250009012223,4|0,1:0|0:0,0:0:0:0:
118,34,314842,1,0,3:0:0:0:
170,62,314921,1,8,3:3:0:0:
198,112,315000,1,2,3:3:0:0:
196,171,315079,1,2,3:3:0:0:
163,219,315158,6,0,P|123:236|63:228,2,70,8|2|2,0:2|0:0|0:0,0:0:0:0:
304,15,315474,6,0,P|410:38|395:177,1,236.250009012223,2|0,0:0|0:0,0:0:0:0:
270,342,315790,6,0,B|227:308|227:308|451:317,1,236.250009012223,2|0,1:1|0:0,0:0:0:0:
172,384,316106,1,0,3:0:0:0:
135,339,316185,1,8,3:0:0:0:
132,281,316264,1,2,3:0:0:0:
163,232,316342,1,2,3:0:0:0:
217,212,316421,6,0,L|294:213,1,52.5,8|0,0:0|0:0,0:0:0:0:
129,267,316579,2,0,P|164:219|216:207,1,105,2|0,0:0|0:0,0:0:0:0:
205,206,316816,2,0,P|171:255|121:267,1,105,2|0,0:0|0:0,0:0:0:0:
50,86,317053,5,2,1:2:0:0:
270,366,317211,1,2,1:0:0:0:
130,188,317369,6,0,L|134:138,2,35,2|0|0,0:1|0:0|0:0,0:0:0:0:
125,177,317527,2,0,L|130:111,1,52.5,2|0,0:0|0:0,0:0:0:0:
54,315,317685,6,0,L|61:401,2,70,8|0|0,0:0|0:0|0:0,0:0:0:0:
28,9,318000,6,0,B|91:4|129:50|129:50|183:-6|255:9,1,236.250009012223,2|0,0:0|0:0,0:0:0:0:
32,20,318316,6,0,P|64:21|104:42,1,52.5,2|0,1:2|0:0,0:0:0:0:
36,31,318474,2,0,P|68:32|108:53,1,52.5,2|0,0:0|0:0,0:0:0:0:
235,18,318632,6,0,P|203:19|163:40,1,52.5
231,29,318790,2,0,P|199:30|159:51,1,52.5,2|0,0:0|0:0,0:0:0:0:
144,219,318948,1,10,0:0:0:0:
184,252,319027,1,2,0:0:0:0:
235,257,319106,1,0,0:0:0:0:
279,231,319185,1,2,0:0:0:0:
300,183,319264,2,0,L|294:134,6,26.25,2|0|0|0|2|0|0,0:0|0:0|0:0|0:0|0:1|0:0|0:0,0:0:0:0:
379,272,319579,6,0,B|381:206|325:167|325:167|363:111|343:43,1,236.250009012223,4|0,1:0|0:0,0:0:0:0:
67,20,319895,1,0,3:3:0:0:
48,74,319974,1,8,3:3:0:0:
62,131,320053,1,2,3:3:0:0:
103,172,320132,1,0,3:3:0:0:
160,183,320211,6,0,L|259:175,2,70,8|2|2,0:0|0:0|0:0,0:0:0:0:
6,238,320527,6,0,B|49:199|49:199|260:184,1,236.250009012223,2|0,0:0|0:0,0:0:0:0:
486,220,320842,6,0,B|443:259|443:259|232:274,1,236.250009012223,2|0,1:1|0:0,0:0:0:0:
157,72,321158,1,0,3:0:0:0:
204,36,321237,1,8,3:0:0:0:
262,35,321316,1,2,3:0:0:0:
309,68,321395,1,2,3:0:0:0:
328,123,321474,6,0,P|327:160|317:194,1,52.5,8|0,0:0|0:0,0:0:0:0:
121,267,321632,2,0,P|155:249|189:241,1,52.5,2|2,0:0|0:1,0:0:0:0:
454,336,321790,2,0,P|325:351|301:326,1,157.5,2|0,0:0|0:0,0:0:0:0:
409,125,322106,6,0,B|422:203|422:203|381:271,1,157.500006008148,12|0,1:2|0:0,0:0:0:0:
195,174,322342,2,0,L|307:183,1,78.7500030040742,10|0,1:2|0:0,0:0:0:0:
86,227,322500,1,2,0:0:0:0:
80,208,322579,2,0,L|53:115,2,78.7500030040742,8|0|0,1:2|0:0|0:0,0:0:0:0:
137,379,322816,1,10,1:2:0:0:
153,367,322895,2,0,P|217:352|258:370,1,78.7500030040742,2|0,0:0|0:0,0:0:0:0:
416,298,323053,6,0,P|316:290|334:138,1,236.250009012223,0|0,1:0|0:0,0:0:0:0:
436,66,323369,6,0,B|379:89|379:89|252:68,1,157.500006008148,12|0,1:2|0:0,0:0:0:0:
120,17,323606,2,0,L|133:133,1,78.7500030040742,2|0,1:2|0:0,0:0:0:0:
102,312,323764,1,0,0:0:0:0:
118,300,323842,2,0,P|158:279|222:274,2,78.7500030040742,2|0|0,1:2|0:0|0:0,0:0:0:0:
334,357,324079,2,0,P|374:378|438:383,2,78.7500030040742,2|0|0,1:2|0:0|0:0,0:0:0:0:
333,118,324316,1,2,0:0:0:0:
384,88,324395,1,2,0:0:0:0:
441,93,324474,1,2,0:0:0:0:
485,131,324553,1,2,0:0:0:0:
499,188,324632,6,0,L|478:348,2,157.5,4|2|2,1:2|0:0|0:0,0:0:0:0:
417,53,326053,2,0,P|343:20|271:42,1,157.5,2|2,0:0|0:0,0:0:0:0:
273,40,327158,6,2,L|113:16,2,157.5
393,149,328579,2,2,P|420:223|373:292,1,157.5
382,286,329685,6,2,L|404:114,2,157.5
272,176,331106,2,2,P|207:158|118:202,1,157.5
127,192,332211,6,2,B|132:256|132:256|125:271|125:271|132:350,1,157.5
385,192,333474,2,2,B|380:128|380:128|387:113|387:113|379:33,1,157.5
318,301,334737,6,0,P|402:320|477:283,4,157.5,2|0|2|0|0,0:0|0:0|0:0|0:0|0:0,0:0:0:0:
318,301,337264,2,0,P|234:282|159:319,4,157.5,2|0|0|0|2,0:0|0:0|0:0|0:0|0:0,0:0:0:0:
318,301,339790,6,0,L|307:126,4,157.5,2|0|2|0|0,0:0|0:0|0:0|0:0|0:0,0:0:0:0:
324,291,342316,2,0,L|313:116,4,157.5,2|0|0|0|0,0:0|0:0|0:0|0:0|0:0,0:0:0:0:
