osu file format v14

[General]
AudioFilename: audio.mp3
AudioLeadIn: 0
PreviewTime: 49264
Countdown: 0
SampleSet: Soft
StackLeniency: 0.7
Mode: 0
LetterboxInBreaks: 0
WidescreenStoryboard: 1

[Editor]
Bookmarks: 67244,67341
DistanceSpacing: 1.4
BeatDivisor: 3
GridSize: 8
TimelineZoom: 1.100006

[Metadata]
Title:Uh Huh!
TitleUnicode:Uh Huh!
Artist:Quadeca
ArtistUnicode:Quadeca
Creator:Teddison
Version:Normal
Source:
Tags:Hip Hop
BeatmapID:2006380
BeatmapSetID:958260

[Difficulty]
HPDrainRate:2.5
CircleSize:3
OverallDifficulty:2.2
ApproachRate:4
SliderMultiplier:1.49999990463257
SliderTickRate:1

[Events]
//Background and Video events
0,0,"voice memos.jpg",0,0
//Break Periods
2,36387,47944
//Storyboard Layer 0 (Background)
//Storyboard Layer 1 (Fail)
//Storyboard Layer 2 (Pass)
//Storyboard Layer 3 (Foreground)
//Storyboard Sound Samples

[TimingPoints]
12341,384.615384615385,4,2,0,20,1,0
13879,-119.047619047619,4,2,0,20,0,0
15289,-100,4,2,0,20,0,0
20033,-149.253731343284,4,2,0,20,0,0
49264,-149.253731343284,4,2,0,20,0,1
51443,-41.6666666666667,4,2,0,20,0,1
51956,-149.253731343284,4,2,0,20,0,1
54520,-41.6666666666667,4,2,0,20,0,1
55033,-149.253731343284,4,2,0,20,0,1
56443,-200,4,2,0,20,0,1
57597,-41.6666666666667,4,2,0,20,0,1
58879,-100,4,2,0,20,0,1
59648,-79.3650793650794,4,2,0,20,0,1
61187,-41.6666666666667,4,2,0,20,0,0
61571,-100,4,2,0,20,0,0
80802,-50,4,2,0,20,0,0
82341,-66.6666666666667,4,2,0,20,0,0
83110,-59.1715976331361,4,2,0,20,0,0
84648,-114.942528735632,4,2,0,20,0,0
85417,-51.8134715025907,4,2,0,20,0,0
86571,-62.5,4,2,0,20,0,0
87341,-149.253731343284,4,2,0,20,0,0
88366,-41.6666666666667,4,2,0,20,0,0
88879,-74.0740740740741,4,2,0,20,0,0
89264,-74.0740740740741,4,2,0,20,0,1
90417,-149.253731343284,4,2,0,20,0,1
91443,-41.6666666666667,4,2,0,20,0,1
92341,-100,4,2,0,20,0,1
93366,-149.253731343284,4,2,0,20,0,1
94520,-41.6666666666667,4,2,0,20,0,1
97725,-125,4,2,0,20,0,0

[HitObjects]
185,77,12341,5,0,0:0:0:0:
288,45,13110,1,0,0:0:0:0:
396,68,13880,2,0,P|432:191|355:274,1,249.999984105428
188,315,15290,6,0,L|113:326,4,49.9999968210857
126,236,16059,2,0,L|177:231,4,49.9999968210857
122,116,16957,2,0,P|261:38|394:85,1,299.999980926514
467,192,18495,5,0,0:0:0:0:
255,339,19264,1,0,0:0:0:0:
146,321,20034,2,0,P|114:218|164:143,1,200.999977713014
366,101,21571,5,0,0:0:0:0:
434,175,21956,1,0,0:0:0:0:
383,260,22341,1,0,0:0:0:0:
284,294,22725,1,0,0:0:0:0:
166,285,23110,2,0,P|91:209|70:113,1,200.999977713014
280,37,24264,5,0,0:0:0:0:
287,45,24392,1,0,0:0:0:0:
293,53,24520,1,0,0:0:0:0:
302,64,24648,2,0,L|416:66,1,100.499988856507
342,149,25417,2,0,B|413:62,1,100.499988856507
405,71,26187,2,0,L|404:284,1,200.999977713014
157,254,27341,6,0,L|211:267,3,33.4999962855023
172,346,28110,6,0,L|139:339,3,33.4999962855023
297,151,29264,5,0,0:0:0:0:
297,233,29648,1,0,0:0:0:0:
215,233,30033,1,0,0:0:0:0:
215,151,30417,1,0,0:0:0:0:
295,86,30802,6,0,B|383:164|381:163,1,100.499988856507
362,231,31571,2,0,B|284:318|284:317,1,100.499988856507
216,306,32341,2,0,B|135:220,1,100.499988856507,0|0,0:0|0:0,2:0:0:0:
197,84,33110,1,0,0:0:0:0:
393,174,33879,6,0,L|393:225,3,33.4999962855023
483,208,34648,2,0,L|483:175,3,33.4999962855023
256,315,35417,5,0,0:0:0:0:
256,64,36187,1,0,0:0:0:0:
101,295,49264,5,0,0:0:0:0:
383,89,50417,6,0,L|364:62,6,33.4999962855023
416,183,51443,2,4,P|417:252|364:294,1,125.624986070634
222,305,51956,6,0,L|261:319,6,33.4999962855023
98,255,53110,1,0,0:0:0:0:
170,114,53494,6,0,L|147:138,6,33.4999962855023
285,40,54520,2,4,P|370:52|385:110,1,119.999988708497,4|4,0:0|0:0,0:3:0:0:
431,170,55033,6,0,L|448:214,3,33.4999962855023
415,308,55802,1,0,0:0:0:0:
222,317,56443,6,0,L|190:312,7,25.1249972141268
103,276,57597,2,4,P|52:217|74:165,1,119.999988708497,4|4,0:0|0:0,0:3:0:0:
131,92,58110,5,0,0:0:0:0:
137,87,58238,1,0,0:0:0:0:
143,82,58366,1,0,0:0:0:0:
150,77,58494,1,0,0:0:0:0:
156,73,58623,1,0,0:0:0:0:
163,68,58751,1,0,0:0:0:0:
169,63,58879,2,0,P|225:36|284:39,1,99.9999936421713
434,89,59648,6,0,B|493:131|511:173,6,62.9999940719607
334,342,61187,6,0,P|389:313|396:244,1,119.999988708497
153,263,61571,6,0,P|165:276|181:285,3,37.4999976158143
144,256,62052,2,0,P|124:205|127:193,4,37.4999976158143
121,184,62725,1,0,0:0:0:0:
369,136,63110,6,0,P|345:108|321:92,3,37.4999976158143
375,152,63591,2,0,P|382:179|373:200,4,37.4999976158143
365,225,64264,1,0,0:0:0:0:
213,296,64648,6,0,P|253:304|281:295,3,37.4999976158143
190,285,65129,2,0,P|152:255|143:234,4,37.4999976158143
132,183,65802,1,0,0:0:0:0:
169,143,65994,1,0,0:0:0:0:
284,131,66187,6,0,P|253:128|217:140,3,37.4999976158143
320,149,66667,2,0,P|340:166|341:197,4,37.4999976158143
332,260,67341,1,0,0:0:0:0:
184,248,67725,6,0,P|131:300|60:319,2,149.999990463257
216,176,68879,2,0,L|240:128,4,37.4999976158143
296,176,69456,2,0,L|279:209,2,37.4999976158143
368,104,70033,1,0,0:0:0:0:
424,192,70417,1,0,0:0:0:0:
354,294,70802,6,0,L|330:322,6,37.4999976158143
282,248,71571,2,0,L|306:220,6,37.4999976158143
200,272,72341,2,0,P|112:264|80:192,1,149.999990463257
72,137,73110,2,0,P|129:69|206:84,1,149.999990463257
285,101,73879,1,0,0:0:0:0:
235,340,74264,6,2,B|74:319|74:319|111:178,1,299.999980926514
171,253,75417,1,2,0:0:0:0:
308,48,75802,6,2,B|469:68|469:68|432:210,1,299.999980926514
371,133,76956,1,2,0:0:0:0:
97,192,77341,6,2,B|88:183|189:154|264:188,1,149.999990463257
99,193,78110,2,2,P|193:247|277:231,1,149.999990463257
331,204,78879,5,2,0:0:0:0:
420,113,79264,1,2,0:0:0:0:
296,82,79648,1,2,0:0:0:0:
91,97,80033,6,0,L|57:163,3,49.9999968210857
214,144,80802,2,12,B|304:159|304:159|197:227|197:227|285:242,1,299.999980926514
351,302,81571,5,0,0:0:0:0:
438,227,81956,1,0,0:0:0:0:
407,84,82341,2,4,P|336:67|274:72,1,129.999985783896
246,78,82725,2,4,B|198:104|171:122,1,74.9999980926514
53,221,83110,6,0,P|65:275|92:279,6,62.4999960263571
127,339,83879,1,0,0:0:0:0:
227,347,84264,1,0,0:0:0:0:
350,335,84648,6,0,P|410:285|426:212,1,130.499992798233
429,132,85417,2,0,P|396:80|352:36,3,96.4999915455503
62,130,86571,6,0,L|68:207,1,72.3749936591628
401,74,87341,6,0,L|382:47,6,33.4999962855023
436,166,88366,2,4,P|437:235|384:277,1,125.624986070634
262,313,88879,6,0,B|123:333|123:333|147:272,1,202.499987897873
160,149,89648,1,0,0:0:0:0:
253,76,90033,1,0,0:0:0:0:
368,71,90417,6,0,L|398:89,6,33.4999962855023
467,149,91443,2,4,P|468:218|425:269,1,119.999988708497
239,327,91956,1,0,0:0:0:0:
226,322,92084,1,0,0:0:0:0:
212,318,92212,1,0,0:0:0:0:
199,313,92341,2,0,B|75:219|75:219|89:68,1,299.999980926514
245,45,93366,6,0,L|298:30,7,33.4999962855023
381,50,94520,2,4,P|431:97|453:158,1,119.999988708497
256,192,95417,12,0,96956,0:0:0:0:
192,192,97725,6,0,L|312:192,1,112.499997138977
